osu file format v14

[General]
AudioFilename: Welcome To New York - Taylor Swift.mp3
AudioLeadIn: 0
PreviewTime: 60982
Countdown: 0
SampleSet: Soft
StackLeniency: 0.7
Mode: 0
LetterboxInBreaks: 0
EpilepsyWarning: 1
WidescreenStoryboard: 1

[Editor]
Bookmarks: 88161,89187,90212,91238,92264,93289,94315,95341,158674,167136,168161
DistanceSpacing: 1
BeatDivisor: 2
GridSize: 4
TimelineZoom: 1

[Metadata]
Title:Welcome To New York
TitleUnicode:Welcome To New York
Artist:Taylor Swift
ArtistUnicode:Taylor Swift
Creator:Kareov
Version:Average
Source:
Tags:1989 pop ryan tedder new york city nyc
BeatmapID:668236
BeatmapSetID:281889

[Difficulty]
HPDrainRate:5
CircleSize:4
OverallDifficulty:4
ApproachRate:5
SliderMultiplier:1.2
SliderTickRate:1

[Events]
//Background and Video events
0,0,"Taylor-Swift-1989111.jpg",0,0
//Break Periods
2,44771,51577
2,85597,86448
2,104059,111064
2,145284,156192
//Storyboard Layer 0 (Background)
//Storyboard Layer 1 (Fail)
//Storyboard Layer 2 (Pass)
//Storyboard Layer 3 (Foreground)
//Storyboard Sound Samples

[TimingPoints]
1495,512.820512820513,4,2,1,70,1,0
60982,-100,4,2,1,70,0,1
85597,-100,4,2,1,70,0,0
120469,-100,4,2,1,70,0,1
145084,-100,4,2,1,70,0,0
159443,-100,4,2,1,40,0,0
165084,-100,4,2,1,5,0,0
165597,-100,4,2,1,70,0,1
182007,-100,4,2,1,70,0,0
190212,-100,4,2,1,70,0,1
191238,-100,4,2,1,70,0,0

[Colours]
Combo1 : 255,128,64
Combo2 : 128,128,192
Combo3 : 255,128,192
Combo4 : 0,128,192
Combo5 : 0,255,128

[HitObjects]
128,136,3546,6,0,B|128:200|168:248,1,120,0|8,0:0|0:0,0:0:0:0:
256,312,4571,1,0,0:0:0:0:
344,246,5084,2,0,B|384:200|384:136,1,120,8|0,0:0|0:0,0:0:0:0:
320,48,6110,2,0,P|248:40|196:68,1,120,8|0,0:0|0:0,0:0:0:0:
156,40,6879,1,8,0:0:0:0:
156,40,7136,1,8,0:0:0:0:
120,128,7648,5,0,0:0:0:0:
124,248,8161,2,0,B|188:240|225:183,1,120,8|0,0:0|0:0,0:0:0:0:
344,196,9187,1,8,0:0:0:0:
332,316,9700,2,0,L|460:308,1,120,0|8,0:0|0:0,0:0:0:0:
444,188,10725,2,0,L|448:108,1,60,0|8,0:0|0:0,0:0:0:0:
440,72,11238,1,8,0:0:0:0:
308,60,11751,5,0,0:0:0:0:
256,40,12007,1,0,0:0:0:0:
204,60,12264,2,0,P|164:92|164:156,2,120,8|0|8,0:0|0:0|0:0,0:0:0:0:
256,156,13802,2,0,L|256:276,1,120,0|8,0:0|0:0,0:0:0:0:
232,332,14571,2,0,L|168:352,1,60
116,344,15084,2,0,L|58:326,1,60,8|8,0:0|0:0,0:0:0:0:
132,244,15853,5,0,0:0:0:0:
116,192,16110,1,0,0:0:0:0:
132,140,16366,2,0,P|172:96|172:36,2,120,8|0|8,0:0|0:0|0:0,0:0:0:0:
212,216,17905,1,0,0:0:0:0:
256,248,18161,1,0,0:0:0:0:
300,216,18418,2,0,P|316:192|320:160,1,60,8|0,0:0|0:0,0:0:0:0:
356,124,18930,2,0,L|356:64,2,60,0|8|8,0:0|0:0|0:0,0:0:0:0:
440,192,19956,5,8,3:0:0:0:
388,284,20469,2,0,P|360:308|324:312,1,60,8|0,0:0|0:0,0:0:0:0:
284,300,20982,1,0,0:0:0:0:
188,256,21495,2,0,P|152:240|112:240,1,60,8|0,0:0|0:0,0:0:0:0:
84,264,22007,2,0,L|88:204,1,60
92,152,22520,1,8,0:0:0:0:
200,136,23033,2,0,B|228:120|264:120,2,60,0|8|8,0:0|0:0|0:0,0:0:0:0:
256,228,24059,5,8,3:0:0:0:
312,320,24571,2,0,L|372:348,2,60,8|0|0,0:0|0:0|0:0,0:0:0:0:
200,320,25597,2,0,L|140:348,2,60,8|0|0,0:0|0:0|0:0,0:0:0:0:
184,216,26623,2,0,P|236:172|328:216,1,180,8|8,0:0|0:0,0:0:0:0:
348,264,27648,2,0,L|372:320,1,60,8|0,0:0|0:0,0:0:0:0:
424,336,28161,5,0,0:0:0:0:
456,232,28674,1,10,0:0:0:0:
424,128,29187,2,0,P|416:68|420:8,2,120,0|8|0,0:0|0:0|0:0,0:0:0:0:
316,144,30725,1,8,0:0:0:0:
332,252,31238,2,0,P|336:280|336:312,2,60,0|8|8,0:0|0:0|0:0,0:0:0:0:
228,276,32264,5,0,0:0:0:0:
124,244,32777,2,0,P|92:232|60:232,2,60,8|0|0,0:0|0:0|0:0,0:0:0:0:
124,140,33802,2,0,P|92:152|60:152,2,60,8|0|0,0:0|0:0|0:0,0:0:0:0:
200,64,34828,2,0,B|256:40|256:40|312:64,1,120,8|0,0:0|0:0,0:0:0:0:
340,108,35597,2,8,L|364:172,1,60
388,268,36366,5,0,0:0:0:0:
388,268,36623,1,0,0:0:0:0:
388,268,36879,2,0,P|392:328|352:368,2,120,8|0|8,0:0|0:0|0:0,0:0:0:0:
280,280,38418,1,0,0:0:0:0:
280,280,38674,1,0,0:0:0:0:
280,280,38930,2,0,P|276:220|316:180,2,120,8|0|8,0:0|0:0|0:0,0:0:0:0:
180,320,40469,6,0,L|120:332,1,60
76,304,40982,2,8,B|56:244|80:184|132:160|184:168|224:212,1,240
256,104,42520,1,0,0:0:0:0:
298,201,43033,2,8,B|328:168|380:160|432:184|456:244|436:304,1,240
336,344,44571,1,4,0:0:0:0:
256,344,52777,6,8,B|188:360|156:296,1,120
156,188,53802,2,8,B|224:172|256:236,1,120
356,188,54828,2,8,B|288:172|256:236,1,120
355,297,55853,2,8,B|324:360|256:344,1,120
160,288,56879,6,8,B|96:256|84:192|96:128|160:96,1,240
256,148,58418,1,8,0:0:0:0:
352,96,58930,2,8,B|416:128|428:192|416:256|352:288,1,240
256,340,60469,5,8,0:0:0:0:
204,352,60725,1,8,0:0:0:0:
152,336,60982,2,0,P|112:292|112:232,2,120,4|0|0,0:0|1:1|0:0,0:0:0:0:
200,240,62520,1,8,0:0:0:0:
200,240,62777,1,0,0:0:0:0:
200,240,63033,2,0,P|198:181|159:138,2,120,0|8|0,0:0|0:0|0:0,0:0:0:0:
188,292,64315,2,8,P|192:320|192:364,1,60
96,304,65084,5,2,0:0:0:0:
72,200,65597,1,8,0:0:0:0:
92,152,65853,1,0,0:0:0:0:
120,104,66110,2,0,P|140:48|196:32,1,120,0|8,0:0|0:0,0:0:0:0:
256,120,67136,1,2,0:0:0:0:
318,31,67648,2,0,P|373:49|392:104,1,120,8|0,0:0|0:0,0:0:0:0:
420,152,68418,1,8,0:0:0:0:
440,200,68674,2,8,L|440:268,1,60,8|0,0:0|0:0,0:0:0:0:
440,316,69187,6,0,B|384:340|384:296|324:320,2,120,4|8|0,0:0|0:0|0:0,0:0:0:0:
376,232,70725,2,0,B|432:256|432:212|492:236,2,120,8|0|8,0:0|0:0|0:0,0:0:0:0:
368,180,72007,2,0,P|360:152|360:120,1,60
412,104,72520,2,8,P|420:76|420:44,1,60
312,40,73289,5,2,0:0:0:0:
200,40,73802,1,8,0:0:0:0:
256,132,74315,2,0,L|256:252,1,120,0|8,0:0|0:0,0:0:0:0:
168,192,75341,5,2,0:0:0:0:
168,300,75853,2,0,P|192:324|208:352,1,60,8|0,0:0|0:0,0:0:0:0:
256,360,76366,1,0,0:0:0:0:
306,346,76623,2,8,P|322:320|344:300,1,60
432,236,77392,6,0,P|436:204|432:172,1,60,4|0,0:0|0:0,0:0:0:0:
380,168,77905,2,0,P|376:136|380:104,1,60,8|0,0:0|0:0,0:0:0:0:
424,80,78418,1,0,0:0:0:0:
328,28,78930,1,8,0:0:0:0:
224,56,79443,2,0,L|100:64,1,120,0|8,0:0|0:0,0:0:0:0:
92,172,80469,2,0,L|160:168,2,60,0|8|8,0:0|0:0|0:0,0:0:0:0:
140,268,81495,6,0,P|176:304|248:296,1,120,2|8,0:0|0:0,0:0:0:0:
340,256,82520,1,0,0:0:0:0:
436,304,83033,2,0,P|456:332|460:364,2,60,8|0|8,0:0|0:0|0:0,0:0:0:0:
432,252,83802,2,0,P|424:220|428:184,1,60,8|8,0:0|0:0,0:0:0:0:
340,128,84571,2,0,L|340:68,2,60,0|8|8,0:0|0:0|0:0,0:0:0:0:
256,244,87648,6,0,P|200:264|168:312,2,120,0|2|0,0:0|0:0|0:0,0:0:0:0:
352,296,89187,1,2,0:0:0:0:
352,296,89443,1,0,0:0:0:0:
352,296,89700,2,0,P|408:276|440:228,2,120,0|2|0,0:0|0:0|0:0,0:0:0:0:
336,188,91238,2,0,L|336:128,1,60,2|0,0:0|0:0,0:0:0:0:
312,80,91751,6,0,P|308:44|308:12,1,60
256,12,92264,1,2,0:0:0:0:
204,20,92520,2,0,P|203:50|200:80,1,60
208,188,93289,2,0,L|192:248,2,60,2|0|0,0:0|0:0|0:0,0:0:0:0:
256,164,94059,1,0,0:0:0:0:
304,188,94315,2,0,L|320:248,2,60,2|0|0,0:0|0:0|0:0,0:0:0:0:
308,80,95341,1,2,0:0:0:0:
204,80,95853,5,4,0:0:0:0:
112,132,96366,2,8,P|100:252|180:332,1,240
256,256,97905,1,0,0:0:0:0:
333,331,98418,2,8,L|428:256,1,120,8|0,0:0|0:0,0:0:0:0:
448,200,99187,1,8,0:0:0:0:
448,200,99443,1,8,0:0:0:0:
400,92,99956,5,2,0:0:0:0:
300,28,100469,1,8,0:0:0:0:
272,144,100982,1,0,0:0:0:0:
368,216,101495,2,0,L|408:260,1,60,8|0,0:0|0:0,0:0:0:0:
364,300,102007,2,0,L|254:348,1,120,8|8,0:0|0:0,0:0:0:0:
144,300,103033,1,8,0:0:0:0:
100,260,103289,1,0,0:0:0:0:
84,204,103546,1,8,0:0:0:0:
196,112,112264,5,8,0:0:0:0:
336,132,112777,1,8,0:0:0:0:
316,272,113289,1,8,0:0:0:0:
176,252,113802,1,8,0:0:0:0:
240,340,114315,5,8,0:0:0:0:
348,344,114828,1,8,0:0:0:0:
456,348,115341,2,8,L|480:224,1,120
440,132,116366,6,8,P|420:72|376:40,1,120
324,56,117136,1,0,0:0:0:0:
272,72,117392,1,8,0:0:0:0:
164,56,117905,2,0,L|96:56,1,60,8|0,0:0|0:0,0:0:0:0:
68,96,118418,2,0,L|68:156,2,60,8|0|8,0:0|0:0|0:0,0:0:0:0:
372,140,121495,6,0,P|424:132|496:140,2,120,0|8|0,0:0|0:0|0:0,0:0:0:0:
316,232,123033,1,8,0:0:0:0:
276,268,123289,1,0,0:0:0:0:
224,276,123546,2,0,L|164:276,1,60,0|8,0:0|0:0,0:0:0:0:
132,320,124059,2,0,L|72:320,1,60,8|0,0:0|0:0,0:0:0:0:
52,272,124571,6,0,B|24:212|52:156,1,120,2|8,0:0|0:0,0:0:0:0:
124,76,125597,1,0,0:0:0:0:
124,76,125853,2,0,L|192:64,1,60,0|8,0:0|0:0,0:0:0:0:
292,72,126623,6,0,B|320:132|292:188,1,120,2|8,0:0|0:0,0:0:0:0:
220,268,127649,1,0,0:0:0:0:
220,268,127905,2,8,L|152:280,1,60
112,256,128418,1,0,0:0:0:0:
72,220,128674,6,0,P|32:176|32:116,2,120,4|8|0,0:0|0:0|0:0,0:0:0:0:
144,140,130212,1,8,0:0:0:0:
244,96,130725,1,2,0:0:0:0:
348,72,131238,2,0,L|444:72,2,60,8|0|8,0:0|0:0|0:0,0:0:0:0:
332,124,132007,1,8,0:0:0:0:
316,176,132264,1,8,0:0:0:0:
336,284,132777,6,0,P|280:308|224:284,1,120,2|8,0:0|0:0,0:0:0:0:
176,280,133546,2,0,P|164:220|56:196,1,180,0|8,0:0|0:0,0:0:0:0:
40,88,134828,6,0,P|100:72|164:68,1,120,0|8,0:0|0:0,0:0:0:0:
204,92,135597,2,0,P|264:112|364:64,1,180,0|8,0:0|0:0,0:0:0:0:
416,52,136623,1,0,0:0:0:0:
464,72,136879,6,0,L|476:136,1,60,4|0,0:0|0:0,0:0:0:0:
440,172,137392,2,0,L|436:236,1,60,8|0,0:0|0:0,0:0:0:0:
460,280,137905,1,0,0:0:0:0:
356,312,138418,1,4,0:0:0:0:
264,256,138930,2,0,L|144:256,2,120,0|8|0,0:0|0:0|0:0,0:0:0:0:
304,156,140469,2,0,L|364:156,2,60,8|0|8,0:0|0:0|0:0,0:0:0:0:
224,84,141495,5,8,0:0:0:0:
128,136,142007,2,8,P|108:84|128:24,2,120
160,180,143289,2,0,L|172:248,1,60,0|8,0:0|0:0,0:0:0:0:
196,344,144059,2,0,L|260:364,2,60,0|8|8,0:0|0:0|0:0,0:0:0:0:
96,308,145084,5,2,0:0:0:0:
308,140,157392,6,0,L|356:104,2,60,0|0|0,1:0|0:0|1:0,0:0:0:0:
256,124,158161,1,0,0:0:0:0:
204,140,158418,2,0,L|156:104,2,60,0|0|0,1:0|0:0|1:0,0:0:0:0:
140,228,159443,6,0,L|124:288,1,60,8|0,3:0|0:0,0:0:0:0:
180,276,159956,2,0,L|212:328,1,60,8|0,3:0|0:0,0:0:0:0:
256,296,160469,1,8,3:0:0:0:
300,327,160725,2,0,L|332:276,1,60,0|8,3:0|3:0,0:0:0:0:
387,285,161238,2,0,L|372:228,1,60
356,152,165597,6,0,B|364:128|352:92,1,60,4|0,0:0|0:0,0:0:0:0:
312,128,166110,2,0,B|304:152|316:188,1,60,8|0,0:0|0:0,0:0:0:0:
336,236,166623,2,0,B|296:220|256:248|216:228,1,120,0|8,0:0|0:0,0:0:0:0:
116,192,167648,1,0,0:0:0:0:
84,88,168161,2,0,P|108:64|136:52,1,60,8|0,0:0|0:0,0:0:0:0:
176,84,168674,2,0,P|200:108|228:120,1,60,0|8,0:0|0:0,0:0:0:0:
272,96,169187,2,0,L|332:84,1,60,8|0,0:0|0:0,0:0:0:0:
384,68,169700,5,4,0:0:0:0:
456,148,170212,1,8,0:0:0:0:
424,192,170469,2,0,L|416:252,1,60
308,244,171238,1,8,0:0:0:0:
340,288,171495,2,0,L|348:348,1,60
296,352,172007,2,0,P|264:344|232:344,1,60,0|8,0:0|0:0,0:0:0:0:
144,288,172777,1,0,0:0:0:0:
96,264,173033,1,8,0:0:0:0:
72,216,173289,1,8,0:0:0:0:
60,108,173802,6,0,B|88:60|156:40|200:120|272:112|284:40,1,240,4|2,0:0|0:0,0:0:0:0:
380,40,175341,1,8,0:0:0:0:
448,124,175853,2,0,B|484:176|464:240,1,120,0|8,0:0|0:0,0:0:0:0:
368,288,176879,2,0,P|360:260|360:228,2,60,0|8|8,0:0|0:0|0:0,0:0:0:0:
272,340,177905,5,4,0:0:0:0:
176,292,178418,2,0,B|176:232|176:232|136:184,1,120,8|0,0:0|0:0,0:0:0:0:
72,100,179443,2,0,P|88:76|120:52,1,60,8|0,0:0|0:0,0:0:0:0:
152,92,179956,2,0,P|175:73|191:48,1,60
244,44,180469,2,0,B|312:40|344:104,2,120,8|0|8,0:0|0:0|0:0,0:0:0:0:
256,152,182007,5,12,0:0:0:0:
176,232,182520,2,8,B|152:292|180:348,1,120,8|0,0:0|0:0,0:0:0:0:
256,272,183546,1,8,0:0:0:0:
332,348,184059,2,0,B|360:292|336:232,1,120,0|8,0:0|0:0,0:0:0:0:
256,160,185084,2,0,L|256:40,1,120,0|8,0:0|0:0,0:0:0:0:
360,72,186110,5,4,0:0:0:0:
440,148,186623,2,0,P|464:132|488:104,2,60,8|0|0,0:0|0:0|0:0,0:0:0:0:
396,180,187392,2,0,P|392:208|392:244,2,60,0|8|0,0:0|0:0|0:0,0:0:0:0:
392,124,188161,1,2,0:0:0:0:
284,124,188674,2,0,L|188:124,1,60,8|0,0:0|0:0,0:0:0:0:
208,72,189187,2,0,L|84:72,1,120,0|8,0:0|0:0,0:0:0:0:
64,176,190212,5,4,0:0:0:0:
72,180,190725,1,4,0:0:0:0:
80,184,191238,1,4,0:0:0:0:
88,188,191751,2,0,L|76:248,1,60,8|0,0:0|0:0,0:0:0:0:
76,300,192264,2,0,P|136:288|188:316,1,120,0|8,0:0|0:0,0:0:0:0:
236,336,193033,2,0,L|320:344,1,60
328,300,193546,2,8,L|387:294,1,60
416,192,194315,5,0,0:0:0:0:
352,104,194828,1,8,0:0:0:0:
256,56,195341,1,0,0:0:0:0:
160,104,195853,1,8,0:0:0:0:
96,192,196366,1,4,0:0:0:0:
256,192,196623,12,0,198418,0:0:0:0:
