osu file format v14

[General]
AudioFilename: audio.mp3
AudioLeadIn: 0
PreviewTime: 45405
Countdown: 0
SampleSet: Normal
StackLeniency: 0.7
Mode: 1
LetterboxInBreaks: 0
WidescreenStoryboard: 0

[Editor]
Bookmarks: 15405,30405,45405,60405,67905,75405,90405,105405,120405,127905,135405,142905,150405
DistanceSpacing: 0.8
BeatDivisor: 2
GridSize: 32
TimelineZoom: 1.78

[Metadata]
Title:Look What You Made Me Do
TitleUnicode:Look What You Made Me Do
Artist:Taylor Swift
ArtistUnicode:Taylor Swift
Creator:Blackener
Version:Look What Roger Made Me Play
Source:
Tags:reputation english pop electropop‎ synth-pop Roger ][ -GH- ][
BeatmapID:2212658
BeatmapSetID:1056621

[Difficulty]
HPDrainRate:6
CircleSize:2
OverallDifficulty:6
ApproachRate:0
SliderMultiplier:1.4
SliderTickRate:1

[Events]
//Background and Video events
0,0,"Reputation.jpg",0,50
//Break Periods
//Storyboard Layer 0 (Background)
//Storyboard Layer 1 (Fail)
//Storyboard Layer 2 (Pass)
//Storyboard Layer 3 (Foreground)
//Storyboard Layer 4 (Overlay)
//Storyboard Sound Samples

[TimingPoints]
15405,468.75,4,1,0,60,1,0
15405,-125,4,1,0,60,0,0
29819,-83.3333333333333,4,1,0,80,0,0
30053,-125,4,1,0,60,0,0
30405,-111.111111111111,4,1,0,70,0,0
37084,-76.9230769230769,4,1,0,80,0,0
37319,-76.9230769230769,4,1,0,90,0,0
37553,-111.111111111111,4,1,0,70,0,0
44584,-90.9090909090909,4,1,0,80,0,0
44819,-76.9230769230769,4,1,0,90,0,0
45053,-111.111111111111,4,1,0,70,0,0
45405,-90.9090909090909,4,1,0,80,0,0
57123,-111.111111111111,4,1,0,70,0,0
58647,-108.695652173913,4,1,0,70,0,0
58764,-106.382978723404,4,1,0,70,0,0
58881,-104.166666666667,4,1,0,70,0,0
58998,-102.040816326531,4,1,0,75,0,0
59115,-100,4,1,0,75,0,0
59233,-98.0392156862745,4,1,0,75,0,0
59350,-96.1538461538461,4,1,0,75,0,0
59467,-94.3396226415094,4,1,0,80,0,0
59584,-92.5925925925926,4,1,0,80,0,0
59701,-90.9090909090909,4,1,0,80,0,0
59819,-89.2857142857143,4,1,0,80,0,0
59936,-70.4225352112676,4,1,0,90,0,0
60287,-70.4225352112676,4,1,0,70,0,0
60405,-90.9090909090909,4,1,0,70,0,1
60522,-90.9090909090909,4,1,0,60,0,1
67846,-90.9090909090909,4,1,0,70,0,1
68022,-90.9090909090909,4,1,0,60,0,1
73530,-90.9090909090909,4,1,0,60,0,0
75405,-125,4,1,0,60,0,0
90405,-111.111111111111,4,1,0,70,0,0
97905,-100,4,1,0,70,0,0
104350,-76.9230769230769,4,1,0,80,0,0
104584,-100,4,1,0,70,0,0
104819,-76.9230769230769,4,1,0,80,0,0
105053,-100,4,1,0,70,0,0
105405,-125,4,1,0,50,0,0
109155,-100,4,1,0,60,0,0
112905,-76.9230769230769,4,1,0,70,0,0
116655,-58.8235294117647,4,1,0,80,0,0
118530,-100,4,1,0,5,0,0
119819,-66.6666666666667,4,1,0,90,0,0
120053,-66.6666666666667,4,1,0,70,0,0
120405,-90.9090909090909,4,1,0,70,0,1
120522,-90.9090909090909,4,1,0,60,0,1
127846,-90.9090909090909,4,1,0,70,0,1
128022,-90.9090909090909,4,1,0,60,0,1
133530,-58.8235294117647,4,1,0,80,0,0
134819,-142.857142857143,4,1,0,70,0,0
135405,-83.3333333333333,4,1,0,80,0,1
135522,-83.3333333333333,4,1,0,70,0,1
142846,-83.3333333333333,4,1,0,80,0,1
143022,-83.3333333333333,4,1,0,70,0,1
148530,-83.3333333333333,4,1,0,60,0,0

[HitObjects]
256,192,15405,5,8,0:0:0:0:
256,192,15873,1,0,0:0:0:0:
256,192,16108,1,8,0:0:0:0:
256,192,16576,1,8,0:0:0:0:
256,192,16811,1,0,0:0:0:0:
256,192,17280,1,8,0:0:0:0:
256,192,17748,1,0,0:0:0:0:
256,192,17983,1,0,0:0:0:0:
256,192,18217,1,8,0:0:0:0:
256,192,18686,1,0,0:0:0:0:
256,192,19155,1,8,0:0:0:0:
256,192,19623,1,0,0:0:0:0:
256,192,19858,1,8,0:0:0:0:
256,192,20326,1,8,0:0:0:0:
256,192,20561,1,0,0:0:0:0:
256,192,21030,1,8,0:0:0:0:
256,192,21498,1,0,0:0:0:0:
256,192,21733,1,0,0:0:0:0:
256,192,21967,1,8,0:0:0:0:
256,192,22201,1,8,0:0:0:0:
256,192,22436,1,0,0:0:0:0:
256,192,22905,1,8,0:0:0:0:
256,192,23373,1,0,0:0:0:0:
256,192,23608,1,8,0:0:0:0:
256,192,24076,1,8,0:0:0:0:
256,192,24311,1,0,0:0:0:0:
256,192,24780,1,8,0:0:0:0:
256,192,25248,1,0,0:0:0:0:
256,192,25483,1,0,0:0:0:0:
256,192,25717,1,8,0:0:0:0:
256,192,26186,1,0,0:0:0:0:
256,192,26655,1,8,0:0:0:0:
256,192,27123,1,0,0:0:0:0:
256,192,27358,1,8,0:0:0:0:
256,192,27826,1,8,0:0:0:0:
256,192,28061,1,0,0:0:0:0:
256,192,28295,1,0,0:0:0:0:
256,192,28530,1,8,0:0:0:0:
256,192,28998,1,0,0:0:0:0:
256,192,29233,1,8,0:0:0:0:
256,192,29350,1,8,0:0:0:0:
256,192,29467,1,0,0:0:0:0:
256,192,29701,1,0,0:0:0:0:
256,192,29936,1,12,0:0:0:0:
256,192,30405,1,0,0:0:0:0:
256,192,30639,1,0,0:0:0:0:
256,192,30873,1,8,0:0:0:0:
256,192,31108,1,0,0:0:0:0:
256,192,31576,1,0,0:0:0:0:
256,192,31811,1,8,0:0:0:0:
256,192,32280,1,8,0:0:0:0:
256,192,32514,1,0,0:0:0:0:
256,192,32748,1,8,0:0:0:0:
256,192,32983,1,0,0:0:0:0:
256,192,33100,1,8,0:0:0:0:
256,192,33217,1,0,0:0:0:0:
256,192,33451,1,0,0:0:0:0:
256,192,33686,1,8,0:0:0:0:
256,192,34155,1,0,0:0:0:0:
256,192,34389,1,0,0:0:0:0:
256,192,34623,1,8,0:0:0:0:
256,192,34858,1,0,0:0:0:0:
256,192,35326,1,0,0:0:0:0:
256,192,35561,1,8,0:0:0:0:
256,192,36030,1,0,0:0:0:0:
256,192,36264,1,0,0:0:0:0:
256,192,36498,1,8,0:0:0:0:
256,192,36733,1,8,0:0:0:0:
256,192,36850,1,8,0:0:0:0:
256,192,36967,1,0,0:0:0:0:
256,192,37201,1,12,0:0:0:0:
256,192,37436,1,12,0:0:0:0:
256,192,37905,1,0,0:0:0:0:
256,192,38139,1,0,0:0:0:0:
256,192,38373,1,8,0:0:0:0:
256,192,38608,1,0,0:0:0:0:
256,192,39076,1,0,0:0:0:0:
256,192,39311,1,8,0:0:0:0:
256,192,39780,1,8,0:0:0:0:
256,192,40014,1,0,0:0:0:0:
256,192,40248,1,8,0:0:0:0:
256,192,40483,1,0,0:0:0:0:
256,192,40600,1,8,0:0:0:0:
256,192,40717,1,0,0:0:0:0:
256,192,40951,1,0,0:0:0:0:
256,192,41186,1,8,0:0:0:0:
256,192,41655,1,0,0:0:0:0:
256,192,41889,1,0,0:0:0:0:
256,192,42123,1,8,0:0:0:0:
256,192,42358,1,0,0:0:0:0:
256,192,42826,1,0,0:0:0:0:
256,192,43061,1,8,0:0:0:0:
256,192,43295,1,0,0:0:0:0:
256,192,43412,1,8,0:0:0:0:
256,192,43530,1,0,0:0:0:0:
256,192,43764,1,0,0:0:0:0:
256,192,43998,1,8,0:0:0:0:
256,192,44115,1,0,0:0:0:0:
256,192,44233,1,8,0:0:0:0:
256,192,44350,1,8,0:0:0:0:
256,192,44467,1,0,0:0:0:0:
256,192,44701,1,4,0:0:0:0:
256,192,44936,1,12,0:0:0:0:
256,192,45405,1,0,0:0:0:0:
256,192,45639,1,8,0:0:0:0:
256,192,45873,1,8,0:0:0:0:
256,192,46108,1,0,0:0:0:0:
256,192,46342,1,8,0:0:0:0:
256,192,46576,1,8,0:0:0:0:
256,192,46811,1,0,0:0:0:0:
256,192,47045,1,0,0:0:0:0:
256,192,47280,1,8,0:0:0:0:
256,192,47514,1,0,0:0:0:0:
256,192,47748,1,8,0:0:0:0:
256,192,47983,1,8,0:0:0:0:
256,192,48217,1,0,0:0:0:0:
256,192,48451,1,0,0:0:0:0:
256,192,48686,1,8,0:0:0:0:
256,192,49155,1,0,0:0:0:0:
256,192,49389,1,0,0:0:0:0:
256,192,49623,1,8,0:0:0:0:
256,192,49858,1,0,0:0:0:0:
256,192,50092,1,0,0:0:0:0:
256,192,50326,1,8,0:0:0:0:
256,192,50561,1,8,0:0:0:0:
256,192,50795,1,0,0:0:0:0:
256,192,51030,1,8,0:0:0:0:
256,192,51264,1,8,0:0:0:0:
256,192,51498,1,0,0:0:0:0:
256,192,51733,1,0,0:0:0:0:
256,192,51967,1,8,0:0:0:0:
256,192,52201,1,0,0:0:0:0:
256,192,52436,1,8,0:0:0:0:
256,192,52905,1,0,0:0:0:0:
256,192,53139,1,8,0:0:0:0:
256,192,53373,1,8,0:0:0:0:
256,192,53608,1,0,0:0:0:0:
256,192,53842,1,8,0:0:0:0:
256,192,54076,1,8,0:0:0:0:
256,192,54311,1,0,0:0:0:0:
256,192,54545,1,0,0:0:0:0:
256,192,54780,1,8,0:0:0:0:
256,192,55014,1,0,0:0:0:0:
256,192,55248,1,8,0:0:0:0:
256,192,55483,1,8,0:0:0:0:
256,192,55717,1,0,0:0:0:0:
256,192,55951,1,8,0:0:0:0:
256,192,56186,1,8,0:0:0:0:
256,192,56420,1,8,0:0:0:0:
256,192,56655,1,0,0:0:0:0:
256,192,57240,1,8,0:0:0:0:
256,192,57358,1,0,0:0:0:0:
256,192,57475,1,0,0:0:0:0:
256,192,57592,1,8,0:0:0:0:
256,192,57826,1,0,0:0:0:0:
256,192,58061,1,8,0:0:0:0:
256,192,58295,1,0,0:0:0:0:
256,192,58412,1,0,0:0:0:0:
256,192,58530,1,8,0:0:0:0:
256,192,58647,1,0,0:0:0:0:
256,192,58764,1,0,0:0:0:0:
256,192,58881,1,0,0:0:0:0:
256,192,58998,1,8,0:0:0:0:
256,192,59115,1,0,0:0:0:0:
256,192,59233,1,0,0:0:0:0:
256,192,59350,1,0,0:0:0:0:
256,192,59467,1,8,0:0:0:0:
256,192,59584,1,8,0:0:0:0:
256,192,59701,1,0,0:0:0:0:
256,192,59819,1,0,0:0:0:0:
256,192,59936,1,12,0:0:0:0:
256,192,60405,1,4,0:0:0:0:
256,192,60639,1,0,0:0:0:0:
256,192,60756,1,0,0:0:0:0:
256,192,60873,1,8,0:0:0:0:
256,192,60990,1,0,0:0:0:0:
256,192,61108,1,0,0:0:0:0:
256,192,61225,1,0,0:0:0:0:
256,192,61342,1,8,0:0:0:0:
256,192,61459,1,8,0:0:0:0:
256,192,61576,1,0,0:0:0:0:
256,192,61694,1,0,0:0:0:0:
256,192,61811,1,8,0:0:0:0:
256,192,61928,1,0,0:0:0:0:
256,192,62045,1,8,0:0:0:0:
256,192,62162,1,8,0:0:0:0:
256,192,62280,1,0,0:0:0:0:
256,192,62397,1,0,0:0:0:0:
256,192,62514,1,0,0:0:0:0:
256,192,62631,1,0,0:0:0:0:
256,192,62748,1,8,0:0:0:0:
256,192,62865,1,0,0:0:0:0:
256,192,62983,1,0,0:0:0:0:
256,192,63100,1,0,0:0:0:0:
256,192,63217,1,8,0:0:0:0:
256,192,63334,1,8,0:0:0:0:
256,192,63451,1,0,0:0:0:0:
256,192,63569,1,0,0:0:0:0:
256,192,63686,1,8,0:0:0:0:
256,192,63803,1,0,0:0:0:0:
256,192,63920,1,8,0:0:0:0:
256,192,64037,1,8,0:0:0:0:
256,192,64155,1,0,0:0:0:0:
256,192,64272,1,0,0:0:0:0:
256,192,64389,1,0,0:0:0:0:
256,192,64506,1,0,0:0:0:0:
256,192,64623,1,8,0:0:0:0:
256,192,64740,1,0,0:0:0:0:
256,192,64858,1,0,0:0:0:0:
256,192,64975,1,0,0:0:0:0:
256,192,65092,1,8,0:0:0:0:
256,192,65209,1,8,0:0:0:0:
256,192,65326,1,0,0:0:0:0:
256,192,65444,1,0,0:0:0:0:
256,192,65561,1,8,0:0:0:0:
256,192,65678,1,0,0:0:0:0:
256,192,65795,1,8,0:0:0:0:
256,192,65912,1,0,0:0:0:0:
256,192,66030,1,8,0:0:0:0:
256,192,66147,1,8,0:0:0:0:
256,192,66264,1,0,0:0:0:0:
256,192,66381,1,0,0:0:0:0:
256,192,66498,1,8,0:0:0:0:
256,192,66615,1,0,0:0:0:0:
256,192,66733,1,8,0:0:0:0:
256,192,66850,1,8,0:0:0:0:
256,192,66967,1,0,0:0:0:0:
256,192,67084,1,8,0:0:0:0:
256,192,67201,1,0,0:0:0:0:
256,192,67319,1,0,0:0:0:0:
256,192,67436,1,8,0:0:0:0:
256,192,67553,1,0,0:0:0:0:
256,192,67670,1,8,0:0:0:0:
256,192,67787,1,8,0:0:0:0:
256,192,67905,1,4,0:0:0:0:
256,192,68139,1,0,0:0:0:0:
256,192,68256,1,0,0:0:0:0:
256,192,68373,1,8,0:0:0:0:
256,192,68490,1,0,0:0:0:0:
256,192,68608,1,0,0:0:0:0:
256,192,68725,1,0,0:0:0:0:
256,192,68842,1,8,0:0:0:0:
256,192,68959,1,8,0:0:0:0:
256,192,69076,1,0,0:0:0:0:
256,192,69194,1,0,0:0:0:0:
256,192,69311,1,8,0:0:0:0:
256,192,69428,1,0,0:0:0:0:
256,192,69545,1,8,0:0:0:0:
256,192,69662,1,8,0:0:0:0:
256,192,69780,1,0,0:0:0:0:
256,192,69897,1,0,0:0:0:0:
256,192,70014,1,0,0:0:0:0:
256,192,70131,1,0,0:0:0:0:
256,192,70248,1,8,0:0:0:0:
256,192,70365,1,0,0:0:0:0:
256,192,70483,1,0,0:0:0:0:
256,192,70600,1,0,0:0:0:0:
256,192,70717,1,8,0:0:0:0:
256,192,70834,1,8,0:0:0:0:
256,192,70951,1,0,0:0:0:0:
256,192,71069,1,0,0:0:0:0:
256,192,71186,1,8,0:0:0:0:
256,192,71303,1,0,0:0:0:0:
256,192,71420,1,8,0:0:0:0:
256,192,71537,1,8,0:0:0:0:
256,192,71655,1,0,0:0:0:0:
256,192,71772,1,0,0:0:0:0:
256,192,71889,1,0,0:0:0:0:
256,192,72006,1,0,0:0:0:0:
256,192,72123,1,8,0:0:0:0:
256,192,72240,1,0,0:0:0:0:
256,192,72358,1,8,0:0:0:0:
256,192,72475,1,8,0:0:0:0:
256,192,72592,1,0,0:0:0:0:
256,192,72709,1,0,0:0:0:0:
256,192,72826,1,0,0:0:0:0:
256,192,72944,1,0,0:0:0:0:
256,192,73061,1,8,0:0:0:0:
256,192,73178,1,0,0:0:0:0:
256,192,73295,1,8,0:0:0:0:
256,192,73412,1,8,0:0:0:0:
256,192,73530,1,0,0:0:0:0:
256,192,75405,1,8,0:0:0:0:
256,192,75873,1,0,0:0:0:0:
256,192,76108,1,0,0:0:0:0:
256,192,76342,1,8,0:0:0:0:
256,192,76811,1,0,0:0:0:0:
256,192,77045,1,0,0:0:0:0:
256,192,77280,1,8,0:0:0:0:
256,192,77514,1,8,0:0:0:0:
256,192,77748,1,0,0:0:0:0:
256,192,78217,1,8,0:0:0:0:
256,192,79155,1,8,0:0:0:0:
256,192,79389,1,0,0:0:0:0:
256,192,79623,1,0,0:0:0:0:
256,192,79858,1,0,0:0:0:0:
256,192,80092,1,8,0:0:0:0:
256,192,80561,1,0,0:0:0:0:
256,192,81030,1,8,0:0:0:0:
256,192,81498,1,0,0:0:0:0:
256,192,81733,1,0,0:0:0:0:
256,192,81967,1,8,0:0:0:0:
256,192,82436,1,0,0:0:0:0:
256,192,82905,1,8,0:0:0:0:
256,192,83373,1,0,0:0:0:0:
256,192,83608,1,0,0:0:0:0:
256,192,83842,1,8,0:0:0:0:
256,192,84311,1,0,0:0:0:0:
256,192,84545,1,0,0:0:0:0:
256,192,84780,1,8,0:0:0:0:
256,192,85014,1,8,0:0:0:0:
256,192,85248,1,0,0:0:0:0:
256,192,85717,1,8,0:0:0:0:
256,192,86186,1,0,0:0:0:0:
256,192,86655,1,8,0:0:0:0:
256,192,86889,1,0,0:0:0:0:
256,192,87123,1,0,0:0:0:0:
256,192,87358,1,0,0:0:0:0:
256,192,87592,1,8,0:0:0:0:
256,192,88061,1,0,0:0:0:0:
256,192,88530,1,8,0:0:0:0:
256,192,88998,1,0,0:0:0:0:
256,192,89233,1,0,0:0:0:0:
256,192,89467,1,8,0:0:0:0:
256,192,89936,1,0,0:0:0:0:
256,192,90405,1,8,0:0:0:0:
256,192,90873,1,0,0:0:0:0:
256,192,91108,1,0,0:0:0:0:
256,192,91342,1,8,0:0:0:0:
256,192,91576,1,0,0:0:0:0:
256,192,91811,1,8,0:0:0:0:
256,192,92045,1,0,0:0:0:0:
256,192,92280,1,8,0:0:0:0:
256,192,92514,1,8,0:0:0:0:
256,192,92748,1,0,0:0:0:0:
256,192,93217,1,8,0:0:0:0:
256,192,93686,1,0,0:0:0:0:
256,192,94155,1,8,0:0:0:0:
256,192,94389,1,8,0:0:0:0:
256,192,94623,1,0,0:0:0:0:
256,192,94858,1,0,0:0:0:0:
256,192,95092,1,8,0:0:0:0:
256,192,95326,1,0,0:0:0:0:
256,192,95561,1,0,0:0:0:0:
256,192,96030,1,8,0:0:0:0:
256,192,96264,1,0,0:0:0:0:
256,192,96498,1,8,0:0:0:0:
256,192,96733,1,0,0:0:0:0:
256,192,96967,1,8,0:0:0:0:
256,192,97436,1,0,0:0:0:0:
256,192,97905,1,8,0:0:0:0:
256,192,98139,1,0,0:0:0:0:
256,192,98373,1,0,0:0:0:0:
256,192,98608,1,0,0:0:0:0:
256,192,98842,1,8,0:0:0:0:
256,192,99076,1,0,0:0:0:0:
256,192,99311,1,8,0:0:0:0:
256,192,99545,1,0,0:0:0:0:
256,192,99780,1,8,0:0:0:0:
256,192,100014,1,8,0:0:0:0:
256,192,100248,1,0,0:0:0:0:
256,192,100717,1,8,0:0:0:0:
256,192,101186,1,0,0:0:0:0:
256,192,101655,1,8,0:0:0:0:
256,192,101889,1,8,0:0:0:0:
256,192,102123,1,0,0:0:0:0:
256,192,102358,1,0,0:0:0:0:
256,192,102592,1,8,0:0:0:0:
256,192,102826,1,0,0:0:0:0:
256,192,103061,1,0,0:0:0:0:
256,192,103295,1,0,0:0:0:0:
256,192,103530,1,8,0:0:0:0:
256,192,103764,1,0,0:0:0:0:
256,192,103998,1,8,0:0:0:0:
256,192,104233,1,0,0:0:0:0:
256,192,104467,1,12,0:0:0:0:
256,192,104936,1,12,0:0:0:0:
96,96,105405,2,0,L|160:96,15,56
96,192,109155,2,0,L|192:192,15,70
96,288,112905,2,0,L|192:288,15,90.9999958343508
256,192,116655,12,0,118530,0:0:0:0:
256,192,119936,5,12,0:0:0:0:
256,192,120405,1,4,0:0:0:0:
256,192,120639,1,0,0:0:0:0:
256,192,120756,1,0,0:0:0:0:
256,192,120873,1,8,0:0:0:0:
256,192,120990,1,0,0:0:0:0:
256,192,121108,1,0,0:0:0:0:
256,192,121225,1,0,0:0:0:0:
256,192,121342,1,8,0:0:0:0:
256,192,121459,1,8,0:0:0:0:
256,192,121576,1,0,0:0:0:0:
256,192,121694,1,0,0:0:0:0:
256,192,121811,1,8,0:0:0:0:
256,192,121928,1,0,0:0:0:0:
256,192,122045,1,8,0:0:0:0:
256,192,122162,1,8,0:0:0:0:
256,192,122280,1,0,0:0:0:0:
256,192,122397,1,0,0:0:0:0:
256,192,122514,1,0,0:0:0:0:
256,192,122631,1,0,0:0:0:0:
256,192,122748,1,8,0:0:0:0:
256,192,122865,1,0,0:0:0:0:
256,192,122983,1,0,0:0:0:0:
256,192,123100,1,0,0:0:0:0:
256,192,123217,1,8,0:0:0:0:
256,192,123334,1,8,0:0:0:0:
256,192,123451,1,0,0:0:0:0:
256,192,123569,1,0,0:0:0:0:
256,192,123686,1,8,0:0:0:0:
256,192,123803,1,0,0:0:0:0:
256,192,123920,1,8,0:0:0:0:
256,192,124037,1,8,0:0:0:0:
256,192,124155,1,0,0:0:0:0:
256,192,124272,1,0,0:0:0:0:
256,192,124389,1,0,0:0:0:0:
256,192,124506,1,0,0:0:0:0:
256,192,124623,1,8,0:0:0:0:
256,192,124740,1,0,0:0:0:0:
256,192,124858,1,0,0:0:0:0:
256,192,124975,1,0,0:0:0:0:
256,192,125092,1,8,0:0:0:0:
256,192,125209,1,8,0:0:0:0:
256,192,125326,1,0,0:0:0:0:
256,192,125444,1,0,0:0:0:0:
256,192,125561,1,8,0:0:0:0:
256,192,125678,1,0,0:0:0:0:
256,192,125795,1,8,0:0:0:0:
256,192,125912,1,0,0:0:0:0:
256,192,126030,1,8,0:0:0:0:
256,192,126147,1,8,0:0:0:0:
256,192,126264,1,0,0:0:0:0:
256,192,126381,1,0,0:0:0:0:
256,192,126498,1,8,0:0:0:0:
256,192,126615,1,0,0:0:0:0:
256,192,126733,1,8,0:0:0:0:
256,192,126850,1,8,0:0:0:0:
256,192,126967,1,0,0:0:0:0:
256,192,127084,1,8,0:0:0:0:
256,192,127201,1,0,0:0:0:0:
256,192,127319,1,0,0:0:0:0:
256,192,127436,1,8,0:0:0:0:
256,192,127553,1,0,0:0:0:0:
256,192,127670,1,8,0:0:0:0:
256,192,127787,1,8,0:0:0:0:
256,192,127905,1,4,0:0:0:0:
256,192,128139,1,0,0:0:0:0:
256,192,128256,1,0,0:0:0:0:
256,192,128373,1,8,0:0:0:0:
256,192,128490,1,0,0:0:0:0:
256,192,128608,1,0,0:0:0:0:
256,192,128725,1,0,0:0:0:0:
256,192,128842,1,8,0:0:0:0:
256,192,128959,1,8,0:0:0:0:
256,192,129076,1,0,0:0:0:0:
256,192,129194,1,0,0:0:0:0:
256,192,129311,1,8,0:0:0:0:
256,192,129428,1,0,0:0:0:0:
256,192,129545,1,8,0:0:0:0:
256,192,129662,1,8,0:0:0:0:
256,192,129780,1,0,0:0:0:0:
256,192,129897,1,0,0:0:0:0:
256,192,130014,1,0,0:0:0:0:
256,192,130131,1,0,0:0:0:0:
256,192,130248,1,8,0:0:0:0:
256,192,130365,1,0,0:0:0:0:
256,192,130483,1,0,0:0:0:0:
256,192,130600,1,0,0:0:0:0:
256,192,130717,1,8,0:0:0:0:
256,192,130834,1,8,0:0:0:0:
256,192,130951,1,0,0:0:0:0:
256,192,131069,1,0,0:0:0:0:
256,192,131186,1,8,0:0:0:0:
256,192,131303,1,0,0:0:0:0:
256,192,131420,1,8,0:0:0:0:
256,192,131537,1,8,0:0:0:0:
256,192,131655,1,0,0:0:0:0:
256,192,131772,1,0,0:0:0:0:
256,192,131889,1,0,0:0:0:0:
256,192,132006,1,0,0:0:0:0:
256,192,132123,1,8,0:0:0:0:
256,192,132240,1,0,0:0:0:0:
256,192,132358,1,8,0:0:0:0:
256,192,132475,1,8,0:0:0:0:
256,192,132592,1,0,0:0:0:0:
256,192,132709,1,0,0:0:0:0:
256,192,132826,1,0,0:0:0:0:
256,192,132944,1,0,0:0:0:0:
256,192,133061,1,8,0:0:0:0:
256,192,133178,1,0,0:0:0:0:
256,192,133295,1,8,0:0:0:0:
256,192,133412,1,8,0:0:0:0:
256,192,133530,8,0,134701,0:0:0:0:
256,192,134936,5,8,0:0:0:0:
256,192,135405,1,4,0:0:0:0:
256,192,135639,1,0,0:0:0:0:
256,192,135756,1,0,0:0:0:0:
256,192,135873,1,8,0:0:0:0:
256,192,135990,1,8,0:0:0:0:
256,192,136108,1,0,0:0:0:0:
256,192,136225,1,0,0:0:0:0:
256,192,136342,1,8,0:0:0:0:
256,192,136459,1,0,0:0:0:0:
256,192,136576,1,0,0:0:0:0:
256,192,136694,1,8,0:0:0:0:
256,192,136811,1,8,0:0:0:0:
256,192,136928,1,0,0:0:0:0:
256,192,137045,1,8,0:0:0:0:
256,192,137162,1,8,0:0:0:0:
256,192,137280,1,0,0:0:0:0:
256,192,137397,1,0,0:0:0:0:
256,192,137514,1,0,0:0:0:0:
256,192,137631,1,0,0:0:0:0:
256,192,137748,1,8,0:0:0:0:
256,192,137865,1,8,0:0:0:0:
256,192,137983,1,0,0:0:0:0:
256,192,138100,1,0,0:0:0:0:
256,192,138217,1,8,0:0:0:0:
256,192,138334,1,0,0:0:0:0:
256,192,138451,1,0,0:0:0:0:
256,192,138569,1,8,0:0:0:0:
256,192,138686,1,8,0:0:0:0:
256,192,138803,1,0,0:0:0:0:
256,192,138920,1,8,0:0:0:0:
256,192,139037,1,8,0:0:0:0:
256,192,139155,1,0,0:0:0:0:
256,192,139272,1,0,0:0:0:0:
256,192,139389,1,0,0:0:0:0:
256,192,139506,1,0,0:0:0:0:
256,192,139623,1,8,0:0:0:0:
256,192,139740,1,0,0:0:0:0:
256,192,139858,1,0,0:0:0:0:
256,192,139975,1,0,0:0:0:0:
256,192,140092,1,8,0:0:0:0:
256,192,140209,1,8,0:0:0:0:
256,192,140326,1,0,0:0:0:0:
256,192,140444,1,0,0:0:0:0:
256,192,140561,1,8,0:0:0:0:
256,192,140678,1,0,0:0:0:0:
256,192,140795,1,8,0:0:0:0:
256,192,140912,1,0,0:0:0:0:
256,192,141030,1,8,0:0:0:0:
256,192,141147,1,8,0:0:0:0:
256,192,141264,1,0,0:0:0:0:
256,192,141381,1,0,0:0:0:0:
256,192,141498,1,8,0:0:0:0:
256,192,141615,1,0,0:0:0:0:
256,192,141733,1,8,0:0:0:0:
256,192,141850,1,8,0:0:0:0:
256,192,141967,1,0,0:0:0:0:
256,192,142084,1,8,0:0:0:0:
256,192,142201,1,0,0:0:0:0:
256,192,142319,1,0,0:0:0:0:
256,192,142436,1,8,0:0:0:0:
256,192,142553,1,0,0:0:0:0:
256,192,142670,1,8,0:0:0:0:
256,192,142787,1,8,0:0:0:0:
256,192,142905,1,4,0:0:0:0:
256,192,143139,1,0,0:0:0:0:
256,192,143256,1,0,0:0:0:0:
256,192,143373,1,8,0:0:0:0:
256,192,143490,1,8,0:0:0:0:
256,192,143608,1,0,0:0:0:0:
256,192,143725,1,0,0:0:0:0:
256,192,143842,1,8,0:0:0:0:
256,192,143959,1,0,0:0:0:0:
256,192,144076,1,0,0:0:0:0:
256,192,144194,1,8,0:0:0:0:
256,192,144311,1,8,0:0:0:0:
256,192,144428,1,0,0:0:0:0:
256,192,144545,1,8,0:0:0:0:
256,192,144662,1,8,0:0:0:0:
256,192,144780,1,0,0:0:0:0:
256,192,144897,1,0,0:0:0:0:
256,192,145014,1,0,0:0:0:0:
256,192,145131,1,0,0:0:0:0:
256,192,145248,1,8,0:0:0:0:
256,192,145365,1,8,0:0:0:0:
256,192,145483,1,0,0:0:0:0:
256,192,145600,1,0,0:0:0:0:
256,192,145717,1,8,0:0:0:0:
256,192,145834,1,0,0:0:0:0:
256,192,145951,1,0,0:0:0:0:
256,192,146069,1,8,0:0:0:0:
256,192,146186,1,8,0:0:0:0:
256,192,146303,1,0,0:0:0:0:
256,192,146420,1,8,0:0:0:0:
256,192,146537,1,8,0:0:0:0:
256,192,146655,1,0,0:0:0:0:
256,192,146772,1,8,0:0:0:0:
256,192,146889,1,0,0:0:0:0:
256,192,147006,1,0,0:0:0:0:
256,192,147123,1,8,0:0:0:0:
256,192,147240,1,0,0:0:0:0:
256,192,147358,1,8,0:0:0:0:
256,192,147475,1,8,0:0:0:0:
256,192,147592,1,0,0:0:0:0:
256,192,147709,1,8,0:0:0:0:
256,192,147826,1,0,0:0:0:0:
256,192,147944,1,0,0:0:0:0:
256,192,148061,1,8,0:0:0:0:
256,192,148178,1,0,0:0:0:0:
256,192,148295,1,8,0:0:0:0:
256,192,148412,1,8,0:0:0:0:
256,192,148530,1,0,0:0:0:0:
