osu file format v14

[General]
AudioFilename: Taylor Swift Delicate.mp3
AudioLeadIn: 0
PreviewTime: 110407
Countdown: 0
SampleSet: Soft
StackLeniency: 0.7
Mode: 0
LetterboxInBreaks: 0
WidescreenStoryboard: 1

[Editor]
Bookmarks: 20723,39986,61144,80091,91460,111670,150828,162197,172306,181780,225355
DistanceSpacing: 1.4
BeatDivisor: 4
GridSize: 4
TimelineZoom: 0.8

[Metadata]
Title:Delicate
TitleUnicode:Delicate
Artist:Taylor Swift
ArtistUnicode:Taylor Swift
Creator:MkGuh
Version:Average Reputation
Source:
Tags:Skubi CptSqBany Reputation Pop English Big Machine Label Group Records Alison Synth-Pop
BeatmapID:2193606
BeatmapSetID:984451

[Difficulty]
HPDrainRate:4
CircleSize:4
OverallDifficulty:6.5
ApproachRate:7
SliderMultiplier:1.86
SliderTickRate:1

[Events]
//Background and Video events
0,0,"Taylor BG.jpeg",0,0
Video,-2620,"ED_no_audio.mp4"
//Break Periods
2,172506,181780
//Storyboard Layer 0 (Background)
//Storyboard Layer 1 (Fail)
//Storyboard Layer 2 (Pass)
//Storyboard Layer 3 (Foreground)
//Storyboard Layer 4 (Overlay)
//Storyboard Sound Samples

[TimingPoints]
517,631.578947368421,4,2,1,42,1,0
3043,-116.279069767442,4,2,1,42,0,0
7464,-121.951219512195,4,2,1,38,0,0
7780,-121.951219512195,4,2,1,28,0,0
8095,-138.888888888889,4,2,1,32,0,0
8411,-138.888888888889,4,2,1,5,0,0
8727,-161.290322580645,4,2,1,22,0,0
9043,-161.290322580645,4,2,1,5,0,0
9359,-238.095238095238,4,2,1,12,0,0
9674,-238.095238095238,4,2,1,5,0,0
9990,-312.5,4,2,1,10,0,0
10306,-312.5,4,2,1,5,0,0
11411,-116.279069767442,4,2,1,52,0,0
11727,-116.279069767442,4,2,1,5,0,0
11885,-116.279069767442,4,2,1,52,0,0
12516,-116.279069767442,4,2,1,38,0,0
12990,-116.279069767442,4,2,1,5,0,0
13148,-116.279069767442,4,2,1,42,0,0
15043,-178.571428571429,4,2,1,45,0,0
16148,-116.279069767442,4,2,1,45,0,0
16780,-116.279069767442,4,2,1,5,0,0
16938,-116.279069767442,4,2,1,42,0,0
18201,-131.578947368421,4,2,1,32,0,0
19464,-178.571428571429,4,2,1,15,0,0
20727,-81.9672131147541,4,2,0,55,0,0
21359,-108.695652173913,4,2,0,50,0,0
28306,-108.695652173913,4,2,0,40,0,0
30832,-108.695652173913,4,2,0,50,0,0
38411,-108.695652173913,4,2,0,45,0,0
39990,-108.695652173913,4,2,0,55,0,0
40306,-89.2857142857143,4,2,0,60,0,0
40780,-75.7575757575758,4,2,0,5,0,0
40938,-89.2857142857143,4,2,0,65,0,0
41569,-89.2857142857143,4,2,0,55,0,0
42832,-98.0392156862745,4,2,0,55,0,0
43464,-98.0392156862745,4,2,0,50,0,0
44727,-98.0392156862745,4,2,0,45,0,0
45359,-98.0392156862745,4,2,0,45,0,0
45990,-98.0392156862745,4,2,0,50,0,0
47095,-98.0392156862745,4,2,0,50,0,0
47253,-98.0392156862745,4,2,0,50,0,0
47885,-98.0392156862745,4,2,0,45,0,0
50095,-98.0392156862745,4,2,0,50,0,0
53569,-98.0392156862745,4,2,0,50,0,0
57043,-121.951219512195,4,2,0,52,0,0
57201,-121.951219512195,4,2,0,52,0,0
57359,-98.0392156862745,4,2,0,50,0,0
58622,-98.0392156862745,4,2,0,45,0,0
61148,-161.290322580645,4,2,1,35,0,0
71253,-138.888888888889,4,2,1,42,0,0
81359,-89.2857142857143,4,2,0,55,0,0
81990,-98.0392156862745,4,2,0,50,0,0
91464,-98.0392156862745,4,2,0,32,0,0
93359,-98.0392156862745,4,2,0,18,0,0
93832,-98.0392156862745,4,2,0,32,0,0
93990,-92.5925925925926,4,2,0,60,0,0
94622,-92.5925925925926,4,2,0,55,0,0
98885,-98.0392156862745,4,2,0,5,0,0
99043,-98.0392156862745,4,2,0,50,0,0
101569,-92.5925925925926,4,2,0,55,0,0
102516,-108.695652173913,4,2,0,55,0,0
102674,-108.695652173913,4,2,0,55,0,0
102832,-92.5925925925926,4,2,0,55,0,0
110727,-92.5925925925926,4,2,0,60,0,0
111043,-78.125,4,2,0,65,0,0
111359,-78.125,4,2,0,55,0,0
111516,-78.125,4,2,0,5,0,0
111595,-81.9672131147541,4,2,0,5,0,0
111674,-89.2857142857143,4,2,0,60,0,1
122727,-108.695652173913,4,2,0,60,0,1
123043,-89.2857142857143,4,2,0,60,0,1
131885,-161.290322580645,4,2,1,32,0,0
140095,-108.695652173913,4,2,1,32,0,0
152095,-78.125,4,2,0,66,0,0
152727,-78.125,4,2,0,55,0,0
161569,-78.125,4,2,0,74,0,0
162201,-81.9672131147541,4,2,0,72,0,0
162438,-81.9672131147541,4,2,0,5,0,0
162517,-81.9672131147541,4,2,0,66,0,0
167490,-81.9672131147541,4,2,0,5,0,0
167569,-81.9672131147541,4,2,0,66,0,0
172622,-121.951219512195,4,2,0,64,0,0
172938,-121.951219512195,4,2,0,5,0,0
173095,-121.951219512195,4,2,0,65,0,0
173411,-121.951219512195,4,2,0,5,0,0
173569,-121.951219512195,4,2,0,64,0,0
173885,-121.951219512195,4,2,0,5,0,0
174043,-121.951219512195,4,2,0,64,0,0
174359,-121.951219512195,4,2,0,5,0,0
174517,-121.951219512195,4,2,0,64,0,0
174832,-121.951219512195,4,2,0,5,0,0
174990,-121.951219512195,4,2,0,64,0,0
175306,-121.951219512195,4,2,0,5,0,0
175464,-121.951219512195,4,2,0,64,0,0
175780,-121.951219512195,4,2,0,5,0,0
175938,-121.951219512195,4,2,0,64,0,0
176253,-121.951219512195,4,2,0,5,0,0
176411,-161.290322580645,4,2,0,64,0,0
177674,-121.951219512195,4,2,0,64,0,0
177990,-121.951219512195,4,2,0,5,0,0
178148,-121.951219512195,4,2,0,64,0,0
178464,-121.951219512195,4,2,0,5,0,0
178622,-121.951219512195,4,2,0,64,0,0
178938,-121.951219512195,4,2,0,5,0,0
179095,-121.951219512195,4,2,0,64,0,0
179411,-121.951219512195,4,2,0,5,0,0
179569,-121.951219512195,4,2,0,64,0,0
180517,-121.951219512195,4,2,0,5,0,0
180674,-121.951219512195,4,2,0,64,0,0
180990,-121.951219512195,4,2,0,5,0,0
181148,-121.951219512195,4,2,0,64,0,0
181464,-121.951219512195,4,2,0,5,0,0
181622,-172.413793103448,4,2,0,64,0,0
182253,-172.413793103448,4,2,0,5,0,0
183990,-172.413793103448,4,2,0,64,0,0
184306,-111.111111111111,4,2,0,68,0,0
184938,-75.7575757575758,4,2,0,60,0,1
204201,-75.7575757575758,4,2,0,73,0,1
205148,-75.7575757575758,4,2,0,65,0,1
212727,-81.9672131147541,4,2,0,60,0,1
215253,-121.951219512195,4,2,1,55,0,0
225359,-108.695652173913,4,2,0,23,0,0

[Colours]
Combo1 : 164,0,82
Combo2 : 138,138,0
Combo3 : 0,120,179
Combo4 : 116,116,116

[HitObjects]
255,127,1148,22,0,B|245:104|245:104|257:79,4,46.5,2|0|0|0|2,0:0|0:0|0:0|0:0|0:0,0:0:0:0:
396,192,3043,6,0,B|357:177|357:177|309:195,1,79.980001220398,2|0,0:0|0:0,0:0:0:0:
295,202,3517,1,0,0:0:0:0:
269,212,3674,2,0,B|233:225|233:225|194:210,1,79.980001220398,2|2,0:0|0:0,0:0:0:0:
136,146,4306,2,0,L|141:99,2,39.990000610199,2|0|0,0:0|0:0|0:0,0:0:0:0:
74,209,4938,1,0,0:0:0:0:
135,275,5253,1,2,0:0:0:0:
332,279,6201,38,0,B|352:287|352:287|371:278,2,39.990000610199,0|0|2,0:0|0:0|0:0,0:0:0:0:
252,225,6832,2,0,B|255:201|242:187|242:187|256:171|252:144,1,79.980001220398,2|0,0:0|0:0,0:0:0:0:
329,78,7464,1,2,0:0:0:0:
329,78,8095,6,0,B|367:73|387:45|387:45|406:74|451:82,4,133.920003269531,2|2|2|2|2,0:0|0:0|0:0|0:0|0:0,0:0:0:0:
122,191,11411,38,0,B|122:237,1,39.990000610199,0|2,0:0|0:0,0:0:0:0:
36,268,11885,2,0,P|96:268|152:352,1,159.960002440796,2|2,0:0|0:0,0:0:0:0:
255,234,13148,6,0,B|275:240|275:240|297:232,1,39.990000610199,2|0,0:0|0:0,0:0:0:0:
316,248,13464,2,0,B|333:241|333:241|353:247,1,39.990000610199,0|0,0:0|0:0,0:0:0:0:
377,231,13780,2,0,P|413:247|460:231,1,79.980001220398,2|2,0:0|0:0,0:0:0:0:
406,135,14411,2,0,P|359:121|323:138,1,79.980001220398,2|0,0:0|0:0,0:0:0:0:
256,180,15043,1,2,0:0:0:0:
256,180,16148,38,0,L|248:133,2,39.990000610199,0|2|0,0:0|0:0|0:0,0:0:0:0:
262,207,16622,2,0,P|248:254|205:272,1,79.980001220398,2|2,0:0|0:0,0:0:0:0:
139,271,17253,1,0,0:0:0:0:
80,210,17569,2,0,P|92:169|78:135,1,79.980001220398,2|0,0:0|0:0,0:0:0:0:
30,61,18201,6,0,P|94:32|164:76,1,141.359998274414,2|0,0:0|0:0,0:0:0:0:
266,159,19464,2,0,P|204:177|161:144,1,104.160001271484,2|0,0:0|0:0,0:0:0:0:
384,40,20727,38,0,B|412:61|412:61|400:199,1,170.189992988388,4|2,3:0|0:3,0:0:0:0:
396,225,21359,2,0,L|443:213,2,42.7799985639039,4|0|2,3:0|0:0|0:3,0:0:0:0:
305,199,21990,2,0,P|259:187|201:218,1,85.5599971278077,4|2,3:0|0:0,0:0:0:0:
195,218,22464,1,2,0:3:0:0:
166,236,22622,2,0,P|125:246|84:234,1,85.5599971278077,4|2,0:3|0:3,0:0:0:0:
33,163,23253,6,0,L|61:28,1,128.339995691712,4|2,3:0|0:3,0:0:0:0:
61,4,23885,2,0,L|-9:15,2,42.7799985639039,4|0|2,0:3|0:0|3:3,0:0:0:0:
172,11,24517,2,0,P|197:50|194:93,1,85.5599971278077,4|2,3:0|0:0,0:0:0:0:
178,117,24990,1,2,0:3:0:0:
153,141,25148,2,0,P|137:182|147:232,1,85.5599971278077,4|2,0:3|0:3,0:0:0:0:
214,280,25780,22,0,B|254:264|254:264|298:281,1,85.5599971278077,4|2,3:0|0:0,0:0:0:0:
425,192,26411,1,4,3:0:0:0:
425,192,26569,1,0,0:0:0:0:
425,192,26727,2,0,B|385:208|385:208|341:191,1,85.5599971278077,4|4,3:0|3:0,0:0:0:0:
324,99,27359,2,0,L|339:54,2,42.7799985639039,0|2|4,0:0|0:3|3:0,0:0:0:0:
257,167,27990,1,2,0:3:0:0:
187,102,28306,2,0,B|138:102|138:102|111:117|111:117|56:117,2,128.339995691712,4|2|2,3:0|0:3|0:3,0:0:0:0:
345,192,29569,2,0,B|394:192|394:192|421:207|421:207|476:207,2,128.339995691712,4|2|2,3:0|0:3|0:3,0:0:0:0:
176,228,30832,6,0,B|157:258|157:258|171:336,1,85.5599971278077,4|2,3:0|0:0,0:0:0:0:
256,361,31464,1,4,3:0:0:0:
256,361,31622,1,0,0:0:0:0:
256,361,31780,1,2,0:3:0:0:
346,307,32095,2,0,B|355:258|355:258|336:228,1,85.5599971278077,4|0,3:0|0:0,0:0:0:0:
318,198,32569,1,2,0:3:0:0:
296,170,32727,2,0,B|287:120|287:120|306:90,1,85.5599971278077,4|2,3:0|0:3,0:0:0:0:
413,31,33359,6,0,L|445:120,1,85.5599971278077,4|2,3:0|0:0,0:0:0:0:
501,195,33990,1,4,3:0:0:0:
501,195,34148,1,0,0:0:0:0:
501,195,34306,1,2,0:3:0:0:
441,272,34622,2,0,L|413:353,1,85.5599971278077,4|0,3:0|0:0,0:0:0:0:
381,340,35095,1,2,0:3:0:0:
347,331,35253,2,0,P|302:317|259:335,1,85.5599971278077,4|2,3:0|0:3,0:0:0:0:
103,275,35885,22,0,P|143:288|190:273,1,85.5599971278077,4|2,3:0|0:0,0:0:0:0:
285,175,36517,1,4,3:0:0:0:
285,175,36674,1,0,0:0:0:0:
285,175,36832,2,0,P|234:189|198:172,1,85.5599971278077,4|4,3:0|3:0,0:0:0:0:
120,122,37464,2,0,L|96:84,2,42.7799985639039,0|2|4,0:0|0:3|3:0,0:0:0:0:
52,190,38095,1,2,0:3:0:0:
128,248,38411,2,0,B|116:288|116:288|124:333|124:333|108:376,2,128.339995691712,4|2|2,3:0|0:3|0:3,0:0:0:0:
232,236,39674,2,0,B|244:200|244:200|244:178|244:178|261:127,1,85.5599971278077,4|2,3:0|0:0,0:0:0:0:
331,153,40148,1,2,0:3:0:0:
331,153,40306,38,0,B|316:191|316:191|315:228|315:228|285:304,1,156.240001907227,4|0,3:0|0:0,0:2:0:0:
304,302,40938,22,0,P|367:335|446:292,1,156.240001907227,4|0,1:0|3:0,0:0:0:0:
473,233,41569,2,0,P|470:203|478:176,1,52.0800006357422,4|0,3:0|0:0,0:0:0:0:
424,131,41885,2,0,P|431:97|423:66,1,52.0800006357422,2|0,0:0|0:0,0:0:0:0:
373,31,42201,2,0,P|325:35|287:92,1,104.160001271484,4|0,3:0|0:0,0:0:0:0:
275,114,42674,1,2,3:0:0:0:
262,149,42832,2,0,P|229:188|178:196,1,94.8600005789795,4|2,3:0|3:0,0:0:0:0:
111,146,43464,6,0,L|126:45,1,94.8600005789795,4|2,3:0|0:0,0:0:0:0:
129,23,43938,2,0,L|79:34,1,47.4300002894897,2|4,0:3|3:0,0:0:0:0:
13,122,44411,2,0,L|31:222,1,94.8600005789795,2|4,0:3|3:0,0:0:0:0:
29,215,44885,1,0,0:0:0:0:
29,215,45043,1,2,0:0:0:0:
59,313,45359,1,4,3:0:0:0:
158,285,45674,1,2,3:0:0:0:
256,325,45990,22,0,B|330:315|322:364|393:353,1,142.290000868469,4|0,3:0|0:0,0:0:0:0:
414,330,46622,2,0,L|431:379,2,47.4300002894897,4|0|2,3:0|0:0|0:0,0:0:0:0:
361,243,47253,2,0,P|349:189|372:140,1,94.8600005789795,4|0,3:0|0:0,0:0:0:0:
390,127,47727,1,2,0:3:0:0:
415,98,47885,2,0,P|427:52|414:7,1,94.8600005789795,4|2,3:0|0:3,0:0:0:0:
333,55,48517,6,0,B|282:67|282:67|259:96|259:96|198:112,1,142.290000868469,4|0,3:0|0:0,0:0:0:0:
178,120,49148,1,4,3:0:0:0:
82,163,49464,1,2,0:3:0:0:
131,253,49780,2,0,P|193:257|224:303,1,94.8600005789795,4|2,3:0|0:0,0:0:0:0:
244,301,50253,1,0,0:0:0:0:
273,325,50411,2,0,P|310:353|397:320,1,142.290000868469,4|0,3:0|0:0,0:0:0:0:
463,280,51043,6,0,B|441:237|441:237|460:106,1,142.290000868469,4|0,1:0|0:0,0:0:0:0:
428,120,51674,2,0,L|484:111,2,47.4300002894897,4|0|2,3:0|0:0|0:3,0:0:0:0:
352,41,52306,2,0,P|312:88|324:148,1,94.8600005789795,4|0,3:0|0:0,0:0:0:0:
311,156,52780,1,2,0:3:0:0:
314,193,52938,2,0,P|309:255|255:285,1,94.8600005789795,4|2,3:0|0:3,0:0:0:0:
199,235,53569,22,0,B|171:228|171:228|136:241,1,47.4300002894897,4|0,3:0|0:0,0:0:0:0:
122,256,53885,2,0,B|104:262|104:262|76:255,1,47.4300002894897,0|2,0:0|0:3,0:0:0:0:
44,235,54201,2,0,L|56:127,1,94.8600005789795,4|2,3:0|0:3,0:0:0:0:
68,50,54832,1,4,3:0:0:0:
152,93,55148,2,0,L|207:80,1,47.4300002894897,0|2,0:0|0:3,0:0:0:0:
226,74,55464,2,0,P|246:130|230:174,1,94.8600005789795,4|2,0:3|0:3,0:0:0:0:
146,198,56095,6,0,P|116:243|148:330,1,142.290000868469,4|0,3:0|0:3,0:0:0:0:
158,346,56727,2,0,L|96:360,2,47.4300002894897,4|0|2,3:0|0:0|0:0,0:0:0:0:
232,271,57359,2,0,B|281:270|281:270|320:306,1,94.8600005789795,4|0,3:0|0:0,0:0:0:0:
347,319,57832,1,2,0:3:0:0:
380,335,57990,2,0,B|413:366|413:366|462:365,1,94.8600005789795,4|2,3:0|0:3,0:0:0:0:
476,251,58622,6,0,L|459:106,1,142.290000868469,4|2,3:0|0:3,0:0:0:0:
455,79,59253,1,4,3:0:0:0:
364,28,59569,1,2,0:3:0:0:
276,85,59885,2,0,L|259:226,1,142.290000868469,4|2,3:0|0:3,0:0:0:0:
253,258,60517,1,4,3:0:0:0:
154,283,60832,2,0,L|105:274,1,47.4300002894897,2|0,0:3|0:0,0:0:0:0:
73,266,61148,37,2,0:0:0:0:
255,65,63674,5,2,0:0:0:0:
439,266,66201,37,2,0:0:0:0:
208,200,68727,6,0,P|256:118|302:201,1,230.639990849854,2|0,0:0|0:0,0:0:0:0:
158,343,71253,38,0,B|122:359|70:340|52:281|93:234|93:234|44:225|44:166|88:153|88:153|55:110|69:57|116:31|160:52,1,468.72001144336,2|0,0:0|0:0,0:0:0:0:
352,52,73780,2,0,B|396:31|443:57|457:110|424:153|424:153|468:166|468:225|419:234|419:234|460:281|442:340|390:359|353:343,1,468.72001144336,2|0,0:0|0:0,0:0:0:0:
152,192,76306,6,0,B|180:212|216:216|216:216|168:168|184:104|224:68|288:68|328:104|344:168|296:216|296:216|332:212|360:192,1,468.72001144336,2|0,0:0|0:0,0:0:0:0:
255,333,78832,1,2,0:0:0:0:
79,249,80095,5,2,0:0:0:0:
79,249,80253,1,0,0:0:0:0:
79,249,80411,1,2,0:0:0:0:
169,320,80727,1,2,0:0:0:0:
169,320,80885,1,0,0:0:0:0:
169,320,81043,1,2,0:0:0:0:
258,254,81359,6,0,B|329:221|329:221|418:262,1,156.240001907227,12|0,3:0|0:0,0:0:0:0:
441,279,81990,1,4,3:0:0:0:
500,190,82306,1,2,0:3:0:0:
424,111,82622,2,0,B|379:129|379:129|316:103,1,94.8600005789795,4|0,3:0|0:0,0:0:0:0:
256,32,83095,1,0,0:0:0:0:
256,32,83253,2,0,B|301:14|301:14|357:38,1,94.8600005789795,4|2,3:0|0:0,0:0:0:0:
177,106,83885,6,0,B|111:73|111:73|28:116,1,142.290000868469,12|0,3:0|0:0,0:0:0:0:
16,131,84516,2,0,L|2:31,1,94.8600005789795,4|2,3:0|0:3,0:0:0:0:
115,177,85148,1,4,3:0:0:0:
115,177,85306,1,0,0:0:0:0:
115,177,85464,2,0,L|92:279,1,94.8600005789795,2|4,0:0|3:0,0:0:0:0:
32,306,85938,1,0,0:0:0:0:
32,306,86095,1,2,0:0:0:0:
197,311,86411,6,0,B|239:335|280:319|280:319|361:288,1,142.290000868469,4|0,3:0|0:0,0:0:0:0:
372,276,87043,1,4,3:0:0:0:
309,188,87359,1,2,0:3:0:0:
386,113,87674,2,0,P|401:60|380:19,1,94.8600005789795,4|0,3:0|0:0,0:0:0:0:
385,25,88148,1,0,0:0:0:0:
385,25,88306,1,4,3:0:0:0:
293,67,88622,1,2,0:0:0:0:
386,113,88938,22,0,B|426:113|426:113|441:123|441:123|486:123,1,94.8600005789795,4|0,3:0|0:0,0:0:0:0:
401,221,89411,1,0,0:0:0:0:
401,221,89569,2,0,B|361:221|361:221|346:211|346:211|301:211,1,94.8600005789795,4|0,3:0|0:0,0:0:0:0:
202,243,90201,2,0,P|176:304|218:380,1,142.290000868469,4|0,3:0|0:0,0:0:0:0:
204,370,90832,1,4,3:0:0:0:
321,293,91148,1,0,0:0:0:0:
321,293,91306,1,2,0:0:0:0:
321,293,91464,6,0,B|371:293|394:328|394:328|464:328,1,142.290000868469,2|2,0:0|0:0,0:0:0:0:
256,219,92411,1,2,0:0:0:0:
191,293,92727,2,0,B|141:293|118:328|118:328|48:328,2,142.290000868469,2|2|2,0:0|0:0|0:0,0:0:0:0:
355,156,93990,38,0,P|405:173|463:149,1,100.440002452148,4|0,1:0|0:0,0:0:0:0:
497,93,94464,1,0,1:0:0:0:
497,93,94622,2,0,P|447:76|389:100,1,100.440002452148,8|0,0:0|1:0,0:0:0:0:
203,286,95253,2,0,P|153:303|95:279,1,100.440002452148,4|0,3:0|0:0,0:0:0:0:
60,223,95727,1,0,1:0:0:0:
60,223,95885,2,0,P|110:206|168:230,1,100.440002452148,8|0,0:0|1:0,0:0:0:0:
237,221,96359,1,0,0:0:0:0:
287,289,96516,6,0,B|329:289|329:289|346:298|346:298|400:298,1,100.440002452148,4|0,3:0|0:0,0:0:0:0:
512,140,97148,2,0,B|470:140|470:140|453:131|453:131|399:131,1,100.440002452148,8|0,0:0|1:0,0:0:0:0:
315,257,97780,6,0,B|357:257|357:257|374:266|374:266|428:266,1,100.440002452148,4|2,3:0|0:0,0:0:0:0:
470,167,98253,1,0,1:0:0:0:
470,167,98411,2,0,B|428:167|428:167|411:158|411:158|357:158,1,100.440002452148,8|0,0:0|1:2,0:0:0:0:
179,125,99043,22,0,P|152:194|181:258,1,142.290000868469,4|0,3:0|1:0,0:0:0:0:
176,253,99674,2,0,P|127:237|80:261,1,94.8600005789795,8|0,0:0|1:0,0:0:0:0:
332,126,100306,2,0,P|359:195|330:259,1,142.290000868469,4|0,3:0|1:0,0:0:0:0:
334,254,100937,2,0,P|382:238|429:262,1,94.8600005789795,8|0,0:0|1:0,0:0:0:0:
176,76,101569,6,0,B|130:54|130:54|67:81,1,100.440002452148,4|2,3:0|0:0,0:0:0:0:
130,251,102201,1,8,0:0:0:0:
130,251,102359,1,0,0:0:0:0:
130,251,102516,1,0,1:0:0:0:
131,146,102832,1,4,0:3:0:0:
84,310,103148,1,0,0:0:0:0:
84,310,103306,1,0,1:0:0:0:
84,310,103464,2,0,B|130:330|130:330|176:308,1,100.440002452148,8|0,0:0|1:0,0:0:0:0:
301,200,104095,6,0,P|238:183|204:208,1,100.440002452148,4|2,3:0|0:0,0:0:0:0:
325,311,104727,1,8,0:0:0:0:
325,311,104885,1,0,0:0:0:0:
325,311,105043,2,0,P|388:328|422:303,1,100.440002452148,0|4,1:0|3:0,0:0:0:0:
396,162,105674,2,0,L|377:223,1,50.2200012260742,0|0,0:0|1:0,0:0:0:0:
463,194,105990,2,0,L|429:74,1,100.440002452148,8|0,0:0|1:0,0:0:0:0:
259,52,106622,22,0,P|303:71|353:51,1,100.440002452148,4|2,3:0|0:0,0:0:0:0:
194,133,107253,1,8,0:0:0:0:
194,133,107411,1,0,0:0:0:0:
194,133,107569,2,0,P|147:114|99:136,1,100.440002452148,0|4,1:2|3:0,0:0:0:0:
9,231,108201,1,0,0:0:0:0:
9,231,108359,1,0,1:0:0:0:
9,231,108517,2,0,P|56:212|104:234,1,100.440002452148,8|0,0:0|1:2,0:0:0:0:
313,346,109148,6,0,P|262:386|194:333,1,150.660003678223,4|0,3:0|1:0,0:0:0:0:
152,286,109780,1,8,0:0:0:0:
349,223,110095,1,0,1:0:0:0:
167,123,110411,2,0,P|109:139|60:105,1,100.440002452148,4|2,3:0|0:0,0:0:0:0:
121,64,110885,1,0,1:0:0:0:
183,22,111043,22,0,P|239:15|305:118,1,178.56,8|0,0:0|0:0,0:0:0:0:
316,175,111674,6,0,B|309:227|309:227|361:299,1,104.160001271484,4|0,1:0|0:0,0:0:0:0:
408,307,112148,1,0,1:2:0:0:
474,262,112306,2,0,P|489:231|490:195,2,52.0800006357422,8|0|0,0:0|0:0|1:2,0:0:0:0:
408,307,112780,1,0,0:0:0:0:
339,268,112938,2,0,B|299:266|280:293|280:293|283:314|254:342,1,104.160001271484,4|0,3:0|0:0,0:0:0:0:
196,351,113411,1,0,1:0:0:0:
196,351,113569,2,0,L|129:351,1,52.0800006357422,8|0,0:0|0:0,0:0:0:0:
74,315,113885,1,0,1:0:0:0:
0,131,114201,6,0,P|67:132|101:83,1,104.160001271484,4|0,3:0|0:0,0:0:0:0:
142,53,114674,1,0,1:0:0:0:
194,110,114832,2,0,P|235:139|285:132,1,104.160001271484,8|0,0:0|1:0,0:0:0:0:
412,63,115464,2,0,P|423:42|455:20,2,52.0800006357422,4|0|2,3:0|0:0|0:0,0:0:0:0:
439,190,116095,2,0,P|482:226|490:300,1,104.160001271484,8|0,0:0|1:0,0:0:0:0:
375,334,116727,6,0,P|328:348|270:326,1,104.160001271484,4|0,3:0|0:0,0:0:0:0:
153,138,117359,1,8,0:0:0:0:
153,138,117516,1,0,0:0:0:0:
153,138,117674,2,0,P|207:119|261:152,1,104.160001271484,0|4,1:0|3:0,0:0:0:0:
135,235,118306,1,0,0:0:0:0:
135,235,118463,1,0,1:0:0:0:
135,235,118622,2,0,P|75:218|30:243,1,104.160001271484,8|0,0:0|1:0,0:0:0:0:
173,339,119253,22,0,B|221:360|221:360|278:335,1,104.160001271484,4|0,3:0|0:0,0:0:0:0:
322,281,119727,1,0,1:0:0:0:
254,231,119885,2,0,B|237:181|237:181|256:131,1,104.160001271484,8|0,0:0|1:0,0:0:0:0:
407,46,120516,6,0,B|420:96|420:96|403:145,1,104.160001271484,4|0,3:0|0:0,0:0:0:0:
325,178,120989,1,0,1:0:0:0:
255,132,121148,2,0,B|207:111|207:111|159:132,1,104.160001271484,8|0,0:0|1:2,0:0:0:0:
25,184,121780,6,0,P|-4:95|48:21,1,156.240001907227,4|0,1:0|1:0,0:0:0:0:
88,79,122411,2,0,P|122:74|150:57,1,52.0800006357422,8|0,0:0|0:0,0:0:0:0:
198,16,122727,2,0,P|240:29|268:48,1,42.7799985639039,0|0,1:0|0:0,0:0:0:0:
262,105,123043,2,0,P|284:164|346:175,1,104.160001271484,4|0,3:0|0:0,0:0:0:0:
401,171,123516,1,0,1:0:0:0:
401,171,123674,2,0,P|385:232|339:258,1,104.160001271484,8|0,0:0|1:0,0:0:0:0:
279,360,124306,22,0,P|324:373|350:368,1,52.0800006357422,4|0,3:0|0:0,0:0:0:0:
269,277,124622,2,0,P|224:264|198:269,1,52.0800006357422,2|0,0:0|1:0,0:0:0:0:
153,308,124938,2,0,B|102:325|102:325|42:311,1,104.160001271484,8|2,0:0|0:0,0:0:0:0:
1,138,125569,2,0,B|50:124|50:124|108:135,1,104.160001271484,4|0,3:0|0:0,0:0:0:0:
158,204,126043,1,0,1:0:0:0:
158,204,126201,2,0,B|109:218|109:218|51:207,1,104.160001271484,8|0,0:0|1:0,0:0:0:0:
187,98,126832,6,0,P|258:65|326:108,1,156.240001907227,4|0,3:0|1:0,0:0:0:0:
373,160,127464,2,0,P|414:165|442:151,1,52.0800006357422,8|0,0:0|0:0,0:0:0:0:
465,98,127780,1,0,1:0:0:0:
342,231,128095,2,0,L|322:348,1,104.160001271484,4|0,3:0|0:0,0:0:0:0:
256,291,128569,1,0,0:0:0:0:
187,334,128727,2,0,L|165:226,1,104.160001271484,8|2,0:0|0:0,0:0:0:0:
102,64,129359,6,0,B|153:48|153:48|208:70,1,104.160001271484,4|0,3:0|0:0,0:0:0:0:
255,12,129832,1,0,1:0:0:0:
310,67,129990,2,0,B|362:51|362:51|408:72,1,104.160001271484,8|0,0:0|1:0,0:0:0:0:
411,220,130622,2,0,B|363:236|363:236|312:220,1,104.160001271484,4|0,3:0|0:0,0:0:0:0:
257,169,131095,1,0,1:0:0:0:
195,218,131253,2,0,B|142:234|142:234|95:218,1,104.160001271484,8|0,0:0|1:0,0:0:0:0:
18,194,131727,1,0,0:0:0:0:
18,194,131885,37,4,0:1:0:0:
254,364,134411,5,2,0:0:0:0:
484,193,136938,37,2,0:0:0:0:
255,105,139464,5,2,0:0:0:0:
188,149,140095,2,0,B|172:175|172:175|172:206|172:206|188:232,1,85.5599971278077,2|0,0:0|0:0,0:0:0:0:
330,193,140727,1,2,0:0:0:0:
330,193,141674,21,2,0:0:0:0:
325,206,141832,1,0,0:0:0:0:
318,219,141990,2,0,B|258:219|258:219|245:224|245:224|186:224,1,128.339995691712,2|2,0:0|0:0,0:0:0:0:
177,224,142622,1,8,0:0:0:0:
97,261,142938,1,2,0:0:0:0:
146,331,143253,2,0,B|206:331|206:331|219:326|219:326|278:326,1,128.339995691712,2|2,0:0|0:0,0:0:0:0:
287,326,143885,1,8,0:0:0:0:
373,318,144201,5,2,0:0:0:0:
367,304,144359,1,0,0:0:0:0:
359,287,144517,2,0,P|339:227|366:162,1,128.339995691712,2|2,0:0|0:0,0:0:0:0:
377,156,145148,1,8,0:0:0:0:
436,98,145464,1,2,0:0:0:0:
376,42,145780,2,0,P|316:62|251:35,1,128.339995691712,2|2,0:0|0:0,0:0:0:0:
245,24,146411,1,8,0:0:0:0:
168,48,146727,5,0,0:0:0:0:
174,63,146885,1,0,0:0:0:0:
179,77,147043,2,0,B|178:129|178:129|178:174|142:196,1,128.339995691712,2|0,0:0|0:0,0:0:0:0:
134,200,147674,1,8,0:0:0:0:
72,257,147990,1,2,0:0:0:0:
150,287,148306,2,0,B|202:287|202:287|247:287|269:323,1,128.339995691712,2|2,0:0|0:0,0:0:0:0:
276,332,148937,1,8,0:0:0:0:
368,289,149253,1,2,0:0:0:0:
256,192,149569,12,2,151464,0:0:0:0:
164,140,152095,22,0,B|135:169|135:169|135:213|135:213|168:247,1,119.04,4|0,1:0|0:0,0:0:0:0:
158,237,152569,1,0,0:0:0:0:
158,237,152727,1,8,0:0:0:0:
348,140,153043,2,0,B|377:169|377:169|377:213|377:213|344:247,1,119.04,0|4,1:0|3:0,0:0:0:0:
256,190,153674,1,0,0:0:0:0:
256,190,153832,1,0,1:0:0:0:
256,190,153990,2,0,L|256:122,1,59.52,8|0,0:0|0:0,0:0:0:0:
360,57,154306,2,0,L|360:129,1,59.52,0|0,1:2|0:0,0:0:0:0:
256,130,154622,6,0,B|208:130|208:130|184:139|184:139|139:139,1,119.04,4|0,3:0|0:0,0:0:0:0:
67,192,155095,1,0,1:0:0:0:
137,248,155253,2,0,B|185:248|185:248|209:257|209:257|254:257,1,119.04,8|0,0:0|1:0,0:0:0:0:
378,286,155885,6,0,B|369:320|369:320|379:355,1,59.52,4|0,3:0|0:0,0:0:0:0:
473,247,156201,2,0,B|482:213|482:213|472:178,1,59.52,2|0,0:0|0:0,0:0:0:0:
358,288,156517,2,0,B|349:322|349:322|359:357,1,59.52,8|0,0:0|0:0,0:0:0:0:
493,248,156833,2,0,B|502:214|502:214|492:179,1,59.52,0|0,1:0|0:0,0:0:0:0:
432,109,157148,21,4,3:0:0:0:
432,109,157306,1,0,0:0:0:0:
432,109,157464,2,0,P|368:129|321:110,1,119.04,2|8,0:0|0:0,0:0:0:0:
137,161,158095,2,0,P|194:143|253:167,1,119.04,0|4,1:0|3:0,0:0:0:0:
383,256,158727,1,0,0:0:0:0:
383,256,158885,1,0,1:0:0:0:
383,256,159043,2,0,B|352:245|352:245|325:256,1,59.52,8|0,0:0|0:0,0:0:0:0:
223,326,159359,2,0,B|254:337|254:337|281:326,1,59.52,0|0,1:0|0:0,0:0:0:0:
175,253,159674,6,0,L|157:374,1,119.04,4|0,3:0|0:0,0:0:0:0:
88,251,160148,1,0,1:0:0:0:
88,251,160306,2,0,L|74:118,1,119.04,8|0,0:0|1:0,0:0:0:0:
180,37,160938,2,0,P|246:9|361:58,1,178.56,4|0,3:0|1:0,0:0:0:0:
318,176,161569,6,0,B|330:147|330:147|319:116,1,59.52,8|2,1:0|0:0,0:0:0:0:
191,121,161885,2,0,B|180:149|180:149|191:176,1,59.52,0|0,1:0|0:0,0:0:0:0:
252,249,162201,21,4,1:0:0:0:
252,249,162517,2,0,P|232:309|269:375,1,113.459995325592,2|8,0:0|0:0,0:0:0:0:
348,297,162990,2,0,P|369:230|331:171,1,113.459995325592,2|0,0:0|0:0,0:0:0:0:
308,94,163464,2,0,P|246:114|192:81,1,113.459995325592,0|0,1:0|0:0,0:0:0:0:
73,175,163938,2,0,P|125:157|177:178,1,113.459995325592,2|0,0:0|0:0,0:0:0:0:
305,274,164411,6,0,P|243:298|196:255,1,113.459995325592,2|4,1:2|3:0,0:0:0:0:
330,178,164885,2,0,P|382:157|435:175,1,113.459995325592,2|0,0:0|1:0,0:0:0:0:
438,263,165359,2,0,P|416:317|448:378,1,113.459995325592,8|0,0:0|1:0,0:0:0:0:
508,214,165832,1,0,0:0:0:0:
508,214,165990,2,0,P|530:160|498:99,1,113.459995325592,4|2,3:0|0:0,0:0:0:0:
437,79,166464,1,0,1:0:0:0:
437,79,166622,2,0,P|376:105|332:75,1,113.459995325592,8|0,0:0|1:0,0:0:0:0:
257,17,167095,1,0,0:0:0:0:
177,74,167253,5,4,1:0:0:0:
177,74,167569,2,0,B|155:117|155:117|81:128|59:215,2,170.189992988388,2|2|4,0:0|0:0|3:0,0:0:0:0:
335,74,168832,1,0,0:0:0:0:
335,74,168990,2,0,B|357:117|357:117|403:117|443:182,1,113.459995325592,2|0,0:0|0:0,0:0:0:0:
467,206,169464,1,2,1:2:0:0:
428,279,169622,2,0,P|349:298|296:243,1,113.459995325592,0|0,0:0|0:0,0:0:0:0:
227,200,170095,2,0,B|255:189|255:189|284:202,1,56.7299976627961,2|4,0:0|3:0,0:0:0:0:
187,285,170411,2,0,P|134:301|84:279,1,113.459995325592,8|0,0:1|0:0,0:0:0:0:
41,204,170885,1,0,0:0:0:0:
41,204,171043,2,0,P|65:138|21:88,1,113.459995325592,4|0,3:0|0:0,0:0:0:0:
189,56,171674,5,8,1:0:0:0:
214,93,171832,1,0,0:0:0:0:
255,110,171990,1,0,1:2:0:0:
297,93,172148,1,0,0:0:0:0:
321,57,172306,1,4,1:0:0:0:
21,73,183990,37,2,0:0:0:0:
41,73,184148,1,0,0:0:0:0:
63,73,184306,2,0,B|102:73|102:73|149:74|168:124,1,125.549996168518,2|0,0:0|0:0,0:0:0:0:
118,192,184938,38,0,P|100:256|129:320,1,122.759999625366,4|0,1:0|0:0,0:0:0:0:
191,351,185411,1,0,1:0:0:0:
191,351,185569,2,0,P|206:310|223:285,1,61.3799998126831,8|0,0:0|0:0,0:0:0:0:
296,295,185885,2,0,P|311:321|321:351,1,61.3799998126831,0|0,1:0|0:0,0:0:0:0:
393,307,186201,2,0,P|412:249|394:192,1,122.759999625366,4|0,3:0|0:0,0:0:0:0:
312,163,186674,1,0,1:0:0:0:
312,163,186832,2,0,P|283:96|303:52,1,122.759999625366,8|0,0:0|1:0,0:0:0:0:
361,0,187306,1,0,0:0:0:0:
405,69,187464,6,0,L|392:211,1,122.759999625366,4|0,3:0|0:0,0:0:0:0:
378,276,187938,1,0,1:0:0:0:
378,276,188095,2,0,P|429:305|495:280,2,122.759999625366,8|0|4,0:0|1:0|3:0,0:0:0:0:
256,153,189043,2,0,L|256:215,1,61.3799998126831,2|0,0:0|1:0,0:0:0:0:
201,281,189359,2,0,P|127:322|65:294,1,122.759999625366,8|0,0:0|1:0,0:0:0:0:
18,272,189832,1,0,0:0:0:0:
5,186,189990,22,0,L|32:44,1,122.759999625366,4|0,3:0|0:0,0:0:0:0:
104,21,190464,1,0,1:0:0:0:
104,21,190622,2,0,P|156:20|186:77,1,122.759999625366,8|0,0:0|1:0,0:0:0:0:
201,281,191253,2,0,P|245:304|317:275,1,122.759999625366,4|0,3:0|0:0,0:0:0:0:
256,222,191727,1,0,1:0:0:0:
256,222,191885,1,8,0:0:0:0:
345,58,192201,1,0,1:0:0:0:
345,58,192359,1,2,0:0:0:0:
345,58,192517,6,0,P|249:21|169:69,1,184.139999438049,4|0,3:0|0:0,0:0:0:0:
123,109,193148,2,0,L|73:57,1,61.3799998126831,8|0,0:0|0:0,0:0:0:0:
55,152,193464,2,0,L|109:210,1,61.3799998126831,0|0,1:0|0:0,0:0:0:0:
89,276,193780,2,0,B|137:276|137:276|179:277|197:327,1,122.759999625366,4|2,3:0|0:0,0:0:0:0:
256,376,194253,1,0,1:0:0:0:
318,318,194411,2,0,B|333:277|375:276|375:276|423:276,1,122.759999625366,8|0,0:0|1:0,0:0:0:0:
467,202,194885,1,0,0:0:0:0:
394,155,195043,6,0,P|421:96|392:40,1,122.759999625366,4|0,1:0|0:0,0:0:0:0:
318,29,195517,1,0,1:0:0:0:
318,29,195674,2,0,P|303:80|287:105,1,61.3799998126831,8|0,0:0|0:0,0:0:0:0:
212,86,195990,2,0,P|200:58|194:29,1,61.3799998126831,0|0,1:0|0:0,0:0:0:0:
112,46,196306,2,0,P|91:101|118:155,1,122.759999625366,4|0,3:0|0:0,0:0:0:0:
188,205,196780,1,0,1:0:0:0:
188,205,196938,2,0,P|258:183|307:212,1,122.759999625366,8|0,0:0|1:0,0:0:0:0:
376,240,197411,1,0,0:0:0:0:
454,275,197569,22,0,L|441:351,1,61.3799998126831,4|0,3:0|0:0,0:0:0:0:
376,240,197885,2,0,L|389:164,1,61.3799998126831,2|0,0:0|1:0,0:0:0:0:
451,123,198201,2,0,P|383:88|329:112,1,122.759999625366,8|0,0:0|1:0,0:0:0:0:
209,207,198832,2,0,P|230:265|200:324,1,122.759999625366,4|2,3:0|0:0,0:0:0:0:
129,356,199306,1,0,1:0:0:0:
51,318,199464,2,0,P|27:262|48:206,1,122.759999625366,8|0,0:0|1:0,0:0:0:0:
84,130,199938,1,0,0:0:0:0:
84,130,200095,6,0,B|152:135|140:102|215:107,1,122.759999625366,4|0,3:0|0:0,0:0:0:0:
255,177,200569,1,0,1:0:0:0:
309,106,200727,2,0,B|372:102|360:135|428:130,1,122.759999625366,8|0,0:0|1:0,0:0:0:0:
435,285,201359,2,0,B|388:285|388:285|335:285|315:333,1,122.759999625366,4|0,3:0|0:0,0:0:0:0:
255,369,201832,1,0,1:0:0:0:
188,317,201990,2,0,B|162:284|124:285|124:285|77:285,1,122.759999625366,8|0,0:0|1:0,0:0:0:0:
33,117,202622,6,0,P|40:44|146:52,1,184.139999438049,4|0,3:0|1:0,0:0:0:0:
206,86,203253,2,0,L|193:160,1,61.3799998126831,8|0,0:0|0:0,0:0:0:0:
306,86,203569,2,0,L|319:160,1,61.3799998126831,0|0,1:0|0:0,0:0:0:0:
377,38,203885,2,0,P|461:34|479:117,1,184.139999438049,4|0,3:0|1:2,0:0:0:0:
450,199,204517,5,8,0:1:0:0:
367,221,204674,1,2,0:0:0:0:
317,291,204832,1,2,1:2:0:0:
317,376,204990,1,0,0:0:0:0:
238,336,205148,22,0,L|113:327,1,122.759999625366,4|2,1:0|0:0,0:0:0:0:
44,290,205622,1,0,1:0:0:0:
44,290,205780,2,0,P|24:223|62:169,1,122.759999625366,8|0,0:0|1:0,0:0:0:0:
100,21,206411,2,0,B|142:21|142:21|200:22|212:85,1,122.759999625366,4|0,3:0|0:0,0:0:0:0:
253,134,206885,1,0,1:0:0:0:
253,134,207043,2,0,P|240:172|245:210,1,61.3799998126831,8|0,0:0|0:0,0:0:0:0:
302,253,207359,2,0,L|374:241,1,61.3799998126831,0|0,1:0|0:0,0:0:0:0:
404,318,207674,6,0,L|269:340,1,122.759999625366,4|0,3:0|0:0,0:0:0:0:
197,351,208148,1,0,1:0:0:0:
164,271,208306,2,0,P|190:216|183:143,1,122.759999625366,8|0,0:0|1:0,0:0:0:0:
78,21,208938,2,0,P|55:69|53:107,1,61.3799998126831,4|0,3:0|0:0,0:0:0:0:
52,162,209253,1,2,0:0:0:0:
209,231,209569,2,0,P|230:186|230:150,1,61.3799998126831,8|0,0:0|0:0,0:0:0:0:
208,91,209885,1,0,1:0:0:0:
208,91,210043,1,0,0:0:0:0:
151,155,210201,22,0,L|170:288,1,122.759999625366,4|0,3:0|0:0,0:0:0:0:
188,360,210674,1,0,1:0:0:0:
188,360,210832,2,0,P|125:365|52:306,1,122.759999625366,8|0,0:0|1:0,0:0:0:0:
190,209,211464,2,0,P|255:206|339:246,1,122.759999625366,4|0,3:0|0:0,0:0:0:0:
355,298,211938,1,0,1:0:0:0:
355,298,212095,2,0,P|401:295|433:276,1,61.3799998126831,8|0,0:0|0:0,0:0:0:0:
460,215,212411,2,0,L|439:140,1,61.3799998126831,0|2,1:0|0:0,0:0:0:0:
473,68,212727,6,0,B|423:46|368:78|368:78|347:127|291:123,1,170.189992988388,4|0,3:0|1:0,0:0:0:0:
255,163,213359,1,8,0:0:0:0:
85,162,213674,1,0,1:0:0:0:
171,22,213990,1,4,3:0:0:0:
255,163,214306,2,0,L|325:163,1,56.7299976627961,2|0,0:0|0:0,0:0:0:0:
391,166,214622,2,0,P|442:189|501:305,1,170.189992988388,8|0,0:0|0:0,0:0:0:0:
407,331,215253,22,0,B|417:279|386:243|328:237|294:277|294:277|257:242|257:242|219:276|219:276|168:225|111:242|84:289|101:329,1,457.560006981812,4|8,1:0|0:0,0:0:0:0:
105,333,217306,1,0,0:0:0:0:
116,343,217464,1,2,0:0:0:0:
211,383,217780,6,0,P|242:348|290:336,1,76.2600011636353,2|0,0:0|0:0,0:0:0:0:
289,338,218253,1,0,0:0:0:0:
310,338,218411,2,0,P|349:327|374:284,1,76.2600011636353,8|0,0:0|0:0,0:0:0:0:
394,202,219043,2,0,L|443:184,2,38.1300005818176,2|0|2,0:0|0:0|0:0,0:0:0:0:
367,116,219674,2,0,L|395:86,2,38.1300005818176,8|0|2,0:0|0:0|0:0,0:0:0:0:
157,96,220306,38,0,B|194:54|155:-2|92:7|76:59|76:59|30:26|-16:56|-24:95|-7:137|25:149|68:147|68:147|105:148|126:166|143:200,1,457.560006981812,2|8,0:0|0:0,0:0:0:0:
135,201,222359,1,0,0:0:0:0:
133,223,222517,1,2,0:0:0:0:
256,192,222832,12,2,225359,0:0:0:0:
