osu file format v14

[General]
AudioFilename: audio.mp3
AudioLeadIn: 0
PreviewTime: 168584
Countdown: 0
SampleSet: Soft
StackLeniency: 0.4
Mode: 0
LetterboxInBreaks: 0
WidescreenStoryboard: 0

[Editor]
Bookmarks: 209,12209,24209,36209,48209,69209,72209,78209,90209,102959,114209,135209,138209,144209,156209,168584,169709,204959
DistanceSpacing: 1.3
BeatDivisor: 4
GridSize: 4
TimelineZoom: 0.9

[Metadata]
Title:...Ready For It?
TitleUnicode:...Ready For It?
Artist:Taylor Swift
ArtistUnicode:Taylor Swift
Creator:Syph
Version:Normal
Source:
Tags:kaine mithew [_L_u_k_a_s_] reputation
BeatmapID:1459969
BeatmapSetID:683816

[Difficulty]
HPDrainRate:3.5
CircleSize:3
OverallDifficulty:4
ApproachRate:6
SliderMultiplier:1.2
SliderTickRate:1

[Events]
//Background and Video events
0,0,"aaaaaaaaaaaaaawhy.png",0,0
//Break Periods
2,48409,59084
2,114409,125084
2,156409,167459
//Storyboard Layer 0 (Background)
//Storyboard Layer 1 (Fail)
//Storyboard Layer 2 (Pass)
//Storyboard Layer 3 (Foreground)
//Storyboard Sound Samples

[TimingPoints]
209,375.0,4,2,0,55,1,0
2459,-100.0,4,2,0,5,0,0
3209,-100.0,4,2,0,55,0,0
9584,-100.0,4,2,0,60,0,0
9959,-100.0,4,2,0,63,0,0
10334,-100.0,4,2,0,66,0,0
12209,-100.0,4,2,0,60,0,0
45209,-100.0,4,2,0,65,0,0
46709,-100.0,4,2,0,70,0,0
48209,-100.0,4,2,0,50,0,0
72115,-100.0,4,2,0,5,0,0
72209,-100.0,4,2,0,65,0,0
78209,-100.0,4,2,0,70,0,0
114209,-100.0,4,2,0,50,0,0
138115,-100.0,4,2,0,5,0,0
138209,-100.0,4,2,0,65,0,0
144209,-100.0,4,2,0,70,0,0
168584,-100.0,4,2,0,60,0,0
169709,-100.0,4,2,0,80,0,1
204959,-100.0,4,2,0,50,0,0

[Colours]
Combo1 : 166,255,210
Combo2 : 255,138,138
Combo3 : 155,190,255
Combo4 : 181,154,250

[HitObjects]
110,82,209,6,0,L|371:65,2,240,4|8|8,3:0|3:0|3:0,0:0:0:0:
56,173,3209,6,0,L|317:156,2,240,4|8|4,3:0|3:0|3:0,0:0:0:0:
314,347,5459,2,0,P|323:304|311:255,2,90,2|0|2,3:0|0:0|3:0,0:0:0:0:
236,358,6209,6,0,L|497:375,3,240,4|8|4|2,3:0|3:0|3:0|3:0,0:0:0:0:
183,264,9209,5,8,3:0:0:0:
327,205,9584,1,8,3:0:0:0:
180,150,9959,2,0,P|174:125|183:86,2,60,8|0|8,3:0|0:0|3:0,0:0:0:0:
247,201,10521,1,0,0:0:0:0:
247,201,10709,2,0,P|272:207|311:198,2,60,4|0|4,3:0|0:0|3:0,0:0:0:0:
176,234,11271,1,0,0:0:0:0:
176,234,11459,2,0,P|168:195|269:123,1,180,8|8,3:0|3:0,0:0:0:0:
313,185,12209,6,0,L|324:46,2,120,4|0|0,3:0|0:0|0:0,0:0:0:0:
369,249,13146,1,0,0:0:0:0:
369,249,13334,2,0,P|405:256|431:249,1,60,8|0,3:0|0:0,0:0:0:0:
496,214,13709,2,0,P|507:177|495:91,1,120,0|2,0:0|3:0,0:0:0:0:
346,58,14459,1,0,1:0:0:0:
346,58,14646,2,0,P|339:21|345:-7,2,60,0|0|0,0:0|0:0|0:0,0:0:0:0:
399,115,15209,6,0,L|270:106,1,120,8|0,3:0|0:0,0:0:0:0:
211,145,15771,1,8,3:0:0:0:
211,145,15959,2,0,P|206:186|208:207,1,60,0|0,0:0|0:0,0:0:0:0:
221,281,16334,1,4,3:0:0:0:
74,226,16709,2,0,B|62:282|62:282|80:346,1,120,0|2,0:0|3:0,0:0:0:0:
221,281,17459,2,0,L|316:292,2,90,0|0|2,1:0|0:0|3:0,0:0:0:0:
170,221,18209,6,0,P|157:166|181:97,1,120,8|0,3:0|0:0,0:0:0:0:
228,50,18771,1,8,3:0:0:0:
228,50,18959,2,0,P|262:45|289:49,1,60,0|0,0:0|0:0,0:0:0:0:
343,102,19334,2,0,P|377:107|404:103,1,60,4|0,3:0|0:0,0:0:0:0:
474,73,19709,1,0,0:0:0:0:
509,224,20084,2,0,P|455:238|385:224,1,120,2|2,3:0|3:0,0:0:0:0:
320,197,20646,1,0,0:0:0:0:
320,197,20834,2,0,P|314:220|318:256,1,60,0|0,0:0|0:0,0:0:0:0:
377,306,21209,6,0,P|428:318|502:312,2,120,4|8|8,3:0|3:0|3:0,0:0:0:0:
317,255,22146,1,0,0:0:0:0:
260,201,22334,2,0,P|233:196|201:204,2,60,8|0|4,3:0|0:0|3:0,0:0:0:0:
324,157,22896,1,0,0:0:0:0:
324,157,23084,2,0,P|329:130|321:98,1,60,8|0,3:0|0:0,0:0:0:0:
275,35,23459,2,0,P|234:18|96:56,1,180,8|8,3:0|3:0,0:0:0:0:
62,111,24209,6,0,B|44:165|44:165|65:237,2,120,0|0|0,3:0|3:0|1:0,0:0:0:0:
112,51,25146,1,0,0:0:0:0:
112,51,25334,2,0,P|154:47|175:52,1,60,8|0,3:0|0:0,0:0:0:0:
245,75,25709,1,0,0:0:0:0:
236,230,26084,2,0,B|296:246|296:246|371:229,1,120,2|0,3:0|1:0,0:0:0:0:
422,198,26646,1,0,0:0:0:0:
422,198,26834,2,0,P|430:228|425:264,1,60,0|0,0:0|0:0,0:0:0:0:
372,312,27209,6,0,P|330:324|248:318,1,120,8|0,3:0|0:0,0:0:0:0:
181,292,27771,1,8,3:0:0:0:
181,292,27959,2,0,P|177:257|181:228,1,60,0|0,1:0|0:0,0:0:0:0:
229,171,28334,2,0,P|233:136|229:107,1,60,8|0,3:0|0:0,0:0:0:0:
176,54,28709,2,0,P|135:47|54:56,1,120,0|2,0:0|3:0,0:0:0:0:
17,206,29459,2,0,B|6:251|6:251|18:299,2,90,0|0|2,1:0|0:0|3:0,0:0:0:0:
68,146,30209,6,0,P|108:137|196:150,1,120,8|0,3:0|0:0,0:0:0:0:
243,209,30771,1,8,3:0:0:0:
243,209,30959,2,0,P|247:251|243:272,1,60,0|0,1:0|0:0,0:0:0:0:
292,329,31334,2,0,P|329:331|360:329,1,60,8|0,3:0|0:0,0:0:0:0:
396,264,31709,2,0,P|409:218|393:138,1,120,0|2,3:0|3:0,0:0:0:0:
273,54,32459,2,0,P|223:43|154:59,1,120,0|0,1:0|0:0,0:0:0:0:
94,105,33021,1,0,0:0:0:0:
94,105,33209,6,0,P|91:151|96:172,1,60,4|0,3:0|0:0,0:0:0:0:
142,225,33584,2,0,P|145:271|140:292,1,60,8|0,3:0|0:0,0:0:0:0:
87,339,33959,2,0,P|57:344|19:338,2,60,8|0|8,3:0|0:0|3:0,0:0:0:0:
161,360,34521,1,0,0:0:0:0:
218,307,34709,2,0,P|255:303|283:308,1,60,4|0,3:0|0:0,0:0:0:0:
345,344,35084,2,0,P|382:348|410:343,1,60,8|0,3:0|0:0,0:0:0:0:
475,311,35459,2,0,P|500:255|468:141,1,180,8|8,3:0|3:0,0:0:0:0:
427,80,36209,6,0,B|345:61|345:61|230:86,1,180,6|4,1:2|3:0,0:0:0:0:
197,137,36959,2,0,B|190:167|190:167|197:198,1,60,0|0,1:0|0:0,0:0:0:0:
250,251,37334,2,0,B|280:258|280:258|311:251,1,60,8|0,1:3|0:0,0:0:0:0:
375,211,37709,1,0,0:0:0:0:
496,112,38084,1,4,3:0:0:0:
375,14,38459,1,2,1:3:0:0:
254,112,38834,2,0,P|214:116|192:110,1,60,0|0,0:0|0:0,0:0:0:0:
131,65,39209,6,0,B|108:100|108:100|123:249,1,180,4|0,3:0|0:0,0:0:0:0:
180,289,39959,2,0,B|210:296|210:296|241:289,1,60,2|0,1:3|0:0,0:0:0:0:
294,236,40334,2,0,B|301:206|301:206|294:175,1,60,8|0,3:0|0:0,0:0:0:0:
254,111,40709,1,0,0:0:0:0:
127,202,41084,1,4,3:0:0:0:
0,111,41459,2,0,P|43:86|124:103,1,120,8|0,1:3|0:0,0:0:0:0:
235,187,42209,6,0,B|330:210|330:210|421:192,1,180,4|0,3:0|0:0,0:0:0:0:
466,139,42959,2,0,B|472:111|472:111|464:71,1,60,2|0,1:3|0:0,0:0:0:0:
408,26,43334,2,0,B|380:20|380:20|340:28,1,60,8|0,3:0|0:0,0:0:0:0:
288,75,43709,1,0,0:0:0:0:
196,201,44084,1,8,3:0:0:0:
288,327,44459,1,2,1:3:0:0:
414,235,44834,2,0,P|446:230|478:235,1,60,0|0,0:0|0:0,0:0:0:0:
504,305,45209,6,0,L|515:171,2,120,6|8|10,1:3|3:0|1:3,0:0:0:0:
443,353,46146,1,0,0:0:0:0:
443,353,46334,2,0,P|406:359|381:355,1,60,8|0,3:0|0:0,0:0:0:0:
317,314,46709,2,0,B|289:309|289:309|256:313,1,60,6|0,1:3|0:0,0:0:0:0:
184,339,47084,2,0,B|156:344|156:344|123:340,1,60,6|0,1:3|0:0,0:0:0:0:
65,289,47459,2,0,B|37:202|37:202|61:111,1,180,6|8,1:3|3:0,0:0:0:0:
99,48,48209,1,2,0:0:0:0:
122,175,60209,6,0,L|324:155,2,180,2|2|2,3:2|3:2|3:2,0:0:0:0:
256,254,61709,2,0,L|458:234,2,180,2|2|2,3:2|3:2|3:2,0:0:0:0:
118,178,63209,6,0,L|98:-24,2,180,2|2|2,1:2|3:2|3:2,0:0:0:0:
239,275,64709,2,0,L|219:73,2,180,2|2|2,0:0|0:0|3:2,0:0:0:0:
325,145,66209,6,0,L|527:125,2,180,2|2|2,0:0|0:0|0:0,0:0:0:0:
197,54,67709,2,0,L|399:34,2,180,2|2|2,1:2|0:0|0:0,0:0:0:0:
41,74,69209,5,2,0:0:0:0:
262,142,71084,6,0,L|272:16,2,120,0|0|0,0:0|0:0|0:0,0:0:0:0:
252,297,72209,5,6,1:2:0:0:
252,297,72959,2,0,B|346:322|346:322|435:297,1,180,4|0,3:0|0:0,0:0:0:0:
477,241,73709,2,0,B|502:147|502:147|477:58,1,180,4|0,3:0|0:0,0:0:0:0:
427,9,74459,1,2,1:3:0:0:
261,273,75209,6,0,L|70:257,1,180,4|0,3:0|0:0,0:0:0:0:
78,179,75959,2,0,L|269:195,1,180,8|0,3:0|0:0,0:0:0:0:
261,115,76709,2,0,L|70:99,1,180,8|0,3:0|0:0,0:0:0:0:
101,24,77459,2,0,L|194:32,2,90,2|0|0,1:3|0:0|0:0,0:0:0:0:
25,42,78209,6,0,P|4:73|19:153,1,120,4|0,1:3|3:0,0:0:0:0:
81,205,78771,1,8,3:0:0:0:
81,205,78959,2,0,P|87:236|80:276,1,60,0|0,1:0|0:0,0:0:0:0:
75,341,79334,2,0,P|114:343|147:338,1,60,8|0,3:0|0:0,0:0:0:0:
206,309,79709,1,2,3:0:0:0:
287,175,80084,1,6,3:0:0:0:
206,41,80459,2,0,P|198:78|207:170,1,120,0|0,1:0|0:0,0:0:0:0:
233,238,81021,1,0,3:0:0:0:
233,238,81209,6,0,P|236:283|230:309,2,60,4|0|0,3:0|0:0|3:0,0:0:0:0:
287,175,81771,1,8,3:0:0:0:
287,175,81959,2,0,P|318:171|346:174,1,60,0|0,1:0|0:0,0:0:0:0:
401,229,82334,2,0,P|432:233|460:230,1,60,8|0,3:0|0:0,0:0:0:0:
511,170,82709,1,2,3:0:0:0:
453,315,83084,1,2,1:3:0:0:
395,170,83459,2,0,B|383:127|383:127|394:77,2,90,0|0|2,1:0|0:0|3:0,0:0:0:0:
448,227,84209,6,0,L|313:218,1,120,4|0,3:0|0:0,0:0:0:0:
261,178,84771,1,8,3:0:0:0:
261,178,84959,2,0,P|257:148|263:111,1,60,0|0,1:0|0:0,0:0:0:0:
272,41,85334,2,0,P|242:37|205:43,1,60,2|0,3:0|0:0,0:0:0:0:
143,76,85709,1,0,0:0:0:0:
39,192,86084,1,2,1:3:0:0:
143,308,86459,2,0,P|180:316|267:308,1,120,0|0,1:0|0:0,0:0:0:0:
324,262,87021,1,2,3:0:0:0:
324,262,87209,6,0,P|333:217|319:133,2,120,4|8|4,3:0|3:0|3:0,0:0:0:0:
266,315,88146,1,8,3:0:0:0:
266,315,88334,2,0,P|235:319|205:315,1,60,4|8,3:0|3:0,0:0:0:0:
162,250,88709,2,0,P|131:246|101:250,1,60,4|8,3:0|3:0,0:0:0:0:
38,204,89084,2,0,P|34:173|38:143,1,60,4|8,3:0|3:0,0:0:0:0:
76,76,89459,2,0,P|154:44|236:92,1,180,12|8,3:0|3:0,0:0:0:0:
257,161,90209,6,0,B|312:184|312:184|384:172,1,120,6|0,1:2|0:0,0:0:0:0:
435,128,90771,1,8,3:0:0:0:
435,128,90959,2,0,P|450:160|447:192,1,60,0|0,1:0|0:0,0:0:0:0:
405,248,91334,1,8,3:0:0:0:
277,338,91709,2,0,P|221:353|154:327,1,120,0|8,3:0|3:0,0:0:0:0:
54,222,92459,2,0,B|32:165|32:165|54:98,1,120,2|0,1:3|0:0,0:0:0:0:
115,66,93021,1,0,0:0:0:0:
115,66,93209,6,0,L|237:63,1,120,4|0,3:0|0:0,0:0:0:0:
295,124,93771,1,8,3:0:0:0:
295,124,93959,2,0,L|365:121,1,60,2|0,1:3|0:0,0:0:0:0:
421,162,94334,2,0,P|425:195|421:225,1,60,8|0,3:0|0:0,0:0:0:0:
365,275,94709,2,0,L|505:269,2,120,0|8|2,0:0|3:0|1:3,0:0:0:0:
365,275,96209,6,0,P|343:245|252:252,1,120,4|0,3:0|0:0,0:0:0:0:
202,286,96771,1,8,3:0:0:0:
202,286,96959,2,0,B|167:294|167:294|132:284,1,60,0|0,1:0|0:0,0:0:0:0:
88,232,97334,2,0,P|83:194|89:167,1,60,8|0,3:0|0:0,0:0:0:0:
136,112,97709,2,0,P|194:101|266:115,1,120,0|8,3:0|3:0,0:0:0:0:
389,187,98459,2,0,B|406:243|406:243|390:311,1,120,0|0,1:0|0:0,0:0:0:0:
329,349,99021,1,0,3:0:0:0:
263,305,99209,6,0,P|218:314|134:300,2,120,6|8|6,1:3|3:0|1:3,0:0:0:0:
316,247,100146,1,8,3:0:0:0:
316,247,100334,2,0,P|320:216|316:186,1,60,4|8,3:0|3:0,0:0:0:0:
251,143,100709,2,0,P|247:112|251:82,1,60,6|8,1:3|3:0,0:0:0:0:
205,20,101084,2,0,P|174:16|144:20,1,60,4|8,1:3|3:0,0:0:0:0:
77,57,101459,2,0,P|45:135|93:217,1,180,6|8,1:3|3:0,0:0:0:0:
145,267,102209,6,0,B|227:286|227:286|342:261,1,180,2|0,0:0|0:0,0:0:0:0:
375,210,102959,2,0,B|382:180|382:180|375:149,1,60,6|0,1:2|0:0,0:0:0:0:
322,96,103334,2,0,B|292:89|292:89|261:96,1,60,8|0,3:0|0:0,0:0:0:0:
197,136,103709,1,0,3:0:0:0:
76,235,104084,1,4,3:0:0:0:
197,333,104459,1,2,1:3:0:0:
322,240,104834,2,0,P|362:236|384:242,1,60,0|0,3:0|0:0,0:0:0:0:
381,319,105209,6,0,B|404:284|404:284|389:135,1,180,4|8,3:0|3:0,0:0:0:0:
332,95,105959,2,0,B|302:88|302:88|271:95,1,60,2|0,1:3|0:0,0:0:0:0:
218,148,106334,2,0,B|211:178|211:178|218:209,1,60,4|0,3:0|0:0,0:0:0:0:
258,273,106709,1,0,3:0:0:0:
385,182,107084,1,4,3:0:0:0:
512,273,107459,2,0,P|469:298|388:281,1,120,2|0,1:3|3:0,0:0:0:0:
277,197,108209,6,0,B|182:174|182:174|91:192,1,180,4|0,3:0|3:0,0:0:0:0:
46,245,108959,2,0,B|40:273|40:273|48:313,1,60,2|0,1:3|0:0,0:0:0:0:
104,358,109334,2,0,B|132:364|132:364|172:356,1,60,4|0,3:0|0:0,0:0:0:0:
224,309,109709,1,0,3:0:0:0:
316,183,110084,1,4,3:0:0:0:
224,57,110459,1,2,1:3:0:0:
98,149,110834,2,0,P|66:154|34:149,1,60,0|0,0:0|0:0,0:0:0:0:
8,79,111209,6,0,L|-3:213,2,120,6|8|6,1:3|3:0|1:3,0:0:0:0:
69,31,112146,1,8,3:0:0:0:
69,31,112334,2,0,P|106:25|131:29,1,60,4|8,3:0|3:0,0:0:0:0:
195,70,112709,2,0,B|223:75|223:75|256:71,1,60,6|8,1:3|3:0,0:0:0:0:
328,45,113084,2,0,B|356:40|356:40|389:44,1,60,6|8,1:3|3:0,0:0:0:0:
447,95,113459,2,0,B|475:182|475:182|451:273,1,180,6|8,1:3|3:0,0:0:0:0:
413,336,114209,1,2,0:0:0:0:
390,175,126209,6,0,L|188:155,2,180,2|2|2,3:2|3:2|3:2,0:0:0:0:
256,254,127709,2,0,L|54:234,2,180,2|2|2,3:2|3:2|3:2,0:0:0:0:
394,178,129209,6,0,L|414:-24,2,180,2|2|2,1:2|3:2|3:2,0:0:0:0:
273,275,130709,2,0,L|293:73,2,180,2|2|2,0:0|0:0|3:2,0:0:0:0:
187,145,132209,6,0,L|-15:125,2,180,2|2|2,0:0|0:0|0:0,0:0:0:0:
315,54,133709,2,0,L|113:34,2,180,2|2|2,1:2|0:0|0:0,0:0:0:0:
471,74,135209,5,2,0:0:0:0:
250,142,137084,6,0,L|240:16,2,120,0|0|0,0:0|0:0|0:0,0:0:0:0:
260,297,138209,5,6,1:2:0:0:
260,297,138959,2,0,B|166:322|166:322|77:297,1,180,4|0,3:0|0:0,0:0:0:0:
35,241,139709,2,0,B|10:147|10:147|35:58,1,180,4|0,3:0|0:0,0:0:0:0:
85,9,140459,1,2,1:3:0:0:
251,273,141209,6,0,L|442:257,1,180,4|0,3:0|0:0,0:0:0:0:
434,179,141959,2,0,L|243:195,1,180,8|0,3:0|0:0,0:0:0:0:
251,115,142709,2,0,L|442:99,1,180,8|0,3:0|0:0,0:0:0:0:
411,24,143459,2,0,L|318:32,2,90,2|0|0,1:3|0:0|0:0,0:0:0:0:
487,42,144209,6,0,P|508:73|493:153,1,120,4|0,3:0|3:0,0:0:0:0:
434,199,144771,1,8,3:0:0:0:
434,199,144959,2,0,P|428:230|435:270,1,60,0|0,1:0|0:0,0:0:0:0:
440,335,145334,2,0,P|401:337|368:332,1,60,8|0,3:0|0:0,0:0:0:0:
306,309,145709,1,2,3:0:0:0:
225,175,146084,1,6,3:0:0:0:
306,41,146459,2,0,P|314:78|305:170,1,120,0|0,1:0|0:0,0:0:0:0:
279,238,147021,1,0,3:0:0:0:
279,238,147209,6,0,P|276:283|282:309,2,60,4|0|0,3:0|0:0|3:0,0:0:0:0:
225,175,147771,1,8,3:0:0:0:
225,175,147959,2,0,P|194:171|166:174,1,60,0|0,1:0|0:0,0:0:0:0:
110,230,148334,2,0,P|79:234|51:231,1,60,8|0,3:0|0:0,0:0:0:0:
1,170,148709,1,0,3:0:0:0:
59,315,149084,1,2,1:3:0:0:
117,170,149459,2,0,B|129:127|129:127|118:77,2,90,0|0|2,1:0|0:0|3:0,0:0:0:0:
64,227,150209,6,0,L|199:218,1,120,4|0,3:0|0:0,0:0:0:0:
251,178,150771,1,8,3:0:0:0:
251,178,150959,2,0,P|255:148|249:111,1,60,0|0,1:0|0:0,0:0:0:0:
240,41,151334,2,0,P|270:37|307:43,1,60,2|0,3:0|0:0,0:0:0:0:
369,76,151709,1,0,0:0:0:0:
473,192,152084,1,2,1:3:0:0:
369,308,152459,2,0,P|332:316|245:308,1,120,0|0,1:0|0:0,0:0:0:0:
188,262,153021,1,2,3:0:0:0:
188,262,153209,6,0,P|179:217|193:133,2,120,6|8|6,1:3|3:0|1:3,0:0:0:0:
252,318,154146,1,8,3:0:0:0:
252,318,154334,2,0,P|283:322|313:318,1,60,4|8,3:0|3:0,0:0:0:0:
350,250,154709,2,0,P|381:246|411:250,1,60,6|8,1:3|3:0,0:0:0:0:
474,204,155084,2,0,P|478:173|474:143,1,60,6|8,1:3|3:0,0:0:0:0:
436,76,155459,2,0,P|358:44|276:92,1,180,6|8,1:3|3:0,0:0:0:0:
255,161,156209,5,6,1:2:0:0:
262,98,168584,6,0,P|306:120|182:176,1,300,2|0,0:0|0:0,0:0:0:0:
146,127,169709,6,0,B|87:112|87:112|31:128,1,120,6|0,1:2|0:0,0:0:0:0:
1,203,170271,1,8,3:0:0:0:
1,203,170459,2,0,B|-4:238|-4:238|2:276,1,60,2|0,1:3|0:0,0:0:0:0:
48,323,170834,1,8,3:0:0:0:
190,257,171209,2,0,P|202:207|185:132,1,120,0|8,3:0|3:0,0:0:0:0:
93,17,171959,2,0,B|124:12|124:12|159:19,1,60,2|0,1:3|0:0,0:0:0:0:
219,56,172334,2,0,B|251:65|286:56,1,60,2|0,0:0|0:0,0:0:0:0:
354,41,172709,6,0,P|364:97|349:168,1,120,2|0,1:3|0:0,0:0:0:0:
309,223,173271,1,8,3:0:0:0:
309,223,173459,2,0,B|278:228|278:228|247:223,1,60,2|0,1:3|0:0,0:0:0:0:
185,177,173834,1,8,3:0:0:0:
119,318,174209,2,0,P|90:323|54:316,1,60,2|0,0:0|0:0,0:0:0:0:
13,255,174584,2,0,P|8:226|15:190,1,60,2|0,3:2|0:0,0:0:0:0:
58,132,174959,2,0,P|87:127|123:134,1,60,2|0,1:3|0:0,0:0:0:0:
164,195,175334,2,0,P|169:224|162:260,1,60,2|0,0:0|0:0,0:0:0:0:
119,318,175709,6,0,P|158:305|248:320,1,120,6|0,3:2|0:0,0:0:0:0:
306,358,176271,1,8,3:0:0:0:
306,358,176459,2,0,B|334:363|334:363|369:359,1,60,2|0,1:3|0:0,0:0:0:0:
433,321,176834,1,8,3:0:0:0:
511,186,177209,2,0,P|524:135|511:66,1,120,0|8,3:0|3:0,0:0:0:0:
364,19,177959,2,0,B|358:49|358:49|364:85,1,60,2|0,1:3|0:0,0:0:0:0:
396,148,178334,2,0,B|402:178|402:178|396:214,1,60,0|0,3:0|0:0,0:0:0:0:
344,264,178709,6,0,P|297:278|216:261,1,120,4|0,3:0|0:0,0:0:0:0:
164,220,179271,1,8,3:0:0:0:
164,220,179459,2,0,B|155:193|155:193|165:149,1,60,2|0,1:3|0:0,0:0:0:0:
198,93,179834,2,0,P|163:84|91:129,1,120,8|2,3:0|0:0,0:0:0:0:
65,200,180396,1,8,3:0:0:0:
65,200,180584,2,0,P|59:241|64:265,1,60,4|0,3:0|0:0,0:0:0:0:
121,310,180959,2,0,P|162:316|186:311,1,60,2|0,1:3|0:0,0:0:0:0:
238,261,181334,2,0,P|244:220|239:196,1,60,0|0,1:0|0:0,0:0:0:0:
187,145,181709,6,0,P|226:124|299:147,1,120,6|2,1:2|0:0,0:0:0:0:
345,212,182271,1,8,3:0:0:0:
345,212,182459,2,0,B|376:217|376:217|411:214,1,60,2|0,1:3|0:0,0:0:0:0:
475,180,182834,1,8,3:0:0:0:
366,68,183209,2,0,P|314:57|246:69,1,120,2|8,0:0|3:0,0:0:0:0:
109,139,183959,2,0,B|102:170|102:170|109:208,1,60,2|0,1:3|0:0,0:0:0:0:
167,246,184334,2,0,P|171:282|164:313,1,60,2|0,0:0|0:0,0:0:0:0:
121,368,184709,6,0,P|164:344|253:365,1,120,4|0,3:0|0:0,0:0:0:0:
303,319,185271,1,8,3:0:0:0:
303,319,185459,2,0,B|316:258|316:258|303:194,1,120,2|8,1:3|3:0,0:0:0:0:
287,125,186021,1,0,0:0:0:0:
287,125,186209,2,0,B|256:121|256:121|221:128,1,60,2|0,0:0|3:0,0:0:0:0:
177,186,186584,2,0,B|146:190|146:190|111:183,1,60,4|0,3:0|0:0,0:0:0:0:
57,133,186959,2,0,B|53:102|53:102|60:67,1,60,2|0,1:3|0:0,0:0:0:0:
117,21,187334,2,0,B|148:17|148:17|183:24,1,60,2|0,0:0|0:0,0:0:0:0:
227,81,187709,6,0,P|288:95|352:83,1,120,6|0,1:2|0:0,0:0:0:0:
418,60,188271,1,8,3:0:0:0:
418,60,188459,2,0,B|424:91|424:91|418:126,1,60,2|0,1:3|0:0,0:0:0:0:
386,189,188834,1,8,3:0:0:0:
250,266,189209,1,2,0:0:0:0:
114,189,189584,2,0,P|64:179|-6:191,2,120,10|2|2,3:0|1:3|0:0,0:0:0:0:
250,266,190709,6,0,P|262:212|254:148,1,120,4|2,3:0|0:0,0:0:0:0:
196,95,191271,1,8,3:0:0:0:
196,95,191459,2,0,B|189:68|189:68|196:28,1,60,2|0,1:3|0:0,0:0:0:0:
264,0,191834,1,8,3:0:0:0:
359,123,192209,1,2,0:0:0:0:
264,246,192584,2,0,P|236:252|206:248,1,60,2|0,0:0|0:0,0:0:0:0:
150,191,192959,2,0,P|144:163|148:133,1,60,2|0,1:3|0:0,0:0:0:0:
198,72,193334,2,0,P|226:66|256:70,1,60,2|0,0:0|0:0,0:0:0:0:
310,127,193709,6,0,B|296:169|296:169|308:223,2,90,6|0|8,1:2|0:0|3:0,0:0:0:0:
370,76,194459,2,0,B|415:67|415:67|466:78,2,90,0|0|0,1:0|0:0|0:0,0:0:0:0:
297,104,195209,1,2,0:0:0:0:
151,48,195584,2,0,P|148:89|153:114,1,60,8|0,3:0|0:0,0:0:0:0:
190,175,195959,2,0,B|204:218|204:218|192:272,2,90,0|0|0,1:0|0:0|0:0,0:0:0:0:
132,122,196709,5,6,3:0:0:0:
41,337,197271,1,8,3:0:0:0:
41,337,197459,2,0,B|85:345|85:345|148:336,2,90,6|0|0,1:3|0:0|0:0,0:0:0:0:
2,268,198209,2,0,P|-8:221|6:141,1,120,2|2,0:0|3:2,0:0:0:0:
57,95,198771,1,0,0:0:0:0:
57,95,198959,2,0,P|96:87|123:96,1,60,2|0,1:3|0:0,0:0:0:0:
171,146,199334,2,0,P|210:154|237:145,1,60,2|0,0:0|0:0,0:0:0:0:
304,128,199709,6,0,B|290:170|290:170|302:224,2,90,8|0|8,3:0|0:0|3:0,0:0:0:0:
364,77,200459,2,0,B|409:68|409:68|460:79,2,90,0|0|0,1:0|0:0|0:0,0:0:0:0:
291,105,201209,1,2,0:0:0:0:
151,48,201584,2,0,P|148:89|153:114,1,60,8|2,3:0|0:0,0:0:0:0:
190,175,201959,2,0,B|204:218|204:218|192:272,2,90,2|0|0,1:3|0:0|0:0,0:0:0:0:
132,122,202709,5,8,3:0:0:0:
41,337,203271,1,8,3:0:0:0:
41,337,203459,2,0,B|85:345|85:345|148:336,2,90,2|0|0,1:3|0:0|0:0,0:0:0:0:
2,268,204209,2,0,P|-8:221|6:141,1,120,2|4,0:0|3:0,0:0:0:0:
57,95,204771,1,0,0:0:0:0:
57,95,204959,1,0,0:0:0:0:
