osu file format v14

[General]
AudioFilename: audio.mp3
AudioLeadIn: 0
PreviewTime: 168584
Countdown: 0
SampleSet: Soft
StackLeniency: 0.4
Mode: 0
LetterboxInBreaks: 0
WidescreenStoryboard: 0

[Editor]
Bookmarks: 209,12209,24209,36209,48209,69209,72209,78209,90209,102959,114209,135209,138209,144209,156209,168584,169709,204959
DistanceSpacing: 1.4
BeatDivisor: 4
GridSize: 4
TimelineZoom: 1.5

[Metadata]
Title:...Ready For It?
TitleUnicode:...Ready For It?
Artist:Taylor Swift
ArtistUnicode:Taylor Swift
Creator:Syph
Version:Lukas' Hard
Source:
Tags:kaine mithew [_L_u_k_a_s_] reputation
BeatmapID:1459968
BeatmapSetID:683816

[Difficulty]
HPDrainRate:5
CircleSize:3.5
OverallDifficulty:5
ApproachRate:8
SliderMultiplier:1.4
SliderTickRate:1

[Events]
//Background and Video events
0,0,"aaaaaaaaaaaaaawhy.png",0,0
//Break Periods
2,156409,168584
//Storyboard Layer 0 (Background)
//Storyboard Layer 1 (Fail)
//Storyboard Layer 2 (Pass)
//Storyboard Layer 3 (Foreground)
//Storyboard Sound Samples

[TimingPoints]
209,375,4,2,0,55,1,0
209,-153.846153846154,4,2,0,55,0,0
2459,-153.846153846154,4,2,0,5,0,0
3209,-153.846153846154,4,2,0,55,0,0
9584,-117.647058823529,4,2,0,60,0,0
9959,-90.9090909090909,4,2,0,63,0,0
10334,-74.0740740740741,4,2,0,66,0,0
12209,-111.111111111111,4,2,0,60,0,0
45209,-111.111111111111,4,2,0,65,0,0
45584,-100,4,2,0,65,0,0
46709,-100,4,2,0,70,0,0
48209,-100,4,2,0,50,0,0
69209,-200,4,2,0,50,0,0
69302,-200,4,2,0,50,0,0
72115,-200,4,2,0,5,0,0
72209,-76.9230769230769,4,2,0,65,0,1
72302,-76.9230769230769,4,2,0,65,0,0
77459,-133.333333333333,4,2,0,65,0,0
78209,-133.333333333333,4,2,0,70,0,1
78302,-133.333333333333,4,2,0,70,0,0
78584,-111.111111111111,4,2,0,70,0,0
90209,-111.111111111111,4,2,0,70,0,1
90302,-125,4,2,0,70,0,0
102959,-111.111111111111,4,2,0,70,0,1
103052,-111.111111111111,4,2,0,70,0,0
114209,-100,4,2,0,50,0,0
135209,-200,4,2,0,50,0,0
135302,-200,4,2,0,50,0,0
138115,-200,4,2,0,5,0,0
138209,-76.9230769230769,4,2,0,65,0,1
138302,-76.9230769230769,4,2,0,65,0,0
143459,-133.333333333333,4,2,0,65,0,0
144209,-133.333333333333,4,2,0,70,0,1
144302,-133.333333333333,4,2,0,70,0,0
144584,-100,4,2,0,70,0,0
168584,-100,4,2,0,60,0,0
169709,-83.3333333333333,4,2,0,80,0,1
204959,-100,4,2,0,50,0,0

[Colours]
Combo1 : 166,255,210
Combo2 : 255,138,138
Combo3 : 155,190,255
Combo4 : 181,154,250

[HitObjects]
52,123,209,6,0,P|95:84|217:62,1,181.999991668702,4|8,3:0|3:0,0:0:0:0:
359,270,1709,2,0,P|316:231|194:209,1,181.999991668702,8|0,3:0|0:0,0:0:0:0:
197,208,3209,6,0,B|212:164|212:164|185:82|185:82|197:15,1,181.999991668702,4|8,3:0|3:0,0:0:0:0:
439,101,4709,2,0,B|454:145|454:145|427:227|427:227|433:268,1,159.249992710114,4|0,3:0|0:0,0:0:0:0:
442,283,5459,2,0,B|482:269|482:269|494:293,2,68.2499968757631,2|0|2,3:0|0:0|3:0,0:0:0:0:
357,312,6209,6,0,B|380:266|352:234|309:193|344:127,1,181.999991668702,4|8,3:0|3:0,0:0:0:0:
100,47,7709,2,0,B|77:93|105:125|141:149|113:232,1,181.999991668702,4|2,3:0|3:0,0:0:0:0:
116,221,9209,6,0,P|181:189|201:187,1,90.9999958343508,8|8,3:0|3:0,0:0:0:0:
246,12,9959,6,0,P|291:35|308:63,1,77.0000023498536,8|0,3:0|0:0,0:0:0:0:
417,37,10334,6,0,P|419:87|397:128,1,94.5000003604889,8|0,3:0|0:0,0:3:0:0:
329,219,10709,5,4,3:0:0:0:
329,219,10896,1,0,0:0:0:0:
219,187,11084,1,4,3:0:0:0:
219,187,11271,1,0,0:0:0:0:
127,253,11459,1,8,3:0:0:0:
127,253,11552,1,0,0:0:0:0:
127,253,11646,2,0,L|137:313,5,47.2500001802444,8|0|8|0|8|0,3:0|0:0|3:0|0:0|3:0|0:0,0:0:0:0:
153,320,12209,6,0,P|209:294|278:315,1,125.999996154785,4|0,3:0|0:0,0:0:0:0:
332,384,12771,2,0,P|276:358|207:379,1,125.999996154785,8|0,3:0|0:0,0:0:0:0:
127,374,13334,2,0,P|88:377|39:365,1,62.9999980773926,8|0,3:0|0:0,0:0:0:0:
26,293,13709,6,0,P|57:289|88:293,1,62.9999980773926,0|0,0:0|0:0,0:0:0:0:
176,297,14084,1,2,3:0:0:0:
176,297,14459,2,0,L|318:285,1,125.999996154785,0|0,1:0|0:0,0:0:0:0:
332,112,15209,6,0,L|206:101,1,125.999996154785,8|0,3:0|0:0,0:0:0:0:
126,62,15771,2,0,P|160:98|163:180,1,125.999996154785,8|0,3:0|0:0,0:0:0:0:
174,260,16334,2,0,P|206:241|240:236,1,62.9999980773926,4|0,3:0|0:0,0:0:0:0:
300,290,16709,6,0,P|353:313|448:300,1,125.999996154785,0|2,0:0|3:0,0:0:0:0:
449,136,17459,2,0,B|442:112|442:112|454:74|454:74|438:18,2,94.499997116089,0|0|2,1:0|0:0|3:0,0:0:0:0:
407,214,18209,6,0,L|273:204,1,125.999996154785,8|0,3:0|0:0,0:0:0:0:
229,133,18771,2,0,L|95:143,1,125.999996154785,8|0,3:0|0:0,0:0:0:0:
59,219,19334,2,0,L|43:300,1,62.9999980773926,4|0,3:0|0:0,0:0:0:0:
102,349,19709,6,0,P|162:327|224:339,1,125.999996154785,0|2,0:0|3:0,0:0:0:0:
395,370,20459,2,0,L|385:243,1,125.999996154785,2|0,3:0|0:0,0:0:0:0:
321,90,21209,5,4,3:0:0:0:
321,90,21584,1,8,3:0:0:0:
321,90,21959,2,0,B|256:87,1,62.9999980773926,8|0,3:0|0:0,0:0:0:0:
190,22,22334,2,0,B|125:19,1,62.9999980773926,8|0,3:0|0:0,0:0:0:0:
47,63,22709,5,4,3:0:0:0:
47,63,22896,1,0,0:0:0:0:
42,148,23084,1,8,3:0:0:0:
42,148,23271,1,0,0:0:0:0:
37,233,23459,1,8,3:0:0:0:
37,233,23552,1,0,0:0:0:0:
37,233,23646,2,0,L|98:222,5,31.4999990386963,8|0|8|0|8|0,3:0|0:0|3:0|0:0|3:0|0:0,0:0:0:0:
93,216,24209,6,0,B|81:264|81:264|109:352,1,125.999996154785,0|0,3:0|3:0,0:0:0:0:
184,374,24771,1,0,0:0:0:0:
253,292,24959,2,0,P|269:240|261:212,1,62.9999980773926,0|0,1:0|0:0,0:0:0:0:
212,163,25334,2,0,P|196:111|204:83,1,62.9999980773926,8|0,3:0|0:0,0:0:0:0:
236,24,25709,6,0,L|368:12,1,125.999996154785,0|2,0:0|3:0,0:0:0:0:
469,151,26459,2,0,L|343:139,1,125.999996154785,0|0,1:0|0:0,0:0:0:0:
255,131,27021,1,0,0:0:0:0:
255,131,27115,1,0,0:0:0:0:
255,131,27209,6,0,P|271:195|271:267,1,125.999996154785,8|0,3:0|0:0,0:0:0:0:
220,326,27771,1,8,3:0:0:0:
122,272,27959,2,0,L|46:280,1,62.9999980773926,0|0,1:0|0:0,0:0:0:0:
28,361,28334,2,0,L|90:367,1,62.9999980773926,8|0,3:0|0:0,0:0:0:0:
179,366,28709,6,0,L|316:359,1,125.999996154785,0|2,0:0|3:0,0:0:0:0:
439,245,29459,2,0,P|451:188|445:150,2,94.499997116089,0|0|2,1:0|0:0|3:0,0:0:0:0:
357,278,30209,6,0,L|223:265,1,125.999996154785,8|0,3:0|0:0,0:0:0:0:
143,259,30771,1,8,3:0:0:0:
65,173,30959,2,0,P|57:138|57:105,1,62.9999980773926,0|0,1:0|0:0,0:0:0:0:
130,62,31334,2,0,P|137:92|138:123,1,62.9999980773926,8|0,3:0|0:0,0:0:0:0:
143,212,31709,6,0,B|180:200|180:200|236:212|236:212|274:201,1,125.999996154785,0|2,3:0|3:0,0:0:0:0:
396,86,32459,2,0,B|359:74|359:74|303:86|303:86|265:75,1,125.999996154785,0|0,1:0|0:0,0:0:0:0:
189,54,33021,1,0,0:0:0:0:
189,54,33115,1,0,0:0:0:0:
189,54,33209,5,4,3:0:0:0:
131,220,33584,1,8,3:0:0:0:
307,209,33959,1,8,3:0:0:0:
307,209,34146,1,0,0:0:0:0:
386,170,34334,1,8,3:0:0:0:
386,170,34521,1,0,0:0:0:0:
382,258,34709,6,0,P|351:284|316:295,1,62.9999980773926,4|0,3:0|0:0,0:0:0:0:
242,300,35084,2,0,P|234:260|242:224,1,62.9999980773926,8|0,3:0|0:0,0:0:0:0:
240,164,35459,1,8,3:0:0:0:
240,164,35552,1,0,0:0:0:0:
240,164,35646,2,0,L|300:160,5,31.4999990386963,8|0|8|0|8|0,3:0|0:0|3:0|0:0|3:0|0:0,0:0:0:0:
316,161,36209,5,6,1:2:0:0:
353,81,36396,2,0,L|349:34,4,31.4999990386963,0|0|0|0|4,0:0|0:0|0:0|0:0|3:0,0:0:0:0:
427,166,36959,2,0,L|419:249,1,62.9999980773926,0|0,1:0|0:0,0:0:0:0:
347,278,37334,2,0,L|340:215,1,62.9999980773926,8|0,1:3|0:0,0:0:0:0:
296,138,37709,5,0,0:0:0:0:
296,138,37802,1,0,0:0:0:0:
296,138,37896,2,0,L|260:146,4,31.4999990386963,0|0|4|0|0,0:0|0:0|3:0|0:0|0:0,0:0:0:0:
363,55,38459,2,0,L|288:41,1,62.9999980773926,2|0,1:3|0:0,0:0:0:0:
212,39,38834,2,0,L|150:50,1,62.9999980773926,0|0,0:0|0:0,0:0:0:0:
70,89,39209,5,4,3:0:0:0:
100,171,39396,2,0,L|108:215,4,31.4999990386963,0|0|0|0|0,0:0|0:0|0:0|0:0|0:0,0:0:0:0:
50,262,39959,2,0,P|75:277|109:284,1,62.9999980773926,2|0,1:3|0:0,0:0:0:0:
180,334,40334,2,0,P|205:319|228:293,1,62.9999980773926,8|0,3:0|0:0,0:0:0:0:
267,215,40709,5,0,0:0:0:0:
267,215,40802,1,0,0:0:0:0:
267,215,40896,1,0,3:0:0:0:
219,140,41084,2,0,L|145:155,1,62.9999980773926,4|0,3:0|0:0,0:0:0:0:
73,70,41459,2,0,L|134:57,1,62.9999980773926,8|0,1:3|0:0,0:0:0:0:
216,23,41834,2,0,L|277:35,1,62.9999980773926,0|0,0:0|0:0,0:0:0:0:
362,59,42209,6,0,L|367:94,4,31.4999990386963,4|0|0|0|0,3:0|0:0|0:0|0:0|0:0,0:0:0:0:
292,112,42771,1,0,0:0:0:0:
329,192,42959,2,0,P|382:197|406:184,1,62.9999980773926,2|0,1:3|0:0,0:0:0:0:
477,181,43334,2,0,P|454:132|431:118,1,62.9999980773926,8|0,3:0|0:0,0:0:0:0:
366,90,43709,6,0,L|363:137,4,31.4999990386963,0|0|0|0|8,0:0|0:0|3:0|0:0|3:0,0:0:0:0:
307,23,44271,1,0,0:0:0:0:
307,23,44459,2,0,P|276:42|226:46,1,62.9999980773926,2|0,1:3|0:0,0:0:0:0:
161,47,44834,2,0,P|130:28|80:24,1,62.9999980773926,0|0,0:0|0:0,0:0:0:0:
13,98,45209,5,6,1:3:0:0:
13,98,45584,1,8,3:0:0:0:
13,98,45959,2,0,L|25:195,1,70,10|0,1:3|0:0,0:0:0:0:
101,109,46334,2,0,L|113:206,1,70,8|0,3:0|0:0,0:0:0:0:
183,243,46709,5,6,1:3:0:0:
183,243,46896,1,0,0:0:0:0:
239,162,47084,1,6,1:3:0:0:
239,162,47271,1,0,0:0:0:0:
269,68,47459,2,0,L|322:60,3,35,6|0|8|0,1:3|0:0|3:0|0:0,0:0:0:0:
337,27,47834,2,0,L|371:32,3,35,2|0|8|0,1:3|0:0|3:0|0:0,0:0:0:0:
420,37,48209,6,0,B|447:102|447:102|420:247,2,210,2|2|2,0:0|0:0|0:0,0:0:0:0:
249,132,49709,6,0,B|222:197|222:197|249:342,2,210,2|2|2,0:0|0:0|0:0,0:0:0:0:
415,28,51209,6,0,B|364:47|327:32|287:8|209:38,2,210,2|2|2,0:0|0:0|0:0,0:0:0:0:
278,168,52709,6,0,B|227:149|190:164|150:188|72:158,2,210,2|2|2,0:0|0:0|0:0,0:0:0:0:
411,311,54209,6,0,B|445:357|445:357|436:184,2,210,2|2|2,0:0|0:0|0:0,0:0:0:0:
318,137,55709,6,0,P|369:68|502:75,2,210,2|2|2,0:0|0:0|0:0,0:0:0:0:
183,279,57209,6,0,P|132:348|-1:341,2,210,2|2|2,0:0|0:0|0:0,0:0:0:0:
67,59,58709,6,0,B|54:97|54:97|86:200|86:200|77:267,2,210,2|2|2,0:0|0:0|0:0,0:0:0:0:
260,23,60209,6,0,P|286:89|289:170,1,140,2|0,3:2|0:0,0:0:0:0:
357,229,60771,2,0,P|325:250|282:250,1,70,2|0,3:2|0:0,0:0:0:0:
117,167,61334,2,0,P|149:188|192:188,1,70,2|0,3:2|0:0,0:0:0:0:
271,226,61709,6,0,L|261:75,1,140,2|0,3:2|0:0,0:0:0:0:
179,34,62271,2,0,L|173:105,1,70,2|0,3:2|0:0,0:0:0:0:
87,281,62834,2,0,L|81:211,1,70,2|0,3:2|0:0,0:0:0:0:
52,117,63209,6,0,B|92:97|116:111|140:123|194:98,1,140,2|0,1:2|0:0,0:0:0:0:
270,47,63771,2,0,B|263:87|263:87|273:138,1,70,2|0,3:2|0:0,0:0:0:0:
451,43,64334,2,0,B|412:56|412:56|373:91,1,70,2|0,3:2|0:0,0:0:0:0:
364,170,64709,6,0,L|507:155,1,140,2|0,0:0|0:0,0:0:0:0:
474,248,65271,2,0,L|402:256,1,70,2|0,0:0|0:0,0:0:0:0:
227,340,65834,2,0,L|155:332,1,70,2|0,3:2|0:0,0:0:0:0:
84,266,66209,6,0,B|58:222|58:222|71:126,1,140,2|0,0:0|0:0,0:0:0:0:
23,47,66771,2,0,P|70:31|103:34,1,70,2|0,0:0|0:0,0:0:0:0:
243,153,67334,2,0,P|196:169|163:166,1,70,2|0,0:0|0:0,0:0:0:0:
178,70,67709,6,0,P|232:48|316:82,1,140,2|0,1:2|0:0,0:0:0:0:
386,129,68271,2,0,L|394:51,1,70,2|0,0:0|0:0,0:0:0:0:
230,169,68834,2,0,L|237:238,1,70,2|0,0:0|0:0,0:0:0:0:
245,316,69209,6,0,P|214:260|135:377,1,280,2|0,0:0|0:0,0:0:0:0:
55,123,72209,6,0,P|98:84|82:229,2,363.999983337403,6|4|4,1:2|3:0|3:0,0:0:0:0:
55,123,74459,1,2,1:3:0:0:
457,123,75209,6,0,P|414:84|430:229,2,363.999983337403,4|8|8,3:0|3:0|3:0,0:0:0:0:
457,123,77459,2,0,L|464:216,2,78.7500030040742,2|0|0,1:3|0:0|0:0,0:0:0:0:
388,64,78209,6,0,P|327:49|284:64,1,105.000004005432,4|0,1:3|3:0,0:0:0:0:
336,136,78771,1,8,3:0:0:0:
452,132,78959,2,0,P|476:92|472:48,1,62.9999980773926,0|0,1:0|0:0,0:0:0:0:
420,12,79334,2,0,P|373:11|337:36,1,62.9999980773926,8|0,3:0|0:0,0:0:0:0:
332,100,79709,6,0,P|354:140|394:159,1,62.9999980773926,2|0,3:0|0:0,0:0:0:0:
452,132,80084,1,6,3:0:0:0:
352,276,80459,2,0,L|272:280,1,62.9999980773926,0|0,1:0|0:0,0:0:0:0:
232,348,80834,2,0,L|152:344,1,62.9999980773926,0|0,0:0|3:0,0:0:0:0:
88,312,81209,6,0,P|120:256|96:180,1,125.999996154785,4|0,3:0|3:0,0:0:0:0:
60,124,81771,1,8,3:0:0:0:
188,168,81959,2,0,L|272:152,1,62.9999980773926,0|0,1:0|0:0,0:0:0:0:
292,76,82334,2,0,L|376:92,1,62.9999980773926,8|0,3:0|0:0,0:0:0:0:
428,136,82709,6,0,P|444:200|444:216,1,62.9999980773926,2|0,3:0|0:0,0:0:0:0:
420,280,83084,1,2,1:3:0:0:
268,192,83459,2,0,B|292:185|292:185|330:197|330:197|358:188,2,94.499997116089,0|0|2,1:0|0:0|3:0,0:0:0:0:
196,240,84209,6,0,L|62:230,1,125.999996154785,4|0,3:0|0:0,0:0:0:0:
20,160,84771,1,8,3:0:0:0:
60,48,84959,2,0,L|140:36,1,62.9999980773926,0|0,1:0|0:0,0:0:0:0:
208,16,85334,2,0,L|288:28,1,62.9999980773926,2|0,3:0|0:0,0:0:0:0:
336,84,85709,6,0,P|358:144|346:206,1,125.999996154785,0|2,0:0|1:3,0:0:0:0:
212,316,86459,2,0,P|176:336|132:352,1,62.9999980773926,0|0,1:0|0:0,0:0:0:0:
144,256,86834,2,0,P|108:234|72:204,1,62.9999980773926,0|2,0:0|3:0,0:0:0:0:
160,168,87209,5,4,3:0:0:0:
160,168,87584,1,8,3:0:0:0:
257,89,87959,2,0,B|320:92,1,62.9999980773926,4|8,3:0|3:0,0:0:0:0:
344,8,88334,2,0,B|279:5,1,62.9999980773926,4|8,3:0|3:0,0:0:0:0:
196,28,88709,5,4,3:0:0:0:
196,28,88896,1,8,3:0:0:0:
128,84,89084,1,4,3:0:0:0:
128,84,89271,1,8,3:0:0:0:
184,152,89459,1,12,3:0:0:0:
184,152,89552,1,0,0:0:0:0:
184,152,89646,2,0,L|245:141,5,31.4999990386963,8|0|8|0|8|0,3:0|0:0|3:0|0:0|3:0|0:0,0:0:0:0:
260,152,90209,6,0,B|248:200|248:200|276:288,1,125.999996154785,6|0,1:2|0:0,0:0:0:0:
312,340,90771,1,8,3:0:0:0:
392,244,90959,2,0,P|408:192|408:176,1,56,0|0,1:0|0:0,0:0:0:0:
348,140,91334,2,0,P|332:88|336:64,1,56,8|0,3:0|0:0,0:0:0:0:
272,36,91709,6,0,L|388:28,1,112,0|8,3:0|3:0,0:0:0:0:
488,148,92459,2,0,L|424:148,1,56,2|0,1:3|0:0,0:0:0:0:
360,184,92834,2,0,L|296:184,1,56,0|0,0:0|0:0,0:0:0:0:
240,140,93209,6,0,P|225:175|230:207,2,56,4|0|0,3:0|0:0|0:0,0:0:0:0:
296,85,93771,1,8,3:0:0:0:
232,40,93959,2,0,L|168:48,1,56,2|0,1:3|0:0,0:0:0:0:
128,108,94334,2,0,L|68:104,1,56,8|0,3:0|0:0,0:0:0:0:
8,148,94709,6,0,B|0:196|0:196|24:276,1,112,0|8,0:0|3:0,0:0:0:0:
168,300,95459,2,0,L|240:296,1,56,2|0,1:3|0:0,0:0:0:0:
268,232,95834,2,0,L|340:236,1,56,0|0,3:0|0:0,0:0:0:0:
384,288,96209,6,0,P|364:244|392:180,1,112,4|0,3:0|0:0,0:0:0:0:
428,120,96771,1,8,3:0:0:0:
311,157,96959,2,0,P|275:189|247:201,1,56,0|0,1:0|0:0,0:0:0:0:
202,235,97334,2,0,P|192:187|195:157,1,56,8|0,3:0|0:0,0:0:0:0:
158,109,97709,6,0,B|198:101|198:101|230:113|230:113|274:97,1,112,0|8,3:0|3:0,0:0:0:0:
415,58,98459,2,0,L|427:126,1,56,0|0,1:0|3:0,0:0:0:0:
468,180,98834,2,0,L|456:248,1,56,0|0,0:0|3:0,0:0:0:0:
440,312,99209,5,6,1:3:0:0:
440,312,99584,1,8,3:0:0:0:
288,356,99959,1,6,1:3:0:0:
288,356,100146,1,8,3:0:0:0:
280,276,100334,1,4,3:0:0:0:
280,276,100521,1,8,3:0:0:0:
252,200,100709,6,0,L|320:188,1,56,6|8,1:3|3:0,0:0:0:0:
384,188,101084,2,0,P|392:148|388:120,1,56,4|8,1:3|3:0,0:0:0:0:
372,56,101459,1,6,1:3:0:0:
372,56,101552,1,0,0:0:0:0:
372,56,101646,2,0,L|416:52,5,28,8|0|6|0|8|0,3:0|0:0|1:3|0:0|3:0|0:0,0:0:0:0:
440,56,102209,5,2,0:0:0:0:
430,166,102959,2,0,L|422:249,1,62.9999980773926,6|0,1:2|0:0,0:0:0:0:
350,278,103334,2,0,L|343:215,1,62.9999980773926,8|0,3:0|0:0,0:0:0:0:
299,138,103709,5,0,3:0:0:0:
299,138,103802,1,0,0:0:0:0:
299,138,103896,2,0,L|263:146,4,31.4999990386963,0|0|4|0|0,0:0|0:0|3:0|0:0|0:0,0:0:0:0:
366,55,104459,2,0,L|291:41,1,62.9999980773926,2|0,1:3|0:0,0:0:0:0:
215,39,104834,2,0,L|153:50,1,62.9999980773926,0|0,3:0|0:0,0:0:0:0:
73,89,105209,5,4,3:0:0:0:
103,171,105396,2,0,L|111:215,4,31.4999990386963,0|0|0|0|8,0:0|0:0|0:0|0:0|3:0,0:0:0:0:
53,262,105959,2,0,P|78:277|112:284,1,62.9999980773926,2|0,1:3|0:0,0:0:0:0:
183,334,106334,2,0,P|208:319|231:293,1,62.9999980773926,4|0,3:0|0:0,0:0:0:0:
270,215,106709,5,0,3:0:0:0:
270,215,106802,1,0,0:0:0:0:
270,215,106896,1,8,3:0:0:0:
222,140,107084,2,0,L|148:155,1,62.9999980773926,4|0,3:0|0:0,0:0:0:0:
164,44,107459,2,0,L|225:57,1,62.9999980773926,2|0,1:3|0:0,0:0:0:0:
316,116,107834,2,0,L|377:104,1,62.9999980773926,0|0,3:0|0:0,0:0:0:0:
480,64,108209,6,0,L|485:99,4,31.4999990386963,4|0|0|0|0,3:0|0:0|0:0|0:0|0:0,0:0:0:0:
372,20,108771,1,0,3:0:0:0:
336,144,108959,2,0,P|389:149|413:136,1,62.9999980773926,2|0,1:3|0:0,0:0:0:0:
476,184,109334,2,0,P|484:214|478:244,1,62.9999980773926,4|0,3:0|0:0,0:0:0:0:
404,296,109709,6,0,L|357:293,4,31.4999990386963,0|0|0|0|4,3:0|0:0|3:0|0:0|3:0,0:0:0:0:
364,216,110271,1,0,0:0:0:0:
284,256,110459,2,0,P|253:275|203:279,1,62.9999980773926,2|0,1:3|0:0,0:0:0:0:
168,212,110834,2,0,P|137:193|87:189,1,62.9999980773926,0|0,0:0|0:0,0:0:0:0:
28,224,111209,5,6,1:3:0:0:
28,224,111584,1,8,3:0:0:0:
28,224,111959,2,0,L|20:156,1,62.9999980773926,6|8,1:3|3:0,0:0:0:0:
8,76,112334,2,0,L|15:13,1,62.9999980773926,4|8,3:0|3:0,0:0:0:0:
104,8,112709,5,6,1:3:0:0:
104,8,112896,1,8,3:0:0:0:
184,48,113084,1,6,1:3:0:0:
184,48,113271,1,8,3:0:0:0:
272,60,113459,2,0,L|320:56,3,31.4999990386963,6|0|8|0,1:3|0:0|3:0|0:0,0:0:0:0:
340,27,113834,2,0,L|376:32,3,31.4999990386963,6|0|8|0,1:3|0:0|3:0|0:0,0:0:0:0:
423,37,114209,6,0,B|450:102|450:102|423:247,2,210,2|2|2,0:0|0:0|0:0,0:0:0:0:
252,132,115709,6,0,B|225:197|225:197|252:342,2,210,2|2|2,0:0|0:0|0:0,0:0:0:0:
352,300,117209,6,0,B|301:281|264:296|224:320|146:290,2,210,2|2|2,0:0|0:0|0:0,0:0:0:0:
272,124,118708,6,0,B|350:94|390:118|427:133|478:114,2,210,2|2|2,0:0|0:0|0:0,0:0:0:0:
420,184,120209,6,0,P|424:82|347:16,2,210,2|2|2,0:0|0:0|0:0,0:0:0:0:
240,260,121710,6,0,B|232:107|232:107|266:153,2,210,2|2|2,0:0|0:0|0:0,0:0:0:0:
128,100,123209,6,0,P|179:31|312:38,2,210,2|2|2,0:0|0:0|0:0,0:0:0:0:
244,304,124709,6,0,B|252:242|252:242|220:139|220:139|233:101,1,210,2|2,0:0|0:0,0:0:0:0:
400,144,125834,2,0,L|408:204,3,35,2|0|0|0,0:0|0:0|0:0|0:0,0:0:0:0:
416,228,126209,5,2,3:2:0:0:
124,196,126771,2,0,P|92:175|49:175,1,70,2|0,3:2|0:0,0:0:0:0:
172,336,127334,2,0,P|204:357|247:357,1,70,2|0,3:2|0:0,0:0:0:0:
304,292,127709,6,0,B|288:236|288:236|294:141,1,140,2|0,3:2|0:0,0:0:0:0:
208,112,128271,2,0,L|202:183,1,70,2|0,3:2|0:0,0:0:0:0:
40,296,128834,2,0,L|34:226,1,70,2|0,3:2|0:0,0:0:0:0:
44,128,129209,6,0,B|84:108|108:122|132:134|186:109,1,140,2|0,1:2|0:0,0:0:0:0:
264,64,129771,2,0,B|257:104|257:104|267:155,1,70,2|0,3:2|0:0,0:0:0:0:
232,328,130334,2,0,B|219:289|219:289|184:250,1,70,2|0,3:2|0:0,0:0:0:0:
132,196,130709,6,0,L|275:181,1,140,2|0,0:0|0:0,0:0:0:0:
300,88,131271,2,0,L|228:96,1,70,2|0,0:0|0:0,0:0:0:0:
152,276,131834,2,0,L|221:283,1,70,2|0,3:2|0:0,0:0:0:0:
300,344,132209,6,0,B|274:300|274:300|287:204,1,140,2|0,0:0|0:0,0:0:0:0:
224,136,132771,2,0,P|267:117|301:116,1,70,2|0,0:0|0:0,0:0:0:0:
148,256,133334,2,0,P|101:272|68:269,1,70,2|0,0:0|0:0,0:0:0:0:
88,172,133709,6,0,P|142:150|226:184,1,140,2|0,1:2|0:0,0:0:0:0:
312,196,134271,2,0,L|320:118,1,70,2|0,0:0|0:0,0:0:0:0:
484,20,134834,2,0,L|491:89,1,70,2|0,0:0|0:0,0:0:0:0:
488,176,135209,6,0,B|436:148|404:184|360:224|280:172,1,210,2|0,0:0|0:0,0:0:0:0:
92,120,138209,6,0,L|108:324,1,181.999991668702,6|0,1:2|0:0,0:0:0:0:
300,136,138959,2,0,L|284:340,1,181.999991668702,4|0,3:0|0:0,0:0:0:0:
444,116,139709,6,0,L|460:320,1,181.999991668702,4|0,3:0|0:0,0:0:0:0:
328,80,140459,1,2,1:3:0:0:
328,80,141209,6,0,P|400:60|448:172,1,181.999991668702,4|0,3:0|0:0,0:0:0:0:
172,140,141959,2,0,P|100:120|52:232,1,181.999991668702,8|0,3:0|0:0,0:0:0:0:
296,216,142709,6,0,P|368:196|416:308,1,181.999991668702,8|0,3:0|0:0,0:0:0:0:
296,376,143459,6,0,L|281:299,2,78.7500030040742,2|0|0,1:3|0:0|0:0,0:0:0:0:
200,360,144209,6,0,L|186:282,1,78.7500030040742,4|0,3:0|0:0,0:0:0:0:
148,140,144771,1,8,3:0:0:0:
148,140,144959,2,0,P|192:124|264:160,2,105,0|0|0,1:0|0:0|0:0,0:0:0:0:
68,196,145709,6,0,L|60:44,1,140,2|6,3:0|3:0,0:0:0:0:
152,20,146271,1,0,0:0:0:0:
152,20,146459,2,0,P|192:44|264:40,2,105,0|0|0,1:0|0:0|3:0,0:0:0:0:
60,56,147209,6,0,L|67:195,1,140,4|0,3:0|3:0,0:0:0:0:
80,292,147771,1,8,3:0:0:0:
80,292,147959,2,0,P|120:316|192:312,2,105,0|0|0,1:0|0:0|0:0,0:0:0:0:
67,195,148709,6,0,P|151:163|211:183,1,140,0|2,3:0|1:3,0:0:0:0:
368,268,149459,2,0,L|360:116,1,140,0|0,1:0|0:0,0:0:0:0:
176,56,150209,6,0,L|192:172,1,105,4|0,3:0|0:0,0:0:0:0:
204,308,150771,1,8,3:0:0:0:
204,308,150959,2,0,P|155:291|106:307,2,105,0|0|0,1:0|0:0|0:0,0:0:0:0:
290,354,151709,6,0,P|339:370|438:350,1,140,0|2,0:0|1:3,0:0:0:0:
490,283,152271,1,0,0:0:0:0:
490,283,152459,2,0,P|510:235|494:171,2,105,0|0|2,1:0|0:0|3:0,0:0:0:0:
410,223,153209,6,0,L|402:71,1,140,6|8,1:3|3:0,0:0:0:0:
360,0,153771,1,0,0:0:0:0:
360,0,153959,2,0,P|304:0|264:16,1,70,6|8,1:3|3:0,0:0:0:0:
228,80,154334,2,0,P|172:80|132:64,1,70,4|8,3:0|3:0,0:0:0:0:
80,20,154709,5,6,1:3:0:0:
80,20,154896,1,8,3:0:0:0:
64,116,155084,1,6,1:3:0:0:
64,116,155271,1,8,3:0:0:0:
56,213,155459,1,6,1:3:0:0:
56,213,155552,1,0,0:0:0:0:
56,213,155646,2,0,L|112:209,5,35,8|0|10|0|8|0,3:0|0:0|1:3|0:0|3:0|0:0,0:0:0:0:
140,209,156209,5,6,1:2:0:0:
316,161,169709,6,0,P|264:136|208:152,1,83.9999974365235,6|0,1:2|0:0,0:0:0:0:
172,236,170084,2,0,P|120:261|64:245,1,83.9999974365235,0|8,0:0|3:0,0:0:0:0:
80,252,170365,1,0,0:0:0:0:
80,252,170459,2,0,L|88:304,2,41.9999987182618,2|0|0,1:3|0:0|0:0,0:0:0:0:
20,148,170834,2,0,L|32:40,1,83.9999974365235,8|0,3:0|0:0,0:0:0:0:
140,24,171209,5,0,3:0:0:0:
140,24,171302,1,0,0:0:0:0:
140,24,171396,2,0,L|192:16,4,41.9999987182618,0|0|8|0|0,0:0|0:0|3:0|0:0|0:0,0:0:0:0:
140,140,171959,2,0,L|236:128,1,83.9999974365235,2|0,1:3|0:0,0:0:0:0:
292,32,172334,2,0,L|388:44,1,83.9999974365235,2|0,0:0|0:0,0:0:0:0:
456,128,172709,5,2,1:3:0:0:
436,286,172896,2,0,L|436:244,4,41.9999987182618,0|0|0|0|8,0:0|0:0|0:0|0:0|3:0,0:0:0:0:
264,352,173459,2,0,P|257:321|232:272,1,83.9999974365235,2|0,1:3|0:0,0:0:0:0:
96,280,173834,2,0,P|121:265|148:208,1,83.9999974365235,8|0,3:0|0:0,0:0:0:0:
220,112,174209,5,2,0:0:0:0:
220,112,174302,1,0,0:0:0:0:
220,112,174396,1,0,0:0:0:0:
252,224,174584,2,0,L|344:208,1,83.9999974365235,2|0,3:2|0:0,0:0:0:0:
424,116,174959,2,0,L|336:100,1,83.9999974365235,2|0,1:3|0:0,0:0:0:0:
248,28,175334,2,0,L|164:48,1,83.9999974365235,2|0,0:0|0:0,0:0:0:0:
100,144,175709,6,0,L|112:200,4,41.9999987182618,6|0|0|0|0,3:2|0:0|0:0|0:0|0:0,0:0:0:0:
212,172,176271,1,8,3:0:0:0:
304,248,176459,2,0,P|309:278|304:344,1,83.9999974365235,2|0,1:3|0:0,0:0:0:0:
196,368,176834,2,0,P|184:344|168:288,1,83.9999974365235,8|0,3:0|0:0,0:0:0:0:
216,180,177209,6,0,L|220:136,4,41.9999987182618,0|0|0|0|8,3:0|0:0|3:0|0:0|3:0,0:0:0:0:
112,124,177771,1,0,0:0:0:0:
192,36,177959,2,0,P|232:28|288:52,1,83.9999974365235,2|0,1:3|0:0,0:0:0:0:
340,136,178334,2,0,P|379:148|420:140,1,83.9999974365235,0|0,3:0|0:0,0:0:0:0:
488,44,178709,5,4,3:0:0:0:
488,44,178896,2,0,L|476:4,4,41.9999987182618,0|0|0|0|8,0:0|0:0|0:0|0:0|3:0,0:0:0:0:
448,156,179459,2,0,L|356:168,1,83.9999974365235,2|0,1:3|0:0,0:0:0:0:
288,256,179834,2,0,L|196:244,1,83.9999974365235,8|0,3:0|0:0,0:0:0:0:
88,228,180209,5,2,0:0:0:0:
88,228,180302,1,0,0:0:0:0:
88,228,180396,2,0,L|96:284,2,41.9999987182618,8|0|4,3:0|0:0|3:0,0:0:0:0:
64,112,180771,1,0,0:0:0:0:
64,112,180959,2,0,P|104:88|160:76,1,83.9999974365235,2|0,1:3|0:0,0:0:0:0:
256,104,181334,2,0,L|260:176,3,41.9999987182618,0|0|0|0,1:0|0:0|0:0|0:0,0:0:0:0:
260,204,181709,6,0,P|301:205|336:227,1,83.9999974365235,6|0,1:2|0:0,0:0:0:0:
256,312,182084,2,0,P|204:337|148:321,1,83.9999974365235,2|8,0:0|3:0,0:0:0:0:
156,328,182365,1,0,0:0:0:0:
156,328,182459,2,0,L|164:380,2,41.9999987182618,2|0|0,1:3|0:0|0:0,0:0:0:0:
52,276,182834,2,0,L|64:168,1,83.9999974365235,8|0,3:0|0:0,0:0:0:0:
88,76,183209,5,2,0:0:0:0:
88,76,183302,1,0,0:0:0:0:
88,76,183396,2,0,L|140:68,4,41.9999987182618,0|0|8|0|0,0:0|0:0|3:0|0:0|0:0,0:0:0:0:
128,188,183959,2,0,L|224:176,1,83.9999974365235,2|0,1:3|0:0,0:0:0:0:
272,76,184334,2,0,L|368:88,1,83.9999974365235,2|0,0:0|0:0,0:0:0:0:
456,148,184709,5,4,3:0:0:0:
456,148,184896,2,0,L|456:190,4,41.9999987182618,0|0|0|0|8,0:0|0:0|0:0|0:0|3:0,0:0:0:0:
340,144,185459,2,0,P|333:113|308:64,1,83.9999974365235,2|0,1:3|0:0,0:0:0:0:
208,4,185834,2,0,P|188:40|177:81,1,83.9999974365235,8|0,3:0|0:0,0:0:0:0:
196,200,186209,5,2,0:0:0:0:
196,200,186302,1,0,0:0:0:0:
196,200,186396,1,0,3:0:0:0:
232,312,186584,2,0,L|324:296,1,83.9999974365235,4|0,3:0|0:0,0:0:0:0:
404,220,186959,2,0,L|316:204,1,83.9999974365235,2|0,1:3|0:0,0:0:0:0:
276,96,187334,2,0,L|192:116,1,83.9999974365235,2|0,0:0|0:0,0:0:0:0:
84,160,187709,6,0,L|96:216,4,41.9999987182618,6|0|0|0|0,1:2|0:0|0:0|0:0|0:0,0:0:0:0:
44,48,188271,1,8,3:0:0:0:
44,48,188459,2,0,P|74:43|140:48,1,83.9999974365235,2|0,1:3|0:0,0:0:0:0:
236,92,188834,2,0,P|266:97|332:92,1,83.9999974365235,8|0,3:0|0:0,0:0:0:0:
428,48,189209,6,0,L|432:4,4,41.9999987182618,2|0|0|0|10,0:0|0:0|0:0|0:0|3:0,0:0:0:0:
436,164,189771,1,0,0:0:0:0:
328,212,189959,2,0,P|288:199|247:207,1,83.9999974365235,2|0,1:3|0:0,0:0:0:0:
188,308,190334,2,0,P|227:320|268:312,1,83.9999974365235,2|0,0:0|0:0,0:0:0:0:
388,304,190709,5,4,3:0:0:0:
388,304,190896,2,0,L|376:264,4,41.9999987182618,0|0|2|0|8,0:0|0:0|0:0|0:0|3:0,0:0:0:0:
412,188,191459,2,0,P|376:176|320:200,1,83.9999974365235,2|0,1:3|0:0,0:0:0:0:
248,272,191834,2,0,L|156:260,1,83.9999974365235,8|0,3:0|0:0,0:0:0:0:
52,224,192209,5,2,0:0:0:0:
52,224,192302,1,0,0:0:0:0:
52,224,192396,2,0,L|60:280,2,41.9999987182618,0|0|2,3:0|0:0|0:0,0:0:0:0:
20,112,192771,1,0,0:0:0:0:
20,112,192959,2,0,B|56:88|56:88|116:76,1,83.9999974365235,2|0,1:3|0:0,0:0:0:0:
208,116,193334,2,0,L|212:188,3,41.9999987182618,2|0|0|0,0:0|0:0|0:0|0:0,0:0:0:0:
212,192,193709,6,0,B|264:176|264:176|344:184,1,125.999996154785,6|0,1:2|0:0,0:0:0:0:
208,304,194271,1,8,3:0:0:0:
108,244,194459,2,0,P|92:184|108:120,2,125.999996154785,0|0|0,1:0|0:0|0:0,0:0:0:0:
200,316,195209,6,0,B|252:300|280:316|308:348|376:304,1,167.999994873047,2|8,0:0|3:0,0:0:0:0:
456,240,195771,1,0,0:0:0:0:
456,240,195959,2,0,L|468:376,2,125.999996154785,0|0|0,1:0|0:0|0:0,0:0:0:0:
432,124,196709,6,0,B|380:148|380:148|248:128,1,167.999994873047,6|0,3:0|0:0,0:0:0:0:
156,112,197271,1,8,3:0:0:0:
156,112,197459,2,0,L|168:240,2,125.999996154785,6|0|0,1:3|0:0|0:0,0:0:0:0:
52,60,198209,6,0,L|40:148,1,83.9999974365235,2|0,0:0|0:0,0:0:0:0:
20,260,198584,2,0,L|31:343,1,83.9999974365235,2|0,3:2|0:0,0:0:0:0:
144,376,198959,2,0,P|180:352|224:348,1,83.9999974365235,2|0,1:3|0:0,0:0:0:0:
336,348,199334,2,0,P|372:372|416:376,1,83.9999974365235,2|0,0:0|0:0,0:0:0:0:
456,268,199709,6,0,B|472:216|472:216|464:136,1,125.999996154785,8|0,3:0|0:0,0:0:0:0:
312,60,200271,1,8,3:0:0:0:
312,60,200459,2,0,P|297:120|313:180,2,125.999996154785,0|0|0,1:0|0:0|0:0,0:0:0:0:
416,8,201209,6,0,B|364:-8|336:8|308:40|240:-4,1,167.999994873047,2|8,0:0|3:0,0:0:0:0:
136,8,201771,1,2,0:0:0:0:
136,8,201959,2,0,L|148:144,2,125.999996154785,2|0|0,1:3|0:0|0:0,0:0:0:0:
40,76,202709,6,0,B|16:128|16:128|36:260,1,167.999994873047,8|0,3:0|0:0,0:0:0:0:
124,312,203271,1,8,3:0:0:0:
124,312,203459,2,0,L|252:300,2,125.999996154785,2|0|0,1:3|0:0|0:0,0:0:0:0:
132,196,204209,6,0,L|220:208,1,83.9999974365235,2|8,0:0|3:0,0:0:0:0:
328,240,204584,2,0,L|411:229,1,83.9999974365235,4|0,3:0|0:0,0:0:0:0:
496,180,204959,1,0,0:0:0:0:
