osu file format v14

[General]
AudioFilename: audio.mp3
AudioLeadIn: 0
PreviewTime: 168584
Countdown: 0
SampleSet: Soft
StackLeniency: 0.4
Mode: 0
LetterboxInBreaks: 0
WidescreenStoryboard: 0

[Editor]
Bookmarks: 209,12209,24209,36209,48209,69209,72209,78209,90209,102959,114209,135209,138209,144209,156209,168584,169709,204959
DistanceSpacing: 0.6
BeatDivisor: 4
GridSize: 4
TimelineZoom: 0.9

[Metadata]
Title:...Ready For It?
TitleUnicode:...Ready For It?
Artist:Taylor Swift
ArtistUnicode:Taylor Swift
Creator:Syph
Version:Extra
Source:
Tags:kaine mithew [_L_u_k_a_s_] reputation
BeatmapID:1447252
BeatmapSetID:683816

[Difficulty]
HPDrainRate:6
CircleSize:4
OverallDifficulty:8.6
ApproachRate:9
SliderMultiplier:1.8
SliderTickRate:1

[Events]
//Background and Video events
0,0,"aaaaaaaaaaaaaawhy.png",0,0
//Break Periods
2,69409,70484
2,135409,136484
2,156409,167984
//Storyboard Layer 0 (Background)
//Storyboard Layer 1 (Fail)
//Storyboard Layer 2 (Pass)
//Storyboard Layer 3 (Foreground)
//Storyboard Sound Samples

[TimingPoints]
209,375,4,2,0,55,1,0
209,-153.846153846154,4,2,0,55,0,0
2459,-153.846153846154,4,2,0,5,0,0
3209,-153.846153846154,4,2,0,55,0,0
9584,-117.647058823529,4,2,0,60,0,0
9959,-90.9090909090909,4,2,0,63,0,0
10334,-74.0740740740741,4,2,0,66,0,0
12209,-111.111111111111,4,2,0,60,0,0
45209,-111.111111111111,4,2,0,65,0,0
45584,-100,4,2,0,65,0,0
46709,-100,4,2,0,70,0,0
48209,-100,4,2,0,50,0,0
71084,-200,4,2,0,50,0,0
71834,-200,4,2,0,50,0,0
72115,-200,4,2,0,5,0,0
72209,-116.279069767442,4,2,0,65,0,1
72302,-116.279069767442,4,2,0,65,0,0
77459,-133.333333333333,4,2,0,65,0,0
78209,-133.333333333333,4,2,0,70,0,1
78302,-133.333333333333,4,2,0,70,0,0
78584,-100,4,2,0,70,0,0
90209,-100,4,2,0,70,0,1
90302,-100,4,2,0,70,0,0
102959,-100,4,2,0,70,0,1
103052,-100,4,2,0,70,0,0
114209,-100,4,2,0,50,0,0
137084,-200,4,2,0,50,0,0
137834,-200,4,2,0,50,0,0
138115,-200,4,2,0,5,0,0
138209,-116.279069767442,4,2,0,65,0,1
138302,-116.279069767442,4,2,0,65,0,0
143459,-133.333333333333,4,2,0,65,0,0
144209,-133.333333333333,4,2,0,70,0,1
144302,-133.333333333333,4,2,0,70,0,0
144584,-100,4,2,0,70,0,0
168584,-100,4,2,0,60,0,0
169709,-83.3333333333333,4,2,0,80,0,1
204959,-100,4,2,0,50,0,0

[Colours]
Combo1 : 166,255,210
Combo2 : 255,138,138
Combo3 : 155,190,255
Combo4 : 181,154,250

[HitObjects]
131,203,209,6,0,B|169:186|209:197|209:197|251:237|301:216,1,175.499991966248,4|0,3:0|0:0,0:0:0:0:
178,280,959,2,0,P|126:294|42:214,1,175.499991966248,8|0,3:0|0:0,0:0:0:0:
205,47,1709,2,0,L|177:286,1,233.999989288331,8|0,3:0|0:0,0:0:0:0:
225,202,3209,6,0,B|187:185|147:196|147:196|105:236|55:215,1,175.499991966248,4|0,3:0|0:0,0:0:0:0:
284,268,3959,2,0,P|310:221|255:119,1,175.499991966248,8|0,3:0|0:0,0:0:0:0:
210,27,4709,2,0,L|226:222,1,175.499991966248,4|0,3:0|0:0,0:0:0:0:
384,118,5459,2,0,L|291:106,2,87.749995983124,2|0|2,3:0|0:0|3:0,0:0:0:0:
423,361,6209,6,0,L|443:182,1,175.499991966248,4|0,3:0|0:0,0:0:0:0:
180,235,6959,2,0,B|252:220|252:220|295:233|295:233|367:223,1,175.499991966248,8|0,3:0|0:0,0:0:0:0:
126,294,7709,2,0,P|102:248|188:156,1,175.499991966248,4|0,3:0|0:0,0:0:0:0:
11,251,8459,1,2,3:0:0:0:
11,251,9209,6,0,L|80:243,1,58.4999973220826,8|0,3:0|0:0,0:0:0:0:
238,176,9584,6,0,L|158:166,1,76.5000014591217,8|0,3:0|0:0,0:0:0:0:
0,97,9959,5,8,3:0:0:0:
162,166,10146,1,0,0:0:0:0:
269,22,10334,5,8,3:0:0:0:
107,91,10521,1,0,0:0:0:0:
298,33,10709,5,4,3:0:0:0:
126,16,10896,1,0,0:0:0:0:
327,119,11084,1,4,3:0:0:0:
71,87,11271,1,0,0:0:0:0:
298,33,11459,6,0,B|328:30|328:30|371:48,1,60.7500002317429,8|0,3:0|0:0,0:0:0:0:
88,167,11646,2,0,B|58:170|58:170|15:152,1,60.7500002317429,8|0,3:0|0:0,0:0:0:0:
151,259,11834,1,8,3:0:0:0:
181,229,11927,1,0,0:0:0:0:
197,190,12021,1,8,3:0:0:0:
197,148,12115,1,0,0:0:0:0:
181,109,12209,6,0,P|226:94|330:156,1,161.999995056153,4|0,3:0|0:0,0:0:0:0:
374,228,12771,1,8,3:0:0:0:
374,228,12959,2,0,B|416:239|416:239|464:228,1,80.9999975280763
472,222,13240,1,0,0:0:0:0:
487,212,13334,2,0,P|506:166|466:54,1,161.999995056153,8|0,3:0|0:0,0:0:0:0:
391,19,13896,1,0,0:0:0:0:
316,287,14084,1,2,3:0:0:0:
314,270,14459,5,0,1:0:0:0:
244,228,14646,1,0,0:0:0:0:
162,230,14834,1,0,0:0:0:0:
96,277,15021,1,0,0:0:0:0:
16,261,15209,6,0,P|9:211|22:173,1,80.9999975280763,8|0,3:0|0:0,0:0:0:0:
82,133,15584,1,0,0:0:0:0:
101,301,15771,1,8,3:0:0:0:
157,242,15959,1,0,0:0:0:0:
237,230,16146,1,0,0:0:0:0:
312,259,16334,2,0,P|353:269|396:258,1,80.9999975280763,4|0,3:0|0:0,0:0:0:0:
468,262,16709,2,0,P|427:252|384:263,1,80.9999975280763
264,362,17084,1,2,3:0:0:0:
254,345,17459,5,0,1:0:0:0:
304,281,17646,1,0,0:0:0:0:
240,230,17834,1,0,0:0:0:0:
284,162,18021,1,2,3:0:0:0:
235,97,18209,6,0,P|188:78|62:107,1,161.999995056153,8|0,3:0|0:0,0:0:0:0:
80,94,18771,1,8,3:0:0:0:
33,160,18959,1,0,0:0:0:0:
45,239,19146,1,0,0:0:0:0:
113,282,19334,1,4,3:0:0:0:
188,252,19521,1,0,0:0:0:0:
219,176,19709,6,0,P|178:170|135:191,1,80.9999975280763
325,47,20084,2,0,L|316:137,1,80.9999975280763,2|0,3:0|0:0,0:0:0:0:
339,205,20459,1,2,3:0:0:0:
370,212,20646,1,0,0:0:0:0:
397,209,20834,1,0,0:0:0:0:
421,202,21021,1,0,0:0:0:0:
492,99,21209,6,0,B|453:88|453:88|412:98,1,80.9999975280763,4|0,3:0|0:0,0:0:0:0:
260,203,21584,2,0,B|299:214|299:214|340:204,1,80.9999975280763,8|0,3:0|0:0,0:0:0:0:
167,141,21959,1,8,3:0:0:0:
198,266,22146,1,0,0:0:0:0:
250,113,22334,1,8,3:0:0:0:
81,187,22521,1,0,0:0:0:0:
279,101,22709,5,4,3:0:0:0:
193,297,22896,1,0,0:0:0:0:
153,45,23084,1,8,3:0:0:0:
90,324,23271,1,0,0:0:0:0:
14,132,23459,1,8,3:0:0:0:
42,110,23552,1,0,0:0:0:0:
78,101,23646,1,8,3:0:0:0:
113,108,23740,1,0,0:0:0:0:
143,128,23834,1,8,3:0:0:0:
162,158,23927,1,0,0:0:0:0:
185,187,24021,1,8,3:0:0:0:
219,199,24115,1,0,0:0:0:0:
255,192,24209,6,0,P|269:149|259:115,1,80.9999975280763,0|0,3:0|0:0,0:0:0:0:
183,48,24584,1,0,3:0:0:0:
183,48,24771,1,0,0:0:0:0:
259,115,24959,2,0,B|299:126|299:126|349:115,1,80.9999975280763,0|0,1:0|0:0,0:0:0:0:
429,62,25334,1,8,3:0:0:0:
429,62,25427,1,0,0:0:0:0:
429,62,25521,1,0,0:0:0:0:
369,188,25709,5,0,0:0:0:0:
319,93,25896,1,0,0:0:0:0:
401,266,26084,1,2,3:0:0:0:
417,256,26459,1,0,1:0:0:0:
348,232,26646,1,0,0:0:0:0:
280,259,26834,1,0,0:0:0:0:
207,219,27021,2,0,L|217:189,2,20.2499993820191
156,271,27162,1,0,0:0:0:0:
149,280,27209,6,0,B|113:292|113:292|66:277,1,80.9999975280763,8|0,3:0|0:0,0:0:0:0:
6,219,27584,1,0,0:0:0:0:
153,132,27771,1,8,3:0:0:0:
300,219,27959,1,0,1:0:0:0:
224,180,28146,1,0,0:0:0:0:
376,267,28334,1,8,3:0:0:0:
376,267,28427,1,0,0:0:0:0:
376,267,28521,1,0,0:0:0:0:
472,157,28709,6,0,P|435:145|386:159,1,80.9999975280763,0|8,0:0|3:0,0:0:0:0:
229,263,29084,1,2,3:0:0:0:
113,355,29459,5,0,1:0:0:0:
89,286,29646,1,0,0:0:0:0:
116,218,29834,1,0,0:0:0:0:
76,145,30021,2,0,L|46:155,2,20.2499993820191,2|0|0,3:0|0:0|0:0,0:0:0:0:
128,94,30162,1,0,0:0:0:0:
137,87,30209,6,0,B|149:51|149:51|134:4,1,80.9999975280763,8|0,3:0|0:0,0:0:0:0:
295,104,30584,2,0,B|283:140|283:140|298:187,1,80.9999975280763,0|8,0:0|3:0,0:0:0:0:
411,256,30959,1,0,1:0:0:0:
481,210,31146,1,0,0:0:0:0:
404,173,31334,1,8,3:0:0:0:
404,173,31427,1,0,0:0:0:0:
404,173,31521,1,0,0:0:0:0:
418,339,31709,5,0,3:0:0:0:
418,339,31896,1,0,0:0:0:0:
471,117,32084,1,2,3:0:0:0:
474,96,32459,1,0,1:0:0:0:
401,99,32646,1,0,0:0:0:0:
344,145,32834,1,0,0:0:0:0:
345,217,33021,2,0,L|375:227,2,20.2499993820191
282,260,33162,1,0,0:0:0:0:
275,269,33209,6,0,B|239:281|239:281|192:266,1,80.9999975280763,4|0,3:0|0:0,0:0:0:0:
13,113,33584,2,0,B|49:101|49:101|96:116,1,80.9999975280763,8|0,3:0|0:0,0:0:0:0:
229,182,33959,1,8,3:0:0:0:
81,243,34146,1,0,0:0:0:0:
191,113,34334,1,8,3:0:0:0:
145,322,34521,1,0,0:0:0:0:
200,79,34709,5,4,3:0:0:0:
138,351,34896,1,0,0:0:0:0:
59,113,35084,1,8,3:0:0:0:
310,192,35271,1,0,0:0:0:0:
60,365,35459,1,8,3:0:0:0:
61,328,35552,1,0,0:0:0:0:
78,296,35646,1,8,3:0:0:0:
107,275,35740,1,0,0:0:0:0:
142,268,35834,1,8,3:0:0:0:
177,277,35927,1,0,0:0:0:0:
205,300,36021,1,8,3:0:0:0:
231,311,36115,1,0,0:0:0:0:
259,311,36209,5,6,1:2:0:0:
397,202,36396,1,0,0:0:0:0:
373,185,36490,1,0,0:0:0:0:
345,179,36584,1,0,0:0:0:0:
317,182,36677,1,0,0:0:0:0:
292,195,36771,1,4,3:0:0:0:
345,274,36959,1,0,1:0:0:0:
393,109,37146,1,0,0:0:0:0:
184,219,37334,1,8,1:3:0:0:
292,195,37521,1,0,0:0:0:0:
292,195,37615,1,0,0:0:0:0:
292,195,37709,2,0,P|295:172|290:151,1,40.4999987640381
178,299,37896,2,0,P|175:322|180:343,1,40.4999987640381
282,80,38084,5,4,3:0:0:0:
83,182,38271,1,0,0:0:0:0:
108,194,38365,1,0,0:0:0:0:
136,198,38459,2,0,B|150:158|150:158|143:112,1,80.9999975280763,2|0,1:3|0:0,0:0:0:0:
103,49,38740,1,0,0:0:0:0:
92,36,38834,2,0,B|67:37|67:37|41:46,3,40.4999987640381
216,153,39209,6,0,P|223:107|175:45,1,121.499996292114,4|0,3:0|0:0,0:0:0:0:
144,119,39584,1,0,0:0:0:0:
309,80,39771,1,0,0:0:0:0:
223,269,39959,1,2,1:3:0:0:
223,269,40052,1,0,0:0:0:0:
223,269,40146,1,0,0:0:0:0:
261,19,40334,1,8,3:0:0:0:
423,159,40521,1,0,0:0:0:0:
399,175,40615,1,0,0:0:0:0:
371,181,40709,1,0,0:0:0:0:
342,179,40802,1,0,0:0:0:0:
315,169,40896,1,0,3:0:0:0:
485,27,41084,6,0,L|470:118,1,80.9999975280763,4|0,3:0|0:0,0:0:0:0:
304,261,41459,2,0,L|258:246,2,40.4999987640381,8|0|0,1:3|0:0|0:0,0:0:0:0:
391,316,41740,1,0,0:0:0:0:
402,330,41834,2,0,L|448:315,3,40.4999987640381
204,289,42209,6,0,P|193:229|278:177,1,161.999995056153,4|0,3:0|0:0,0:0:0:0:
204,289,42771,1,0,0:0:0:0:
41,167,42959,2,0,B|85:155|85:155|130:169,1,80.9999975280763,2|0,1:3|0:0,0:0:0:0:
198,198,43240,1,0,0:0:0:0:
208,211,43334,2,0,B|242:222|242:222|286:210,1,80.9999975280763,8|0,3:0|0:0,0:0:0:0:
393,288,43709,5,0,0:0:0:0:
395,260,43802,1,0,0:0:0:0:
398,231,43896,1,0,3:0:0:0:
401,202,43990,1,0,0:0:0:0:
404,173,44084,1,8,3:0:0:0:
293,313,44271,2,0,B|273:316|273:316|245:312,1,40.4999987640381
407,144,44459,2,0,B|448:133|448:133|496:146,1,80.9999975280763,2|0,1:3|0:0,0:0:0:0:
326,196,44740,1,0,0:0:0:0:
326,196,44834,1,0,0:0:0:0:
431,58,45021,1,0,0:0:0:0:
219,2,45209,6,0,B|204:37|204:37|216:92,1,80.9999975280763,6|0,1:3|0:0,0:0:0:0:
323,281,45584,2,0,B|337:247|337:247|325:195,1,90,8|0,3:0|0:0,0:0:0:0:
154,146,45959,1,10,1:3:0:0:
402,218,46146,1,0,0:0:0:0:
115,262,46334,1,8,3:0:0:0:
286,100,46521,1,0,0:0:0:0:
212,363,46709,5,6,1:3:0:0:
76,185,46896,1,0,0:0:0:0:
390,290,47084,5,6,1:3:0:0:
195,348,47271,1,0,0:0:0:0:
441,157,47459,5,6,1:3:0:0:
405,130,47552,1,0,0:0:0:0:
361,119,47646,1,8,3:0:0:0:
317,126,47740,1,0,0:0:0:0:
279,150,47834,6,0,P|274:117|276:98,1,45,2|0,1:3|0:0,0:0:0:0:
461,179,48021,2,0,P|466:212|464:231,1,45,8|0,3:0|0:0,0:0:0:0:
394,316,48209,5,2,0:0:0:0:
394,316,48771,1,2,0:0:0:0:
153,245,49334,1,2,0:0:0:0:
153,245,49709,5,2,0:0:0:0:
325,98,50271,1,2,0:0:0:0:
325,98,50646,1,0,0:0:0:0:
300,187,50834,1,2,0:0:0:0:
206,4,51209,5,2,0:0:0:0:
206,4,51584,1,0,0:0:0:0:
240,80,51771,1,2,0:0:0:0:
97,227,52146,1,0,0:0:0:0:
131,151,52333,1,2,0:0:0:0:
200,333,52709,5,2,0:0:0:0:
404,205,53271,1,2,0:0:0:0:
243,117,53646,1,0,0:0:0:0:
270,201,53834,1,2,0:0:0:0:
492,82,54209,5,2,0:0:0:0:
414,224,54584,1,0,0:0:0:0:
387,141,54772,1,2,0:0:0:0:
318,325,55146,1,0,0:0:0:0:
282,249,55334,1,2,0:0:0:0:
51,193,55709,5,2,0:0:0:0:
202,113,56084,1,0,0:0:0:0:
175,229,56271,1,2,0:0:0:0:
106,32,56646,1,0,0:0:0:0:
126,143,56834,1,2,0:0:0:0:
387,56,57209,5,2,0:0:0:0:
249,6,57584,1,0,0:0:0:0:
267,98,57771,1,2,0:0:0:0:
377,209,58146,1,0,0:0:0:0:
357,291,58333,1,2,0:0:0:0:
169,353,58709,5,2,0:0:0:0:
169,353,59271,1,2,0:0:0:0:
87,201,59646,1,0,0:0:0:0:
176,247,59834,1,2,0:0:0:0:
203,20,60209,5,2,3:2:0:0:
288,199,60584,1,0,0:0:0:0:
316,95,60771,1,2,3:2:0:0:
387,319,61146,1,0,0:0:0:0:
415,215,61333,1,2,3:2:0:0:
252,346,61709,5,2,3:2:0:0:
157,238,62084,1,0,0:0:0:0:
254,260,62271,1,2,3:2:0:0:
354,152,62646,1,0,0:0:0:0:
257,174,62833,1,2,3:2:0:0:
270,9,63209,5,2,1:2:0:0:
159,145,63584,1,0,0:0:0:0:
69,91,63771,1,2,3:2:0:0:
353,145,64146,1,0,0:0:0:0:
443,91,64333,1,2,3:2:0:0:
269,318,64709,5,2,0:0:0:0:
269,318,65271,1,2,0:0:0:0:
272,135,65646,1,0,0:0:0:0:
270,229,65834,1,2,3:2:0:0:
34,123,66209,5,2,0:0:0:0:
34,123,66771,1,2,0:0:0:0:
249,43,67334,1,2,0:0:0:0:
162,313,67709,5,2,1:2:0:0:
162,313,68271,1,2,0:0:0:0:
401,206,68834,1,2,0:0:0:0:
401,206,69209,5,2,0:0:0:0:
401,206,71084,6,0,L|411:147,2,45
389,294,71646,1,0,0:0:0:0:
389,294,71834,2,0,P|348:306|309:293,1,67.5
106,299,72209,6,0,P|217:266|324:300,1,232.200003543091,6|0,1:2|0:0,0:0:0:0:
323,282,72959,2,0,P|214:246|104:280,1,232.200003543091,4|0,3:0|0:0,0:0:0:0:
104,261,73709,2,0,P|215:228|322:262,1,232.200003543091,4|0,3:0|0:0,0:0:0:0:
43,124,74459,1,2,1:3:0:0:
226,23,75209,6,0,B|204:91|204:91|217:147|217:147|190:257,1,232.200003543091,4|0,3:0|0:0,0:0:0:0:
214,249,75959,2,0,B|238:149|238:149|226:93|226:93|247:25,1,232.200003543091,8|0,3:0|0:0,0:0:0:0:
269,27,76709,2,0,B|247:95|247:95|260:151|260:151|234:261,1,232.200003543091,8|0,3:0|0:0,0:0:0:0:
59,172,77459,2,0,L|172:159,2,101.250003862381,2|0|0,1:3|0:0|0:0,0:0:0:0:
262,81,78209,5,4,1:3:0:0:
262,112,78396,1,0,3:0:0:0:
263,142,78584,2,0,P|307:155|352:143,1,90,0|8,3:0|3:0,0:0:0:0:
490,82,78959,1,0,1:0:0:0:
440,157,79146,1,0,0:0:0:0:
451,246,79334,1,8,3:0:0:0:
451,246,79427,1,0,0:0:0:0:
451,246,79521,1,0,0:0:0:0:
490,82,79709,6,0,P|441:66|395:79,1,90,2|0,3:0|0:0,0:0:0:0:
279,63,80084,2,0,P|329:88|418:63,1,135,6|0,3:0|0:0,0:0:0:0:
261,47,80459,1,0,1:0:0:0:
183,17,80646,1,0,0:0:0:0:
106,47,80834,1,0,0:0:0:0:
38,94,81021,2,0,L|4:104,2,22.5,0|0|0,3:0|0:0|0:0,0:0:0:0:
99,141,81162,1,0,0:0:0:0:
108,148,81209,6,0,B|122:196|122:196|110:241,1,90,4|0,3:0|0:0,0:0:0:0:
67,312,81584,1,0,3:0:0:0:
233,366,81771,1,8,3:0:0:0:
399,312,81959,1,0,1:0:0:0:
228,252,82146,1,0,0:0:0:0:
240,374,82334,1,8,3:0:0:0:
240,374,82427,1,0,0:0:0:0:
240,374,82521,1,0,0:0:0:0:
295,156,82709,5,2,3:0:0:0:
295,156,82896,1,0,0:0:0:0:
101,222,83084,1,2,1:3:0:0:
86,206,83459,1,0,1:0:0:0:
46,135,83646,1,0,0:0:0:0:
74,59,83834,1,0,0:0:0:0:
151,34,84021,2,0,L|181:46,2,22.5,2|0|0,3:0|0:0|0:0,0:0:0:0:
134,110,84162,1,0,0:0:0:0:
141,119,84209,6,0,B|189:133|189:133|234:121,1,90,4|0,3:0|0:0,0:0:0:0:
346,264,84584,2,0,L|356:162,1,90,0|8,0:0|3:0,0:0:0:0:
466,78,84959,1,0,1:0:0:0:
351,0,85146,1,0,0:0:0:0:
270,108,85334,1,2,3:0:0:0:
270,108,85427,1,0,0:0:0:0:
270,108,85521,1,0,0:0:0:0:
392,187,85709,6,0,L|379:294,1,90
255,368,86084,1,2,1:3:0:0:
249,344,86459,1,0,1:0:0:0:
178,384,86646,1,0,0:0:0:0:
102,356,86834,1,0,0:0:0:0:
77,279,87021,2,0,L|86:247,2,22.5,2|0|0,3:0|0:0|0:0,0:0:0:0:
153,296,87162,1,0,0:0:0:0:
162,289,87209,6,0,B|176:241|176:241|164:196,1,90,4|0,3:0|0:0,0:0:0:0:
48,31,87584,2,0,B|34:79|34:79|46:124,1,90,8|0,3:0|0:0,0:0:0:0:
165,202,87959,1,4,3:0:0:0:
321,173,88146,1,8,3:0:0:0:
477,144,88334,1,4,3:0:0:0:
321,173,88521,1,8,3:0:0:0:
415,294,88709,5,4,3:0:0:0:
441,64,88896,1,8,3:0:0:0:
231,189,89084,1,4,3:0:0:0:
465,47,89271,1,8,3:0:0:0:
281,260,89459,1,12,3:0:0:0:
307,224,89552,1,0,0:0:0:0:
313,180,89646,1,8,3:0:0:0:
296,139,89740,1,0,0:0:0:0:
260,113,89834,1,8,3:0:0:0:
216,108,89927,1,0,0:0:0:0:
175,126,90021,1,8,3:0:0:0:
134,145,90115,1,0,0:0:0:0:
89,137,90209,6,0,P|76:95|94:49,1,90,6|0,1:2|0:0,0:0:0:0:
195,2,90490,1,0,0:0:0:0:
214,19,90584,2,0,L|310:15,1,90,0|8,0:0|3:0,0:0:0:0:
200,294,90959,1,0,1:0:0:0:
200,294,91052,1,0,0:0:0:0:
200,294,91146,1,0,0:0:0:0:
341,144,91334,1,8,3:0:0:0:
317,366,91521,1,0,0:0:0:0:
468,249,91709,5,0,3:0:0:0:
434,226,91802,1,0,0:0:0:0:
394,215,91896,1,0,0:0:0:0:
354,225,91990,1,0,0:0:0:0:
321,249,92084,2,0,P|278:261|234:245,1,90,8|0,3:0|0:0,0:0:0:0:
69,138,92459,1,2,1:3:0:0:
69,138,92552,1,0,0:0:0:0:
69,138,92646,1,0,0:0:0:0:
241,57,92834,2,0,L|236:112,1,45
143,204,93021,2,0,L|138:259,1,45
255,357,93209,5,4,3:0:0:0:
304,216,93396,1,0,0:0:0:0:
353,75,93584,1,0,0:0:0:0:
353,75,93677,1,0,0:0:0:0:
353,75,93771,1,8,3:0:0:0:
279,288,93959,1,2,1:3:0:0:
331,146,94146,1,0,0:0:0:0:
183,172,94334,1,8,3:0:0:0:
279,288,94521,1,0,0:0:0:0:
218,98,94709,5,0,0:0:0:0:
218,98,94802,1,0,0:0:0:0:
218,98,94896,1,0,3:0:0:0:
93,209,95084,2,0,L|199:201,1,90,8|0,3:0|0:0,0:0:0:0:
463,186,95459,1,2,1:3:0:0:
327,117,95646,1,0,0:0:0:0:
258,253,95834,1,0,3:0:0:0:
394,322,96021,1,0,0:0:0:0:
394,322,96115,1,0,0:0:0:0:
394,322,96209,6,0,P|407:279|391:226,1,90,4|0,3:0|0:0,0:0:0:0:
253,131,96584,1,0,0:0:0:0:
253,131,96677,1,0,0:0:0:0:
253,131,96771,1,8,3:0:0:0:
331,276,96959,1,0,1:0:0:0:
398,162,97146,1,0,0:0:0:0:
398,162,97240,1,0,0:0:0:0:
398,162,97334,1,8,3:0:0:0:
217,240,97521,1,0,0:0:0:0:
473,130,97709,5,0,3:0:0:0:
449,103,97802,1,0,0:0:0:0:
416,87,97896,1,0,3:0:0:0:
380,83,97990,1,0,0:0:0:0:
346,97,98084,2,0,P|331:56|348:8,1,90,8|0,3:0|0:0,0:0:0:0:
134,249,98459,1,0,1:0:0:0:
109,229,98552,1,0,0:0:0:0:
96,200,98646,1,0,3:0:0:0:
96,169,98740,1,0,0:0:0:0:
109,141,98834,1,0,0:0:0:0:
133,121,98927,1,0,0:0:0:0:
164,113,99021,1,0,3:0:0:0:
194,119,99115,1,0,0:0:0:0:
220,137,99209,6,0,B|234:97|234:97|222:44,1,90,6|0,1:3|0:0,0:0:0:0:
10,197,99584,2,0,B|50:210|50:210|103:198,1,90,8|0,3:0|0:0,0:0:0:0:
310,157,99959,1,6,1:3:0:0:
112,111,100146,1,8,3:0:0:0:
204,304,100334,1,4,3:0:0:0:
264,47,100521,1,8,3:0:0:0:
197,331,100709,5,6,1:3:0:0:
417,206,100896,1,8,3:0:0:0:
126,132,101084,1,4,1:3:0:0:
373,90,101271,1,8,3:0:0:0:
98,137,101459,1,6,1:3:0:0:
99,177,101552,1,0,0:0:0:0:
117,212,101646,1,8,3:0:0:0:
150,235,101740,1,0,0:0:0:0:
190,242,101834,1,6,1:3:0:0:
228,230,101927,1,0,0:0:0:0:
261,206,102021,1,8,3:0:0:0:
297,188,102115,1,0,0:0:0:0:
336,198,102209,5,2,0:0:0:0:
336,198,102959,1,6,1:2:0:0:
357,154,103052,1,0,0:0:0:0:
352,105,103146,1,0,0:0:0:0:
321,67,103240,1,0,0:0:0:0:
275,51,103334,2,0,B|320:41|320:41|365:49,1,90,8|0,3:0|0:0,0:0:0:0:
174,137,103709,5,0,3:0:0:0:
174,137,103802,1,0,0:0:0:0:
174,137,103896,1,0,0:0:0:0:
298,293,104084,2,0,P|314:249|297:198,1,90,4|0,3:0|0:0,0:0:0:0:
140,58,104459,2,0,L|151:7,2,45,2|0|0,1:3|0:0|0:0,0:0:0:0:
90,132,104740,1,0,0:0:0:0:
78,155,104834,2,0,P|38:167|-15:148,1,90,0|0,3:0|0:0,0:0:0:0:
251,53,105209,6,0,B|285:91|285:91|275:235,1,180,4|0,3:0|0:0,0:0:0:0:
201,307,105771,1,8,3:0:0:0:
201,307,105865,1,0,0:0:0:0:
201,307,105959,1,2,1:3:0:0:
370,231,106146,1,0,0:0:0:0:
200,178,106334,1,4,3:0:0:0:
291,301,106521,1,0,0:0:0:0:
433,180,106709,5,0,3:0:0:0:
401,155,106802,1,0,0:0:0:0:
360,151,106896,1,8,3:0:0:0:
322,165,106990,1,0,0:0:0:0:
295,195,107084,2,0,P|281:154|301:100,1,90,4|0,3:0|0:0,0:0:0:0:
114,9,107459,2,0,P|128:50|108:104,1,90,2|0,1:3|0:0,0:0:0:0:
81,163,107740,1,0,0:0:0:0:
90,181,107834,2,0,L|196:166,1,90,0|0,3:0|0:0,0:0:0:0:
452,251,108209,6,0,L|256:223,1,180,4|0,3:0|0:0,0:0:0:0:
189,320,108771,1,0,3:0:0:0:
189,320,108865,1,0,0:0:0:0:
189,320,108959,2,0,P|146:331|101:318,1,90,2|0,1:3|0:0,0:0:0:0:
233,156,109334,2,0,P|276:145|321:158,1,90,4|0,3:0|0:0,0:0:0:0:
388,211,109615,1,0,0:0:0:0:
410,203,109709,5,0,3:0:0:0:
435,172,109802,1,0,0:0:0:0:
446,133,109896,1,0,3:0:0:0:
442,92,109990,1,0,0:0:0:0:
422,56,110084,2,0,B|379:45|379:45|329:57,1,90,4|0,3:0|0:0,0:0:0:0:
144,182,110459,2,0,B|187:193|187:193|237:181,1,90,2|0,1:3|0:0,0:0:0:0:
334,55,110834,1,0,0:0:0:0:
118,12,111021,1,0,0:0:0:0:
239,202,111209,6,0,B|253:157|253:157|238:103,1,90,6|0,1:3|0:0,0:0:0:0:
94,294,111584,2,0,B|80:249|80:249|95:195,1,90,8|0,3:0|0:0,0:0:0:0:
292,284,111959,1,6,1:3:0:0:
91,207,112146,1,8,3:0:0:0:
259,114,112334,1,4,3:0:0:0:
259,114,112521,1,8,3:0:0:0:
160,384,112709,5,6,1:3:0:0:
312,198,112896,1,8,3:0:0:0:
43,277,113084,1,6,1:3:0:0:
285,362,113271,1,8,3:0:0:0:
278,121,113459,1,6,1:3:0:0:
246,146,113552,1,0,0:0:0:0:
230,183,113646,1,8,3:0:0:0:
233,223,113740,1,0,0:0:0:0:
254,257,113834,2,0,P|289:263|306:257,1,45,6|0,1:3|0:0,0:0:0:0:
443,189,114021,2,0,P|408:183|391:189,1,45,8|0,3:0|0:0,0:0:0:0:
180,296,114209,5,2,0:0:0:0:
180,296,114771,1,2,0:0:0:0:
359,245,115334,1,2,0:0:0:0:
359,245,115709,5,2,0:0:0:0:
187,98,116271,1,2,0:0:0:0:
187,98,116646,1,0,0:0:0:0:
212,187,116834,1,2,0:0:0:0:
306,4,117209,5,2,0:0:0:0:
306,4,117584,1,0,0:0:0:0:
272,80,117771,1,2,0:0:0:0:
415,227,118146,1,0,0:0:0:0:
381,151,118333,1,2,0:0:0:0:
312,333,118709,5,2,0:0:0:0:
108,205,119271,1,2,0:0:0:0:
269,117,119646,1,0,0:0:0:0:
242,201,119834,1,2,0:0:0:0:
20,82,120209,5,2,0:0:0:0:
98,224,120584,1,0,0:0:0:0:
125,141,120772,1,2,0:0:0:0:
194,325,121146,1,0,0:0:0:0:
230,249,121334,1,2,0:0:0:0:
461,193,121709,5,2,0:0:0:0:
310,113,122084,1,0,0:0:0:0:
337,229,122271,1,2,0:0:0:0:
406,32,122646,1,0,0:0:0:0:
386,143,122834,1,2,0:0:0:0:
125,56,123209,5,2,0:0:0:0:
263,6,123584,1,0,0:0:0:0:
245,98,123771,1,2,0:0:0:0:
135,209,124146,1,0,0:0:0:0:
155,291,124333,1,2,0:0:0:0:
343,353,124709,5,2,0:0:0:0:
343,353,125271,1,2,0:0:0:0:
425,201,125646,1,0,0:0:0:0:
336,247,125834,1,2,0:0:0:0:
309,20,126209,5,2,3:2:0:0:
224,199,126584,1,0,0:0:0:0:
196,95,126771,1,2,3:2:0:0:
125,319,127146,1,0,0:0:0:0:
97,215,127333,1,2,3:2:0:0:
260,346,127709,5,2,3:2:0:0:
355,238,128084,1,0,0:0:0:0:
258,260,128271,1,2,3:2:0:0:
158,152,128646,1,0,0:0:0:0:
255,174,128833,1,2,3:2:0:0:
242,9,129209,5,2,1:2:0:0:
353,145,129584,1,0,0:0:0:0:
443,91,129771,1,2,3:2:0:0:
159,145,130146,1,0,0:0:0:0:
69,91,130333,1,2,3:2:0:0:
243,318,130709,5,2,0:0:0:0:
243,318,131271,1,2,0:0:0:0:
240,135,131646,1,0,0:0:0:0:
242,229,131834,1,2,3:2:0:0:
478,123,132209,5,2,0:0:0:0:
478,123,132771,1,2,0:0:0:0:
263,43,133334,1,2,0:0:0:0:
350,313,133709,5,2,1:2:0:0:
350,313,134271,1,2,0:0:0:0:
111,206,134834,1,2,0:0:0:0:
111,206,135209,5,2,0:0:0:0:
111,206,137084,6,0,L|101:147,2,45
123,294,137646,1,0,0:0:0:0:
123,294,137834,2,0,P|164:306|203:293,1,67.5
406,300,138209,6,0,P|293:266|185:302,1,232.200003543091,6|0,1:2|0:0,0:0:0:0:
185,283,138959,2,0,P|294:246|406:280,1,232.200003543091,4|0,3:0|0:0,0:0:0:0:
408,262,139709,2,0,P|295:228|187:264,1,232.200003543091,4|0,3:0|0:0,0:0:0:0:
468,124,140459,1,2,1:3:0:0:
285,23,141209,6,0,B|307:91|307:91|294:147|294:147|321:258,1,232.200003543091,4|0,3:0|0:0,0:0:0:0:
296,250,141959,2,0,B|273:149|273:149|285:93|285:93|264:25,1,232.200003543091,8|0,3:0|0:0,0:0:0:0:
242,27,142709,2,0,B|264:95|264:95|251:151|251:151|277:262,1,232.200003543091,8|0,3:0|0:0,0:0:0:0:
453,172,143459,2,0,L|340:159,2,101.250003862381,2|0|0,1:3|0:0|0:0,0:0:0:0:
250,81,144209,6,0,P|240:48|248:8,1,67.5000025749208,4|0,3:0|3:0,3:0:0:0:
192,164,144584,2,0,P|148:177|103:165,1,90,0|8,3:0|3:0,0:0:0:0:
56,91,144959,1,0,1:0:0:0:
106,166,145146,1,0,0:0:0:0:
95,255,145334,1,8,3:0:0:0:
95,255,145427,1,0,0:0:0:0:
95,255,145521,1,0,0:0:0:0:
56,91,145709,6,0,P|105:75|151:88,1,90,2|0,3:0|0:0,0:0:0:0:
266,72,146084,2,0,P|216:97|127:72,1,135,6|0,3:0|0:0,0:0:0:0:
267,47,146459,6,0,P|311:40|353:56,1,90,0|0,1:0|0:0,0:0:0:0:
491,95,146834,1,0,0:0:0:0:
491,95,147021,2,0,L|516:75,2,22.5,0|0|0,3:0|0:0|0:0,0:0:0:0:
430,142,147162,1,0,0:0:0:0:
421,149,147209,6,0,B|407:197|407:197|419:242,1,90,4|0,3:0|0:0,0:0:0:0:
445,312,147584,1,0,3:0:0:0:
279,366,147771,1,8,3:0:0:0:
113,312,147959,6,0,P|102:271|116:219,1,90,0|0,1:0|0:0,0:0:0:0:
286,374,148334,1,8,3:0:0:0:
286,374,148427,1,0,0:0:0:0:
286,374,148521,1,0,0:0:0:0:
351,288,148709,5,0,3:0:0:0:
286,374,148896,1,4,3:0:0:0:
406,225,149084,2,0,P|352:203|314:215,1,90,2|0,1:3|0:0,0:0:0:0:
286,374,149459,1,0,1:0:0:0:
388,34,149834,1,0,0:0:0:0:
388,34,150021,2,0,L|405:5,2,22.5,2|0|0,3:0|0:0|0:0,0:0:0:0:
378,110,150162,1,0,0:0:0:0:
371,119,150209,6,0,B|323:133|323:133|278:121,1,90,4|0,3:0|0:0,0:0:0:0:
166,264,150584,2,0,L|156:162,1,90,0|8,0:0|3:0,0:0:0:0:
40,0,150959,2,0,L|49:89,1,90,0|0,1:0|0:0,0:0:0:0:
227,10,151334,1,2,3:0:0:0:
227,10,151427,1,0,0:0:0:0:
227,10,151521,1,0,0:0:0:0:
120,187,151709,6,0,L|133:294,1,90
257,368,152084,1,2,1:3:0:0:
435,279,152271,1,0,0:0:0:0:
245,342,152459,6,0,P|238:295|251:253,1,90,0|0,1:0|0:0,0:0:0:0:
249,254,152834,1,0,0:0:0:0:
435,279,153021,2,0,L|424:248,2,22.5,2|0|0,3:0|0:0|0:0,0:0:0:0:
359,296,153162,1,0,0:0:0:0:
350,289,153209,6,0,B|336:241|336:241|348:196,1,90,6|0,1:3|0:0,0:0:0:0:
464,31,153584,2,0,B|478:79|478:79|466:124,1,90,8|0,3:0|0:0,0:0:0:0:
347,202,153959,1,6,1:3:0:0:
191,173,154146,1,8,3:0:0:0:
35,144,154334,1,4,3:0:0:0:
191,173,154521,1,8,3:0:0:0:
97,294,154709,5,6,1:3:0:0:
71,64,154896,1,8,3:0:0:0:
281,189,155084,1,6,1:3:0:0:
47,47,155271,1,8,3:0:0:0:
231,260,155459,1,6,1:3:0:0:
205,224,155552,1,0,0:0:0:0:
199,180,155646,1,8,3:0:0:0:
216,139,155740,1,0,0:0:0:0:
252,113,155834,1,10,1:3:0:0:
296,108,155927,1,0,0:0:0:0:
337,126,156021,1,8,3:0:0:0:
378,145,156115,1,0,0:0:0:0:
423,137,156209,5,6,1:2:0:0:
295,132,168584,5,2,0:0:0:0:
251,142,168771,1,0,0:0:0:0:
215,113,168959,1,0,0:0:0:0:
215,68,169146,1,0,0:0:0:0:
251,40,169334,1,0,0:0:0:0:
295,50,169521,1,0,0:0:0:0:
371,292,169709,6,0,P|341:249|180:257,1,215.999993408203,6|0,1:2|0:0,0:0:0:0:
36,324,170271,1,8,3:0:0:0:
122,171,170459,2,0,L|108:290,1,107.999996704102,2|0,1:3|0:0,0:0:0:0:
203,138,170834,2,0,L|189:257,1,107.999996704102,8|0,3:0|0:0,0:0:0:0:
230,325,171115,1,0,0:0:0:0:
252,340,171209,5,0,3:0:0:0:
278,322,171302,1,0,0:0:0:0:
308,311,171396,1,0,0:0:0:0:
340,316,171490,1,0,0:0:0:0:
370,328,171584,2,0,P|425:347|485:330,1,107.999996704102,8|0,3:0|0:0,0:0:0:0:
333,128,171959,2,0,B|316:177|316:177|329:235,1,107.999996704102,2|0,1:3|0:0,0:0:0:0:
474,71,172334,1,2,0:0:0:0:
474,71,172427,1,0,0:0:0:0:
474,71,172521,1,0,0:0:0:0:
328,231,172709,6,0,B|279:247|279:247|220:233,1,107.999996704102,2|0,1:3|0:0,0:0:0:0:
151,207,172990,1,0,0:0:0:0:
151,207,173084,1,0,0:0:0:0:
3,125,173271,1,8,3:0:0:0:
179,17,173459,1,2,1:3:0:0:
179,17,173552,1,0,0:0:0:0:
179,17,173646,1,0,0:0:0:0:
59,199,173834,2,0,B|36:248|36:248|53:306,1,107.999996704102,8|0,3:0|0:0,0:0:0:0:
346,155,174209,5,2,0:0:0:0:
84,92,174396,1,0,0:0:0:0:
216,340,174584,1,2,3:2:0:0:
280,28,174771,1,0,0:0:0:0:
509,238,174959,2,0,B|456:251|456:251|402:231,1,107.999996704102,2|0,1:3|0:0,0:0:0:0:
213,137,175334,1,2,0:0:0:0:
213,137,175427,1,0,0:0:0:0:
213,137,175521,1,0,0:0:0:0:
318,324,175709,6,0,B|313:252|313:252|343:182|343:182|342:99,1,215.999993408203,6|0,3:2|0:0,0:0:0:0:
181,258,176271,1,8,3:0:0:0:
398,378,176459,2,0,L|391:264,1,107.999996704102,2|0,1:3|0:0,0:0:0:0:
143,353,176834,1,8,3:0:0:0:
143,353,176927,1,0,0:0:0:0:
143,353,177021,1,0,0:0:0:0:
28,157,177209,5,0,3:0:0:0:
56,141,177302,1,0,0:0:0:0:
87,133,177396,1,0,3:0:0:0:
119,133,177490,1,0,0:0:0:0:
150,141,177584,1,8,3:0:0:0:
304,217,177771,1,0,0:0:0:0:
102,333,177959,2,0,B|85:281|85:281|105:219,1,107.999996704102,2|0,1:3|0:0,0:0:0:0:
234,155,178334,1,0,3:0:0:0:
234,155,178427,1,0,0:0:0:0:
234,155,178521,1,0,0:0:0:0:
421,29,178709,6,0,B|458:77|458:77|442:244,1,215.999993408203,4|0,3:0|0:0,0:0:0:0:
256,288,179271,1,8,3:0:0:0:
117,146,179459,2,0,L|102:280,1,107.999996704102,2|0,1:3|0:0,0:0:0:0:
334,290,179834,2,0,P|318:239|261:211,1,107.999996704102,8|0,3:0|0:0,0:0:0:0:
140,335,180209,5,2,0:0:0:0:
140,335,180302,1,0,0:0:0:0:
140,335,180396,1,8,3:0:0:0:
344,128,180584,1,4,3:0:0:0:
152,192,180771,1,0,0:0:0:0:
464,272,180959,1,2,1:3:0:0:
208,68,181146,1,0,0:0:0:0:
267,373,181334,1,0,1:0:0:0:
267,373,181427,1,0,0:0:0:0:
267,373,181521,1,0,0:0:0:0:
501,194,181709,6,0,B|384:169|420:267|285:241,1,215.999993408203,6|2,1:2|0:0,0:0:0:0:
56,146,182271,1,8,3:0:0:0:
163,378,182459,2,0,P|179:329|167:272,1,107.999996704102,2|0,1:3|0:0,0:0:0:0:
75,69,182834,1,8,3:0:0:0:
75,69,182927,1,0,0:0:0:0:
75,69,183021,1,0,0:0:0:0:
243,157,183209,5,2,0:0:0:0:
275,154,183302,1,0,0:0:0:0:
307,151,183396,1,0,0:0:0:0:
339,149,183490,1,0,0:0:0:0:
371,147,183584,1,8,3:0:0:0:
202,243,183771,1,0,0:0:0:0:
357,47,183959,2,0,P|381:96|357:163,1,107.999996704102,2|0,1:3|0:0,0:0:0:0:
295,255,184334,1,2,0:0:0:0:
295,255,184427,1,0,0:0:0:0:
295,255,184521,1,0,0:0:0:0:
67,175,184709,6,0,B|121:137|121:137|285:145,1,215.999993408203,4|0,3:0|0:0,0:0:0:0:
474,225,185271,1,8,3:0:0:0:
306,353,185459,2,0,B|293:301|293:301|310:248,1,107.999996704102,2|0,1:3|0:0,0:0:0:0:
411,107,185834,1,8,3:0:0:0:
205,286,186021,1,0,0:0:0:0:
437,86,186209,5,2,0:0:0:0:
124,184,186396,1,0,3:0:0:0:
508,274,186584,1,4,3:0:0:0:
272,0,186771,1,0,0:0:0:0:
321,353,186959,2,0,B|376:368|376:368|438:352,1,107.999996704102,2|0,1:3|0:0,0:0:0:0:
201,276,187334,1,2,0:0:0:0:
201,276,187427,1,0,0:0:0:0:
201,276,187521,1,0,0:0:0:0:
96,126,187709,6,0,B|66:159|66:159|85:331,1,215.999993408203,6|0,1:2|0:0,0:0:0:0:
221,197,188271,1,8,3:0:0:0:
41,70,188459,2,0,P|15:118|38:180,1,107.999996704102,2|0,1:3|0:0,0:0:0:0:
287,254,188834,2,0,B|308:201|308:201|289:145,1,107.999996704102,8|0,3:0|0:0,0:0:0:0:
156,10,189209,5,2,0:0:0:0:
155,42,189302,1,0,0:0:0:0:
154,74,189396,1,0,0:0:0:0:
154,106,189490,1,0,0:0:0:0:
154,138,189584,1,10,3:0:0:0:
290,196,189771,1,0,0:0:0:0:
453,136,189959,2,0,B|402:122|402:122|346:139,1,107.999996704102,2|0,1:3|0:0,0:0:0:0:
227,247,190334,1,2,0:0:0:0:
199,264,190427,1,0,0:0:0:0:
167,271,190521,1,0,0:0:0:0:
134,271,190615,1,0,0:0:0:0:
102,262,190709,6,0,P|86:222|106:159,1,107.999996704102,4|0,3:0|0:0,0:0:0:0:
165,113,190990,1,0,0:0:0:0:
165,113,191084,1,2,0:0:0:0:
11,50,191271,1,8,3:0:0:0:
237,0,191459,2,0,B|255:49|255:49|240:110,1,107.999996704102,2|0,1:3|0:0,0:0:0:0:
344,207,191834,2,0,P|397:224|456:205,1,107.999996704102,8|0,3:0|0:0,0:0:0:0:
229,231,192209,5,2,0:0:0:0:
232,199,192303,1,0,0:0:0:0:
235,167,192397,1,0,3:0:0:0:
238,135,192491,1,0,0:0:0:0:
241,103,192584,1,2,0:0:0:0:
224,316,192771,1,0,0:0:0:0:
249,17,192959,1,2,1:3:0:0:
424,176,193146,1,0,0:0:0:0:
60,160,193334,1,2,0:0:0:0:
400,336,193521,1,0,0:0:0:0:
104,65,193708,6,0,B|56:53|56:53|-8:70,1,107.999996704102,6|0,1:2|0:0,0:0:0:0:
166,127,193990,1,0,0:0:0:0:
166,127,194084,1,2,0:0:0:0:
370,55,194271,1,8,3:0:0:0:
203,4,194459,1,0,1:0:0:0:
203,4,194552,1,2,0:0:0:0:
271,244,194740,1,0,0:0:0:0:
271,244,194834,1,8,3:0:0:0:
370,55,195021,1,0,0:0:0:0:
393,312,195209,5,2,0:0:0:0:
393,312,195302,1,0,0:0:0:0:
393,312,195396,1,0,0:0:0:0:
501,172,195584,2,0,B|448:156|448:156|379:174,1,107.999996704102,8|0,3:0|0:0,0:0:0:0:
194,264,195959,1,0,1:0:0:0:
194,264,196052,1,2,0:0:0:0:
404,176,196240,1,0,0:0:0:0:
404,176,196334,1,2,0:0:0:0:
220,133,196521,1,0,0:0:0:0:
336,16,196709,6,0,L|304:235,1,215.999993408203,6|0,3:0|0:0,0:0:0:0:
136,310,197271,1,8,3:0:0:0:
23,176,197459,2,0,B|75:162|75:162|139:175,1,107.999996704102,6|0,1:3|0:0,0:0:0:0:
196,209,197740,1,0,0:0:0:0:
196,209,197834,1,8,3:0:0:0:
342,277,198021,1,0,0:0:0:0:
488,209,198209,5,2,0:0:0:0:
500,179,198302,1,0,0:0:0:0:
503,146,198396,1,0,0:0:0:0:
500,113,198490,1,0,0:0:0:0:
488,82,198584,1,2,3:2:0:0:
347,12,198771,1,0,0:0:0:0:
196,95,198959,1,2,1:3:0:0:
347,12,199146,1,0,0:0:0:0:
338,271,199334,2,0,L|343:147,1,107.999996704102,2|0,0:0|0:0,0:0:0:0:
345,88,199615,1,0,0:0:0:0:
345,88,199709,6,0,B|293:72|293:72|232:88,1,107.999996704102,8|0,3:0|0:0,0:0:0:0:
176,127,199990,1,0,0:0:0:0:
176,127,200084,1,2,0:0:0:0:
42,249,200271,1,8,3:0:0:0:
176,371,200459,1,0,1:0:0:0:
176,371,200552,1,2,0:0:0:0:
46,253,200740,1,0,0:0:0:0:
46,253,200834,1,8,3:0:0:0:
274,162,201021,1,0,0:0:0:0:
141,22,201209,5,2,0:0:0:0:
142,54,201302,1,0,0:0:0:0:
143,86,201396,1,0,0:0:0:0:
144,118,201490,1,0,0:0:0:0:
145,150,201584,1,8,3:0:0:0:
275,248,201771,1,2,0:0:0:0:
405,150,201959,2,0,P|355:134|295:155,1,107.999996704102,2|0,1:3|0:0,0:0:0:0:
233,185,202240,1,0,0:0:0:0:
233,185,202334,1,2,0:0:0:0:
343,314,202521,1,0,0:0:0:0:
424,131,202709,6,0,B|442:80|442:80|426:18,1,107.999996704102,8|0,3:0|0:0,0:0:0:0:
176,107,203084,1,0,0:0:0:0:
349,14,203271,1,8,3:0:0:0:
230,297,203459,1,2,1:3:0:0:
303,93,203646,1,0,0:0:0:0:
303,93,203740,1,0,0:0:0:0:
303,93,203834,1,8,3:0:0:0:
112,179,204021,1,0,0:0:0:0:
303,329,204209,6,0,P|310:282|273:228,1,107.999996704102,2|8,0:0|3:0,0:0:0:0:
210,196,204490,1,0,0:0:0:0:
210,196,204584,5,4,3:0:0:0:
138,141,204771,1,0,0:0:0:0:
66,86,204959,1,0,0:0:0:0:
