osu file format v14

[General]
AudioFilename: audio.mp3
AudioLeadIn: 0
PreviewTime: 51620
Countdown: 0
SampleSet: Soft
StackLeniency: 0.6
Mode: 0
LetterboxInBreaks: 0
EpilepsyWarning: 1
WidescreenStoryboard: 1

[Editor]
DistanceSpacing: 1.4
BeatDivisor: 4
GridSize: 16
TimelineZoom: 1.5

[Metadata]
Title:Look What You Made Me Do (Speed Up Ver.)
TitleUnicode:Look What You Made Me Do (Speed Up Ver.)
Artist:Taylor Swift (feat. Sam Tsui & Madilyn Bailey)
ArtistUnicode:Taylor Swift (feat. Sam Tsui & Madilyn Bailey)
Creator:Nyantiaz
Version:Marianna's Normal
Source:
Tags:zen - kun circlechu marianna speed up ver switching vocals
BeatmapID:1506022
BeatmapSetID:681424

[Difficulty]
HPDrainRate:6
CircleSize:3.7
OverallDifficulty:6
ApproachRate:7
SliderMultiplier:1.4
SliderTickRate:1

[Events]
//Background and Video events
0,0,"background.jpg",0,0
//Break Periods
2,115922,126040
//Storyboard Layer 0 (Background)
//Storyboard Layer 1 (Fail)
//Storyboard Layer 2 (Pass)
//Storyboard Layer 3 (Foreground)
//Storyboard Sound Samples

[TimingPoints]
338,400.641025641026,4,2,6,30,1,0
38799,-133.333333333333,4,2,6,30,0,0
51620,-100,4,2,6,40,0,1
64440,-100,4,2,6,30,0,0
90081,-133.333333333333,4,2,6,30,0,0
102902,-100,4,2,6,30,0,1
115722,-133.333333333333,4,2,6,30,0,0
128543,-100,4,2,6,30,0,0

[Colours]
Combo1 : 55,55,55
Combo2 : 128,128,128
Combo3 : 108,54,0
SliderTrackOverride : 0,26,26

[HitObjects]
40,144,13158,6,0,P|100:120|168:144,1,140,8|0,0:0|0:0,0:0:0:0:
256,192,13759,2,0,P|316:216|384:192,1,140
320,116,14360,1,0,0:0:0:0:
256,300,14761,6,0,L|184:296,1,70,2|0,0:0|0:0,0:0:0:0:
92,320,15161,2,0,L|96:248,1,70
60,156,15562,2,0,L|132:160,1,70,2|0,0:0|0:0,0:0:0:0:
224,136,15963,2,0,L|220:208,1,70
256,300,16363,6,0,B|296:320|296:320|392:312,1,140,2|0,0:0|0:0,0:0:0:0:
456,240,16964,6,0,B|416:220|416:220|320:228,1,140
256,300,17565,1,0,0:0:0:0:
340,124,17966,6,0,P|348:88|340:56,1,70,2|0,0:0|0:0,0:0:0:0:
248,88,18366,2,0,P|212:80|180:88,1,70,2|0,0:0|0:0,0:0:0:0:
212,180,18767,2,0,P|204:216|212:248,1,70,2|0,0:0|0:0,0:0:0:0:
304,216,19168,2,0,P|340:224|372:216,1,70,2|0,0:0|0:0,0:0:0:0:
448,144,19568,6,0,L|448:284,1,140,2|0,0:0|0:0,0:0:0:0:
371,356,20169,6,0,L|371:216,1,140
336,124,20770,1,0,0:0:0:0:
208,272,21171,6,0,L|136:268,1,70,2|0,0:0|0:0,0:0:0:0:
72,196,21571,2,0,L|144:192,1,70
208,120,21972,2,0,L|136:116,1,70,2|0,0:0|0:0,0:0:0:0:
72,44,22373,2,0,L|144:40,1,70
208,120,22773,6,0,P|272:148|332:120,1,140,2|0,0:0|0:0,0:0:0:0:
396,48,23374,1,0,0:0:0:0:
396,48,23575,2,0,B|364:112|420:112|392:192,1,140,2|0,0:0|0:0,0:0:0:0:
356,276,24176,1,0,0:0:0:0:
356,276,24376,6,0,P|320:268|288:276,1,70,2|0,0:0|0:0,0:0:0:0:
200,320,24777,2,0,P|164:328|132:320,1,70,2|0,0:0|0:0,0:0:0:0:
48,272,25177,1,0,0:0:0:0:
132,224,25378,1,2,0:0:0:0:
132,320,25578,1,8,0:0:0:0:
48,168,25979,6,0,L|48:24,1,140,4|8,0:0|0:1,0:0:0:0:
140,68,26579,1,0,0:0:0:0:
140,68,26780,2,0,P|176:76|208:68,1,70,2|0,0:0|0:0,0:0:0:0:
300,36,27180,2,0,P|336:28|368:36,1,70,8|0,0:1|0:0,0:0:0:0:
328,124,27581,6,0,L|320:200,1,70,2|0,0:0|0:0,0:0:0:0:
232,236,27982,2,0,L|170:191,1,70,8|0,0:1|0:0,0:0:0:0:
180,96,28382,2,0,L|249:64,1,70,2|0,0:0|0:0,0:0:0:0:
328,124,28783,2,0,L|320:200,1,70,8|0,0:1|0:0,0:0:0:0:
232,236,29184,6,0,B|156:248|168:216|92:232,1,140,2|8,0:0|0:1,0:0:0:0:
24,304,29785,1,0,0:0:0:0:
24,304,29985,2,0,L|24:376,2,70,2|0|8,0:0|0:0|0:1,0:0:0:0:
93,231,30586,1,0,0:0:0:0:
36,152,30786,6,0,P|28:120|40:84,1,70,2|0,0:0|0:0,0:0:0:0:
128,40,31187,2,0,P|159:49|184:77,1,70,8|0,0:1|0:0,0:0:0:0:
180,172,31588,2,0,P|156:194|119:202,1,70,2|0,0:0|0:0,0:0:0:0:
36,152,31988,2,0,P|28:120|40:84,1,70,8|0,0:1|0:0,0:0:0:0:
128,40,32389,6,0,L|268:40,1,140,2|8,0:0|0:1,0:0:0:0:
348,96,32990,1,0,0:0:0:0:
348,96,33190,2,0,P|356:132|344:168,1,70,2|0,0:0|0:0,0:0:0:0:
300,248,33591,2,0,P|292:284|304:320,1,70,8|0,0:1|0:0,0:0:0:0:
208,340,33991,6,0,L|132:332,1,70,2|0,0:0|0:0,0:0:0:0:
96,244,34392,2,0,L|141:182,1,70,8|0,0:1|0:0,0:0:0:0:
236,192,34793,2,0,L|268:261,1,70,2|0,0:0|0:0,0:0:0:0:
208,340,35193,2,0,L|132:332,1,70,8|0,0:1|0:0,0:0:0:0:
96,244,35594,6,0,B|72:172|120:180|96:108,1,140,2|8,0:0|0:1,0:0:0:0:
28,36,36195,1,0,0:0:0:0:
28,36,36395,2,0,L|168:36,1,140,2|8,0:0|0:1,0:0:0:0:
256,80,36996,1,0,0:0:0:0:
344,36,37196,6,0,P|408:16|476:40,2,140,2|8|0,0:0|0:1|0:0,0:0:0:0:
256,80,38198,1,2,0:0:0:0:
344,140,38398,1,8,0:0:0:0:
168,36,38799,6,0,L|176:140,1,105.000004005432,4|8,0:0|0:1,0:0:0:0:
140,216,39400,1,0,0:0:0:0:
140,216,39600,2,0,P|196:224|236:200,1,105.000004005432,8|8,0:1|0:1,0:0:0:0:
288,136,40201,1,0,0:0:0:0:
288,136,40402,6,0,P|280:192|304:232,1,105.000004005432,8|8,0:1|0:1,0:0:0:0:
372,284,41003,1,0,0:0:0:0:
372,284,41203,2,0,L|424:280,1,52.5000020027161,8|0,0:1|0:0,0:0:0:0:
296,320,41604,2,0,L|244:316,1,52.5000020027161,8|0,0:1|0:0,0:0:0:0:
174,196,42004,6,0,L|294:188,1,105.000004005432,2|8,0:0|0:1,0:0:0:0:
348,140,42605,1,0,0:0:0:0:
348,140,42805,2,0,P|332:196|352:236,1,105.000004005432,8|8,0:1|0:1,0:0:0:0:
428,272,43406,1,0,0:0:0:0:
428,272,43607,6,0,P|484:257|509:220,1,105.000004005432,8|8,0:1|0:1,0:0:0:0:
476,144,44208,1,0,0:0:0:0:
476,144,44408,2,0,L|472:92,1,52.5000020027161,8|0,0:1|0:0,0:0:0:0:
396,20,44809,2,0,L|392:72,1,52.5000020027161,8|0,0:1|0:0,0:0:0:0:
308,164,45209,6,0,B|276:176|276:176|204:172,1,105.000004005432,2|8,0:0|0:1,0:0:0:0:
144,116,45810,1,0,0:0:0:0:
144,116,46011,2,0,P|120:164|136:220,1,105.000004005432,8|8,0:1|0:1,0:0:0:0:
191,268,46612,1,0,0:0:0:0:
191,268,46812,6,0,P|215:220|199:164,1,105.000004005432,8|8,0:1|0:1,0:0:0:0:
144,116,47413,1,0,0:0:0:0:
144,116,47613,2,0,L|88:112,1,52.5000020027161,8|0,0:1|0:0,0:0:0:0:
204,171,48014,2,0,L|260:167,1,52.5000020027161,8|0,0:1|0:0,0:0:0:0:
360,104,48414,6,0,P|344:156|360:208,1,105.000004005432,2|8,0:0|0:1,0:0:0:0:
404,272,49015,2,0,L|400:304,2,26.2500010013581,0|0|8,0:0|0:0|0:1,0:0:0:0:
240,312,49616,1,8,0:1:0:0:
240,312,49817,6,0,L|244:344,2,26.2500010013581,0|0|8,0:0|0:0|0:1,0:0:0:0:
208,148,50418,1,8,0:1:0:0:
372,112,50818,1,8,0:1:0:0:
404,272,51219,1,2,0:0:0:0:
208,148,51620,6,0,L|64:156,1,140,4|8,0:0|0:0,0:0:0:0:
4,232,52221,1,0,0:0:0:0:
4,232,52421,2,0,P|0:268|16:300,1,70,2|0,0:0|0:0,0:0:0:0:
108,324,52821,2,0,P|141:309|160:279,1,70,8|0,0:0|0:0,0:0:0:0:
200,192,53222,6,0,B|272:176|268:216|340:192,1,140,2|8,0:0|0:0,0:0:0:0:
412,128,53823,1,0,0:0:0:0:
412,128,54023,2,0,L|408:52,1,70,2|0,0:0|0:0,0:0:0:0:
320,16,54424,2,0,L|323:85,1,70,8|0,0:0|0:0,0:0:0:0:
328,184,54825,6,0,B|332:248|332:248|336:292|296:316,1,140,2|8,0:0|0:0,0:0:0:0:
208,340,55426,1,0,0:0:0:0:
208,340,55626,2,0,P|172:340|144:320,1,70,2|0,0:0|0:0,0:0:0:0:
104,232,56027,2,0,P|104:196|124:168,1,70,8|0,0:0|0:0,0:0:0:0:
212,124,56427,6,0,P|248:124|276:144,1,70,2|0,0:0|0:0,0:0:0:0:
316,232,56828,2,0,P|316:268|296:296,1,70,8|0,0:0|0:0,0:0:0:0:
380,348,57229,2,0,P|397:316|429:302,1,70,2|0,0:0|0:0,0:0:0:0:
412,204,57629,1,8,0:0:0:0:
512,36,58030,6,0,L|368:32,1,140,2|8,0:0|0:0,0:0:0:0:
288,84,58631,1,2,0:0:0:0:
288,84,58831,2,0,P|276:116|284:152,1,70,0|2,0:0|0:0,0:0:0:0:
368,200,59232,2,0,P|401:194|428:169,1,70,8|0,0:0|0:0,0:0:0:0:
504,112,59632,6,0,B|504:172|504:172|512:188|512:188|512:252,1,140,2|8,0:0|0:0,0:0:0:0:
448,324,60233,1,2,0:0:0:0:
448,324,60434,2,0,L|376:320,1,70,0|2,0:0|0:0,0:0:0:0:
336,232,60834,2,0,L|408:228,1,70,8|0,0:0|0:0,0:0:0:0:
452,140,61235,6,0,L|304:128,1,140,2|8,0:0|0:0,0:0:0:0:
236,188,61836,1,2,0:0:0:0:
236,188,62036,2,0,P|228:220|236:256,1,70,0|2,0:0|0:0,0:0:0:0:
152,308,62437,2,0,P|128:285|93:274,1,70,8|0,0:0|0:0,0:0:0:0:
12,296,62838,5,2,0:0:0:0:
472,144,64440,6,0,P|412:120|344:144,1,140,8|0,0:0|0:0,0:0:0:0:
256,192,65041,2,0,P|196:216|128:192,1,140
192,116,65642,1,0,0:0:0:0:
256,300,66043,6,0,L|328:296,1,70,2|0,0:0|0:0,0:0:0:0:
420,320,66443,2,0,L|416:248,1,70
452,156,66844,2,0,L|380:160,1,70,2|0,0:0|0:0,0:0:0:0:
288,136,67245,2,0,L|292:208,1,70
256,300,67645,6,0,B|216:320|216:320|120:312,1,140,2|0,0:0|0:0,0:0:0:0:
56,240,68246,6,0,B|96:220|96:220|192:228,1,140
256,300,68847,1,0,0:0:0:0:
172,124,69248,6,0,P|164:88|172:56,1,70,2|0,0:0|0:0,0:0:0:0:
264,88,69648,2,0,P|300:80|332:88,1,70,2|0,0:0|0:0,0:0:0:0:
300,180,70049,2,0,P|308:216|300:248,1,70,2|0,0:0|0:0,0:0:0:0:
208,216,70450,2,0,P|172:224|140:216,1,70,2|0,0:0|0:0,0:0:0:0:
64,144,70850,6,0,L|64:284,1,140,2|0,0:0|0:0,0:0:0:0:
141,356,71451,6,0,L|141:216,1,140
176,124,72052,1,0,0:0:0:0:
304,272,72453,6,0,L|376:268,1,70,2|0,0:0|0:0,0:0:0:0:
440,196,72854,2,0,L|368:192,1,70
304,120,73254,2,0,L|376:116,1,70,2|0,0:0|0:0,0:0:0:0:
440,44,73655,2,0,L|368:40,1,70
304,120,74055,6,0,P|240:148|180:120,1,140,2|0,0:0|0:0,0:0:0:0:
116,48,74656,1,0,0:0:0:0:
116,48,74857,2,0,B|148:112|92:112|120:192,1,140,2|0,0:0|0:0,0:0:0:0:
156,276,75458,1,0,0:0:0:0:
156,276,75658,6,0,P|192:268|224:276,1,70,2|0,0:0|0:0,0:0:0:0:
312,320,76059,2,0,P|348:328|380:320,1,70,2|0,0:0|0:0,0:0:0:0:
464,272,76459,1,0,0:0:0:0:
380,224,76660,1,2,0:0:0:0:
380,320,76860,1,8,0:0:0:0:
468,144,77261,5,4,0:0:0:0:
468,144,77461,2,0,L|464:72,1,70,2|8,0:0|0:1,0:0:0:0:
372,36,77862,2,0,L|368:108,1,70,2|0,0:0|0:1,0:0:0:0:
284,152,78262,2,0,L|280:80,1,70,2|8,0:0|0:1,0:0:0:0:
188,44,78663,2,0,L|184:116,1,70,2|0,0:0|0:1,0:0:0:0:
176,212,79063,6,0,L|172:284,2,70,2|8|0,0:0|0:1|0:0,0:0:0:0:
184,113,79664,1,2,0:0:0:0:
184,113,79865,1,0,0:0:0:0:
272,156,80065,1,8,0:1:0:0:
272,156,80265,1,0,0:0:0:0:
428,36,80666,5,2,0:0:0:0:
428,36,80866,2,0,L|500:40,2,70,8|0|2,0:1|0:0|0:0,0:0:0:0:
368,112,81467,2,0,L|296:116,2,70,0|8|0,0:1|0:1|0:0,0:0:0:0:
456,156,82068,6,0,P|464:192|456:224,1,70,2|0,0:0|0:0,0:0:0:0:
488,316,82469,2,0,P|452:324|420:316,1,70,8|0,0:1|0:0,0:0:0:0:
328,352,82870,6,0,P|320:316|328:284,1,70,2|0,0:0|0:0,0:0:0:0:
296,192,83270,2,0,P|332:184|364:192,1,70,8|0,0:1|0:0,0:0:0:0:
456,223,83671,6,0,L|456:79,1,140,2|8,0:0|0:1,0:0:0:0:
364,48,84272,1,0,0:0:0:0:
364,48,84472,2,0,B|292:64|300:24|220:44,1,140,2|8,0:0|0:1,0:0:0:0:
136,84,85073,1,0,0:0:0:0:
136,84,85273,6,0,L|32:80,2,105,2|2|0,0:0|0:0|0:0,0:0:0:0:
200,160,86075,2,0,L|272:156,1,70,0|2,0:0|0:0,0:0:0:0:
368,152,86475,1,8,0:1:0:0:
208,244,86876,6,0,P|192:296|208:344,2,105,2|2|0,0:0|0:0|0:0,0:0:0:0:
304,244,87677,2,0,P|320:296|304:344,2,105,2|2|0,0:0|0:0|0:0,0:0:0:0:
256,160,88479,6,0,L|256:88,1,70,2|0,0:0|0:0,0:0:0:0:
324,20,88879,2,0,P|360:12|392:20,1,70,8|0,0:1|0:0,0:0:0:0:
428,112,89280,2,0,P|392:120|360:112,1,70,0|2,0:1|0:0,0:0:0:0:
488,60,89680,1,8,0:0:0:0:
488,60,90081,6,0,L|480:164,1,105.000004005432,4|8,0:0|0:1,0:0:0:0:
408,212,90682,1,0,0:0:0:0:
408,212,90882,2,0,P|352:220|312:196,1,105.000004005432,8|8,0:1|0:1,0:0:0:0:
271,119,91483,1,0,0:0:0:0:
271,119,91684,6,0,P|279:175|255:215,1,105.000004005432,8|8,0:1|0:1,0:0:0:0:
187,267,92285,1,0,0:0:0:0:
187,267,92485,2,0,L|135:263,1,52.5000020027161,8|0,0:1|0:0,0:0:0:0:
263,303,92886,2,0,L|315:299,1,52.5000020027161,8|0,0:1|0:0,0:0:0:0:
385,179,93286,6,0,L|265:171,1,105.000004005432,2|8,0:0|0:1,0:0:0:0:
211,123,93887,1,0,0:0:0:0:
211,123,94088,2,0,P|227:179|207:219,1,105.000004005432,8|8,0:1|0:1,0:0:0:0:
131,255,94688,1,0,0:0:0:0:
131,255,94889,6,0,P|75:240|50:203,1,105.000004005432,8|8,0:1|0:1,0:0:0:0:
83,127,95490,1,0,0:0:0:0:
83,127,95690,2,0,L|87:75,1,52.5000020027161,8|0,0:1|0:0,0:0:0:0:
176,24,96091,2,0,L|180:76,1,52.5000020027161,8|0,0:1|0:0,0:0:0:0:
251,147,96491,6,0,B|283:159|283:159|355:155,1,105.000004005432,2|8,0:0|0:1,0:0:0:0:
415,99,97092,1,0,0:0:0:0:
415,99,97293,2,0,P|439:147|423:203,1,105.000004005432,8|8,0:1|0:1,0:0:0:0:
368,251,97894,1,0,0:0:0:0:
368,251,98094,6,0,P|344:203|360:147,1,105.000004005432,8|8,0:1|0:1,0:0:0:0:
415,99,98695,1,0,0:0:0:0:
415,99,98895,2,0,L|471:95,1,52.5000020027161,8|0,0:1|0:0,0:0:0:0:
355,154,99296,2,0,L|299:150,1,52.5000020027161,8|0,0:1|0:0,0:0:0:0:
199,87,99696,6,0,P|215:139|199:191,1,105.000004005432,2|8,0:0|0:1,0:0:0:0:
155,255,100297,2,0,L|159:287,2,26.2500010013581,0|0|8,0:0|0:0|0:1,0:0:0:0:
319,295,100898,1,8,0:1:0:0:
319,295,101099,6,0,L|315:327,2,26.2500010013581,0|0|8,0:0|0:0|0:1,0:0:0:0:
351,131,101700,1,8,0:1:0:0:
187,95,102100,1,8,0:1:0:0:
155,255,102501,1,2,0:0:0:0:
351,131,102902,6,0,P|420:108|480:132,1,140,4|8,0:0|0:0,0:0:0:0:
416,208,103503,1,0,0:0:0:0:
416,208,103703,2,0,L|424:280,1,70,2|0,0:0|0:0,0:0:0:0:
332,316,104104,2,0,L|324:246,1,70,8|0,0:0|0:0,0:0:0:0:
256,176,104504,6,0,B|212:152|212:152|120:164,1,140,2|8,0:0|0:0,0:0:0:0:
36,120,105105,1,0,0:0:0:0:
36,120,105305,2,0,P|32:88|44:52,1,70,2|0,0:0|0:0,0:0:0:0:
130,96,105706,2,0,P|134:128|122:164,1,70,8|0,0:0|0:0,0:0:0:0:
60,240,106107,6,0,L|200:232,1,140,2|8,0:0|0:0,0:0:0:0:
296,224,106708,1,0,0:0:0:0:
236,144,106908,2,0,P|224:112|236:80,1,70,2|0,0:0|0:0,0:0:0:0:
328,120,107309,2,0,P|360:108|392:120,1,70,8|0,0:0|0:0,0:0:0:0:
356,212,107709,6,0,P|368:244|356:276,1,70,2|0,0:0|0:0,0:0:0:0:
264,236,108110,2,0,P|232:248|200:236,1,70,8|2,0:0|0:0,0:0:0:0:
76,184,108511,2,0,P|108:172|140:184,1,70
140,284,108911,2,0,P|107:296|75:284,1,70,8|2,0:0|0:0,0:0:0:0:
76,184,109312,6,0,B|76:120|76:120|80:112|80:112|80:44,1,140,4|8,0:0|0:0,0:0:0:0:
168,88,109913,1,2,0:0:0:0:
168,88,110113,2,0,P|200:96|236:84,1,70,0|2,0:0|0:0,0:0:0:0:
324,48,110514,2,0,P|356:40|392:52,1,70,8|2,0:0|0:0,0:0:0:0:
456,124,110914,6,0,B|480:192|424:188|452:264,1,140,0|8,0:0|0:0,0:0:0:0:
400,344,111515,1,2,0:0:0:0:
400,344,111716,2,0,L|328:340,1,70,0|2,0:0|0:0,0:0:0:0:
276,260,112116,2,0,L|348:256,1,70,8|2,0:0|0:0,0:0:0:0:
420,176,112517,6,0,L|280:160,1,140,0|8,0:0|0:0,0:0:0:0:
220,80,113118,1,2,0:0:0:0:
220,80,113318,2,0,P|212:52|228:8,1,70,0|2,0:0|0:0,0:0:0:0:
308,60,113719,2,0,P|336:52|380:68,1,70,8|2,0:0|0:0,0:0:0:0:
280,160,114120,5,2,0:0:0:0:
256,192,114220,12,8,115722,0:0:0:0:
172,80,126940,5,0,0:0:0:0:
140,88,128543,6,0,L|216:84,1,70,4|0,0:0|0:0,0:0:0:0:
284,20,128943,1,8,0:0:0:0:
284,20,129144,2,0,P|268:84|308:144,1,140
392,192,129745,2,0,P|412:224|416:264,1,70,8|0,0:0|0:0,0:0:0:0:
364,340,130145,6,0,L|220:336,1,140,0|8,0:0|0:0,0:0:0:0:
260,244,130746,6,0,L|116:240,1,140
56,164,131347,1,8,0:0:0:0:
108,80,131547,1,0,0:0:0:0:
216,136,131748,6,0,P|280:160|348:124,1,140,4|8,0:0|0:0,0:0:0:0:
388,44,132349,1,0,0:0:0:0:
388,44,132549,2,0,P|420:36|456:48,1,70,2|0,0:0|0:0,0:0:0:0:
408,134,132950,2,0,P|376:142|340:130,1,70,8|0,0:0|0:0,0:0:0:0:
256,84,133350,5,2,0:0:0:0:
256,84,133551,2,0,L|256:48,2,35,0|0|8,0:0|0:0|0:0,0:0:0:0:
200,164,133951,2,0,L|200:200,2,35,0|0|2,0:0|0:0|0:0,0:0:0:0:
140,84,134352,2,0,P|104:76|72:84,2,70,0|8|2,0:0|0:0|0:0,0:0:0:0:
200,164,134953,6,0,L|272:164,1,70,4|0,0:0|0:0,0:0:0:0:
344,100,135354,1,0,0:0:0:0:
344,100,135554,2,0,P|320:160|352:224,1,140
420,292,136155,1,8,0:0:0:0:
420,292,136355,1,0,0:0:0:0:
336,344,136555,6,0,L|192:340,1,140,4|8,0:0|0:0,0:0:0:0:
144,256,137156,6,0,L|283:259,1,140
356,196,137757,1,8,0:0:0:0:
172,124,138158,6,0,L|184:20,2,105,2|2|2,0:0|0:0|0:0,0:0:0:0:
340,124,138959,2,0,L|328:20,2,105,2|2|2,0:0|0:0|0:0,0:0:0:0:
256,192,139761,5,2,0:0:0:0:
