osu file format v14

[General]
AudioFilename: audio.mp3
AudioLeadIn: 0
PreviewTime: 51620
Countdown: 0
SampleSet: Soft
StackLeniency: 0.6
Mode: 0
LetterboxInBreaks: 0
EpilepsyWarning: 1
WidescreenStoryboard: 1

[Editor]
DistanceSpacing: 1.5
BeatDivisor: 4
GridSize: 16
TimelineZoom: 1.5

[Metadata]
Title:Look What You Made Me Do (Speed Up Ver.)
TitleUnicode:Look What You Made Me Do (Speed Up Ver.)
Artist:Taylor Swift (feat. Sam Tsui & Madilyn Bailey)
ArtistUnicode:Taylor Swift (feat. Sam Tsui & Madilyn Bailey)
Creator:Nyantiaz
Version:CircleChu's Hard
Source:
Tags:zen - kun circlechu marianna speed up ver switching vocals
BeatmapID:1444010
BeatmapSetID:681424

[Difficulty]
HPDrainRate:5.5
CircleSize:4
OverallDifficulty:7
ApproachRate:8.2
SliderMultiplier:1.6
SliderTickRate:1

[Events]
//Background and Video events
0,0,"background.jpg",0,0
//Break Periods
2,115922,126220
2,139961,141363
//Storyboard Layer 0 (Background)
//Storyboard Layer 1 (Fail)
//Storyboard Layer 2 (Pass)
//Storyboard Layer 3 (Foreground)
//Storyboard Sound Samples

[TimingPoints]
338,400.641025641026,4,2,6,30,1,0
38799,-133.333333333333,4,2,6,30,0,0
51620,-133.333333333333,4,2,6,40,0,1
64440,-100,4,2,6,30,0,0
90081,-133.333333333333,4,2,6,30,0,0
102902,-133.333333333333,4,2,6,30,0,1
115722,-133.333333333333,4,2,6,30,0,0
128342,-133.333333333333,4,2,6,30,0,0
128543,-100,4,2,6,30,0,0

[Colours]
Combo1 : 42,42,42
Combo2 : 0,204,102
Combo3 : 0,91,136
SliderTrackOverride : 0,26,26

[HitObjects]
144,76,13158,5,8,0:0:0:0:
144,76,13559,2,0,L|132:184,1,80,0|0,0:0|0:0,0:0:0:0:
195,230,13959,2,0,P|256:277|332:263,1,160,0|0,0:0|0:0,0:0:0:0:
376,76,14761,2,0,P|304:105|279:179,2,160,2|0|2,0:0|0:0|0:0,0:0:0:0:
378,176,15963,1,0,0:0:0:0:
238,43,16363,5,2,0:0:0:0:
238,43,16764,2,0,P|192:43|136:28,1,80,0|0,0:0|0:0,0:0:0:0:
76,95,17164,2,0,P|67:172|116:232,1,160,0|0,0:0|0:0,0:0:0:0:
289,312,17966,2,0,P|211:302|140:335,2,160,2|2|2,0:0|0:0|0:0,0:0:0:0:
481,330,19168,2,0,L|401:337,1,80,2|0,0:0|0:0,0:0:0:0:
288,311,19568,6,0,P|278:232|285:153,1,160,2|0,0:0|0:0,0:0:0:0:
340,74,20169,1,0,0:0:0:0:
340,74,20370,2,0,P|378:85|417:89,2,80,0|0|0,0:0|0:0|0:0,0:0:0:0:
200,86,21171,6,0,B|148:93|148:93|90:84|90:84|20:94,2,160,2|0|2,0:0|0:0|0:0,0:0:0:0:
277,28,22172,1,0,0:0:0:0:
292,122,22373,2,0,L|289:226,1,80,0|0,0:0|0:0,0:0:0:0:
405,340,22773,6,0,P|361:277|384:203,1,160,2|0,0:0|0:0,0:0:0:0:
462,260,23374,1,0,0:0:0:0:
462,259,23575,2,0,P|472:221|472:181,1,80,2|0,0:0|0:0,0:0:0:0:
401,44,23975,2,0,P|401:83|411:122,1,80,0|0,0:0|0:0,0:0:0:0:
383,202,24376,6,0,P|314:167|237:184,1,160,2|2,0:0|0:0,0:0:0:0:
170,252,24977,1,0,0:0:0:0:
170,252,25177,2,0,L|179:340,1,80,0|2,0:0|0:0,0:0:0:0:
237,184,25578,1,8,0:0:0:0:
237,184,25979,6,0,L|228:104,1,80,4|0,0:0|0:0,0:0:0:0:
267,16,26379,1,8,0:1:0:0:
329,88,26579,1,0,0:0:0:0:
141,130,26780,2,0,L|132:50,1,80,2|0,0:0|0:0,0:0:0:0:
228,104,27180,1,8,0:1:0:0:
228,104,27581,6,0,P|267:107|305:97,1,80,2|0,0:0|0:0,0:0:0:0:
306,217,27982,2,0,P|336:191|356:157,1,80,8|0,0:1|0:0,0:0:0:0:
238,182,28382,2,0,P|207:207|187:241,1,80,2|0,0:0|0:0,0:0:0:0:
316,295,28783,2,0,P|276:291|238:301,1,80,8|0,0:1|0:0,0:0:0:0:
88,365,29184,6,0,L|89:285,1,80,2|0,0:0|0:0,0:0:0:0:
72,190,29584,1,8,0:1:0:0:
8,262,29785,1,0,0:0:0:0:
156,203,29985,2,0,L|139:112,1,80,2|0,0:0|0:0,0:0:0:0:
233,52,30386,1,8,0:1:0:0:
233,52,30786,6,0,P|235:91|224:130,1,80,2|0,0:0|0:0,0:0:0:0:
312,89,31187,2,0,P|324:126|324:166,1,80,8|0,0:1|0:0,0:0:0:0:
211,262,31588,2,0,P|228:226|257:198,1,80,2|0,0:0|0:0,0:0:0:0:
240,345,31988,2,0,P|267:315|301:295,1,80,8|0,0:1|0:0,0:0:0:0:
449,203,32389,6,0,P|468:277|415:332,2,160,2|8|2,0:0|0:1|0:0,0:0:0:0:
361,162,33390,1,0,0:0:0:0:
381,68,33591,2,0,P|418:81|444:111,1,80,8|0,0:1|0:0,0:0:0:0:
390,256,33991,6,0,L|282:245,1,80,2|0,0:0|0:0,0:0:0:0:
170,210,34392,2,0,L|248:197,1,80,8|0,0:1|0:0,0:0:0:0:
390,149,34793,2,0,L|282:138,1,80,2|0,0:0|0:0,0:0:0:0:
170,103,35193,2,0,L|248:90,1,80,8|0,0:1|0:0,0:0:0:0:
95,38,35594,1,2,0:0:0:0:
95,38,35995,6,0,P|85:84|87:134,1,80,8|0,0:1|0:0,0:0:0:0:
154,246,36395,2,0,P|153:206|143:167,1,80,2|0,0:0|0:0,0:0:0:0:
50,221,36796,1,8,0:1:0:0:
50,221,36996,1,0,0:0:0:0:
160,341,37196,6,0,P|201:342|238:327,1,80,2|0,0:0|0:0,0:0:0:0:
293,163,37597,2,0,P|272:196|265:235,1,80,8|0,0:1|0:0,0:0:0:0:
379,370,37998,2,0,P|360:334|329:309,1,80,0|2,0:0|0:0,0:0:0:0:
154,246,38398,1,8,0:0:0:0:
193,133,38599,1,0,0:0:0:0:
193,133,38699,1,0,0:0:0:0:
193,133,38799,6,0,L|179:57,1,60.0000022888184,4|0,0:0|0:0,0:0:0:0:
99,55,39200,2,0,L|111:114,1,60.0000022888184,8|0,0:1|0:0,0:0:0:0:
208,209,39600,2,0,L|220:268,1,60.0000022888184,8|0,0:1|0:0,0:0:0:0:
138,249,40001,2,0,L|126:190,1,60.0000022888184,8|0,0:1|0:0,0:0:0:0:
185,80,40402,6,0,L|244:74,1,60.0000022888184,8|0,0:1|0:0,0:0:0:0:
356,134,40802,2,0,L|296:139,1,60.0000022888184,8|0,0:1|0:0,0:0:0:0:
401,67,41203,1,8,0:1:0:0:
327,38,41403,1,0,0:0:0:0:
476,108,41604,6,0,P|481:167|481:227,1,120.000004577637,8|2,0:1|0:0,0:0:0:0:
421,326,42204,1,0,0:0:0:0:
421,326,42405,2,0,P|391:319|361:317,1,60.0000022888184,8|0,0:1|0:0,0:0:0:0:
355,215,42805,2,0,P|326:223|299:236,1,60.0000022888184,8|0,0:1|0:0,0:0:0:0:
241,152,43206,2,0,P|220:173|203:198,1,60.0000022888184,8|0,0:1|0:0,0:0:0:0:
202,352,43607,6,0,P|222:330|239:305,1,60.0000022888184,8|0,0:1|0:0,0:0:0:0:
88,289,44007,2,0,P|116:280|143:267,1,60.0000022888184,8|0,0:1|0:0,0:0:0:0:
203,198,44408,1,8,0:1:0:0:
225,110,44608,1,0,0:0:0:0:
61,177,44809,6,0,P|59:236|87:288,1,120.000004577637,8|2,0:1|0:0,0:0:0:0:
154,348,45410,1,0,0:0:0:0:
173,260,45610,1,8,0:1:0:0:
87,288,45810,1,0,0:0:0:0:
240,320,46011,6,0,L|316:313,1,60.0000022888184,8|0,0:1|0:0,0:0:0:0:
358,245,46411,2,0,L|434:238,1,60.0000022888184,8|0,0:1|0:0,0:0:0:0:
219,231,46812,2,0,L|295:224,1,60.0000022888184,8|0,0:1|0:0,0:0:0:0:
337,156,47213,2,0,L|413:149,1,60.0000022888184,8|0,0:1|0:0,0:0:0:0:
481,181,47613,1,8,0:1:0:0:
466,92,47813,1,0,0:0:0:0:
488,273,48014,6,0,P|434:297|375:306,1,120.000004577637,8|2,0:1|0:0,0:0:0:0:
210,341,48815,2,0,L|270:349,1,60.0000022888184,8|0,0:1|0:0,0:0:0:0:
270,349,49116,1,0,0:0:0:0:
269,348,49216,1,8,0:1:0:0:
203,266,49616,2,0,L|143:273,1,60.0000022888184,8|0,0:1|0:0,0:0:0:0:
143,273,49917,1,0,0:0:0:0:
143,273,50017,6,0,L|83:265,1,60.0000022888184,8|0,0:1|0:0,0:0:0:0:
126,200,50418,2,0,B|37:188|37:188|16:161,2,120.000004577637,8|8|2,0:1|0:1|0:0,0:0:0:0:
126,200,51419,1,0,0:0:0:0:
348,181,51620,6,0,P|323:118|261:87,1,120.000004577637,4|8,0:0|0:0,0:0:0:0:
197,55,52221,1,0,0:0:0:0:
152,132,52421,2,0,L|220:128,1,60.0000022888184,2|0,0:0|0:0,0:0:0:0:
254,207,52821,2,0,L|194:203,1,60.0000022888184,8|0,0:0|0:0,0:0:0:0:
348,181,53222,6,0,P|407:182|455:148,1,120.000004577637,2|8,0:0|0:0,0:0:0:0:
480,61,53823,1,0,0:0:0:0:
393,38,54023,2,0,P|383:66|387:95,1,60.0000022888184,2|0,0:0|0:0,0:0:0:0:
407,184,54424,2,0,P|416:212|412:241,1,60.0000022888184,8|0,0:0|0:0,0:0:0:0:
242,270,54825,6,0,P|301:269|354:296,1,120.000004577637,2|8,0:0|0:0,0:0:0:0:
402,373,55426,1,0,0:0:0:0:
354,296,55626,2,0,P|343:261|346:215,1,60.0000022888184,2|0,0:0|0:0,0:0:0:0:
270,182,56027,2,0,P|268:145|283:101,2,60.0000022888184,8|0|2,0:0|0:0|0:0,0:0:0:0:
342,237,56628,1,0,0:0:0:0:
415,185,56828,2,0,P|416:148|401:104,1,60.0000022888184,8|0,0:0|0:0,0:0:0:0:
501,124,57229,2,0,P|493:88|467:49,1,60.0000022888184,2|0,0:0|0:0,0:0:0:0:
397,36,57629,1,8,0:0:0:0:
397,36,57829,1,0,0:0:0:0:
415,185,58030,6,0,P|408:244|388:301,1,120.000004577637,2|8,0:0|0:0,0:0:0:0:
320,360,58631,1,2,0:0:0:0:
230,345,58831,2,0,P|202:338|177:321,1,60.0000022888184,0|2,0:0|0:0,0:0:0:0:
89,301,59232,2,0,P|60:308|35:325,1,60.0000022888184,8|0,0:0|0:0,0:0:0:0:
154,240,59632,6,0,P|164:182|155:123,1,120.000004577637,2|8,0:0|0:0,0:0:0:0:
123,39,60233,1,2,0:0:0:0:
60,103,60434,2,0,P|35:120|7:130,1,60.0000022888184,0|2,0:0|0:0,0:0:0:0:
123,39,60834,2,0,P|147:22|175:12,1,60.0000022888184,8|0,0:0|0:0,0:0:0:0:
313,75,61235,6,0,P|260:102|201:100,1,120.000004577637,2|8,0:0|0:0,0:0:0:0:
142,168,61836,1,2,0:0:0:0:
215,220,62036,2,0,P|237:239|253:264,1,60.0000022888184,0|2,0:0|0:0,0:0:0:0:
221,349,62437,2,0,P|198:329|182:304,1,60.0000022888184,8|0,0:0|0:0,0:0:0:0:
307,194,62838,6,0,B|347:188|347:188|389:193|389:193|426:188,1,120.000004577637,2|0,0:0|0:0,0:0:0:0:
505,113,63639,2,0,B|468:118|468:118|426:113|426:113|386:119,1,120.000004577637,0|0,0:0|0:0,0:0:0:0:
245,40,64440,5,8,0:0:0:0:
245,40,64841,2,0,P|241:79|221:113,1,80,0|0,0:0|0:0,0:0:0:0:
129,192,65241,2,0,P|111:267|158:328,1,160,0|0,0:0|0:0,0:0:0:0:
335,290,66043,2,0,P|279:236|202:245,2,160,2|0|2,0:0|0:0|0:0,0:0:0:0:
251,328,67245,1,0,0:0:0:0:
44,217,67645,5,2,0:0:0:0:
43,216,68046,2,0,P|41:177|50:138,1,80,0|0,0:0|0:0,0:0:0:0:
140,59,68446,2,0,P|132:136|181:196,1,160,0|0,0:0|0:0,0:0:0:0:
391,79,69248,2,0,P|313:69|242:102,2,160,2|2|2,0:0|0:0|0:0,0:0:0:0:
497,229,70450,2,0,P|457:231|418:220,1,80,2|0,0:0|0:0,0:0:0:0:
235,260,70850,6,0,P|281:250|378:306,1,160,2|0,0:0|0:0,0:0:0:0:
468,380,71451,1,0,0:0:0:0:
467,379,71652,2,0,P|461:340|465:301,2,80,0|0|0,0:0|0:0|0:0,0:0:0:0:
481,219,72453,6,0,P|487:180|483:141,1,80,2|0,0:0|0:0,0:0:0:0:
310,153,72854,2,0,P|346:169|385:175,1,80,0|0,0:0|0:0,0:0:0:0:
437,24,73254,2,0,P|404:46|379:77,1,80,2|0,0:0|0:0,0:0:0:0:
259,76,73655,2,0,P|226:53|201:22,1,80,0|0,0:0|0:0,0:0:0:0:
61,127,74055,6,0,P|37:200|81:264,1,160,2|0,0:0|0:0,0:0:0:0:
175,339,74656,1,0,0:0:0:0:
175,339,74757,1,0,0:0:0:0:
176,339,74857,2,0,P|214:349|254:349,1,80,2|0,0:0|0:0,0:0:0:0:
391,278,75257,2,0,P|352:278|313:288,1,80,0|0,0:0|0:0,0:0:0:0:
467,355,75658,6,2,P|472:276|460:197,1,160,2|2,0:0|0:0,0:0:0:0:
375,113,76259,1,0,0:0:0:0:
374,112,76459,2,0,P|377:73|393:36,1,80,0|2,0:0|0:0,0:0:0:0:
381,201,76860,1,8,0:0:0:0:
380,201,77261,6,0,L|298:194,1,80,4|2,0:0|0:0,0:0:0:0:
186,231,77661,1,8,0:1:0:0:
294,282,77862,1,2,0:0:0:0:
219,146,78062,6,0,L|139:152,1,80,4|2,0:0|0:0,0:0:0:0:
24,116,78462,1,8,0:1:0:0:
132,65,78663,1,2,0:0:0:0:
308,114,78863,6,0,L|300:196,1,80,0|2,0:1|0:0,0:0:0:0:
458,233,79264,2,0,L|451:153,1,80,8|0,0:1|0:0,0:0:0:0:
372,279,79664,2,0,L|364:361,1,80,2|0,0:0|0:0,0:0:0:0:
308,201,80065,2,0,L|279:279,1,80,8|0,0:1|0:0,0:0:0:0:
280,276,80366,1,0,0:0:0:0:
280,276,80466,6,0,P|249:300|210:306,1,80,0|2,0:0|0:0,0:0:0:0:
180,196,80866,2,0,P|141:191|109:167,1,80,8|0,0:1|0:0,0:0:0:0:
302,197,81267,2,0,P|341:202|373:225,1,80,2|0,0:0|0:1,0:0:0:0:
239,93,81668,2,0,P|270:68|309:63,1,80,8|0,0:1|0:0,0:0:0:0:
490,141,82068,6,0,L|502:222,1,80,2|0,0:0|0:0,0:0:0:0:
501,220,82369,1,0,0:0:0:0:
501,220,82469,2,0,L|489:301,1,80,8|0,0:1|0:0,0:0:0:0:
373,225,82870,2,0,L|384:145,1,80,2|0,0:0|0:0,0:0:0:0:
255,203,83270,1,8,0:1:0:0:
331,309,83471,1,0,0:0:0:0:
331,309,83571,1,0,0:0:0:0:
331,309,83671,6,0,P|291:313|255:330,1,80,2|0,0:0|0:0,0:0:0:0:
152,266,84071,2,0,P|135:302|132:342,1,80,8|0,0:1|0:0,0:0:0:0:
199,196,84472,2,0,P|196:156|179:119,1,80,2|0,0:0|0:0,0:0:0:0:
76,184,84873,2,0,P|40:166|0:162,1,80,8|0,0:1|0:0,0:0:0:0:
19,60,85273,6,0,P|95:74|175:38,2,160,2|0|2,0:0|0:0|0:0,0:0:0:0:
76,184,86275,1,0,0:0:0:0:
196,210,86475,2,0,P|214:244|220:284,1,80,8|0,0:1|0:0,0:0:0:0:
317,193,86876,6,0,P|322:153|341:118,1,80,2|0,0:0|0:0,0:0:0:0:
341,118,87176,1,2,0:0:0:0:
341,118,87277,2,0,L|337:38,1,80,0|0,0:0|0:0,0:0:0:0:
457,45,87677,2,0,L|453:124,1,80,2|0,0:0|0:0,0:0:0:0:
453,125,87978,1,2,0:0:0:0:
452,126,88078,2,0,P|470:160|476:200,1,80,0|0,0:0|0:0,0:0:0:0:
389,353,88479,5,2,0:0:0:0:
393,256,88679,1,0,0:0:0:0:
393,256,88779,1,0,0:0:0:0:
393,256,88879,1,8,0:1:0:0:
473,306,89079,1,0,0:0:0:0:
290,301,89280,2,0,P|267:226|274:146,1,160,0|8,0:1|0:0,0:0:0:0:
357,40,89881,1,0,0:0:0:0:
357,40,89981,1,0,0:0:0:0:
357,40,90081,6,0,L|345:99,1,60.0000022888184,4|0,0:0|0:0,0:0:0:0:
211,99,90482,2,0,L|199:40,1,60.0000022888184,8|0,0:1|0:0,0:0:0:0:
345,177,90882,2,0,L|357:236,1,60.0000022888184,8|0,0:1|0:0,0:0:0:0:
199,236,91283,2,0,L|211:177,1,60.0000022888184,8|0,0:1|0:0,0:0:0:0:
345,98,91684,6,0,L|404:92,1,60.0000022888184,8|0,0:1|0:0,0:0:0:0:
270,182,92084,2,0,L|210:177,1,60.0000022888184,8|0,0:1|0:0,0:0:0:0:
125,146,92485,1,8,0:1:0:0:
97,60,92685,1,0,0:0:0:0:
232,63,92886,6,0,P|234:122|209:176,1,120.000004577637,8|2,0:1|0:0,0:0:0:0:
78,250,93487,1,0,0:0:0:0:
79,250,93687,2,0,P|108:256|138:259,1,60.0000022888184,8|0,0:1|0:0,0:0:0:0:
258,304,94088,2,0,P|228:306|198:313,1,60.0000022888184,8|0,0:1|0:0,0:0:0:0:
331,367,94488,2,0,P|344:340|352:311,1,60.0000022888184,8|0,0:1|0:0,0:0:0:0:
288,190,94889,6,0,P|296:218|309:245,1,60.0000022888184,8|0,0:1|0:0,0:0:0:0:
382,193,95289,2,0,P|411:190|441:183,1,60.0000022888184,8|0,0:1|0:0,0:0:0:0:
485,105,95690,1,8,0:1:0:0:
459,18,95890,1,0,0:0:0:0:
294,95,96091,6,0,P|245:94|170:53,1,120.000004577637,8|2,0:1|0:0,0:0:0:0:
100,24,96692,1,0,0:0:0:0:
107,113,96892,1,8,0:1:0:0:
181,64,97092,1,0,0:0:0:0:
15,84,97293,6,0,L|24:146,1,60.0000022888184,8|0,0:1|0:0,0:0:0:0:
96,248,97693,2,0,L|87:188,1,60.0000022888184,8|0,0:1|0:0,0:0:0:0:
106,112,98094,2,0,L|98:53,1,60.0000022888184,8|0,0:1|0:0,0:0:0:0:
170,157,98495,2,0,L|179:217,1,60.0000022888184,8|0,0:1|0:0,0:0:0:0:
164,305,98895,1,8,0:1:0:0:
96,248,99096,1,0,0:0:0:0:
238,358,99296,6,0,P|297:360|354:342,1,120.000004577637,8|2,0:1|0:0,0:0:0:0:
453,233,100097,2,0,L|445:293,1,60.0000022888184,8|0,0:1|0:0,0:0:0:0:
445,293,100398,1,0,0:0:0:0:
446,292,100498,1,8,0:1:0:0:
403,169,100898,2,0,L|395:109,1,60.0000022888184,8|0,0:1|0:0,0:0:0:0:
395,109,101199,1,0,0:0:0:0:
395,109,101299,6,0,P|390:79|379:51,1,60.0000022888184,8|0,0:1|0:0,0:0:0:0:
274,13,101700,2,0,P|267:71|292:125,2,120.000004577637,8|8|2,0:1|0:1|0:0,0:0:0:0:
379,51,102701,1,0,0:0:0:0:
445,165,102902,6,0,L|437:300,1,120.000004577637,4|8,0:0|0:0,0:0:0:0:
380,354,103503,1,0,0:0:0:0:
347,270,103703,2,0,L|354:196,1,60.0000022888184,2|0,0:0|0:0,0:0:0:0:
272,169,104104,2,0,L|277:228,1,60.0000022888184,8|0,0:0|0:0,0:0:0:0:
336,105,104504,6,0,P|284:78|226:90,1,120.000004577637,2|8,0:0|0:0,0:0:0:0:
138,110,105105,1,0,0:0:0:0:
221,147,105305,2,0,P|231:119|227:90,1,60.0000022888184,2|0,0:0|0:0,0:0:0:0:
156,190,105706,2,0,P|151:219|161:247,1,60.0000022888184,8|0,0:0|0:0,0:0:0:0:
254,343,106107,6,0,P|314:358|378:331,1,120.000004577637,2|8,0:0|0:0,0:0:0:0:
441,287,106708,1,0,0:0:0:0:
469,201,106908,2,0,P|466:171|457:142,1,60.0000022888184,2|0,0:0|0:0,0:0:0:0:
378,187,107309,2,0,L|297:185,2,60.0000022888184,8|0|2,0:0|0:0|0:0,0:0:0:0:
457,142,107910,1,0,0:0:0:0:
399,73,108110,2,0,P|401:43|410:14,1,60.0000022888184,8|2,0:0|0:0,0:0:0:0:
318,41,108511,2,0,P|291:54|261:59,1,60.0000022888184,0|0,0:0|0:0,0:0:0:0:
174,38,108911,1,8,0:0:0:0:
174,38,109112,1,2,0:0:0:0:
259,176,109312,6,0,P|262:235|245:292,1,120.000004577637,4|8,0:0|0:0,0:0:0:0:
182,357,109913,1,2,0:0:0:0:
245,291,110113,2,0,P|273:284|303:283,1,60.0000022888184,0|2,0:0|0:0,0:0:0:0:
383,327,110514,2,0,P|412:326|441:318,1,60.0000022888184,8|2,0:0|0:0,0:0:0:0:
358,185,110914,6,0,P|315:225|303:283,1,120.000004577637,0|8,0:0|0:0,0:0:0:0:
250,355,111515,1,2,0:0:0:0:
191,283,111716,2,0,P|180:256|177:226,1,60.0000022888184,0|2,0:0|0:0,0:0:0:0:
247,95,112116,2,0,P|244:124|232:152,1,60.0000022888184,8|2,0:0|0:0,0:0:0:0:
45,128,112517,6,0,P|97:101|157:103,1,120.000004577637,0|8,0:0|0:0,0:0:0:0:
232,152,113118,1,2,0:0:0:0:
312,193,113318,2,0,P|341:193|370:185,1,60.0000022888184,0|2,0:0|0:0,0:0:0:0:
357,51,113719,2,0,P|341:76|334:105,1,60.0000022888184,8|2,0:0|0:0,0:0:0:0:
445,264,114120,6,0,B|451:304|451:304|446:346|446:346|451:383,1,120.000004577637,2|0,0:0|0:0,0:0:0:0:
376,304,114921,2,0,B|371:267|371:267|376:225|376:225|370:185,1,120.000004577637,0|0,0:0|0:0,0:0:0:0:
480,33,115722,5,8,0:0:0:0:
256,192,126940,5,0,0:0:0:0:
256,192,127040,12,0,128342,0:0:0:0:
315,79,128543,6,0,P|348:101|370:133,1,80,4|0,0:0|0:0,0:0:0:0:
360,253,128943,1,8,0:0:0:0:
468,202,129144,1,0,0:0:0:0:
283,165,129344,2,0,P|256:194|243:232,1,80,0|0,0:0|0:0,0:0:0:0:
284,344,129745,1,8,0:0:0:0:
167,323,129945,1,0,0:0:0:0:
360,253,130145,6,0,L|371:343,1,80,0|0,0:0|0:0,0:0:0:0:
483,370,130546,1,8,0:0:0:0:
369,332,130746,1,0,0:0:0:0:
258,375,130946,1,0,0:0:0:0:
369,332,131147,1,0,0:0:0:0:
381,344,131347,6,0,L|360:183,1,160,8|4,0:0|0:0,0:0:0:0:
267,108,131948,1,0,0:0:0:0:
351,22,132148,2,0,P|388:8|428:8,1,80,8|0,0:0|0:0,0:0:0:0:
267,108,132549,2,0,P|227:107|189:94,1,80,2|0,0:0|0:0,0:0:0:0:
71,25,132950,1,8,0:0:0:0:
71,25,133350,6,0,L|78:104,1,80,2|0,0:0|0:0,0:0:0:0:
78,104,133651,1,0,0:0:0:0:
78,104,133751,2,0,L|70:183,1,80,8|0,0:0|0:0,0:0:0:0:
162,342,134152,2,0,L|154:262,1,80,2|0,0:0|0:0,0:0:0:0:
269,375,134552,2,0,L|261:295,1,80,8|2,0:0|0:0,0:0:0:0:
261,295,134853,1,0,0:0:0:0:
261,295,134953,6,0,B|299:279|338:295|338:295|377:310|416:295,1,160,4|0,0:0|0:0,0:0:0:0:
479,191,135554,1,0,0:0:0:0:
416,89,135754,2,0,B|377:73|338:89|338:89|299:104|261:89,1,160,0|8,0:0|0:0,0:0:0:0:
161,19,136355,1,0,0:0:0:0:
260,88,136555,6,0,P|258:127|243:164,1,80,4|0,0:0|0:0,0:0:0:0:
175,264,136956,1,8,0:0:0:0:
242,164,137156,1,0,0:0:0:0:
122,156,137357,1,0,0:0:0:0:
242,164,137557,1,0,0:0:0:0:
175,264,137757,6,0,P|249:290|322:263,1,160,8|2,0:0|0:0,0:0:0:0:
376,160,138358,1,0,0:0:0:0:
376,160,138458,1,2,0:0:0:0:
376,159,138559,2,0,L|370:79,1,80,0|2,0:0|0:0,0:0:0:0:
256,40,138959,1,2,0:0:0:0:
144,80,139160,1,0,0:0:0:0:
144,80,139260,1,2,0:0:0:0:
144,80,139360,2,0,L|138:159,1,80,0|0,0:0|0:0,0:0:0:0:
256,344,139761,5,2,0:0:0:0:
256,344,142164,5,0,0:0:0:0:
288,224,142365,1,0,0:0:0:0:
288,224,142465,1,0,0:0:0:0:
288,224,142565,1,0,0:0:0:0:
171,259,142765,1,0,0:0:0:0:
372,313,142966,1,0,0:0:0:0:
