osu file format v14

[General]
AudioFilename: audio.mp3
AudioLeadIn: 0
PreviewTime: 1254
Countdown: 0
SampleSet: Soft
StackLeniency: 0.7
Mode: 0
LetterboxInBreaks: 0
WidescreenStoryboard: 1

[Editor]
Bookmarks: 7927,14498,21069,27640,32568,37496,44067,50638,56182
DistanceSpacing: 1.1
BeatDivisor: 4
GridSize: 4
TimelineZoom: 2.2

[Metadata]
Title:Tsuujou Sentou Kyoku 2
TitleUnicode:通常戦闘曲2
Artist:Tawada Tsukasa
ArtistUnicode:多和田吏
Creator:ezek
Version:Third Battle
Source:ポケモンコロシアム
Tags:Pokemon Pokémon Colosseum bossandy voli
BeatmapID:1712441
BeatmapSetID:816580

[Difficulty]
HPDrainRate:6
CircleSize:3.7
OverallDifficulty:6.3
ApproachRate:7.4
SliderMultiplier:1.6
SliderTickRate:1

[Events]
//Background and Video events
0,0,"Typhlosion.jpg",0,0
//Break Periods
//Storyboard Layer 0 (Background)
//Storyboard Layer 1 (Fail)
//Storyboard Layer 2 (Pass)
//Storyboard Layer 3 (Foreground)
//Storyboard Sound Samples

[TimingPoints]
1357,410.677618069815,4,2,69,50,1,0
1357,-142.857142857143,4,2,69,50,0,0
7927,-100,4,2,69,80,0,0
50843,-100,4,2,69,45,0,0
51665,-100,4,2,69,35,0,0
52897,-100,4,2,69,25,0,0
54129,-100,4,2,69,15,0,0
55361,-100,4,2,69,5,0,0

[Colours]
Combo1 : 71,92,156
Combo2 : 242,201,60
Combo3 : 244,47,47

[HitObjects]
200,96,1357,6,0,P|184:68|160:52,2,55.9999982910157,4|0|0,1:2|0:0|0:0,0:0:0:0:
256,148,1973,1,0,0:0:0:0:
312,96,2178,2,0,P|328:68|352:52,2,55.9999982910157,0|0|0,0:0|0:0|0:0,0:0:0:0:
256,148,2794,1,0,0:0:0:0:
256,224,2999,2,0,L|256:288,1,55.9999982910157,0|0,0:0|0:0,0:0:0:0:
308,344,3410,1,0,0:0:0:0:
308,344,3615,2,0,P|256:361|204:344,1,111.999996582031,4|4,3:0|3:0,0:0:0:0:
168,208,4231,1,4,1:2:0:0:
344,208,4437,1,4,1:2:0:0:
380,144,4642,6,0,B|408:144|408:144|436:152,2,55.9999982910157,0|0|0,0:0|0:0|0:0,0:0:0:0:
328,92,5258,1,4,3:0:0:0:
256,76,5463,2,0,L|256:16,2,55.9999982910157,0|0|0,0:0|0:0|0:0,0:0:0:0:
184,92,6079,1,0,0:0:0:0:
132,144,6285,2,0,B|104:144|104:144|76:152,2,55.9999982910157,0|4|0,0:0|3:0|0:0,0:0:0:0:
256,220,6901,1,4,1:2:0:0:
256,220,7311,2,0,L|256:276,1,55.9999982910157,0|2,1:0|3:0,0:0:0:0:
256,140,7722,1,0,1:0:0:0:
356,272,7927,6,0,L|328:348,2,80,4|2|0,0:0|0:0|1:0,0:0:0:0:
392,191,8543,2,0,P|420:119|392:43,1,160,2|2,0:0|0:0,0:0:0:0:
320,96,9159,1,0,1:0:0:0:
248,44,9365,2,0,B|188:44|188:44|148:64|148:64|88:64,1,160,2|2,0:0|0:0,0:0:0:0:
4,64,9981,1,0,1:0:0:0:
48,140,10186,2,0,P|76:212|48:288,1,160,2|2,0:0|0:0,0:0:0:0:
184,352,10802,2,0,L|100:352,1,80,0|2,1:0|0:0,0:0:0:0:
260,376,11213,6,0,L|344:376,1,80,0|2,1:0|0:0,0:0:0:0:
380,300,11623,1,0,1:0:0:0:
380,300,11829,2,0,B|352:228|352:228|380:148,1,160,2|0,0:0|0:0,0:0:0:0:
460,116,12445,2,0,B|404:116|404:116|348:116|320:60,1,160,0|0,1:0|1:0,0:0:0:0:
256,4,13061,1,2,0:0:0:0:
188,60,13266,1,0,1:0:0:0:
256,116,13471,2,0,B|256:176|256:176|236:212|236:212|236:276,1,160,0|2,0:0|0:0,0:0:0:0:
232,360,14088,1,0,1:0:0:0:
100,212,14498,6,0,P|60:224|24:212,2,80,0|2|0,1:0|0:0|1:0,0:0:0:0:
180,172,15114,2,0,P|152:104|180:24,1,160,2|2,0:0|0:0,0:0:0:0:
256,68,15730,1,0,1:0:0:0:
333,25,15936,2,0,P|360:98|332:172,1,160,2|2,0:0|0:0,0:0:0:0:
256,220,16552,1,0,1:0:0:0:
324,276,16757,2,0,B|280:284|256:316|256:316|232:284|188:276,1,160,2|2,0:0|0:0,0:0:0:0:
112,172,17373,2,0,B|100:212|100:212|112:248,1,80,0|2,1:0|0:0,0:0:0:0:
176,124,17784,6,0,B|188:84|188:84|176:48,1,80,0|2,1:0|0:0,0:0:0:0:
256,12,18194,1,0,1:0:0:0:
256,12,18400,2,0,B|280:88|280:88|256:168,1,160,2|2,0:0|3:0,0:0:0:0:
180,212,19016,2,0,B|236:212|236:212|292:212|320:268,1,160,0|2,1:0|0:0,0:0:0:0:
372,336,19632,2,0,B|296:368,1,80,0|2,1:0|0:0,0:0:0:0:
140,336,20042,2,0,B|216:368,1,80,0|2,1:0|0:0,0:0:0:0:
318,265,20453,1,0,1:0:0:0:
256,156,20658,1,0,1:0:0:0:
194,265,20864,1,0,1:0:0:0:
360,168,21069,5,0,1:0:0:0:
384,84,21274,1,2,0:0:0:0:
384,84,21377,1,0,0:0:0:0:
384,84,21480,2,0,B|356:56|356:56|312:56,1,80,0|2,1:0|0:0,0:0:0:0:
256,124,21890,1,0,0:0:0:0:
196,56,22096,2,0,B|156:56|156:56|128:84,1,80,2|0,0:0|1:0,0:0:0:0:
64,148,22506,1,0,0:0:0:0:
64,148,22609,1,0,0:0:0:0:
64,148,22712,6,0,P|92:216|64:296,1,160,2|0,0:0|1:0,0:0:0:0:
132,352,23328,2,0,B|172:376|208:356|208:352|208:348|244:328|284:352,1,160,2|2,0:0|0:0,0:0:0:0:
372,344,23944,2,0,L|416:340,3,40,0|0|2|0,1:0|0:0|0:0|0:0,0:0:0:0:
440,308,24354,6,0,P|412:240|440:160,1,160,2|0,0:0|1:0,0:0:0:0:
476,80,24970,2,0,B|436:56|400:76|400:80|400:84|364:104|324:80,1,160,2|2,0:0|0:0,0:0:0:0:
256,24,25586,1,0,1:0:0:0:
188,76,25792,1,0,0:0:0:0:
116,24,25997,6,0,L|76:24,2,40,2|0|2,0:0|0:0|0:0,0:0:0:0:
197,84,26408,1,0,1:0:0:0:
197,84,26511,1,0,0:0:0:0:
197,84,26613,2,0,P|225:156|197:232,1,160,0|2,1:0|0:0,0:0:0:0:
140,296,27229,1,0,1:0:0:0:
84,228,27435,1,0,1:0:0:0:
304,296,27640,6,0,B|344:296|344:296|384:280,1,80,2|0,0:0|0:0,0:0:0:0:
381,102,28051,2,0,B|344:88|344:88|304:88,1,80,0|0,1:0|0:0,0:0:0:0:
220,120,28461,2,0,B|220:160|188:192|188:192|220:224|220:264,1,160,0|0,0:0|1:0,0:0:0:0:
220,352,29077,1,0,0:0:0:0:
140,312,29283,6,0,B|100:240,1,80,2|0,0:0|0:0,0:0:0:0:
80,204,29591,2,0,P|68:156|80:108,2,100,2|2|2,0:0|0:0|0:0,0:0:0:0:
212,216,30412,2,0,P|228:168|212:96,1,120,2|2,0:0|0:0,0:0:0:0:
296,64,30925,6,0,L|296:16,2,40,2|0|0,0:0|0:0|0:0,0:0:0:0:
368,116,31336,1,0,1:0:0:0:
440,168,31541,2,0,B|384:168|384:168|324:168|300:220,1,160
256,300,32157,1,0,1:0:0:0:
212,220,32363,1,2,0:0:0:0:
340,288,32568,6,0,L|384:284,2,40,4|0|0,3:0|1:0|1:0,0:0:0:0:
256,380,32979,1,0,1:0:0:0:
256,380,33184,1,0,1:0:0:0:
172,288,33389,2,0,L|128:284,2,40,4|0|0,3:0|1:0|1:0,0:0:0:0:
256,196,33800,1,0,1:0:0:0:
256,196,34005,1,0,1:0:0:0:
187,103,34211,6,0,B|231:95|255:63|255:63|279:95|322:103,1,160,2|0,0:0|1:0,0:0:0:0:
412,108,34827,1,0,0:0:0:0:
432,192,35032,2,0,L|480:192,2,40,4|0|0,3:0|1:0|1:0,0:0:0:0:
412,276,35443,1,0,1:0:0:0:
328,308,35648,1,2,0:0:0:0:
328,308,35751,1,0,0:0:0:0:
328,308,35853,6,0,B|240:308|240:308|189:358,1,160,2|0,0:0|1:0,0:0:0:0:
100,360,36469,1,2,0:0:0:0:
144,284,36675,2,0,L|132:200,1,80,0|0,1:0|1:0,0:0:0:0:
40,88,37085,2,0,L|52:168,1,80,0|0,1:0|1:0,0:0:0:0:
196,48,37496,6,0,L|276:48,1,80,2|0,0:0|0:0,0:0:0:0:
368,56,37907,1,0,1:0:0:0:
368,56,38112,2,0,B|392:96|372:132|368:132|364:132|344:168|368:208,1,160,2|2,0:0|0:0,0:0:0:0:
424,276,38728,1,0,1:0:0:0:
372,348,38934,1,0,0:0:0:0:
256,276,39139,6,0,P|217:268|177:275,1,80,2|2,0:0|0:0,0:0:0:0:
100,312,39550,1,0,1:0:0:0:
100,312,39755,2,0,B|76:272|96:236|100:236|104:236|124:200|100:160,1,160,2|2,0:0|0:0,0:0:0:0:
44,92,40371,1,0,1:0:0:0:
96,20,40577,1,2,0:0:0:0:
208,88,40782,6,0,B|248:100|248:100|284:88,1,80,2|0,0:0|0:0,0:0:0:0:
368,60,41192,1,0,1:0:0:0:
367,60,41398,2,0,P|335:130|368:200,1,160,2|2,0:0|0:0,0:0:0:0:
432,260,42014,1,0,1:0:0:0:
372,324,42219,1,0,0:0:0:0:
268,256,42424,6,0,P|232:244|184:256,1,80,2|2,0:0|0:0,0:0:0:0:
116,292,42834,1,0,1:0:0:0:
116,291,43040,2,0,P|148:220|115:150,1,160,2|2,0:0|0:0,0:0:0:0:
52,88,43656,1,0,1:0:0:0:
112,24,43861,1,2,0:0:0:0:
36,180,44067,6,0,L|36:260,1,80,6|0,0:0|0:0,0:0:0:0:
96,324,44478,1,0,1:0:0:0:
156,260,44683,2,0,B|196:224|260:240|260:240|308:251,1,160,2|2,0:0|0:0,0:0:0:0:
392,280,45299,1,0,1:0:0:0:
356,124,45504,6,0,B|316:160|252:144|252:144|203:132,1,160,2|2,0:0|0:0,0:0:0:0:
120,108,46120,1,0,1:0:0:0:
184,48,46326,2,0,B|224:12|288:28|288:28|337:40,1,160,0|2,0:0|0:0,0:0:0:0:
420,64,46942,1,0,1:0:0:0:
360,212,47147,5,2,0:0:0:0:
360,212,47352,2,0,L|328:288,1,80,0|2,0:0|0:0,0:0:0:0:
152,212,47763,2,0,L|184:288,1,80,0|2,1:0|0:0,0:0:0:0:
256,24,48379,5,2,0:0:0:0:
256,172,48584,1,0,1:0:0:0:
256,320,48790,1,4,0:0:0:0:
320,248,48995,6,0,P|356:236|396:248,1,80,2|0,0:0|0:0,0:0:0:0:
256,172,49406,2,0,P|220:184|180:172,1,80,0|0,1:0|0:0,0:0:0:0:
320,100,49816,2,0,P|356:88|396:100,1,80,2|0,0:0|0:0,0:0:0:0:
256,24,50227,2,0,P|220:36|180:24,1,80,0|0,1:0|0:0,0:0:0:0:
395,99,50638,5,4,0:0:0:0:
256,192,50843,12,0,56182,0:0:0:0:
