osu file format v14

[General]
AudioFilename: audio.mp3
AudioLeadIn: 0
PreviewTime: 56504
Countdown: 0
SampleSet: Soft
StackLeniency: 0.7
Mode: 3
LetterboxInBreaks: 0
SpecialStyle: 0
WidescreenStoryboard: 0

[Editor]
DistanceSpacing: 2
BeatDivisor: 6
GridSize: 8
TimelineZoom: 2.1

[Metadata]
Title:Yatte Miyou!
TitleUnicode:やってみよう!
Artist:Tatsuya Yano
ArtistUnicode:矢野達也
Creator:- Aries -
Version:HD
Source:ソフィーのアトリエ ~不思議な本の錬金術士~
Tags:Atelier Sophie ~The Alchemist of the Mysterious Book~ Sofii no Atorie ~Fushigina hon no Renkinjutsushi~ Shiro-neechan
BeatmapID:1246143
BeatmapSetID:588635

[Difficulty]
HPDrainRate:7.5
CircleSize:4
OverallDifficulty:8
ApproachRate:5
SliderMultiplier:1.4
SliderTickRate:1

[Events]
//Background and Video events
0,0,"atelier-sophie.jpg",0,0
//Break Periods
//Storyboard Layer 0 (Background)
//Storyboard Layer 1 (Fail)
//Storyboard Layer 2 (Pass)
//Storyboard Layer 3 (Foreground)
//Storyboard Sound Samples

[TimingPoints]
360,428.571428571429,4,2,1,60,1,0
56931,-100,4,2,1,60,0,1
74074,-100,4,2,1,60,0,0
80931,-100,4,2,1,60,0,1
98074,-100,4,2,1,60,0,0

[HitObjects]
192,192,360,5,2,0:0:0:0:
64,192,360,1,0,0:0:0:0:
448,192,645,1,0,0:0:0:0:
320,192,788,1,0,0:0:0:0:
64,192,931,1,0,0:0:0:0:
192,192,1074,1,0,0:0:0:0:
448,192,1217,1,0,0:0:0:0:
320,192,1217,1,2,0:0:0:0:
64,192,1502,1,0,0:0:0:0:
448,192,1645,1,0,0:0:0:0:
320,192,1788,1,0,0:0:0:0:
64,192,1931,1,0,0:0:0:0:
320,192,2074,1,2,0:0:0:0:
192,192,2074,1,0,0:0:0:0:
448,192,2360,1,0,0:0:0:0:
192,192,2502,1,0,0:0:0:0:
320,192,2645,1,0,0:0:0:0:
192,192,2788,1,0,0:0:0:0:
64,192,2931,1,0,0:0:0:0:
448,192,2931,1,2,0:0:0:0:
320,192,3217,1,0,0:0:0:0:
192,192,3360,1,0,0:0:0:0:
448,192,3502,1,0,0:0:0:0:
64,192,3645,1,0,0:0:0:0:
192,192,3788,1,0,0:0:0:0:
320,192,3788,1,2,0:0:0:0:
448,192,4074,1,0,0:0:0:0:
192,192,4217,1,0,0:0:0:0:
320,192,4360,1,0,0:0:0:0:
64,192,4502,1,0,0:0:0:0:
448,192,4645,1,2,0:0:0:0:
320,192,4645,1,0,0:0:0:0:
192,192,4931,1,0,0:0:0:0:
64,192,5074,1,0,0:0:0:0:
448,192,5217,1,0,0:0:0:0:
320,192,5360,1,0,0:0:0:0:
64,192,5502,128,2,5645:0:0:0:0:
192,192,5502,1,0,0:0:0:0:
448,192,5645,128,0,5788:0:0:0:0:
192,192,5788,128,0,5931:0:0:0:0:
320,192,5931,128,0,6074:0:0:0:0:
448,192,6074,128,0,6217:0:0:0:0:
64,192,6217,128,0,6360:0:0:0:0:
320,192,6360,128,2,6502:0:0:0:0:
192,192,6360,1,0,0:0:0:0:
448,192,6645,1,0,0:0:0:0:
192,192,6788,128,2,6931:0:0:0:0:
64,192,6788,128,0,6931:0:0:0:0:
448,192,7217,1,2,0:0:0:0:
64,192,7217,1,0,0:0:0:0:
320,192,7217,1,4,0:0:0:0:
64,192,7645,1,2,0:0:0:0:
448,192,7645,1,0,0:0:0:0:
192,192,7931,1,0,0:0:0:0:
320,192,8074,1,0,0:0:0:0:
448,192,8074,1,0,0:0:0:0:
320,192,8360,1,0,0:0:0:0:
64,192,8502,1,0,0:0:0:0:
192,192,8502,1,2,0:0:0:0:
448,192,8788,1,0,0:0:0:0:
192,192,8931,1,0,0:0:0:0:
320,192,8931,1,0,0:0:0:0:
64,192,9217,1,0,0:0:0:0:
192,192,9360,1,2,0:0:0:0:
320,192,9360,1,0,0:0:0:0:
320,192,9645,1,0,0:0:0:0:
64,192,9788,1,0,0:0:0:0:
448,192,9788,128,0,10217:0:0:0:0:
64,192,10074,1,0,0:0:0:0:
192,192,10217,1,2,0:0:0:0:
320,192,10217,1,0,0:0:0:0:
320,192,10502,1,0,0:0:0:0:
64,192,10645,1,0,0:0:0:0:
448,192,10645,1,0,0:0:0:0:
192,192,11074,1,2,0:0:0:0:
320,192,11074,1,0,0:0:0:0:
448,192,11360,1,0,0:0:0:0:
192,192,11502,1,0,0:0:0:0:
64,192,11502,1,0,0:0:0:0:
64,192,11788,1,0,0:0:0:0:
320,192,11931,1,2,0:0:0:0:
448,192,11931,1,0,0:0:0:0:
192,192,12217,1,0,0:0:0:0:
64,192,12360,1,0,0:0:0:0:
448,192,12360,1,0,0:0:0:0:
320,192,12645,1,0,0:0:0:0:
448,192,12788,1,0,0:0:0:0:
64,192,12788,1,2,0:0:0:0:
320,192,13074,1,0,0:0:0:0:
64,192,13217,128,0,13645:0:0:0:0:
448,192,13217,1,0,0:0:0:0:
192,192,13502,1,0,0:0:0:0:
448,192,13645,1,8,0:0:0:0:
320,192,13645,1,2,0:0:0:0:
192,192,13788,1,8,0:0:0:0:
320,192,13931,1,8,0:0:0:0:
64,192,14074,1,0,0:0:0:0:
448,192,14074,1,0,0:0:0:0:
192,192,14502,1,2,0:0:0:0:
64,192,14502,1,0,0:0:0:0:
448,192,14788,1,0,0:0:0:0:
320,192,14931,1,0,0:0:0:0:
192,192,14931,1,0,0:0:0:0:
64,192,15217,1,0,0:0:0:0:
320,192,15360,1,2,0:0:0:0:
192,192,15360,1,0,0:0:0:0:
192,192,15645,1,0,0:0:0:0:
448,192,15788,1,0,0:0:0:0:
64,192,15788,1,0,0:0:0:0:
320,192,16074,1,0,0:0:0:0:
448,192,16217,1,2,0:0:0:0:
64,192,16217,1,0,0:0:0:0:
192,192,16502,1,0,0:0:0:0:
320,192,16645,128,0,17074:0:0:0:0:
64,192,16645,1,0,0:0:0:0:
192,192,16931,1,0,0:0:0:0:
448,192,17074,1,0,0:0:0:0:
64,192,17074,1,2,0:0:0:0:
192,192,17502,1,0,0:0:0:0:
448,192,17502,1,0,0:0:0:0:
64,192,17717,1,0,0:0:0:0:
448,192,17717,1,0,0:0:0:0:
320,192,17931,1,2,0:0:0:0:
192,192,17931,1,0,0:0:0:0:
192,192,18145,1,0,0:0:0:0:
448,192,18145,1,0,0:0:0:0:
64,192,18360,1,0,0:0:0:0:
320,192,18360,1,0,0:0:0:0:
448,192,18574,1,0,0:0:0:0:
64,192,18574,1,0,0:0:0:0:
192,192,18788,1,2,0:0:0:0:
320,192,18788,1,0,0:0:0:0:
320,192,19002,1,0,0:0:0:0:
64,192,19002,1,0,0:0:0:0:
448,192,19217,1,0,0:0:0:0:
192,192,19217,1,0,0:0:0:0:
64,192,19217,1,0,0:0:0:0:
64,192,19645,1,0,0:0:0:0:
320,192,19645,128,2,19931:0:0:0:0:
192,192,19931,1,0,0:0:0:0:
64,192,20074,1,8,0:0:0:0:
448,192,20074,128,0,20360:0:0:0:0:
320,192,20360,1,8,0:0:0:0:
64,192,20502,128,2,20788:0:0:0:0:
192,192,20502,1,8,0:0:0:0:
448,192,20931,1,0,0:0:0:0:
320,192,20931,1,2,0:0:0:0:
64,192,21074,1,0,0:0:0:0:
64,192,21217,1,0,0:0:0:0:
192,192,21360,1,0,0:0:0:0:
448,192,21360,1,0,0:0:0:0:
320,192,21502,1,0,0:0:0:0:
320,192,21645,1,0,0:0:0:0:
192,192,21788,1,0,0:0:0:0:
64,192,21788,1,2,0:0:0:0:
448,192,21931,1,0,0:0:0:0:
448,192,22074,1,0,0:0:0:0:
64,192,22217,1,0,0:0:0:0:
320,192,22217,1,0,0:0:0:0:
192,192,22360,1,0,0:0:0:0:
192,192,22502,1,0,0:0:0:0:
64,192,22645,1,2,0:0:0:0:
448,192,22645,128,0,22931:0:0:0:0:
320,192,22645,1,0,0:0:0:0:
192,192,22931,1,0,0:0:0:0:
448,192,23074,1,0,0:0:0:0:
64,192,23074,128,0,23360:0:0:0:0:
320,192,23074,1,0,0:0:0:0:
192,192,23360,1,0,0:0:0:0:
448,192,23502,1,0,0:0:0:0:
320,192,23502,128,2,23788:0:0:0:0:
64,192,23502,1,0,0:0:0:0:
64,192,23788,1,0,0:0:0:0:
448,192,23931,1,0,0:0:0:0:
192,192,23931,128,0,24217:0:0:0:0:
320,192,23931,1,0,0:0:0:0:
64,192,24217,1,0,0:0:0:0:
448,192,24360,1,0,0:0:0:0:
320,192,24360,1,2,0:0:0:0:
192,192,24502,1,0,0:0:0:0:
192,192,24645,1,0,0:0:0:0:
320,192,24788,1,0,0:0:0:0:
64,192,24788,1,0,0:0:0:0:
448,192,24931,1,0,0:0:0:0:
448,192,25074,1,0,0:0:0:0:
192,192,25217,1,2,0:0:0:0:
320,192,25217,1,0,0:0:0:0:
64,192,25360,1,0,0:0:0:0:
64,192,25502,1,0,0:0:0:0:
448,192,25645,1,0,0:0:0:0:
192,192,25645,1,0,0:0:0:0:
320,192,25788,1,0,0:0:0:0:
320,192,25931,1,0,0:0:0:0:
64,192,26074,1,0,0:0:0:0:
448,192,26074,128,2,26360:0:0:0:0:
320,192,26360,128,0,26502:0:0:0:0:
64,192,26502,128,2,26788:0:0:0:0:
192,192,26502,1,0,0:0:0:0:
192,192,26788,128,0,26931:0:0:0:0:
448,192,26931,128,2,27788:0:0:0:0:
64,192,27074,1,0,0:0:0:0:
320,192,27217,1,0,0:0:0:0:
64,192,27360,1,8,0:0:0:0:
192,192,27360,1,2,0:0:0:0:
320,192,27502,1,8,0:0:0:0:
192,192,27645,1,8,0:0:0:0:
64,192,27788,1,8,0:0:0:0:
320,192,27788,1,0,0:0:0:0:
448,192,28074,1,0,0:0:0:0:
64,192,28217,1,2,0:0:0:0:
192,192,28217,1,0,0:0:0:0:
448,192,28360,1,0,0:0:0:0:
192,192,28502,1,0,0:0:0:0:
320,192,28645,128,0,28931:0:0:0:0:
64,192,28645,1,0,0:0:0:0:
448,192,28931,128,0,29217:0:0:0:0:
64,192,28931,1,0,0:0:0:0:
192,192,29074,1,2,0:0:0:0:
320,192,29074,1,0,0:0:0:0:
64,192,29360,128,0,29788:0:0:0:0:
320,192,29360,1,0,0:0:0:0:
192,192,29502,1,0,0:0:0:0:
448,192,29788,1,0,0:0:0:0:
192,192,29931,1,0,0:0:0:0:
320,192,29931,128,2,30217:0:0:0:0:
64,192,30217,128,0,30502:0:0:0:0:
448,192,30217,1,0,0:0:0:0:
192,192,30645,1,0,0:0:0:0:
448,192,30788,128,0,31217:0:0:0:0:
320,192,30788,1,2,0:0:0:0:
192,192,31074,1,0,0:0:0:0:
64,192,31217,128,0,31502:0:0:0:0:
320,192,31217,1,0,0:0:0:0:
192,192,31645,1,0,0:0:0:0:
448,192,31645,128,2,31931:0:0:0:0:
64,192,31931,128,0,32217:0:0:0:0:
320,192,31931,1,0,0:0:0:0:
192,192,32360,128,0,32645:0:0:0:0:
320,192,32360,1,0,0:0:0:0:
64,192,32502,1,2,0:0:0:0:
448,192,32502,1,0,0:0:0:0:
448,192,32788,128,0,33217:0:0:0:0:
320,192,32788,1,0,0:0:0:0:
64,192,32931,1,0,0:0:0:0:
64,192,33217,1,0,0:0:0:0:
320,192,33360,1,2,0:0:0:0:
192,192,33502,1,0,0:0:0:0:
64,192,33645,128,0,34360:0:0:0:0:
448,192,33645,1,0,0:0:0:0:
320,192,34074,1,0,0:0:0:0:
192,192,34217,1,2,0:0:0:0:
448,192,34217,1,8,0:0:0:0:
320,192,34502,1,0,0:0:0:0:
64,192,34645,1,0,0:0:0:0:
448,192,34645,1,0,0:0:0:0:
192,192,34931,1,0,0:0:0:0:
320,192,35074,1,2,0:0:0:0:
64,192,35217,1,0,0:0:0:0:
448,192,35360,1,0,0:0:0:0:
192,192,35502,128,0,35788:0:0:0:0:
320,192,35502,1,0,0:0:0:0:
64,192,35788,128,0,36074:0:0:0:0:
448,192,35788,1,0,0:0:0:0:
320,192,35931,1,2,0:0:0:0:
192,192,35931,1,0,0:0:0:0:
320,192,36217,128,0,36645:0:0:0:0:
448,192,36217,1,0,0:0:0:0:
64,192,36360,1,0,0:0:0:0:
192,192,36645,1,0,0:0:0:0:
64,192,36788,128,2,37074:0:0:0:0:
448,192,36788,1,0,0:0:0:0:
448,192,37074,128,0,37360:0:0:0:0:
192,192,37074,1,0,0:0:0:0:
64,192,37502,1,0,0:0:0:0:
320,192,37645,128,2,37931:0:0:0:0:
192,192,37645,1,0,0:0:0:0:
192,192,37931,1,0,0:0:0:0:
448,192,38074,1,0,0:0:0:0:
64,192,38074,128,0,38360:0:0:0:0:
192,192,38360,1,0,0:0:0:0:
448,192,38502,128,2,38788:0:0:0:0:
320,192,38502,1,0,0:0:0:0:
192,192,38788,128,0,39217:0:0:0:0:
64,192,38788,1,0,0:0:0:0:
448,192,38931,1,0,0:0:0:0:
320,192,39217,1,0,0:0:0:0:
448,192,39360,128,2,39645:0:0:0:0:
64,192,39360,1,0,0:0:0:0:
192,192,39645,1,0,0:0:0:0:
64,192,39788,128,0,40074:0:0:0:0:
320,192,39788,1,0,0:0:0:0:
192,192,40074,1,0,0:0:0:0:
448,192,40217,1,0,0:0:0:0:
320,192,40217,128,2,40502:0:0:0:0:
192,192,40502,1,0,0:0:0:0:
64,192,40645,128,0,41074:0:0:0:0:
448,192,40645,1,8,0:0:0:0:
320,192,40788,1,8,0:0:0:0:
192,192,40931,1,8,0:0:0:0:
448,192,41074,1,8,0:0:0:0:
320,192,41074,1,2,0:0:0:0:
64,192,41360,1,8,0:0:0:0:
192,192,41502,1,4,0:0:0:0:
320,192,41502,1,2,0:0:0:0:
448,192,41502,1,0,0:0:0:0:
192,192,41931,128,0,42217:0:0:0:0:
320,192,41931,1,2,0:0:0:0:
448,192,42217,1,0,0:0:0:0:
320,192,42360,128,0,42645:0:0:0:0:
64,192,42360,1,0,0:0:0:0:
64,192,42645,128,0,42788:0:0:0:0:
192,192,42645,1,0,0:0:0:0:
448,192,42788,1,2,0:0:0:0:
448,192,43074,128,0,43645:0:0:0:0:
192,192,43074,1,0,0:0:0:0:
64,192,43217,1,0,0:0:0:0:
64,192,43645,128,0,43931:0:0:0:0:
192,192,43645,1,2,0:0:0:0:
320,192,43931,128,0,44217:0:0:0:0:
448,192,43931,1,0,0:0:0:0:
192,192,44074,1,0,0:0:0:0:
64,192,44360,1,0,0:0:0:0:
192,192,44502,128,2,44788:0:0:0:0:
448,192,44502,1,0,0:0:0:0:
320,192,44788,1,0,0:0:0:0:
64,192,44931,128,0,45360:0:0:0:0:
448,192,44931,1,0,0:0:0:0:
320,192,45360,1,2,0:0:0:0:
448,192,45360,1,0,0:0:0:0:
192,192,45645,1,0,0:0:0:0:
64,192,45788,1,0,0:0:0:0:
448,192,45788,128,0,46217:0:0:0:0:
320,192,46074,1,0,0:0:0:0:
192,192,46217,1,2,0:0:0:0:
64,192,46217,1,0,0:0:0:0:
320,192,46502,1,0,0:0:0:0:
64,192,46645,128,0,46931:0:0:0:0:
192,192,46645,1,0,0:0:0:0:
448,192,46931,128,0,47217:0:0:0:0:
320,192,46931,1,0,0:0:0:0:
192,192,47074,1,2,0:0:0:0:
64,192,47074,1,0,0:0:0:0:
192,192,47360,128,0,47788:0:0:0:0:
64,192,47360,1,0,0:0:0:0:
448,192,47788,1,0,0:0:0:0:
320,192,47931,128,2,48074:0:0:0:0:
64,192,47931,1,0,0:0:0:0:
448,192,48217,128,0,48360:0:0:0:0:
64,192,48360,1,4,0:0:0:0:
192,192,48360,1,2,0:0:0:0:
320,192,48360,1,0,0:0:0:0:
448,192,48788,128,2,49074:0:0:0:0:
192,192,48788,1,0,0:0:0:0:
64,192,49074,1,0,0:0:0:0:
320,192,49217,128,0,49502:0:0:0:0:
192,192,49217,1,0,0:0:0:0:
64,192,49502,128,0,49645:0:0:0:0:
448,192,49645,1,2,0:0:0:0:
320,192,49645,1,0,0:0:0:0:
192,192,49931,128,0,50360:0:0:0:0:
320,192,49931,1,0,0:0:0:0:
320,192,50360,1,0,0:0:0:0:
448,192,50502,128,2,50788:0:0:0:0:
64,192,50502,1,0,0:0:0:0:
192,192,50788,128,0,51360:0:0:0:0:
320,192,50788,1,0,0:0:0:0:
64,192,50931,1,0,0:0:0:0:
448,192,51217,1,0,0:0:0:0:
320,192,51360,128,0,51645:0:0:0:0:
64,192,51360,1,2,0:0:0:0:
64,192,51788,128,0,52217:0:0:0:0:
448,192,51788,1,0,0:0:0:0:
192,192,52074,1,0,0:0:0:0:
448,192,52217,1,2,0:0:0:0:
320,192,52217,1,0,0:0:0:0:
192,192,52502,128,0,53074:0:0:0:0:
64,192,52502,1,0,0:0:0:0:
448,192,52645,1,0,0:0:0:0:
64,192,52931,1,0,0:0:0:0:
320,192,53074,1,2,0:0:0:0:
448,192,53074,1,0,0:0:0:0:
64,192,53360,128,0,55217:0:0:0:0:
192,192,53360,1,0,0:0:0:0:
448,192,53502,1,8,0:0:0:0:
320,192,53645,1,8,0:0:0:0:
192,192,53788,1,8,0:0:0:0:
448,192,53931,1,10,0:0:0:0:
320,192,54074,1,8,0:0:0:0:
192,192,54217,1,8,0:0:0:0:
448,192,54360,1,8,0:0:0:0:
192,192,54645,1,8,0:0:0:0:
448,192,54788,1,8,0:0:0:0:
320,192,55074,1,8,0:0:0:0:
448,192,55217,1,8,0:0:0:0:
192,192,55217,1,2,0:0:0:0:
64,192,55645,1,2,0:0:0:0:
192,192,55931,1,0,0:0:0:0:
320,192,56074,1,2,0:0:0:0:
448,192,56360,1,0,0:0:0:0:
192,192,56502,128,0,56931:0:0:0:0:
320,192,56502,1,0,0:0:0:0:
448,192,56931,1,4,0:0:0:0:
320,192,56931,1,0,0:0:0:0:
64,192,56931,1,0,0:0:0:0:
192,192,57217,1,0,0:0:0:0:
448,192,57360,128,2,57645:0:0:0:0:
64,192,57360,1,0,0:0:0:0:
192,192,57645,128,0,58074:0:0:0:0:
320,192,57788,1,0,0:0:0:0:
448,192,58074,1,0,0:0:0:0:
320,192,58217,128,2,58502:0:0:0:0:
64,192,58217,1,0,0:0:0:0:
192,192,58502,1,0,0:0:0:0:
64,192,58645,128,0,58931:0:0:0:0:
448,192,58931,128,0,59074:0:0:0:0:
192,192,59074,1,2,0:0:0:0:
320,192,59074,1,0,0:0:0:0:
320,192,59360,128,0,59788:0:0:0:0:
192,192,59788,128,0,60217:0:0:0:0:
448,192,59931,1,2,0:0:0:0:
64,192,59931,1,0,0:0:0:0:
64,192,60217,128,0,60788:0:0:0:0:
320,192,60360,1,0,0:0:0:0:
192,192,60645,1,0,0:0:0:0:
448,192,60788,128,0,61074:0:0:0:0:
320,192,60788,1,2,0:0:0:0:
64,192,61074,128,0,61502:0:0:0:0:
192,192,61217,1,0,0:0:0:0:
448,192,61502,128,0,61931:0:0:0:0:
192,192,61645,1,0,0:0:0:0:
320,192,61645,1,2,0:0:0:0:
64,192,61931,1,0,0:0:0:0:
192,192,62074,128,0,62360:0:0:0:0:
320,192,62360,1,0,0:0:0:0:
448,192,62502,128,2,62788:0:0:0:0:
64,192,62502,1,0,0:0:0:0:
320,192,62788,1,0,0:0:0:0:
192,192,62931,1,0,0:0:0:0:
64,192,62931,1,0,0:0:0:0:
320,192,63217,128,0,63645:0:0:0:0:
64,192,63360,1,2,0:0:0:0:
192,192,63645,1,0,0:0:0:0:
64,192,63788,1,0,0:0:0:0:
448,192,63788,1,4,0:0:0:0:
320,192,63788,1,0,0:0:0:0:
320,192,64074,1,0,0:0:0:0:
64,192,64217,128,2,64502:0:0:0:0:
448,192,64217,1,0,0:0:0:0:
320,192,64502,128,0,64931:0:0:0:0:
192,192,64645,1,0,0:0:0:0:
448,192,64931,1,0,0:0:0:0:
64,192,65074,128,2,65360:0:0:0:0:
192,192,65074,1,0,0:0:0:0:
448,192,65360,128,0,65502:0:0:0:0:
192,192,65502,1,0,0:0:0:0:
64,192,65788,1,0,0:0:0:0:
320,192,65931,128,2,66217:0:0:0:0:
448,192,65931,1,0,0:0:0:0:
64,192,66217,128,0,66645:0:0:0:0:
448,192,66360,1,0,0:0:0:0:
320,192,66645,1,0,0:0:0:0:
448,192,66788,1,0,0:0:0:0:
192,192,66788,128,2,67217:0:0:0:0:
64,192,67074,1,0,0:0:0:0:
448,192,67217,128,0,67502:0:0:0:0:
64,192,67502,1,0,0:0:0:0:
192,192,67645,128,2,67931:0:0:0:0:
320,192,67645,1,0,0:0:0:0:
320,192,67931,128,0,68360:0:0:0:0:
64,192,68074,1,0,0:0:0:0:
64,192,68360,128,0,68931:0:0:0:0:
320,192,68502,1,0,0:0:0:0:
448,192,68502,1,2,0:0:0:0:
192,192,68788,1,0,0:0:0:0:
320,192,68931,128,0,69217:0:0:0:0:
448,192,68931,1,0,0:0:0:0:
192,192,69217,1,0,0:0:0:0:
64,192,69360,128,2,69645:0:0:0:0:
448,192,69360,1,0,0:0:0:0:
192,192,69645,128,0,70074:0:0:0:0:
448,192,69788,1,0,0:0:0:0:
320,192,70074,1,0,0:0:0:0:
448,192,70217,128,2,70645:0:0:0:0:
64,192,70217,1,0,0:0:0:0:
320,192,70502,1,0,0:0:0:0:
64,192,70645,128,0,71074:0:0:0:0:
192,192,70645,1,0,0:0:0:0:
192,192,70931,1,0,0:0:0:0:
448,192,71074,128,2,71360:0:0:0:0:
320,192,71074,1,0,0:0:0:0:
192,192,71360,128,0,71788:0:0:0:0:
320,192,71502,1,0,0:0:0:0:
64,192,71788,128,0,72360:0:0:0:0:
448,192,71931,1,0,0:0:0:0:
320,192,71931,1,2,0:0:0:0:
192,192,72217,1,0,0:0:0:0:
448,192,72360,128,0,72788:0:0:0:0:
192,192,72645,1,0,0:0:0:0:
320,192,72788,128,2,73217:0:0:0:0:
64,192,72788,1,0,0:0:0:0:
448,192,73074,1,0,0:0:0:0:
192,192,73217,128,0,73645:0:0:0:0:
320,192,73502,1,0,0:0:0:0:
64,192,73645,128,2,74074:0:0:0:0:
448,192,73645,1,0,0:0:0:0:
192,192,73931,1,0,0:0:0:0:
448,192,74074,1,4,0:0:0:0:
320,192,74074,1,0,0:0:0:0:
64,192,74217,1,0,0:0:0:0:
192,192,74360,1,0,0:0:0:0:
320,192,74360,1,0,0:0:0:0:
448,192,74502,1,2,0:0:0:0:
64,192,74502,1,2,0:0:0:0:
320,192,74645,1,0,0:0:0:0:
192,192,74788,1,0,0:0:0:0:
64,192,74788,1,0,0:0:0:0:
448,192,74931,1,0,0:0:0:0:
320,192,74931,1,0,0:0:0:0:
192,192,75074,1,0,0:0:0:0:
64,192,75217,1,0,0:0:0:0:
448,192,75217,1,0,0:0:0:0:
192,192,75360,1,0,0:0:0:0:
320,192,75360,1,2,0:0:0:0:
448,192,75502,1,0,0:0:0:0:
64,192,75645,1,0,0:0:0:0:
192,192,75645,1,0,0:0:0:0:
320,192,75788,1,0,0:0:0:0:
448,192,75788,1,0,0:0:0:0:
64,192,75931,1,0,0:0:0:0:
192,192,76074,1,0,0:0:0:0:
320,192,76074,1,0,0:0:0:0:
64,192,76217,1,2,0:0:0:0:
448,192,76217,1,0,0:0:0:0:
192,192,76360,1,0,0:0:0:0:
320,192,76502,1,0,0:0:0:0:
448,192,76502,1,0,0:0:0:0:
64,192,76645,1,0,0:0:0:0:
192,192,76645,1,0,0:0:0:0:
320,192,76788,1,0,0:0:0:0:
64,192,76931,1,0,0:0:0:0:
448,192,76931,1,0,0:0:0:0:
320,192,77074,1,0,0:0:0:0:
192,192,77074,1,2,0:0:0:0:
448,192,77217,1,0,0:0:0:0:
192,192,77360,1,0,0:0:0:0:
64,192,77360,1,0,0:0:0:0:
448,192,77502,1,0,0:0:0:0:
320,192,77502,1,0,0:0:0:0:
320,192,77788,1,0,0:0:0:0:
192,192,77788,1,0,0:0:0:0:
448,192,77931,1,2,0:0:0:0:
64,192,77931,1,0,0:0:0:0:
192,192,78217,1,0,0:0:0:0:
64,192,78217,1,0,0:0:0:0:
448,192,78360,1,0,0:0:0:0:
320,192,78360,1,0,0:0:0:0:
192,192,78645,1,0,0:0:0:0:
320,192,78645,1,0,0:0:0:0:
64,192,78788,1,0,0:0:0:0:
448,192,78788,1,2,0:0:0:0:
448,192,79074,1,0,0:0:0:0:
320,192,79074,1,0,0:0:0:0:
64,192,79217,1,0,0:0:0:0:
192,192,79217,1,0,0:0:0:0:
448,192,79645,1,2,0:0:0:0:
64,192,79645,1,0,0:0:0:0:
192,192,79931,1,0,0:0:0:0:
320,192,80074,1,2,0:0:0:0:
448,192,80074,1,0,0:0:0:0:
320,192,80360,1,0,0:0:0:0:
64,192,80502,1,2,0:0:0:0:
192,192,80502,1,0,0:0:0:0:
448,192,80931,128,0,81074:0:0:0:0:
320,192,81074,128,0,81217:0:0:0:0:
192,192,81217,128,0,81360:0:0:0:0:
64,192,81360,128,2,81502:0:0:0:0:
448,192,81360,1,0,0:0:0:0:
320,192,81645,128,0,82074:0:0:0:0:
192,192,81645,1,0,0:0:0:0:
192,192,82074,128,0,82217:0:0:0:0:
448,192,82217,128,2,82502:0:0:0:0:
64,192,82217,1,0,0:0:0:0:
320,192,82502,128,0,82645:0:0:0:0:
64,192,82645,128,0,82788:0:0:0:0:
192,192,82788,128,0,82931:0:0:0:0:
320,192,82931,128,0,83074:0:0:0:0:
448,192,83074,128,2,83217:0:0:0:0:
64,192,83074,1,0,0:0:0:0:
192,192,83360,1,0,0:0:0:0:
320,192,83360,1,0,0:0:0:0:
64,192,83502,1,8,0:0:0:0:
192,192,83645,1,8,0:0:0:0:
448,192,83788,1,8,0:0:0:0:
320,192,83788,128,0,83931:0:0:0:0:
192,192,83931,128,2,84217:0:0:0:0:
64,192,83931,1,8,0:0:0:0:
320,192,84217,128,0,84360:0:0:0:0:
448,192,84360,128,0,84502:0:0:0:0:
320,192,84502,128,0,84645:0:0:0:0:
192,192,84645,128,0,84788:0:0:0:0:
64,192,84788,128,2,84931:0:0:0:0:
448,192,84788,1,0,0:0:0:0:
192,192,85074,128,0,85502:0:0:0:0:
320,192,85074,1,0,0:0:0:0:
448,192,85502,128,0,85645:0:0:0:0:
320,192,85645,128,2,85931:0:0:0:0:
64,192,85645,1,0,0:0:0:0:
192,192,85931,128,0,86074:0:0:0:0:
64,192,86074,128,0,86360:0:0:0:0:
448,192,86074,1,0,0:0:0:0:
320,192,86360,1,0,0:0:0:0:
448,192,86502,1,0,0:0:0:0:
192,192,86502,128,2,86788:0:0:0:0:
64,192,86788,1,0,0:0:0:0:
448,192,86931,1,0,0:0:0:0:
320,192,86931,128,0,87217:0:0:0:0:
192,192,87217,1,0,0:0:0:0:
64,192,87360,1,0,0:0:0:0:
448,192,87360,128,2,87645:0:0:0:0:
320,192,87502,1,0,0:0:0:0:
192,192,87645,1,0,0:0:0:0:
448,192,87788,1,4,0:0:0:0:
64,192,87788,128,0,87931:0:0:0:0:
192,192,87931,128,0,88074:0:0:0:0:
320,192,88074,128,0,88217:0:0:0:0:
448,192,88217,128,2,88360:0:0:0:0:
64,192,88217,1,0,0:0:0:0:
64,192,88502,128,0,88931:0:0:0:0:
192,192,88502,1,0,0:0:0:0:
448,192,88931,128,0,89074:0:0:0:0:
320,192,89074,128,2,89360:0:0:0:0:
192,192,89074,1,0,0:0:0:0:
64,192,89360,128,0,89502:0:0:0:0:
448,192,89502,128,0,89645:0:0:0:0:
320,192,89645,128,0,89788:0:0:0:0:
192,192,89788,128,0,89931:0:0:0:0:
64,192,89931,128,2,90074:0:0:0:0:
448,192,89931,1,0,0:0:0:0:
320,192,90217,128,0,90645:0:0:0:0:
192,192,90217,1,0,0:0:0:0:
448,192,90645,128,0,90788:0:0:0:0:
64,192,90645,1,0,0:0:0:0:
192,192,90788,128,2,91074:0:0:0:0:
320,192,91074,128,0,91217:0:0:0:0:
64,192,91217,128,0,91360:0:0:0:0:
192,192,91360,128,0,91502:0:0:0:0:
320,192,91502,128,0,91645:0:0:0:0:
448,192,91645,128,2,91788:0:0:0:0:
64,192,91645,1,0,0:0:0:0:
192,192,91931,128,0,92360:0:0:0:0:
320,192,91931,1,0,0:0:0:0:
320,192,92360,128,0,92502:0:0:0:0:
64,192,92502,128,2,92788:0:0:0:0:
448,192,92502,1,0,0:0:0:0:
192,192,92788,128,0,92931:0:0:0:0:
448,192,92931,128,0,97645:0:0:0:0:
320,192,92931,1,4,0:0:0:0:
64,192,93788,128,0,97645:0:0:0:0:
192,192,94645,128,2,97502:0:0:0:0:
320,192,96360,128,2,97502:0:0:0:0:
192,192,97645,1,0,0:0:0:0:
320,192,97645,1,8,0:0:0:0:
448,192,97931,1,0,0:0:0:0:
64,192,97931,1,0,0:0:0:0:
64,192,98074,1,0,0:0:0:0:
192,192,98074,1,0,0:0:0:0:
448,192,98074,1,4,0:0:0:0:
