osu file format v14

[General]
AudioFilename: audio.mp3
AudioLeadIn: 0
PreviewTime: 38272
Countdown: 0
SampleSet: None
StackLeniency: 0.7
Mode: 0
LetterboxInBreaks: 0
WidescreenStoryboard: 0

[Editor]
Bookmarks: 82477
DistanceSpacing: 0.4
BeatDivisor: 4
GridSize: 4
TimelineZoom: 1

[Metadata]
Title:Introduction
TitleUnicode:Introduction
Artist:Tatsuya Uemura
ArtistUnicode:Tatsuya Uemura
Creator:Newtech66
Version:C.A.T.S
Source:Zero Wing
Tags:video-game zero-wing
BeatmapID:1484679
BeatmapSetID:701495

[Difficulty]
HPDrainRate:6
CircleSize:4.8
OverallDifficulty:8.5
ApproachRate:9
SliderMultiplier:3.2
SliderTickRate:2

[Events]
//Background and Video events
0,0,"Zero-Wing.jpg",0,0
//Break Periods
//Storyboard Layer 0 (Background)
//Storyboard Layer 1 (Fail)
//Storyboard Layer 2 (Pass)
//Storyboard Layer 3 (Foreground)
//Storyboard Sound Samples

[TimingPoints]
0,382.72628691714,4,2,0,40,1,0
2296,-100,4,3,0,40,0,0
3061,-100,4,2,0,40,0,0
5358,-100,4,3,0,40,0,0
6602,-100,4,2,0,40,0,0
13778,-100,4,3,0,20,0,0
15309,-100,4,2,0,40,0,0
21432,-200,4,2,0,40,0,0
22963,-100,4,2,0,40,0,0
24494,-200,4,2,0,40,0,0
26025,-100,4,2,0,40,0,0
27556,-200,4,2,0,40,0,0
29087,-100,4,2,0,40,0,0
30618,-200,4,2,0,40,0,0
32149,-100,4,2,0,40,0,0
33679,-200,4,2,0,40,0,0
39420,-100,4,2,0,40,0,0
44396,-80,4,2,0,40,0,0
45161,-200,4,2,0,40,0,0
47458,-66.6666666666667,4,2,0,80,0,1
52433,-66.6666666666667,4,2,0,60,0,0
55495,-100,4,2,0,60,0,0
55878,-133.333333333333,4,2,0,60,0,0
56260,-200,4,2,0,60,0,0
56643,-200,4,2,0,60,0,0
59705,-66.6666666666667,4,2,0,80,0,1
64680,-66.6666666666667,4,2,0,60,0,0
67742,-100,4,2,0,60,0,0
68125,-133.333333333333,4,2,0,60,0,0
68508,-200,4,2,0,60,0,0
68890,-200,4,2,0,60,0,0
71952,-66.6666666666667,4,2,0,80,0,1
74248,-66.6666666666667,4,2,0,50,0,1
76162,-66.6666666666667,4,2,0,30,0,1
76927,-66.6666666666667,4,2,0,60,0,0
79224,-66.6666666666667,4,2,0,10,0,0

[Colours]
Combo1 : 255,0,128
Combo2 : 0,255,255

[HitObjects]
52,92,0,5,0,0:0:0:0:
152,112,191,1,0,0:0:0:0:
176,100,287,1,0,0:0:0:0:
224,104,382,2,0,L|316:128,2,80
180,196,765,1,0,0:0:0:0:
364,256,861,1,0,0:0:0:0:
220,297,956,1,0,0:0:0:0:
361,165,1052,1,0,0:0:0:0:
208,152,1148,1,8,0:0:0:0:
335,299,1243,1,0,0:0:0:0:
440,228,1339,6,0,L|374:178,3,80,0|0|8|0,0:0|0:0|0:0|0:0,0:0:0:0:
300,144,1817,1,0,0:0:0:0:
240,68,1913,1,0,0:0:0:0:
176,144,2009,1,0,0:0:0:0:
108,72,2104,1,0,0:0:0:0:
28,144,2200,1,0,0:0:0:0:
80,240,2296,2,4,L|160:212,3,80,12|4|12|4,0:0|0:0|0:0|0:0,0:0:0:0:
184,284,2679,2,4,L|264:256,3,80
308,224,3061,5,0,0:0:0:0:
308,224,3253,1,0,0:0:0:0:
408,160,3444,1,0,0:0:0:0:
356,152,3540,1,0,0:0:0:0:
328,136,3635,1,0,0:0:0:0:
292,140,3731,1,0,0:0:0:0:
248,120,3827,1,0,0:0:0:0:
200,120,4018,2,0,B|120:100|120:100|52:148,1,160
56,204,4305,1,0,0:0:0:0:
68,264,4401,2,0,B|148:284|148:284|216:236,1,160
240,176,4784,1,0,0:0:0:0:
292,112,4975,2,0,B|372:92|372:92|440:140,1,160
424,192,5358,5,8,0:0:0:0:
408,228,5453,1,8,0:0:0:0:
380,252,5549,1,8,0:0:0:0:
336,264,5645,1,8,0:0:0:0:
296,272,5740,1,8,0:0:0:0:
304,180,6219,6,8,L|236:120,3,80
168,100,6889,5,0,0:0:0:0:
196,280,7080,5,0,0:0:0:0:
276,120,7176,1,8,0:0:0:0:
104,212,7271,1,0,0:0:0:0:
300,220,7367,1,0,0:0:0:0:
356,256,7463,2,0,P|352:180|272:160,1,160
281,156,7845,1,0,0:0:0:0:
196,72,8037,2,0,L|172:152,1,80
56,120,8228,2,0,L|108:188,1,80
44,264,8419,2,0,L|152:248,1,80
252,192,8611,1,0,0:0:0:0:
379,245,8707,2,0,L|346:168,1,80,0|8,0:0|0:0,0:0:0:0:
455,118,8898,2,0,L|371:99,1,80
372,0,9089,2,0,L|299:82,1,80
224,172,9281,2,0,L|288:224,6,80
64,228,10142,5,0,0:0:0:0:
176,232,10333,2,8,L|248:164,1,80,8|0,0:0|0:0,0:0:0:0:
260,108,10524,2,0,L|228:28,1,80
336,104,10716,2,0,L|420:164,1,80
380,228,10907,2,0,L|320:292,1,80
252,192,11290,1,0,0:0:0:0:
388,240,11481,2,0,L|388:328,1,80
92,124,11673,2,0,L|92:28,1,80
384,140,11864,2,0,L|384:48,1,80,8|0,0:0|0:0,0:0:0:0:
96,240,12055,2,0,L|96:324,1,80
232,304,12247,1,0,0:0:0:0:
332,240,12342,2,0,P|404:188|344:88,1,160
336,72,12629,5,0,0:0:0:0:
92,308,12821,1,0,0:0:0:0:
224,44,13012,1,0,0:0:0:0:
216,328,13204,1,0,0:0:0:0:
84,88,13395,1,8,0:0:0:0:
352,276,13586,1,0,0:0:0:0:
256,192,13778,1,4,0:0:0:0:
420,128,13873,1,4,0:0:0:0:
368,84,13969,1,4,0:0:0:0:
308,76,14065,1,4,0:0:0:0:
256,192,14160,5,4,0:0:0:0:
100,264,14256,1,4,0:0:0:0:
152,308,14352,1,4,0:0:0:0:
212,316,14448,1,4,0:0:0:0:
256,192,14543,5,4,0:0:0:0:
432,256,14639,1,4,0:0:0:0:
380,300,14735,1,4,0:0:0:0:
320,308,14831,1,4,0:0:0:0:
256,192,14926,5,4,0:0:0:0:
80,128,15022,1,4,0:0:0:0:
132,84,15118,1,4,0:0:0:0:
192,76,15214,1,4,0:0:0:0:
248,156,15309,6,0,B|289:227|289:227|216:272,1,160
248,156,15691,2,0,B|321:119|321:119|368:188,1,160
248,156,16074,2,0,B|209:83|209:83|284:40,1,160,8|0,0:0|0:0,0:0:0:0:
248,156,16457,2,0,B|179:201|179:201|132:136,1,160
336,76,16839,2,0,L|416:40,2,80
348,168,17222,2,0,L|428:128,2,80
360,264,17605,2,0,L|440:220,2,80,8|0|0,0:0|0:0|0:0,0:0:0:0:
172,84,17988,2,0,L|92:48,2,80
160,176,18371,2,0,L|80:136,2,80
148,272,18754,2,0,L|68:228,2,80
272,116,19136,5,8,0:0:0:0:
292,144,19231,1,0,0:0:0:0:
312,172,19327,1,0,0:0:0:0:
228,228,19519,5,0,0:0:0:0:
208,256,19614,1,0,0:0:0:0:
188,284,19710,1,0,0:0:0:0:
256,48,19901,5,8,0:0:0:0:
396,188,20093,1,8,0:0:0:0:
252,336,20284,1,8,0:0:0:0:
96,188,20475,1,8,0:0:0:0:
124,64,20667,5,8,0:0:0:0:
376,64,20858,1,8,0:0:0:0:
380,288,21049,1,8,0:0:0:0:
120,288,21241,1,8,0:0:0:0:
56,96,21432,2,0,B|224:56|224:56|300:120|240:268|240:268|452:224,1,600
416,120,22963,5,0,0:0:0:0:
80,208,23059,1,0,0:0:0:0:
416,120,23154,1,0,0:0:0:0:
80,208,23250,1,0,0:0:0:0:
284,272,23346,1,0,0:0:0:0:
172,64,23537,1,0,0:0:0:0:
100,216,23729,1,0,0:0:0:0:
300,144,23920,1,0,0:0:0:0:
400,96,24111,1,8,0:0:0:0:
388,132,24207,1,0,0:0:0:0:
352,160,24303,1,0,0:0:0:0:
304,160,24398,1,0,0:0:0:0:
364,32,24494,6,0,B|200:87|200:87|288:168|299:275|299:275|96:350,1,600
64,144,26025,5,0,0:0:0:0:
96,124,26121,1,0,0:0:0:0:
132,120,26216,1,0,0:0:0:0:
164,144,26312,1,0,0:0:0:0:
196,188,26408,1,0,0:0:0:0:
260,140,26599,1,0,0:0:0:0:
352,112,26790,1,0,0:0:0:0:
428,172,26982,1,0,0:0:0:0:
376,296,27173,1,8,0:0:0:0:
336,320,27269,1,0,0:0:0:0:
292,320,27364,1,0,0:0:0:0:
264,280,27460,1,0,0:0:0:0:
56,188,27556,6,0,B|168:68|168:68|304:280|304:280|432:144,1,600
256,48,29087,5,0,0:0:0:0:
256,304,29182,1,0,0:0:0:0:
100,112,29278,1,0,0:0:0:0:
408,248,29374,1,0,0:0:0:0:
256,188,29469,1,0,0:0:0:0:
256,88,29661,1,0,0:0:0:0:
256,304,29852,1,0,0:0:0:0:
256,184,30044,1,0,0:0:0:0:
120,292,30235,1,8,0:0:0:0:
404,72,30331,1,0,0:0:0:0:
448,176,30426,1,0,0:0:0:0:
76,192,30522,1,0,0:0:0:0:
456,188,30618,6,0,B|344:68|344:68|208:280|208:280|80:144,1,600
48,72,32149,5,0,0:0:0:0:
84,56,32244,1,0,0:0:0:0:
120,68,32340,1,0,0:0:0:0:
152,96,32436,1,0,0:0:0:0:
192,76,32531,1,0,0:0:0:0:
356,192,32723,1,0,0:0:0:0:
196,288,32914,1,0,0:0:0:0:
188,120,33105,1,0,0:0:0:0:
464,312,33297,1,8,0:0:0:0:
428,328,33392,1,0,0:0:0:0:
392,316,33488,1,0,0:0:0:0:
360,288,33584,1,0,0:0:0:0:
268,224,33679,6,0,P|200:268|208:340,1,160
260,296,34254,1,0,0:0:0:0:
324,300,34445,2,0,P|381:242|358:174,1,160,0|8,0:0|0:0,0:0:0:0:
296,136,34923,2,0,L|268:164,2,40
240,88,35210,2,0,P|171:130|177:202,1,160,0|0,0:3|0:3,0:3:0:0:
232,156,35784,1,0,0:0:0:0:
296,184,35976,2,0,P|296:264|232:297,1,160,0|8,0:3|0:3,0:3:0:0:
144,200,36454,1,0,0:0:0:0:
240,116,36550,1,0,0:0:0:0:
104,64,36646,1,0,0:0:0:0:
56,12,36741,6,0,P|135:2|175:61,1,160,0|0,0:3|0:3,0:3:0:0:
256,128,37315,1,0,0:0:0:0:
304,76,37507,2,0,P|319:154|262:199,1,160,0|8,0:3|0:3,0:3:0:0:
192,248,37985,2,0,L|232:300,2,40
120,240,38272,2,0,P|176:183|245:206,1,160,0|0,0:3|0:3,0:3:0:0:
320,228,38846,1,0,0:0:0:0:
384,52,39038,1,0,0:0:0:0:
140,128,39229,1,0,0:0:0:0:
140,128,39420,6,8,P|212:92|272:140,1,160
296,176,39803,1,0,0:0:0:0:
316,200,39899,1,0,0:0:0:0:
348,200,39994,1,0,0:0:0:0:
384,184,40090,1,0,0:0:0:0:
376,104,40186,2,0,L|288:64,1,80,8|0,0:0|0:0,0:0:0:0:
104,168,40377,1,0,0:0:0:0:
116,200,40473,1,0,0:0:0:0:
120,240,40568,1,0,0:0:0:0:
104,272,40664,1,0,0:0:0:0:
116,312,40760,1,0,0:0:0:0:
160,320,40856,1,0,0:0:0:0:
240,316,40951,2,0,L|284:236,1,80,8|0,0:0|0:0,0:0:0:0:
440,184,41143,5,0,0:0:0:0:
384,132,41238,1,0,0:0:0:0:
308,108,41334,1,0,0:0:0:0:
232,92,41430,1,0,0:0:0:0:
160,112,41525,1,0,0:0:0:0:
100,152,41621,1,0,0:0:0:0:
56,224,41717,2,0,L|136:276,1,80,8|0,0:0|0:0,0:0:0:0:
268,280,41908,1,0,0:0:0:0:
284,272,42004,1,0,0:0:0:0:
296,256,42099,1,0,0:0:0:0:
308,240,42195,1,0,0:0:0:0:
304,216,42291,1,0,0:0:0:0:
284,196,42386,1,0,0:0:0:0:
228,144,42482,2,0,L|296:84,1,80,8|0,0:0|0:0,0:0:0:0:
200,296,42673,5,0,0:0:0:0:
248,216,42769,1,0,0:0:0:0:
216,304,42865,1,0,0:0:0:0:
268,224,42961,1,0,0:0:0:0:
252,320,43056,1,0,0:0:0:0:
308,232,43152,1,0,0:0:0:0:
376,268,43248,2,0,L|420:188,1,80,8|0,0:0|0:0,0:0:0:0:
414,197,43439,2,0,L|360:128,1,80
236,100,43630,1,0,0:0:0:0:
224,116,43726,1,0,0:0:0:0:
204,144,43822,1,0,0:0:0:0:
188,164,43917,1,0,0:0:0:0:
276,200,44013,1,8,0:0:0:0:
292,224,44109,1,0,0:0:0:0:
312,260,44204,1,0,0:0:0:0:
332,296,44300,1,0,0:0:0:0:
420,220,44396,6,0,L|356:140,7,100,0|0|0|0|8|0|0|0,0:0|0:0|0:0|0:0|0:0|0:0|0:0|0:0,0:0:0:0:
276,132,45161,2,8,L|268:176,3,40
236,132,45544,2,8,L|244:176,3,40
124,64,47458,6,0,L|224:152,1,120.000004577637
412,312,47649,2,0,L|312:224,1,120.000004577637
104,308,47840,2,0,L|204:220,1,120.000004577637
400,52,48032,2,0,L|300:140,1,120.000004577637
112,96,48414,1,8,0:0:0:0:
200,312,48606,1,0,0:0:0:0:
412,120,48701,1,0,0:0:0:0:
144,80,48797,1,0,0:0:0:0:
408,312,48893,1,0,0:0:0:0:
108,200,48988,1,0,0:0:0:0:
280,176,49084,1,0,0:0:0:0:
392,292,49180,1,0,0:0:0:0:
192,324,49276,1,0,0:0:0:0:
388,88,49371,1,0,0:0:0:0:
340,184,49467,1,0,0:0:0:0:
240,124,49563,2,0,L|136:52,1,120.000004577637
460,344,49945,5,8,0:0:0:0:
72,44,50137,1,0,0:0:0:0:
176,344,50232,1,0,0:0:0:0:
292,36,50328,1,0,0:0:0:0:
416,344,50424,1,0,0:0:0:0:
448,148,50519,1,0,0:0:0:0:
424,148,50615,1,0,0:0:0:0:
392,164,50711,1,0,0:0:0:0:
352,156,50806,1,0,0:0:0:0:
320,176,50902,1,0,0:0:0:0:
248,208,50998,2,0,L|188:320,2,120.000004577637
248,208,51476,5,8,0:0:0:0:
394,66,51668,2,0,L|308:156,3,120.000004577637
132,228,52050,2,0,L|220:146,3,120.000004577637
448,184,52433,1,0,0:0:0:0:
344,296,52624,1,0,0:0:0:0:
380,152,52816,1,0,0:0:0:0:
272,260,53007,1,8,0:0:0:0:
312,120,53198,1,0,0:0:0:0:
204,220,53390,1,0,0:0:0:0:
40,120,53581,6,0,L|128:32,1,120.000004577637
80,156,53773,2,0,L|172:56,1,120.000004577637
472,264,53964,2,0,L|384:352,1,120.000004577637
432,228,54156,2,0,L|340:328,1,120.000004577637
156,308,54538,1,8,0:0:0:0:
304,72,54729,2,0,P|381:168|377:211,1,120.000004577637
207,311,54921,2,0,P|158:279|131:226,1,120.000004577637
240,128,55112,2,0,P|317:224|313:267,1,120.000004577637
268,261,55303,2,0,P|218:229|192:176,1,120.000004577637
272,184,55495,6,0,P|344:140|336:68,1,160
280,112,55782,1,0,0:0:0:0:
100,256,55878,2,0,P|124:320|192:328,1,120.000004577637,0|8,0:0|0:0,0:0:0:0:
168,264,56165,1,0,0:0:0:0:
388,228,56260,2,0,P|388:160|364:128,1,80
328,192,56547,1,0,0:0:0:0:
256,184,56643,6,0,P|260:60|188:16,1,200
256,184,57217,2,0,P|137:220|119:302,1,200
256,184,57791,2,0,P|375:217|435:158,1,200
340,152,58365,1,0,0:0:0:0:
340,152,58461,1,0,0:0:0:0:
256,192,58557,1,0,0:0:0:0:
408,92,58748,5,8,0:0:0:0:
100,316,58939,1,0,0:0:0:0:
116,112,59035,1,0,0:0:0:0:
284,264,59131,1,0,0:0:0:0:
248,104,59226,5,0,0:0:0:0:
180,328,59322,1,0,0:0:0:0:
48,208,59418,1,0,0:0:0:0:
328,152,59513,5,0,0:0:0:0:
80,304,59609,1,0,0:0:0:0:
80,112,59705,2,0,L|160:204,3,120.000004577637
208,8,60088,2,0,L|199:129,3,120.000004577637
232,192,60662,1,8,0:0:0:0:
376,176,60853,1,0,0:0:0:0:
360,144,60949,1,0,0:0:0:0:
332,124,61044,1,0,0:0:0:0:
296,116,61140,1,0,0:0:0:0:
264,128,61236,5,0,0:0:0:0:
240,156,61331,1,0,0:0:0:0:
224,188,61427,1,0,0:0:0:0:
192,200,61523,1,0,0:0:0:0:
60,116,61618,5,0,0:0:0:0:
92,96,61714,1,0,0:0:0:0:
128,96,61810,1,0,0:0:0:0:
160,116,61905,1,0,0:0:0:0:
380,144,62193,1,8,0:0:0:0:
428,56,62384,6,0,P|336:32|284:64,1,120.000004577637
80,56,62575,2,0,P|172:32|224:64,1,120.000004577637
256,136,62767,2,0,L|256:256,1,120.000004577637
428,328,62958,2,0,P|336:352|284:320,1,120.000004577637
80,328,63149,2,0,P|172:352|224:320,1,120.000004577637
256,248,63341,1,0,0:0:0:0:
256,248,63436,1,0,0:0:0:0:
256,160,63723,1,8,0:0:0:0:
408,128,63915,6,0,B|348:112|348:112|280:160,3,120.000004577637
236,188,64298,2,0,B|283:221|283:221|343:205,3,120.000004577637
96,60,64680,1,0,0:0:0:0:
156,192,64872,1,0,0:0:0:0:
228,68,65063,1,0,0:0:0:0:
292,196,65254,1,8,0:0:0:0:
376,76,65446,1,0,0:0:0:0:
428,212,65637,1,0,0:0:0:0:
396,296,65828,6,0,P|284:340|256:336,1,120.000004577637
287,340,66020,2,0,P|172:301|154:280,1,120.000004577637
244,256,66211,6,0,P|193:224|156:177,1,120.000004577637
156,177,66403,2,0,P|123:126|111:68,1,120.000004577637
112,64,66785,1,8,0:0:0:0:
184,68,66977,6,0,B|233:99|233:99|288:59|307:76,3,120.000004577637
292,156,67359,2,0,B|341:124|341:124|396:164|415:147,3,120.000004577637
356,220,67742,6,0,B|296:304|296:304|208:284,1,160
268,224,68029,1,0,0:0:0:0:
144,208,68125,6,0,B|120:152|120:152|176:92,1,120.000004577637,0|8,0:0|0:0,0:0:0:0:
200,168,68412,1,0,0:0:0:0:
220,224,68508,2,0,L|260:280,3,40
207,20,68890,6,0,P|274:89|256:184,1,200
116,282,69464,2,0,P|160:196|256:184,1,200
426,174,70038,2,0,P|343:223|256:184,1,200
344,152,70612,2,0,L|308:112,2,40
344,152,70995,5,8,0:0:0:0:
340,252,71187,1,0,0:0:0:0:
320,264,71282,1,0,0:0:0:0:
296,268,71378,1,0,0:0:0:0:
272,260,71474,1,0,0:0:0:0:
256,244,71569,1,0,0:0:0:0:
232,248,71665,1,0,0:0:0:0:
212,260,71761,1,0,0:0:0:0:
192,272,71856,1,0,0:0:0:0:
60,188,71952,6,0,B|80:124|80:124|140:92,1,120.000004577637
144,180,72143,2,0,B|124:244|124:244|64:276,1,120.000004577637
192,256,72335,2,0,B|212:192|212:192|272:160,1,120.000004577637
273,240,72526,2,0,B|320:216|320:216|340:152,1,120.000004577637
340,152,72909,1,8,0:0:0:0:
460,76,73100,5,0,0:0:0:0:
412,64,73196,1,0,0:0:0:0:
364,68,73292,1,0,0:0:0:0:
316,72,73387,1,0,0:0:0:0:
276,100,73483,1,0,0:0:0:0:
244,136,73579,1,0,0:0:0:0:
196,132,73674,1,0,0:0:0:0:
156,104,73770,1,0,0:0:0:0:
112,128,73866,1,0,0:0:0:0:
100,172,73961,1,0,0:0:0:0:
124,216,74057,1,0,0:0:0:0:
168,236,74153,1,0,0:0:0:0:
280,248,74440,6,0,B|336:236|336:236|392:168,1,120.000004577637,8|0,0:0|0:0,0:0:0:0:
296,176,74631,1,0,0:0:0:0:
180,88,74727,1,0,0:0:0:0:
160,216,74822,1,0,0:0:0:0:
216,160,74918,1,0,0:0:0:0:
284,104,75014,2,0,P|404:72|428:96,1,120.000004577637
348,132,75205,2,0,P|343:256|313:272,1,120.000004577637
304,188,75397,2,0,P|184:222|160:198,1,120.000004577637
236,168,75588,2,0,P|157:71|170:39,1,120.000004577637
160,96,75971,1,8,0:0:0:0:
248,56,76162,2,0,P|308:76|336:148,3,120.000004577637
244,133,76545,2,0,P|275:183|332:200,3,120.000004577637
256,192,76927,12,0,79224,0:0:0:0:
