osu file format v14

[General]
AudioFilename: audio.mp3
AudioLeadIn: 0
PreviewTime: 47381
Countdown: 0
SampleSet: Soft
StackLeniency: 0.8
Mode: 0
LetterboxInBreaks: 0
WidescreenStoryboard: 1

[Editor]
DistanceSpacing: 0.8
BeatDivisor: 4
GridSize: 32
TimelineZoom: 1.8

[Metadata]
Title:Where Our Blue Is (TV Size)
TitleUnicode:青のすみか (TV Size)
Artist:Tatsuya Kitani
ArtistUnicode:キタニタツヤ
Creator:AirinCat
Version:Farewell
Source:呪術廻戦 懐玉・玉折
Tags:jjk ao no sumika aono jujutsu kaisen second season 2 第2期 Sorcery Fight two opening japanese rock pop jrock jpop anime mappa Kaigyoku Gyokusetsu - hen Hidden Inventory Premature Death Arc Satoru Gojo past 五条 悟 gojou
BeatmapID:4221292
BeatmapSetID:2021316

[Difficulty]
HPDrainRate:5
CircleSize:4
OverallDifficulty:8.6
ApproachRate:9.4
SliderMultiplier:2.4
SliderTickRate:1

[Events]
//Background and Video events
0,0,"gojou.jpg",0,0
Video,-90,"gojo.mp4"
//Break Periods
2,3575,5979
//Storyboard Layer 0 (Background)
//Storyboard Layer 1 (Fail)
//Storyboard Layer 2 (Pass)
//Storyboard Layer 3 (Foreground)
//Storyboard Layer 4 (Overlay)
//Storyboard Sound Samples

[TimingPoints]
1895,394.736842105263,4,2,1,60,1,0
1895,-66.6666666666667,4,2,1,60,0,0
2191,-83.3333333333333,4,2,1,60,0,0
2487,-111.111111111111,4,2,1,60,0,0
2684,-83.3333333333333,4,2,1,60,0,0
6631,-66.6666666666667,4,2,1,60,0,0
9000,394.736842105263,4,2,1,40,1,0
9000,-200,4,2,1,40,0,0
18887,394.736842105263,4,2,1,60,1,8
18887,-200,4,2,1,40,0,0
19279,-166.666666666667,4,2,1,40,0,0
20071,392.156862745098,4,2,1,60,1,0
20071,-166.666666666667,4,2,1,40,0,0
21639,394.736842105263,4,2,1,60,1,0
21639,-250.000000000001,4,2,1,60,0,0
22025,-142.857142857143,4,2,3,50,0,0
24796,-125,4,2,3,50,0,0
33875,389.61038961039,4,2,3,50,1,0
33875,-125,4,2,3,50,0,0
34264,394.736842105263,4,2,1,60,1,0
34264,-142.857142857143,4,2,2,40,0,0
40579,-111.111111111111,4,2,1,60,0,0
44921,400,4,2,1,60,1,8
44921,-111.111111111111,4,2,1,60,0,0
45321,379.746835443038,4,3,1,60,1,0
45321,-90.9090909090908,4,2,1,60,0,0
45717,389.61038961039,4,2,1,60,1,8
45717,-166.666666666666,4,2,1,60,0,0
46204,-125,4,2,1,30,0,0
46885,397.350993377483,4,2,1,60,1,0
46885,-125,4,2,1,30,0,0
48474,393.44262295082,4,3,1,60,1,0
48474,-76.9230769230769,4,3,1,60,0,0
51621,396.039603960396,4,3,1,60,1,0
51621,-76.9230769230769,4,3,1,60,0,0
54789,394.736842105263,4,3,1,60,1,0
54789,-76.9230769230769,4,3,1,60,0,0
66423,400,4,3,1,60,1,0
66423,-76.9230769230769,4,3,1,60,0,0
67420,394.736842105263,4,3,1,60,1,0
67420,-76.9230769230769,4,3,1,60,0,0
70577,382.165605095541,4,3,1,60,1,0
70577,-76.9230769230769,4,3,1,60,0,0
71341,402.684563758389,4,3,1,60,1,0
71341,-76.9230769230769,4,3,1,60,0,0
71945,394.736842105263,4,3,1,60,1,0
71945,-76.9230769230769,4,3,1,60,0,0
72537,397.350993377483,4,3,1,60,1,0
72934,-166.666666666667,4,2,1,60,0,0
73531,-83.3333333333333,4,3,1,60,0,0
73730,419.58041958042,4,3,1,60,1,0
73730,-83.3333333333333,4,3,1,60,0,0
74149,390.879478827362,4,3,1,60,1,9
74149,-83.3333333333333,4,3,1,60,0,1
75321,390.879478827362,4,3,1,60,1,0
75321,-83.3333333333333,4,3,1,60,0,1
76884,394.736842105263,4,3,1,60,1,0
76884,-83.3333333333333,4,3,1,60,0,1
79844,-83.3333333333333,4,3,1,60,0,0
80436,-83.3333333333333,4,3,1,60,0,1
86160,-83.3333333333333,4,3,1,60,0,0
86259,-83.3333333333333,4,3,1,30,0,0

[Colours]
Combo1 : 252,207,207
Combo2 : 132,189,240

[HitObjects]
42,375,1895,6,0,P|7:296|56:224,1,180.000006866455,4|0,1:2|0:2,0:2:0:0:
88,139,2191,2,0,P|153:160|172:227,1,143.999995605469,0|0,1:2|0:2,0:2:0:0:
167,240,2487,2,0,P|148:240|165:236,1,53.9999983520508,0|0,1:2|0:2,0:2:0:0:
366,76,2684,6,0,P|404:88|440:97,1,71.9999978027344,12|0,0:2|1:2,0:2:0:0:
306,303,2881,2,0,L|268:212,1,71.9999978027344,12|0,0:2|1:2,0:2:0:0:
512,230,3079,2,0,L|484:308,1,71.9999978027344,12|0,0:2|1:2,0:2:0:0:
397,208,3276,1,10,0:1:0:0:
390,213,3375,1,0,1:2:0:0:
251,361,6533,5,0,1:2:0:0:
251,361,6631,2,0,B|251:273|212:269|211:168,1,180.000006866455,14|0,0:2|1:2,0:2:0:0:
65,113,6927,2,0,B|65:201|104:205|105:306,1,180.000006866455,14|0,0:2|0:2,0:2:0:0:
104,287,7223,2,0,P|55:297|19:315,1,90.0000034332277,8|0,0:3|1:2,0:2:0:0:
253,101,7421,5,8,0:3:0:0:
260,99,7519,2,4,P|311:109|370:138,1,90.0000034332277,4|4,0:3|0:3,0:3:0:0:
496,304,7717,1,4,0:3:0:0:
496,311,7816,2,4,P|454:299|402:281,1,90.0000034332277,4|4,0:3|0:3,0:3:0:0:
377,202,8013,1,12,0:2:0:0:
256,192,8210,12,4,9000,0:1:0:0:
150,211,9592,5,2,0:2:0:0:
148,360,9789,2,0,B|130:268|165:286|147:191,1,150,2|0,0:2|0:2,0:2:0:0:
87,168,10381,1,2,0:0:0:0:
32,181,10480,1,2,0:2:0:0:
21,230,10578,1,2,0:2:0:0:
271,345,11171,1,2,0:2:0:0:
191,372,11368,1,2,0:2:0:0:
142,287,11565,1,2,0:2:0:0:
225,241,11763,2,0,P|256:251|290:260,1,60,2|0,0:2|0:2,0:2:0:0:
500,340,12157,5,2,1:2:0:0:
500,340,12552,1,2,0:2:0:0:
383,384,12749,2,0,P|394:319|409:255,1,120,2|2,0:2|0:2,0:2:0:0:
512,208,13342,1,2,0:3:0:0:
409,261,13539,2,0,P|394:197|382:142,1,120,2|0,0:2|0:2,0:2:0:0:
461,26,14328,2,0,P|468:62|477:95,1,60,0|0,0:2|0:2,0:2:0:0:
292,224,14723,1,8,0:3:0:0:
205,103,14921,1,4,0:3:0:0:
316,100,15118,1,0,3:2:0:0:
128,262,15315,5,2,1:2:0:0:
128,262,15907,1,2,0:2:0:0:
27,181,16105,2,0,P|97:195|127:261,1,150,2|0,0:2|0:2,0:2:0:0:
120,352,16697,1,2,0:0:0:0:
66,347,16796,1,2,0:2:0:0:
44,298,16894,1,2,0:2:0:0:
397,104,17486,1,2,0:2:0:0:
416,119,17585,1,2,0:2:0:0:
398,132,17684,2,0,L|465:148,1,60,2|2,0:2|0:2,0:2:0:0:
465,238,18078,1,2,0:2:0:0:
284,116,18276,6,0,P|299:36|318:-24,1,120,2|0,0:2|0:2,0:2:0:0:
86,169,18887,2,0,P|44:181|-1:197,1,90,2|0,3:2|0:2,0:2:0:0:
0,196,19281,2,0,P|8:228|18:265,1,71.9999978027344,2|0,3:2|0:0,0:2:0:0:
92,288,19577,1,2,0:2:0:0:
173,203,19676,2,0,P|160:147|144:90,1,107.999996704102,2|0,3:2|0:2,0:2:0:0:
182,23,20071,5,2,1:2:0:0:
317,177,20267,1,2,0:2:0:0:
475,78,20463,1,2,1:2:0:0:
340,0,20659,2,0,P|331:42|322:84,1,71.9999978027344,2|0,0:2|1:2,0:2:0:0:
442,286,21051,2,0,P|453:242|464:210,1,71.9999978027344,2|0,0:2|1:2,0:2:0:0:
361,157,21443,5,0,3:2:0:0:
361,157,21541,1,0,3:2:0:0:
361,157,21639,2,0,B|324:166|324:166|306:178|306:178|253:199,1,96,2|4,0:1|1:2,0:2:0:0:
272,191,22231,5,2,0:2:0:0:
90,348,22428,2,0,P|146:289|141:205,1,167.999994873047,2|8,1:2|1:2,0:2:0:0:
7,16,23020,1,2,0:2:0:0:
7,16,23119,1,0,0:2:0:0:
7,16,23217,2,0,P|56:80|137:83,1,167.999994873047,2|8,1:2|1:2,0:2:0:0:
282,19,23810,1,0,3:2:0:0:
137,83,24007,5,2,1:2:0:0:
237,223,24204,1,0,3:2:0:0:
367,133,24402,1,10,1:2:0:0:
250,105,24599,1,0,3:2:0:0:
368,299,24796,6,0,P|424:308|520:354,1,144,2|0,1:2|0:2,0:2:0:0:
503,342,25191,1,10,1:2:0:0:
469,195,25389,1,2,3:2:0:0:
469,195,25487,1,0,3:2:0:0:
469,195,25586,1,0,1:2:0:0:
284,371,25783,2,0,P|255:328|258:283,1,96,2|8,0:2|1:2,0:2:0:0:
412,68,26178,5,2,3:2:0:0:
412,68,26277,1,0,3:2:0:0:
412,68,26375,1,2,1:2:0:0:
355,176,26573,1,0,3:2:0:0:
247,88,26770,2,0,P|202:106|156:116,1,96,8|0,1:2|0:2,0:2:0:0:
62,334,27165,1,2,1:2:0:0:
213,254,27362,1,2,3:2:0:0:
60,162,27560,1,10,1:2:0:0:
275,376,27757,5,2,3:2:0:0:
275,376,27856,1,0,3:2:0:0:
275,376,27954,2,0,P|333:303|322:210,1,192,2|8,1:2|1:2,0:2:0:0:
137,14,28546,2,0,P|147:60|158:114,1,96,2|0,0:2|1:2,0:2:0:0:
361,38,28941,1,2,3:2:0:0:
156,107,29138,1,10,1:2:0:0:
277,5,29336,5,2,3:2:0:0:
277,5,29435,1,0,3:2:0:0:
277,5,29533,2,0,P|349:26|470:65,1,192,2|8,1:2|1:2,0:2:0:0:
487,143,30125,1,2,0:2:0:0:
311,286,30323,2,0,P|253:212|270:121,1,192,0|8,1:2|1:2,0:2:0:0:
450,238,30915,2,0,P|433:294|425:345,1,96,2|0,3:2|1:2,0:0:0:0:
173,275,31310,1,0,3:2:0:0:
173,275,31408,1,0,3:0:0:0:
173,275,31507,1,8,1:2:0:0:
348,220,31704,5,2,0:2:0:0:
146,384,31902,2,0,P|120:273|90:188,1,192,2|8,1:2|1:2,0:2:0:0:
198,19,32494,1,0,3:2:0:0:
198,19,32592,1,0,3:2:0:0:
198,19,32691,2,0,P|216:75|226:114,1,96,0|0,1:2|0:2,0:2:0:0:
367,189,33086,2,0,P|410:168|457:157,1,96,10|0,1:2|3:2,0:0:0:0:
361,53,33481,5,2,1:2:0:0:
361,53,33678,1,0,3:2:0:0:
189,224,33875,1,10,1:2:0:0:
75,137,34069,1,0,3:2:0:0:
237,38,34264,6,0,P|278:133|284:220,2,167.999994873047,6|8|8,1:2|0:2|0:2,0:0:0:0:
243,43,35448,1,8,0:2:0:0:
243,43,35646,1,0,3:2:0:0:
164,79,35843,2,0,B|69:83|88:114|-3:128,1,167.999994873047,8|8,0:2|0:2,0:2:0:0:
15,38,36435,1,0,3:3:0:0:
102,223,36632,1,8,0:2:0:0:
13,209,36830,1,0,3:2:0:0:
97,123,37027,1,8,0:2:0:0:
283,251,37225,5,0,3:2:0:0:
283,251,37323,1,0,3:3:0:0:
283,251,37422,2,0,L|371:230,1,83.9999974365235,8|0,1:2|0:2,0:2:0:0:
256,2,37817,2,0,P|247:35|235:86,1,83.9999974365235,8|0,0:2|3:2,0:2:0:0:
294,136,38113,1,0,3:2:0:0:
364,108,38211,2,0,P|376:61|387:15,1,83.9999974365235,8|0,0:2|0:2,0:2:0:0:
155,64,38606,5,8,0:2:0:0:
369,195,38804,2,0,P|409:183|450:177,1,83.9999974365235,0|8,3:2|1:2,0:2:0:0:
136,151,39198,2,0,P|98:162|49:182,1,83.9999974365235,0|8,3:2|0:2,0:2:0:0:
216,380,39593,2,0,P|225:339|249:290,2,83.9999974365235,0|8|0,3:2|0:2|3:2,0:2:0:0:
237,36,40185,2,0,B|240:93|267:97|273:157,1,125.999996154785,10|0,0:2|0:2,0:2:0:0:
205,221,40579,5,4,1:1:0:0:
199,226,40974,2,0,P|146:219|113:178,1,107.999996704102,0|0,1:2|0:2,0:2:0:0:
361,28,41369,1,0,1:2:0:0:
474,153,41566,1,0,3:2:0:0:
310,254,41764,1,0,1:2:0:0:
345,149,41961,1,2,3:2:0:0:
345,149,42060,1,0,3:2:0:0:
345,149,42158,1,0,1:2:0:0:
408,308,42356,6,0,P|460:289|517:278,1,107.999996704102,2|0,0:2|1:2,0:2:0:0:
160,98,42750,2,0,P|113:117|47:127,1,107.999996704102,2|0,0:2|1:2,0:2:0:0:
227,384,43145,2,0,P|239:331|261:274,1,107.999996704102,2|0,0:2|1:2,0:2:0:0:
57,127,43540,5,0,1:2:0:0:
25,198,43639,1,0,1:2:0:0:
95,234,43737,2,0,B|202:214|178:170|294:157,1,215.999993408203,12|4,1:2|0:3,0:0:0:0:
304,280,44329,1,4,0:3:0:0:
149,119,44527,1,4,0:3:0:0:
373,53,44724,1,4,0:3:0:0:
143,361,44921,6,0,L|123:291,1,71.9999978027344,8|0,0:2|1:2,0:2:0:0:
210,180,45187,1,0,1:2:0:0:
219,259,45321,2,0,P|135:272|74:213,1,176.000005371094,4|0,0:3|1:2,0:2:0:0:
376,196,45717,6,0,B|441:198|442:225|512:238,1,143.999995605469,12|0,0:2|0:2,0:2:0:0:
466,143,46204,6,0,L|451:203,1,48,2|0,0:3|0:3,0:3:0:0:
333,288,46398,2,0,P|278:236|282:167,1,144,2|2,0:3|0:3,0:3:0:0:
236,335,46885,6,0,L|177:324,1,48,2|2,0:3|0:3,0:3:0:0:
290,155,47183,2,0,L|356:168,1,48,2|2,0:3|0:3,0:3:0:0:
150,293,48275,5,2,0:0:0:0:
150,293,48375,1,2,0:0:0:0:
150,293,48474,2,0,P|137:253|122:218,1,77.9999964294435,4|0,1:1|0:2,0:2:0:0:
334,60,48671,2,0,P|392:108|398:184,2,155.999992858887,2|8|2,0:2|0:2|0:2,0:2:0:0:
180,129,49162,1,0,0:2:0:0:
233,186,49260,2,0,P|272:167|305:157,1,77.9999964294435,0|0,1:2|0:2,0:2:0:0:
155,33,49457,6,0,P|85:63|65:136,1,155.999992858887,2|8,0:2|0:2,0:2:0:0:
321,367,49851,2,0,P|403:308|394:176,1,233.999989288331,2|0,0:2|0:0,0:2:0:0:
477,104,50244,2,0,P|494:140|510:179,1,77.9999964294435,0|0,0:2|0:0,0:0:0:0:
282,222,50441,1,10,0:1:0:0:
264,205,50539,1,2,0:2:0:0:
284,201,50637,2,0,P|301:236|319:283,1,77.9999964294435,2|0,0:2|0:0,0:0:0:0:
97,93,50834,2,0,P|112:55|125:21,1,77.9999964294435,2|0,1:2|0:2,0:2:0:0:
192,135,51031,1,2,0:2:0:0:
128,197,51129,2,0,P|53:189|13:125,1,155.999992858887,2|0,0:2|0:2,0:2:0:0:
270,47,51424,5,2,0:2:0:0:
270,47,51523,1,0,0:2:0:0:
270,47,51621,2,0,P|306:58|362:80,1,77.9999964294435,0|0,1:2|0:2,0:2:0:0:
512,166,51819,2,0,P|436:173|394:236,2,155.999992858887,2|8|2,0:2|0:2|0:2,0:2:0:0:
510,243,52314,1,0,0:2:0:0:
439,150,52413,2,0,P|426:113|426:75,1,77.9999964294435,0|0,1:2|0:2,0:2:0:0:
187,128,52611,6,0,P|225:193|300:204,1,155.999992858887,2|8,0:2|0:2,0:2:0:0:
0,383,53007,2,0,P|52:284|164:273,1,233.999989288331,2|0,0:2|0:0,0:2:0:0:
68,247,53403,2,0,P|76:209|80:171,1,77.9999964294435,0|0,0:2|0:0,0:0:0:0:
362,335,53601,1,10,0:1:0:0:
293,374,53700,1,2,0:2:0:0:
249,307,53799,2,2,P|261:270|267:225,1,77.9999964294435,2|2,0:2|0:2,0:2:0:0:
485,176,53997,1,0,1:2:0:0:
507,180,54096,1,8,0:3:0:0:
495,197,54195,2,8,P|455:205|415:216,1,77.9999964294435,8|8,0:3|0:3,0:3:0:0:
270,97,54393,5,2,1:2:0:0:
309,29,54492,1,4,0:3:0:0:
389,40,54591,1,4,0:3:0:0:
410,118,54690,1,4,0:3:0:0:
341,174,54789,6,0,B|262:163|265:127|191:121,1,155.999992858887,6|0,1:2|0:2,0:2:0:0:
114,148,55085,1,2,0:2:0:0:
134,352,55183,2,0,B|150:276|191:281|200:203,1,155.999992858887,10|0,0:2|0:2,0:2:0:0:
195,121,55479,1,2,0:2:0:0:
0,201,55578,2,0,B|68:204|82:254|154:268,1,155.999992858887,2|0,1:2|0:2,0:2:0:0:
429,7,55973,6,0,P|466:23|503:35,1,77.9999964294435,10|0,0:2|0:2,0:2:0:0:
428,283,56170,2,0,P|326:233|308:122,1,233.999989288331,2|0,0:2|0:0,0:2:0:0:
438,107,56565,2,0,P|422:141|409:189,1,77.9999964294435,0|0,0:2|0:0,0:0:0:0:
259,323,56763,2,0,P|184:309|143:245,1,155.999992858887,8|2,0:1|0:2,0:2:0:0:
215,208,57059,1,0,0:0:0:0:
166,338,57157,2,0,P|130:347|86:367,1,77.9999964294435,2|0,1:2|0:2,0:2:0:0:
72,202,57355,2,0,P|36:186|-1:174,1,77.9999964294435,2|0,0:2|0:2,0:0:0:0:
178,134,57552,2,0,P|190:97|199:55,1,77.9999964294435,10|0,0:2|0:2,0:2:0:0:
283,253,57749,2,0,P|319:266|356:278,1,77.9999964294435,2|0,0:2|0:2,0:2:0:0:
493,29,57947,6,0,P|406:21|361:77,1,155.999992858887,2|0,1:2|0:2,0:2:0:0:
448,109,58243,1,2,0:2:0:0:
270,58,58342,2,0,P|290:130|361:155,1,155.999992858887,10|0,0:2|0:2,0:2:0:0:
367,78,58638,1,2,0:2:0:0:
215,161,58736,2,0,B|201:232|172:226|157:305,1,155.999992858887,2|0,1:2|0:2,0:2:0:0:
211,362,59032,1,0,0:0:0:0:
86,376,59131,2,0,P|69:338|67:294,1,77.9999964294435,10|0,0:1|0:2,0:2:0:0:
472,183,59328,5,12,0:1:0:0:
472,183,59723,2,4,P|488:222|500:267,1,77.9999964294435,4|4,0:3|0:3,0:3:0:0:
283,343,59921,1,8,1:2:0:0:
260,294,60019,1,0,1:2:0:0:
282,245,60118,1,8,0:3:0:0:
330,224,60217,1,0,1:2:0:0:
379,239,60315,2,0,P|391:275|403:328,1,77.9999964294435,0|10,1:2|0:3,0:0:0:0:
277,98,60513,2,0,P|286:59|297:23,1,77.9999964294435,10|10,0:3|0:3,0:0:0:0:
38,149,60710,5,2,1:3:0:0:
103,193,60809,1,6,0:3:0:0:
174,160,60907,1,6,0:3:0:0:
182,81,61006,1,4,0:3:0:0:
113,37,61105,6,0,P|66:53|34:62,1,77.9999964294435,4|0,1:1|0:2,0:2:0:0:
186,314,61302,2,0,B|194:244|245:235|254:176,1,155.999992858887,2|10,0:2|0:2,0:2:0:0:
464,40,61697,1,2,0:2:0:0:
480,26,61796,1,0,0:2:0:0:
482,44,61894,2,0,P|496:85|509:118,1,77.9999964294435,0|0,1:2|0:2,0:2:0:0:
360,212,62092,2,0,P|348:173|333:136,1,77.9999964294435,2|0,0:2|0:2,0:2:0:0:
512,259,62289,2,0,P|494:294|479:337,1,77.9999964294435,10|0,0:2|0:2,0:2:0:0:
246,261,62486,6,0,P|119:270|64:364,1,233.999989288331,2|0,0:2|0:0,0:2:0:0:
0,155,62881,2,0,P|37:164|83:180,1,77.9999964294435,2|2,0:2|0:2,0:2:0:0:
312,113,63078,1,10,0:2:0:0:
306,64,63177,1,2,0:2:0:0:
268,34,63276,1,2,0:2:0:0:
217,34,63374,1,2,0:2:0:0:
176,63,63473,2,0,P|170:105|158:148,1,77.9999964294435,2|0,1:2|0:2,0:2:0:0:
327,333,63671,2,0,P|335:297|351:254,1,77.9999964294435,2|0,0:2|0:2,0:2:0:0:
140,295,63868,2,0,P|101:279|56:269,1,77.9999964294435,10|0,0:2|0:2,0:2:0:0:
385,100,64065,6,0,P|452:126|548:151,2,155.999992858887,2|0|2,0:2|1:2|0:2,0:2:0:0:
398,189,64559,1,0,0:2:0:0:
469,101,64657,2,0,P|457:59|454:24,1,77.9999964294435,10|0,0:2|0:2,0:2:0:0:
155,90,64855,2,0,P|200:150|276:157,1,155.999992858887,2|0,0:2|1:2,0:2:0:0:
270,79,65151,1,0,0:2:0:0:
180,174,65249,2,0,P|193:216|201:257,1,77.9999964294435,2|0,0:2|0:2,0:2:0:0:
397,379,65447,2,0,P|412:328|436:292,1,77.9999964294435,10|0,0:2|0:2,0:2:0:0:
296,243,65644,6,0,B|164:261|191:320|89:345,1,233.999989288331,2|0,0:2|0:2,0:2:0:0:
0,208,66039,2,0,P|33:220|89:236,1,77.9999964294435,2|0,0:2|0:2,0:2:0:0:
262,366,66236,5,10,1:1:0:0:
364,166,66423,5,12,0:2:0:0:
303,118,66523,1,2,0:2:0:0:
235,153,66623,2,0,P|216:199|212:240,1,77.9999964294435,2|8,1:2|0:2,0:2:0:0:
464,348,66823,2,0,P|478:311|483:273,1,77.9999964294435,10|8,0:3|0:3,0:2:0:0:
357,279,67023,5,4,0:3:0:0:
357,279,67223,6,0,P|311:287|265:299,1,77.9999964294435,12|0,0:2|0:2,0:2:0:0:
102,220,67421,2,0,P|58:157|74:83,1,155.999992858887,2|0,1:2|0:2,0:2:0:0:
131,18,67717,1,2,0:2:0:0:
305,80,67815,2,0,B|231:85|232:118|158:132,1,155.999992858887,10|0,0:2|0:2,0:2:0:0:
156,123,68111,1,2,0:2:0:0:
295,166,68210,2,0,P|347:181|378:198,1,77.9999964294435,2|8,1:2|0:2,0:2:0:0:
440,30,68407,1,0,0:2:0:0:
440,30,68605,6,0,P|397:23|358:5,1,77.9999964294435,10|0,1:2|0:2,0:2:0:0:
283,298,68802,2,0,P|398:284|452:186,1,233.999989288331,6|0,0:2|0:2,0:2:0:0:
233,80,69197,2,0,B|151:103|169:106|88:136,2,155.999992858887,2|8|2,0:2|0:2|0:2,0:2:0:0:
236,160,69690,1,0,0:2:0:0:
146,88,69789,6,0,P|134:50|124:13,1,77.9999964294435,2|0,1:2|0:2,0:2:0:0:
215,262,69986,2,0,P|230:299|240:336,1,77.9999964294435,2|0,0:2|0:2,0:2:0:0:
310,131,70184,2,0,P|347:118|383:105,1,77.9999964294435,10|0,0:2|0:2,0:2:0:0:
118,214,70381,2,0,P|81:228|45:241,1,77.9999964294435,2|0,0:1|0:2,0:2:0:0:
434,350,70577,5,12,1:1:0:0:
476,286,70672,1,4,0:3:0:0:
449,216,70768,1,4,0:3:0:0:
378,187,70863,1,4,0:3:0:0:
307,217,70959,1,8,0:3:0:0:
305,293,71054,1,8,0:3:0:0:
313,298,71150,2,8,P|355:283|387:275,1,77.9999964294435,8|8,0:3|0:3,0:3:0:0:
210,126,71341,6,0,P|134:121|86:63,1,155.999992858887,14|0,0:2|0:3,0:2:0:0:
156,34,71643,1,4,0:3:0:0:
127,167,71743,2,0,P|88:179|52:201,1,77.9999964294435,4|0,0:3|1:2,0:2:0:0:
344,48,71945,6,0,P|455:56|509:155,1,233.999989288331,12|0,0:1|0:2,0:2:0:0:
381,351,72339,1,4,0:3:0:0:
381,351,72438,1,4,0:3:0:0:
381,351,72537,1,12,0:2:0:0:
381,351,72934,6,2,P|346:243|405:201,1,179.999994506836,2|0,0:1|0:2,0:1:0:0:
389,213,73531,6,0,P|427:229|474:244,1,71.9999978027344,6|0,1:1|0:2,0:2:0:0:
315,17,73730,2,0,P|254:56|244:127,1,143.999995605469,2|0,0:2|1:2,0:2:0:0:
321,143,74044,1,0,1:2:0:0:
206,246,74149,6,0,P|121:184|126:78,1,215.999993408203,12|0,0:2|0:2,0:2:0:0:
403,0,74539,2,0,P|417:66|439:149,1,143.999995605469,0|0,1:2|0:2,0:2:0:0:
385,205,74833,1,0,0:2:0:0:
443,260,74930,2,0,P|483:247|535:238,1,71.9999978027344,10|0,0:2|0:2,0:2:0:0:
182,135,75126,6,0,P|111:157|34:169,2,143.999995605469,2|0|0,0:2|1:2|1:2,0:2:0:0:
221,207,75614,1,0,1:2:0:0:
321,136,75712,2,0,B|301:68|326:54|305:-12,1,143.999995605469,10|0,0:1|0:2,0:2:0:0:
182,306,76103,2,0,P|192:335|198:393,1,71.9999978027344,2|0,1:2|0:2,0:2:0:0:
314,234,76298,2,0,P|352:250|400:263,1,71.9999978027344,2|0,0:2|0:2,0:2:0:0:
71,221,76494,2,0,P|30:241|-8:253,1,71.9999978027344,10|0,0:2|0:2,0:2:0:0:
235,94,76689,5,2,0:2:0:0:
204,164,76787,1,2,0:2:0:0:
132,137,76885,2,0,P|95:78|107:8,1,143.999995605469,0|0,1:2|0:2,0:2:0:0:
328,106,77180,1,2,0:2:0:0:
397,69,77278,2,0,P|407:28|418:-13,1,71.9999978027344,10|0,1:2|0:2,0:2:0:0:
286,190,77476,6,0,B|280:256|316:278|313:330,1,143.999995605469,2|0,0:2|1:2,0:2:0:0:
386,383,77772,1,0,0:2:0:0:
471,275,77870,2,0,P|436:284|401:291,1,71.9999978027344,2|0,0:2|0:2,0:2:0:0:
149,365,78068,2,0,P|184:356|219:351,1,71.9999978027344,10|0,0:2|0:2,0:2:0:0:
226,137,78265,6,0,B|217:62|195:73|183:-12,1,143.999995605469,2|0,0:2|1:2,0:2:0:0:
64,254,78660,2,0,P|101:260|140:277,1,71.9999978027344,2|0,0:1|0:2,0:2:0:0:
478,187,78857,2,0,P|425:141|355:144,1,143.999995605469,10|0,0:1|1:2,0:2:0:0:
302,198,79153,1,0,1:2:0:0:
354,144,79252,2,0,P|362:109|364:70,1,71.9999978027344,4|0,0:3|0:2,0:2:0:0:
77,349,79449,5,10,1:1:0:0:
153,371,79548,1,10,1:1:0:0:
218,327,79647,1,10,1:1:0:0:
231,248,79745,1,10,1:1:0:0:
174,198,79844,1,14,1:1:0:0:
174,198,80239,6,0,L|91:219,1,71.9999978027344,2|0,0:2|0:2,0:2:0:0:
14,18,80436,2,0,P|120:11|193:102,1,215.999993408203,14|0,0:2|0:2,0:2:0:0:
323,0,80831,2,0,P|295:119|278:221,1,215.999993408203,2|0,1:2|0:2,0:2:0:0:
423,369,81226,2,0,P|427:333|438:299,1,71.9999978027344,10|0,0:2|0:2,0:2:0:0:
151,332,81423,2,0,P|230:352|300:382,2,143.999995605469,2|0|2,0:2|1:2|0:2,0:2:0:0:
295,113,81916,5,2,0:2:0:0:
295,113,82015,2,0,P|354:152|360:225,1,143.999995605469,10|0,0:1|0:2,0:2:0:0:
310,285,82311,1,0,0:2:0:0:
444,174,82410,2,0,P|477:187|512:195,1,71.9999978027344,2|0,1:2|0:2,0:2:0:0:
310,285,82607,2,0,P|242:259|171:244,1,143.999995605469,2|8,0:2|0:2,0:2:0:0:
17,159,82903,1,0,0:2:0:0:
46,240,83002,6,0,P|109:141|64:44,1,215.999993408203,6|0,0:2|0:0,0:2:0:0:
77,56,83397,2,0,P|121:43|155:32,1,71.9999978027344,2|0,0:2|0:2,0:2:0:0:
419,21,83594,2,0,P|314:26|268:126,1,215.999993408203,10|2,0:2|0:2,0:2:0:0:
408,282,83988,1,10,1:2:0:0:
434,285,84087,1,8,0:2:0:0:
474,270,84186,1,8,0:2:0:0:
505,226,84285,1,8,0:2:0:0:
486,151,84383,1,10,0:2:0:0:
418,114,84482,1,8,0:2:0:0:
345,145,84581,5,4,1:2:0:0:
345,145,84975,5,4,0:3:0:0:
179,345,85173,1,4,0:3:0:0:
79,100,85370,1,4,0:3:0:0:
352,296,85568,6,8,L|426:315,1,71.9999978027344,10|10,0:3|0:3,0:3:0:0:
69,237,85765,2,8,L|-23:209,1,71.9999978027344,10|10,0:3|0:3,0:3:0:0:
267,34,86160,5,4,1:1:0:0:
256,192,86259,12,0,88726,0:2:0:0:
