osu file format v14

[General]
AudioFilename: audio.mp3
AudioLeadIn: 0
PreviewTime: 47381
Countdown: 0
SampleSet: Drum
StackLeniency: 0.7
Mode: 0
LetterboxInBreaks: 0
WidescreenStoryboard: 0

[Editor]
DistanceSpacing: 0.8
BeatDivisor: 6
GridSize: 16
TimelineZoom: 1.5

[Metadata]
Title:Where Our Blue Is (TV Size)
TitleUnicode:青のすみか (TV Size)
Artist:Tatsuya Kitani
ArtistUnicode:キタニタツヤ
Creator:AirinCat
Version:Extra
Source:呪術廻戦 懐玉・玉折
Tags:jjk ao no sumika aono jujutsu kaisen second season 2 第2期 Sorcery Fight two opening japanese rock pop jrock jpop anime mappa Kaigyoku Gyokusetsu - hen Hidden Inventory Premature Death Arc Satoru Gojo past 五条 悟 gojou
BeatmapID:4209531
BeatmapSetID:2021316

[Difficulty]
HPDrainRate:5
CircleSize:4
OverallDifficulty:8.4
ApproachRate:9.2
SliderMultiplier:2.4
SliderTickRate:1

[Events]
//Background and Video events
0,0,"gojou.jpg",0,0
Video,-90,"gojo.mp4"
//Break Periods
2,3575,5933
//Storyboard Layer 0 (Background)
//Storyboard Layer 1 (Fail)
//Storyboard Layer 2 (Pass)
//Storyboard Layer 3 (Foreground)
//Storyboard Layer 4 (Overlay)
//Storyboard Sound Samples

[TimingPoints]
1895,394.736842105263,4,2,1,60,1,0
1895,-66.6666666666667,4,2,1,60,0,0
2191,-83.3333333333333,4,2,1,60,0,0
2487,-111.111111111111,4,2,1,60,0,0
2684,-83.3333333333333,4,2,1,60,0,0
6631,-66.6666666666667,4,2,1,60,0,0
9000,394.736842105263,4,2,1,40,1,0
9000,-200,4,2,1,40,0,0
9789,-200,4,2,1,40,0,0
18887,394.736842105263,4,2,1,40,1,8
18887,-200,4,2,1,40,0,0
19281,-166.666666666667,4,2,1,40,0,0
20071,392.156862745098,4,2,1,40,1,0
20071,-166.666666666667,4,2,1,40,0,0
21639,394.736842105263,4,2,1,60,1,0
21639,-250.000000000001,4,2,1,60,0,0
22019,-142.857142857143,4,2,3,50,0,0
24796,-125,4,2,3,50,0,0
33875,389.61038961039,4,2,3,50,1,0
33875,-125,4,2,3,50,0,0
34264,394.736842105263,4,2,2,40,1,0
34264,-142.857142857143,4,2,2,40,0,0
35053,-142.857142857143,4,2,2,40,0,0
40579,-111.111111111111,4,2,1,60,0,0
44921,400,4,2,1,60,1,8
44921,-111.111111111111,4,2,1,60,0,0
45321,379.746835443038,4,2,1,60,1,0
45321,-111.111111111111,4,2,1,60,0,0
45717,389.61038961039,4,2,1,60,1,8
45717,-166.666666666666,4,2,1,60,0,0
46204,-125,4,2,1,30,0,0
46885,397.350993377483,4,2,1,30,1,0
46885,-125,4,2,1,30,0,0
48474,393.44262295082,4,3,1,60,1,0
48474,-83.3333333333333,4,3,1,60,0,0
48670,-83.3333333333333,4,3,1,60,0,0
51621,396.039603960396,4,3,1,60,1,0
51621,-83.3333333333333,4,3,1,60,0,0
54789,394.736842105263,4,3,1,60,1,0
54789,-83.3333333333333,4,3,1,60,0,0
55183,-83.3333333333333,4,3,1,60,0,0
66423,400,4,3,1,60,1,0
66423,-83.3333333333333,4,3,1,60,0,0
67420,394.736842105263,4,3,1,60,1,0
67420,-83.3333333333333,4,3,1,60,0,0
67814,-83.3333333333333,4,3,1,60,0,0
70577,382.165605095541,4,3,1,60,1,0
70577,-83.3333333333333,4,3,1,60,0,0
71341,402.684563758389,4,3,1,60,1,0
71341,-83.3333333333333,4,3,1,60,0,0
71945,394.736842105263,4,3,1,60,1,0
71945,-83.3333333333333,4,3,1,60,0,0
72537,397.350993377483,4,3,1,60,1,0
72934,-166.666666666667,4,2,1,60,0,0
73531,-90.909090909091,4,3,1,60,0,0
73730,419.58041958042,4,3,1,60,1,0
73730,-90.909090909091,4,3,1,60,0,0
74149,390.879478827362,4,3,1,60,1,9
74149,-90.909090909091,4,3,1,60,0,1
74539,-90.909090909091,4,3,1,60,0,1
75321,390.879478827362,4,3,1,60,1,1
75321,-90.909090909091,4,3,1,60,0,1
76884,394.736842105263,4,3,1,60,1,1
76884,-90.909090909091,4,3,1,60,0,1
79844,-90.909090909091,4,3,1,60,0,0
80436,-90.909090909091,4,3,1,60,0,1
86160,-90.909090909091,4,3,1,60,0,0
86259,-90.909090909091,4,3,1,30,0,0

[Colours]
Combo1 : 252,207,207
Combo2 : 132,189,240

[HitObjects]
109,356,1895,6,0,B|91:255|48:289|36:193,1,180.000006866455,4|0,1:2|0:2,0:2:0:0:
60,109,2191,2,0,P|122:138|130:207,1,143.999995605469,0|0,1:2|0:2,0:2:0:0:
53,280,2487,2,0,P|20:285|-3:298,1,53.9999983520508,0|0,1:2|0:2,0:2:0:0:
297,186,2684,6,0,P|335:198|369:209,1,71.9999978027344,12|0,0:2|1:2,0:2:0:0:
496,142,2881,2,0,P|474:170|453:199,1,71.9999978027344,12|0,0:2|1:2,0:2:0:0:
484,340,3079,2,0,P|465:306|448:277,1,71.9999978027344,12|0,0:2|1:2,0:2:0:0:
372,286,3276,1,10,0:1:0:0:
365,291,3375,1,0,1:2:0:0:
267,378,6533,5,0,1:2:0:0:
267,378,6631,2,0,P|225:297|138:290,1,180.000006866455,14|0,0:2|1:2,0:2:0:0:
38,286,6927,2,0,P|120:279|168:201,1,180.000006866455,14|0,0:2|0:2,0:2:0:0:
245,121,7223,2,0,P|259:162|272:214,1,90.0000034332277,8|0,0:3|1:2,0:2:0:0:
404,342,7421,1,8,0:3:0:0:
412,347,7519,2,4,P|425:295|434:254,1,90.0000034332277,4|4,0:3|0:3,0:3:0:0:
459,116,7717,1,4,0:3:0:0:
459,109,7816,2,4,P|417:121|365:139,1,90.0000034332277,4|4,0:3|0:3,0:3:0:0:
361,226,8013,5,12,0:2:0:0:
256,192,8210,12,4,9000,0:1:0:0:
9,262,9592,5,2,0:2:0:0:
186,297,9789,2,0,P|99:288|45:355,1,180,2|2,0:2|0:2,0:2:0:0:
54,359,10480,1,2,0:2:0:0:
63,359,10578,1,2,0:2:0:0:
199,168,11171,1,2,0:2:0:0:
123,141,11368,2,0,P|115:108|105:71,1,60,2|0,0:2|0:2,0:2:0:0:
223,39,11763,2,0,P|231:73|242:104,1,60,2|0,0:2|0:2,0:2:0:0:
474,255,12157,5,2,1:2:0:0:
474,255,12552,1,2,0:2:0:0:
508,174,12749,2,0,P|500:115|481:45,1,120,2|2,0:2|0:2,0:2:0:0:
417,22,13342,1,2,0:3:0:0:
359,75,13539,2,0,P|300:89|241:100,1,120,2|0,0:2|0:2,0:2:0:0:
241,100,14328,2,0,P|248:136|257:169,1,60,0|0,0:2|0:2,0:2:0:0:
112,252,14723,1,8,0:3:0:0:
196,329,14921,2,0,P|207:289|220:255,1,60,4|0,0:3|3:2,0:2:0:0:
0,73,15315,5,2,1:2:0:0:
0,73,15907,1,2,0:2:0:0:
240,113,16105,2,0,P|153:110|108:34,1,180,2|2,0:2|0:2,0:2:0:0:
117,32,16796,1,2,0:2:0:0:
126,29,16894,1,2,0:2:0:0:
68,261,17486,1,2,0:2:0:0:
68,261,17585,1,2,0:2:0:0:
68,261,17684,2,0,L|1:277,1,60,2|2,0:2|0:2,0:2:0:0:
36,174,18078,1,2,0:2:0:0:
154,294,18276,6,0,P|222:277|286:266,1,120,2|0,0:2|0:2,0:2:0:0:
438,97,18887,2,0,P|396:112|351:120,1,90,2|0,3:2|0:2,0:2:0:0:
339,116,19281,2,0,P|352:169|365:235,1,107.999996704102,2|0,3:2|0:2,0:2:0:0:
219,114,19676,2,0,P|208:61|199:7,1,107.999996704102,2|0,3:2|0:2,0:2:0:0:
206,4,20071,5,2,1:2:0:0:
295,41,20267,1,2,0:2:0:0:
127,152,20463,1,2,1:2:0:0:
204,216,20659,2,0,P|242:206|274:197,1,71.9999978027344,2|0,0:2|1:2,0:2:0:0:
310,300,21051,2,0,P|278:309|241:321,1,71.9999978027344,2|0,0:2|1:2,0:2:0:0:
387,123,21443,5,0,3:2:0:0:
387,123,21541,1,0,3:2:0:0:
387,123,21639,2,0,B|385:102|385:102|379:84|379:84|382:73|382:73|373:61|373:61|374:45,1,72,2|0,0:1|0:2,0:2:0:0:
378,49,22033,6,0,P|427:39|470:40,1,83.9999974365235,4|0,1:2|0:2,0:2:0:0:
204,320,22429,2,0,P|139:269|127:188,1,167.999994873047,2|8,1:2|1:2,0:2:0:0:
211,94,23021,1,2,0:2:0:0:
211,94,23119,1,0,0:2:0:0:
211,94,23218,2,0,B|288:104|292:132|380:146,1,167.999994873047,2|8,1:2|1:2,0:2:0:0:
443,208,23810,1,0,3:2:0:0:
512,114,24007,1,2,1:2:0:0:
370,144,24205,1,0,3:2:0:0:
392,298,24402,1,10,1:2:0:0:
504,268,24600,1,0,3:2:0:0:
300,189,24796,6,0,P|229:202|163:230,1,144,2|0,1:2|0:2,0:2:0:0:
147,232,25192,2,0,P|100:220|57:199,1,96,10|2,1:2|3:2,0:2:0:0:
54,180,25488,1,0,3:2:0:0:
67,177,25586,1,0,1:2:0:0:
21,357,25784,2,0,P|14:308|1:254,1,96,2|8,0:2|1:2,0:2:0:0:
232,103,26179,5,2,3:2:0:0:
232,103,26277,1,0,3:2:0:0:
232,103,26376,2,0,P|241:163|253:215,1,96,2|0,1:2|0:2,0:2:0:0:
439,322,26771,2,0,P|425:272|417:222,1,96,8|0,1:2|0:2,0:2:0:0:
201,307,27165,1,2,1:2:0:0:
301,347,27363,1,2,3:2:0:0:
248,197,27560,1,10,1:2:0:0:
56,313,27757,5,2,3:2:0:0:
56,313,27856,1,0,3:2:0:0:
56,313,27955,2,0,P|32:219|26:124,1,192,2|8,1:2|1:2,0:2:0:0:
219,2,28547,2,0,P|229:48|231:96,1,96,2|0,0:2|1:2,0:2:0:0:
135,186,28942,1,2,3:2:0:0:
231,96,29139,1,10,1:2:0:0:
348,242,29336,5,2,3:2:0:0:
348,242,29435,1,0,3:2:0:0:
348,242,29534,2,0,P|431:221|470:112,1,192,2|8,1:2|1:2,0:2:0:0:
376,74,30126,1,2,0:2:0:0:
253,182,30323,2,0,P|267:276|278:374,1,192,0|8,1:2|1:2,0:2:0:0:
85,383,30915,5,2,3:2:0:0:
85,383,31014,1,0,3:2:0:0:
85,383,31113,2,0,P|77:328|69:277,1,96,0|0,1:2|0:2,0:2:0:0:
354,294,31507,1,8,1:2:0:0:
277,372,31705,5,2,0:2:0:0:
179,248,31902,2,0,P|198:169|302:128,1,192,2|8,1:2|1:2,0:2:0:0:
409,143,32494,1,0,3:2:0:0:
409,143,32593,1,0,3:2:0:0:
409,143,32692,2,0,P|466:129|507:120,1,96,0|0,1:2|0:2,0:2:0:0:
412,44,33086,1,10,1:2:0:0:
269,208,33284,5,0,3:2:0:0:
182,109,33481,1,2,1:2:0:0:
281,104,33679,1,0,3:2:0:0:
164,261,33875,1,10,1:2:0:0:
94,168,34069,1,0,3:2:0:0:
342,290,34264,5,6,1:2:0:0:
342,290,34658,1,8,0:2:0:0:
342,290,35053,2,0,P|393:299|436:312,1,83.9999974365235,8|0,0:2|0:2,0:2:0:0:
373,172,35448,1,8,0:2:0:0:
373,172,35645,1,0,3:2:0:0:
257,207,35842,2,0,P|207:141|210:59,1,167.999994873047,8|8,0:2|0:2,0:2:0:0:
280,8,36435,1,0,3:2:0:0:
338,74,36632,2,0,P|378:85|419:93,1,83.9999974365235,8|0,0:2|3:2,0:2:0:0:
445,14,37027,1,8,0:2:0:0:
229,148,37224,5,0,3:2:0:0:
229,148,37323,1,0,3:3:0:0:
229,148,37422,2,0,L|147:128,1,83.9999974365235,8|0,1:2|0:2,0:2:0:0:
277,373,37816,2,0,P|286:340|298:289,1,83.9999974365235,8|0,0:2|3:2,0:2:0:0:
373,246,38112,1,0,3:2:0:0:
384,248,38211,2,0,P|432:259|479:279,1,83.9999974365235,8|0,0:2|0:2,0:2:0:0:
376,360,38606,5,8,0:2:0:0:
203,236,38803,2,0,P|152:244|103:260,1,83.9999974365235,0|8,3:2|1:2,0:2:0:0:
279,89,39198,2,0,P|269:48|264:7,1,83.9999974365235,0|8,3:2|0:2,0:2:0:0:
0,43,39592,2,0,P|44:66|83:92,2,83.9999974365235,0|8|0,3:2|0:2|3:2,0:2:0:0:
248,2,40185,2,0,P|212:60|189:125,1,125.999996154785,10|0,0:2|0:2,0:2:0:0:
87,177,40579,5,4,1:1:0:0:
87,177,40974,2,0,P|137:194|184:221,1,107.999996704102,0|0,1:2|0:2,0:2:0:0:
431,75,41369,2,0,P|391:82|330:117,1,107.999996704102,0|0,1:2|0:2,0:2:0:0:
329,367,41764,2,0,P|320:313|304:262,1,107.999996704102,0|2,1:2|3:2,0:2:0:0:
290,260,42060,1,0,3:2:0:0:
284,269,42158,1,0,1:2:0:0:
408,297,42356,2,0,P|456:277|527:270,1,107.999996704102,2|0,0:2|1:2,0:2:0:0:
148,189,42750,2,0,P|101:212|38:219,1,107.999996704102,2|0,0:2|1:2,0:2:0:0:
255,0,43145,2,0,P|273:41|283:110,1,107.999996704102,2|0,0:2|1:2,0:2:0:0:
210,384,43540,5,0,1:2:0:0:
171,346,43639,1,0,1:2:0:0:
198,304,43737,1,12,1:2:0:0:
198,304,44132,5,4,0:3:0:0:
345,272,44329,1,4,0:3:0:0:
120,198,44527,1,4,0:3:0:0:
355,66,44724,1,4,0:3:0:0:
88,0,44921,6,0,L|104:70,1,71.9999978027344,8|0,0:2|1:2,0:2:0:0:
250,185,45187,1,0,1:2:0:0:
300,116,45321,2,0,P|233:100|175:139,1,143.999995605469,4|0,0:3|1:2,0:2:0:0:
0,261,45717,2,0,P|63:290|133:261,1,143.999995605469,12|0,0:2|0:2,0:2:0:0:
123,250,46204,6,0,L|110:296,1,48,2|0,0:3|0:3,0:3:0:0:
190,384,46398,2,0,B|197:312|220:310|228:225,1,144,2|2,0:3|0:3,0:3:0:0:
105,171,46885,6,0,L|59:187,1,48,2|2,0:3|0:3,0:3:0:0:
312,351,47183,2,0,L|374:335,1,48,2|2,0:3|0:3,0:3:0:0:
237,0,48474,6,0,P|230:38|219:72,1,71.9999978027344,4|0,1:1|0:2,0:2:0:0:
372,233,48670,2,0,P|427:188|427:111,1,143.999995605469,2|8,0:2|0:2,0:2:0:0:
74,232,49064,1,2,0:2:0:0:
74,232,49162,1,0,0:2:0:0:
74,232,49260,2,0,P|36:220|-2:208,1,71.9999978027344,0|0,1:2|0:2,0:2:0:0:
68,29,49457,2,0,P|131:67|142:140,1,143.999995605469,2|8,0:2|0:2,0:2:0:0:
314,384,49851,6,0,P|246:263|318:145,1,287.999991210938,2|0,0:2|0:2,0:2:0:0:
512,268,50441,2,0,L|371:308,1,143.999995605469,8|2,0:1|0:2,0:2:0:0:
195,86,50834,2,0,L|272:60,1,71.9999978027344,2|0,1:2|0:2,0:2:0:0:
494,125,51031,1,2,0:2:0:0:
494,125,51129,2,0,L|423:147,2,71.9999978027344,2|8|0,0:2|0:2|0:2,0:2:0:0:
363,12,51424,5,2,0:2:0:0:
363,12,51523,1,0,0:2:0:0:
363,12,51621,2,0,L|344:81,1,71.9999978027344,0|0,1:2|0:2,0:2:0:0:
375,265,51819,2,0,P|425:215|425:145,1,143.999995605469,2|8,0:2|0:2,0:2:0:0:
119,20,52215,1,2,0:2:0:0:
119,20,52314,1,0,0:2:0:0:
119,20,52413,2,0,P|126:54|137:106,1,71.9999978027344,0|0,1:2|0:2,0:2:0:0:
43,284,52611,2,0,P|-2:230|0:160,1,143.999995605469,2|8,0:2|0:2,0:2:0:0:
319,0,53007,6,0,P|419:95|398:232,1,287.999991210938,2|0,0:2|0:2,0:2:0:0:
121,378,53601,1,10,0:1:0:0:
121,378,53700,1,2,0:2:0:0:
121,378,53799,2,2,L|109:306,1,71.9999978027344,2|2,0:2|0:2,0:2:0:0:
268,262,53997,1,0,1:2:0:0:
268,262,54096,1,8,0:3:0:0:
268,262,54195,2,8,L|249:179,1,71.9999978027344,8|8,0:3|0:3,0:3:0:0:
118,19,54393,5,2,1:2:0:0:
82,57,54492,1,4,0:3:0:0:
79,111,54591,1,4,0:3:0:0:
111,154,54690,1,4,0:3:0:0:
167,171,54789,2,0,P|254:150|318:127,1,143.999995605469,6|0,1:2|0:2,0:2:0:0:
507,64,55085,1,2,0:2:0:0:
447,0,55183,2,0,P|425:68|412:139,1,143.999995605469,10|0,0:2|0:2,0:2:0:0:
316,335,55479,1,2,0:2:0:0:
400,359,55578,2,0,P|380:283|345:210,1,143.999995605469,2|0,1:2|0:2,0:2:0:0:
202,0,55973,6,0,P|195:35|181:89,1,71.9999978027344,10|0,0:2|0:2,0:2:0:0:
412,139,56170,2,0,P|276:116|194:226,1,287.999991210938,2|0,0:2|0:2,0:2:0:0:
291,384,56762,2,0,P|348:345|361:276,1,143.999995605469,8|2,0:1|0:2,0:2:0:0:
0,88,57157,2,0,P|13:120|28:165,1,71.9999978027344,2|0,1:2|0:2,0:2:0:0:
85,298,57354,1,2,0:2:0:0:
85,298,57453,1,0,0:2:0:0:
85,298,57552,2,0,P|95:253|106:212,1,71.9999978027344,10|0,0:2|0:2,0:2:0:0:
209,104,57749,2,0,P|164:121|117:133,1,71.9999978027344,2|0,0:2|0:2,0:2:0:0:
250,309,57946,6,0,B|330:323|324:343|386:353,1,143.999995605469,2|0,1:2|0:2,0:2:0:0:
512,161,58242,1,2,0:2:0:0:
458,104,58341,2,0,B|386:114|390:139|317:152,1,143.999995605469,10|0,0:2|0:2,0:2:0:0:
274,220,58637,1,2,0:2:0:0:
322,150,58736,2,0,P|383:183|388:262,1,143.999995605469,2|0,1:2|0:2,0:2:0:0:
160,358,59131,2,0,P|151:322|140:288,1,71.9999978027344,10|0,0:1|0:2,0:2:0:0:
141,0,59328,5,12,0:1:0:0:
141,0,59723,6,4,L|160:80,1,71.9999978027344,4|4,0:3|0:3,0:3:0:0:
81,188,59920,2,0,L|12:209,1,71.9999978027344,8|0,1:2|1:2,0:2:0:0:
271,271,60117,2,0,L|344:251,1,71.9999978027344,8|0,0:3|1:2,0:2:0:0:
247,148,60314,5,0,1:2:0:0:
192,167,60413,1,10,0:3:0:0:
158,213,60512,1,10,0:3:0:0:
151,269,60610,1,10,0:3:0:0:
172,322,60709,1,2,1:3:0:0:
215,359,60808,1,6,0:3:0:0:
270,373,60906,1,6,0:3:0:0:
326,359,61005,1,4,0:3:0:0:
360,321,61104,6,0,P|353:285|340:251,1,71.9999978027344,4|0,1:1|0:2,0:2:0:0:
466,91,61302,2,0,P|482:141|504:229,1,143.999995605469,2|10,0:2|0:2,0:2:0:0:
129,161,61696,1,2,0:2:0:0:
129,161,61795,1,0,0:2:0:0:
129,161,61893,2,0,P|164:151|195:133,1,71.9999978027344,0|0,1:2|0:2,0:2:0:0:
390,183,62091,2,0,P|355:174|322:158,1,71.9999978027344,2|0,0:2|0:2,0:2:0:0:
281,0,62289,2,0,P|270:34|263:69,1,71.9999978027344,10|0,0:2|0:2,0:2:0:0:
100,261,62486,6,0,P|13:155|61:20,1,287.999991210938,2|0,0:2|0:2,0:2:0:0:
248,171,63078,2,0,P|227:239|217:311,1,143.999995605469,8|0,0:1|0:2,0:2:0:0:
297,360,63374,1,0,0:2:0:0:
300,367,63473,2,0,P|336:373|370:383,1,71.9999978027344,2|0,1:2|0:2,0:2:0:0:
473,324,63671,2,0,P|478:288|489:254,1,71.9999978027344,2|0,0:2|0:2,0:2:0:0:
422,157,63868,2,0,P|386:150|352:140,1,71.9999978027344,10|0,0:2|0:2,0:2:0:0:
217,311,64065,6,0,P|145:320|80:349,1,143.999995605469,2|0,0:2|1:2,0:2:0:0:
199,22,64460,2,0,P|209:54|220:112,1,71.9999978027344,2|0,0:2|0:2,0:2:0:0:
84,132,64657,2,0,P|72:97|65:62,1,71.9999978027344,10|0,0:2|0:2,0:2:0:0:
322,85,64855,2,0,P|399:102|464:128,1,143.999995605469,2|0,0:2|1:2,0:2:0:0:
512,49,65151,1,0,0:2:0:0:
512,37,65249,2,0,P|474:30|439:16,1,71.9999978027344,2|0,0:2|0:2,0:2:0:0:
387,215,65447,2,0,P|433:230|474:249,1,71.9999978027344,10|0,0:2|0:2,0:2:0:0:
206,101,65644,6,0,P|112:164|119:269,1,215.999993408203,2|0,0:2|0:2,0:2:0:0:
197,367,66039,2,0,P|206:328|222:285,1,71.9999978027344,2|0,0:2|0:2,0:2:0:0:
87,130,66236,5,10,1:1:0:0:
331,25,66423,5,12,0:2:0:0:
340,15,66523,2,0,L|368:99,1,71.9999978027344,2|0,0:2|1:2,0:2:0:0:
231,219,66723,1,10,0:2:0:0:
220,207,66823,2,0,P|261:193|304:173,1,71.9999978027344,10|8,0:3|0:3,0:2:0:0:
467,210,67023,5,4,0:3:0:0:
467,210,67223,2,0,L|400:182,1,71.9999978027344,12|0,0:2|0:2,0:2:0:0:
235,5,67420,2,0,P|175:49|168:116,1,143.999995605469,2|0,1:2|0:2,0:2:0:0:
250,110,67716,1,2,0:2:0:0:
167,114,67814,2,0,P|121:167|128:236,1,143.999995605469,10|0,0:2|0:2,0:2:0:0:
197,296,68110,1,2,0:2:0:0:
128,236,68209,2,0,P|88:248|47:262,2,71.9999978027344,2|8|0,1:2|0:2|0:2,0:2:0:0:
328,0,68604,6,0,P|343:35|358:78,1,71.9999978027344,10|0,1:2|0:2,0:2:0:0:
351,264,68801,2,0,P|260:210|256:97,1,215.999993408203,6|0,0:2|0:2,0:2:0:0:
453,33,69196,2,0,P|509:85|509:155,1,143.999995605469,2|8,0:2|0:2,0:2:0:0:
232,365,69591,1,2,0:2:0:0:
232,365,69689,1,0,0:2:0:0:
232,365,69788,2,0,L|159:345,1,71.9999978027344,2|0,1:2|0:2,0:2:0:0:
39,249,69985,2,0,L|111:233,1,71.9999978027344,2|0,0:2|0:2,0:2:0:0:
208,87,70183,2,0,L|226:156,1,71.9999978027344,10|0,0:2|0:2,0:2:0:0:
405,343,70380,2,0,L|423:273,1,71.9999978027344,2|0,0:1|0:2,0:2:0:0:
325,72,70577,5,12,1:1:0:0:
327,124,70672,1,4,0:3:0:0:
362,157,70768,1,4,0:3:0:0:
413,168,70863,1,4,0:3:0:0:
458,143,70959,1,8,0:3:0:0:
477,95,71054,1,8,0:3:0:0:
469,48,71150,2,8,P|438:40|393:25,1,71.9999978027344,8|8,0:3|0:3,0:3:0:0:
226,156,71341,6,0,B|150:161|150:197|92:207,1,143.999995605469,14|0,0:2|0:3,0:2:0:0:
51,104,71643,1,4,0:3:0:0:
125,87,71743,2,0,P|139:126|151:169,1,71.9999978027344,4|0,0:3|1:2,0:2:0:0:
0,269,71945,6,0,B|92:266|89:338|188:356,1,215.999993408203,12|0,0:1|0:2,0:2:0:0:
423,225,72339,1,4,0:3:0:0:
423,225,72438,1,4,0:3:0:0:
423,225,72537,1,12,0:2:0:0:
422,224,72934,6,2,P|336:232|308:315,1,179.999994506836,2|0,0:1|0:2,0:1:0:0:
284,314,73531,6,0,L|355:336,1,66.0000020141602,6|0,1:1|0:2,0:2:0:0:
243,141,73730,2,0,P|165:126|102:117,1,132.00000402832,2|0,0:2|1:2,0:2:0:0:
40,143,74044,1,0,1:2:0:0:
69,223,74149,6,0,P|85:122|106:28,1,198.000006042481,12|0,0:2|0:2,0:2:0:0:
106,29,74539,2,0,L|43:12,1,66.0000020141602,0|0,1:2|0:2,0:2:0:0:
156,216,74735,1,0,0:2:0:0:
156,216,74833,1,0,0:2:0:0:
156,216,74930,2,0,L|227:231,1,66.0000020141602,10|0,0:2|0:2,0:2:0:0:
384,69,75126,6,0,P|444:86|522:97,1,132.00000402832,2|0,0:2|1:2,0:2:0:0:
363,376,75516,1,0,1:2:0:0:
363,376,75614,1,0,1:2:0:0:
363,376,75711,2,0,P|380:304|388:233,1,132.00000402832,10|0,0:1|0:2,0:2:0:0:
150,39,76102,2,0,P|147:75|140:108,1,66.0000020141602,2|0,1:2|0:2,0:2:0:0:
236,187,76298,2,0,P|229:223|226:253,1,66.0000020141602,2|0,0:2|0:2,0:2:0:0:
69,379,76493,2,0,P|76:339|81:311,1,66.0000020141602,10|0,0:2|0:2,0:2:0:0:
0,204,76689,5,2,0:2:0:0:
0,204,76786,1,2,0:2:0:0:
0,204,76884,2,0,P|71:226|130:232,1,132.00000402832,0|0,1:2|0:2,0:2:0:0:
338,108,77180,1,2,0:2:0:0:
338,108,77278,2,0,P|304:99|265:97,1,66.0000020141602,10|0,1:2|0:2,0:2:0:0:
398,322,77476,2,0,P|418:255|422:183,1,132.00000402832,2|0,0:2|1:2,0:2:0:0:
404,192,77772,1,0,0:2:0:0:
393,206,77870,2,0,P|437:210|470:219,1,66.0000020141602,2|0,0:2|0:2,0:2:0:0:
478,46,78068,2,0,P|445:41|407:36,1,66.0000020141602,10|0,0:2|0:2,0:2:0:0:
192,176,78265,6,0,P|126:168|60:150,1,132.00000402832,2|0,0:2|1:2,0:2:0:0:
304,0,78660,2,0,P|303:32|295:67,1,66.0000020141602,2|0,0:1|0:2,0:2:0:0:
279,344,78857,2,0,P|280:278|295:214,1,132.00000402832,10|0,0:1|1:2,0:2:0:0:
369,164,79153,1,0,1:2:0:0:
380,163,79252,2,0,P|419:170|444:175,1,66.0000020141602,4|0,0:3|0:2,0:2:0:0:
123,308,79449,5,10,1:1:0:0:
112,231,79548,1,10,1:1:0:0:
161,172,79647,1,10,1:1:0:0:
237,166,79745,1,10,1:1:0:0:
300,219,79844,1,14,1:1:0:0:
300,219,80239,6,0,P|291:254|288:293,1,66.0000020141602,2|0,0:2|0:2,0:2:0:0:
23,233,80436,2,0,P|45:129|54:27,1,198.000006042481,14|0,0:2|0:2,0:2:0:0:
187,96,80831,2,0,B|290:88|293:132|380:129,1,198.000006042481,2|0,1:2|0:2,0:2:0:0:
455,35,81226,2,0,P|412:31|384:25,1,66.0000020141602,10|0,0:2|0:2,0:2:0:0:
317,228,81423,2,0,P|392:239|453:259,1,132.00000402832,2|0,0:2|1:2,0:2:0:0:
145,0,81818,5,2,0:2:0:0:
145,0,81916,1,2,0:2:0:0:
145,0,82016,2,0,P|128:64|120:142,1,132.00000402832,10|0,0:1|0:2,0:2:0:0:
70,190,82312,1,0,0:2:0:0:
13,133,82411,2,0,P|21:94|23:55,1,66.0000020141602,2|0,1:2|0:2,0:2:0:0:
240,125,82608,2,0,P|225:187|219:266,1,132.00000402832,2|8,0:2|0:2,0:2:0:0:
157,316,82904,5,0,0:2:0:0:
145,326,83003,2,0,P|81:334|31:293,1,132.00000402832,6|0,0:2|1:2,0:2:0:0:
137,21,83397,2,0,P|150:58|158:87,1,66.0000020141602,2|0,0:2|0:2,0:2:0:0:
336,184,83595,2,0,P|404:176|446:123,1,132.00000402832,10|0,0:2|0:2,0:2:0:0:
417,8,83891,1,2,0:2:0:0:
348,35,83989,2,0,L|335:115,1,66.0000020141602,10|8,1:2|0:2,0:2:0:0:
496,262,84187,1,8,0:2:0:0:
496,262,84286,1,8,0:2:0:0:
496,262,84384,2,8,L|511:179,1,66.0000020141602,10|8,0:2|0:2,0:2:0:0:
228,78,84582,5,4,1:2:0:0:
228,78,84976,5,4,0:3:0:0:
395,224,85174,1,4,0:3:0:0:
150,344,85371,1,4,0:3:0:0:
341,90,85568,6,8,L|414:107,1,66.0000020141602,10|10,0:3|0:3,0:3:0:0:
118,248,85766,2,8,L|40:232,1,66.0000020141602,10|10,0:3|0:3,0:3:0:0:
209,0,86161,5,4,1:1:0:0:
256,192,86259,12,0,88726,0:2:0:0:
