osu file format v14

[General]
AudioFilename: audio.mp3
AudioLeadIn: 0
PreviewTime: 49589
Countdown: 0
SampleSet: Soft
StackLeniency: 0.7
Mode: 0
LetterboxInBreaks: 0
WidescreenStoryboard: 0

[Editor]
Bookmarks: 2026,14177,26329,38481,44557,49874,50633,74937,87089,90127
DistanceSpacing: 1
BeatDivisor: 4
GridSize: 32
TimelineZoom: 2.699999

[Metadata]
Title:Seija no Koushin (TV Size)
TitleUnicode:聖者の行進 (TV Size)
Artist:Tatsuya Kitani
ArtistUnicode:キタニタツヤ
Creator:LeomineXD
Version:Normal
Source:平穏世代の韋駄天達
Tags:appetible Heion Sedai no Idaten-tachi The Idaten Deities Know Only Peace When The Weak Go Marching In anime opening op version japanese pop jpop j-pop ハヤト Hayato イースリイ Easley ポーラ Paula
BeatmapID:3140738
BeatmapSetID:1536021

[Difficulty]
HPDrainRate:3.5
CircleSize:3.4
OverallDifficulty:3.5
ApproachRate:5.5
SliderMultiplier:1.4
SliderTickRate:1

[Events]
//Background and Video events
0,0,"Punto1.png",0,0
//Break Periods
2,38681,43432
//Storyboard Layer 0 (Background)
//Storyboard Layer 1 (Fail)
//Storyboard Layer 2 (Pass)
//Storyboard Layer 3 (Foreground)
//Storyboard Layer 4 (Overlay)
//Storyboard Sound Samples

[TimingPoints]
2026,379.746835443038,4,2,1,70,1,0
14177,-133.333333333333,4,2,1,60,0,0
25760,-133.333333333333,4,2,1,75,0,0
26329,-133.333333333333,4,2,1,70,0,0
38576,-133.333333333333,4,2,1,56,0,0
44557,-133.333333333333,4,2,1,60,0,0
46076,-133.333333333333,4,2,1,65,0,0
47595,-133.333333333333,4,2,1,70,0,0
49684,-133.333333333333,4,2,1,75,0,0
50633,-125,4,2,1,85,0,1
62026,-125,4,2,1,85,0,0
62785,-125,4,2,1,85,0,1
74937,-133.333333333333,4,2,1,78,0,0
87089,-133.333333333333,4,2,1,58,0,0

[Colours]
Combo1 : 255,155,106
Combo2 : 255,255,106
Combo3 : 255,106,255
Combo4 : 106,181,255

[HitObjects]
256,192,8101,12,0,13418,0:0:0:0:
57,53,14177,6,0,P|30:97|33:150,1,105.000004005432,0|0,1:0|1:0,0:0:0:0:
107,223,14937,2,0,L|210:198,1,105.000004005432,0|0,1:0|1:0,0:0:0:0:
283,123,15696,2,0,B|267:81|267:81|244:66|244:66|233:31,2,105.000004005432,0|0|2,1:0|1:0|1:2,0:0:0:0:
381,161,16836,1,0,1:0:0:0:
342,258,17215,6,0,P|370:295|369:356,1,105.000004005432,0|0,1:0|1:0,0:0:0:0:
267,328,17975,2,0,L|162:306,1,105.000004005432,0|0,1:0|1:0,0:0:0:0:
119,279,18544,1,2,0:0:0:0:
119,279,18734,2,0,P|68:292|14:301,2,105.000004005432,0|0|0,1:0|1:0|1:0,0:0:0:0:
207,221,19874,1,0,1:0:0:0:
149,133,20253,6,0,P|140:80|170:37,1,105.000004005432,0|0,1:0|1:0,0:0:0:0:
268,11,21013,2,0,L|370:41,1,105.000004005432,0|0,1:0|1:0,0:0:0:0:
465,82,21772,2,0,P|501:125|494:178,2,105.000004005432,0|0|2,1:0|1:0|1:2,0:0:0:0:
368,40,22912,1,0,1:0:0:0:
315,130,23291,6,0,L|209:159,1,105.000004005432,0|0,1:0|1:0,0:0:0:0:
142,80,24051,2,0,P|99:53|40:55,1,105.000004005432,0|0,1:0|1:0,0:0:0:0:
8,90,24620,1,2,0:0:0:0:
8,90,24810,2,0,L|26:199,2,105.000004005432,0|0|0,1:0|1:0|1:0,0:0:0:0:
99,37,25950,2,0,L|153:50,1,52.5000020027161,0|2,3:0|3:2,0:0:0:0:
196,73,26329,6,0,P|239:50|295:63,1,105.000004005432,4|8,1:2|0:0,0:0:0:0:
337,87,26899,1,0,0:0:0:0:
337,87,27089,2,0,L|443:63,1,105.000004005432,0|8,1:0|0:0,0:0:0:0:
465,165,27848,2,0,L|362:188,1,105.000004005432,0|8,1:0|0:0,0:0:0:0:
325,225,28418,1,0,0:0:0:0:
325,225,28608,2,0,P|285:196|228:203,1,105.000004005432,0|10,1:0|0:0,0:0:0:0:
127,212,29367,6,0,P|142:162|156:107,1,105.000004005432,0|8,1:0|0:0,0:0:0:0:
129,64,29937,1,0,0:0:0:0:
129,64,30127,2,0,P|85:91|29:78,1,105.000004005432,0|8,1:0|0:0,0:0:0:0:
2,181,30886,2,0,L|8:234,1,52.5000020027161,0|0,1:0|0:0,0:0:0:0:
53,260,31266,2,0,L|59:313,1,52.5000020027161,8|0,0:0|0:0,0:0:0:0:
108,331,31646,2,0,P|145:360|207:353,1,105.000004005432,0|8,1:0|0:0,0:0:0:0:
233,316,32215,1,2,0:0:0:0:
233,316,32405,6,0,P|293:328|342:341,1,105.000004005432,0|8,1:0|0:0,0:0:0:0:
434,303,33165,2,0,P|458:261|443:204,1,105.000004005432,0|8,1:0|0:0,0:0:0:0:
408,170,33734,1,0,0:0:0:0:
408,170,33924,2,0,L|428:63,1,105.000004005432,0|8,1:0|0:0,0:0:0:0:
324,45,34684,2,0,L|304:148,1,105.000004005432,0|10,1:0|0:0,0:0:0:0:
261,178,35253,1,2,0:0:0:0:
261,178,35443,6,0,P|209:187|166:150,1,105.000004005432,0|8,1:0|0:0,0:0:0:0:
95,82,36203,2,0,L|105:26,2,52.5000020027161,0|2|8,1:0|0:0|0:0,0:0:0:0:
57,119,36772,1,0,0:0:0:0:
57,119,36962,2,0,L|75:225,1,105.000004005432,0|8,1:0|0:0,0:0:0:0:
111,259,37532,1,0,0:0:0:0:
111,259,37722,2,0,P|137:269|166:265,1,52.5000020027161,0|2,1:0|0:0,0:0:0:0:
204,237,38101,2,0,P|229:232|254:240,1,52.5000020027161,8|2,0:0|1:2,0:0:0:0:
299,267,38481,5,4,1:2:0:0:
256,192,44557,12,0,49874,3:0:0:0:
26,57,50633,6,0,P|61:97|54:154,1,112,4|0,1:2|1:0,0:0:0:0:
15,192,51203,1,2,0:0:0:0:
15,192,51393,2,0,P|27:258|33:312,1,112,8|0,0:0|0:0,0:0:0:0:
71,342,51962,2,0,B|98:349|98:349|129:341,1,56,2|0,0:0|0:0,0:0:0:0:
176,317,52342,1,2,1:2:0:0:
176,317,52532,1,2,1:2:0:0:
284,343,52912,2,0,L|397:318,1,112,8|0,0:0|0:0,0:0:0:0:
480,231,53671,6,0,P|483:177|439:135,1,112,0|0,1:0|1:0,0:0:0:0:
405,97,54241,1,2,0:0:0:0:
405,97,54431,2,0,P|347:117|296:136,1,112,8|0,0:0|0:0,0:0:0:0:
249,111,55000,2,0,P|223:98|191:95,1,56,2|0,0:0|0:0,0:0:0:0:
143,75,55380,1,2,1:2:0:0:
143,75,55570,1,2,1:2:0:0:
59,158,55950,2,0,P|36:208|61:260,1,112,8|0,0:0|0:0,0:0:0:0:
136,336,56709,6,0,B|204:331|171:298|246:292,1,112,4|0,1:2|1:0,0:0:0:0:
283,324,57279,1,2,0:0:0:0:
283,324,57469,2,0,P|336:348|394:345,1,112,8|0,0:0|0:0,0:0:0:0:
468,267,58228,2,0,P|474:240|466:213,1,56,0|2,0:0|1:2,0:0:0:0:
426,173,58608,2,0,P|420:146|428:119,1,56,2|0,1:2|0:0,0:0:0:0:
445,65,58988,2,0,B|400:57|400:57|381:41|381:41|338:33,1,112,8|0,0:0|0:0,0:0:0:0:
284,42,59557,1,2,0:0:0:0:
284,42,59747,6,0,L|172:70,1,112,0|0,1:0|1:0,0:0:0:0:
205,177,60507,2,0,L|313:149,1,112,8|0,0:0|0:0,0:0:0:0:
368,159,61076,2,0,P|410:192|408:259,1,112,2|2,0:0|1:2,0:0:0:0:
378,291,61646,1,2,1:2:0:0:
280,346,62026,2,0,P|252:333|220:335,1,56,8|8,0:0|0:0,0:0:0:0:
179,362,62405,2,0,P|151:363|125:353,1,56,2|2,1:2|1:2,0:0:0:0:
106,300,62785,6,0,L|130:188,1,112,4|8,1:2|0:0,0:0:0:0:
83,88,63544,2,0,L|24:100,2,56,0|2|8,1:0|0:0|0:0,0:0:0:0:
125,51,64114,1,0,0:0:0:0:
125,51,64304,2,0,P|178:37|236:71,1,112,0|8,1:0|0:0,0:0:0:0:
327,110,65063,2,0,L|384:126,1,56,0|2,1:0|0:0,0:0:0:0:
430,151,65443,2,0,P|445:178|443:208,1,56,10|2,0:0|0:0,0:0:0:0:
411,247,65823,6,0,P|426:300|440:360,1,112,0|8,1:0|0:0,0:0:0:0:
332,320,66582,2,0,L|317:263,2,56,0|0|8,1:0|0:0|0:0,0:0:0:0:
292,359,67152,1,2,0:0:0:0:
292,359,67342,2,0,B|248:350|248:350|232:329|232:329|186:318,1,112,0|8,1:0|0:0,0:0:0:0:
85,285,68101,2,0,B|77:258|77:258|88:225,1,56,0|2,1:0|0:0,0:0:0:0:
117,185,68481,2,0,B|125:158|125:158|114:125,1,56,10|2,0:0|0:0,0:0:0:0:
87,83,68861,6,0,P|118:45|185:46,1,112,4|8,1:2|0:0,0:0:0:0:
225,72,69431,1,0,0:0:0:0:
225,72,69620,2,0,L|336:58,1,112,0|8,1:0|0:0,0:0:0:0:
444,86,70380,2,0,P|457:111|455:139,1,56,0|0,1:0|0:0,0:0:0:0:
411,173,70760,2,0,P|407:200|417:225,1,56,8|0,0:0|0:0,0:0:0:0:
449,272,71139,2,0,P|465:333|426:387,1,112,0|10,1:0|0:0,0:0:0:0:
387,380,71709,1,2,0:0:0:0:
387,380,71899,6,0,L|272:351,1,112,0|8,1:0|0:0,0:0:0:0:
237,313,72469,1,2,0:0:0:0:
237,313,72658,2,0,P|226:256|265:210,1,112,0|8,1:0|0:0,0:0:0:0:
315,121,73418,2,0,L|258:104,1,56,0|2,1:0|1:2,0:0:0:0:
213,66,73798,2,0,L|154:77,1,56,10|2,1:2|1:2,0:0:0:0:
111,106,74177,2,0,L|52:95,2,56,0|2|0,3:0|3:2|3:0,0:0:0:0:
185,180,74937,6,0,L|164:290,1,105.000004005432,4|8,3:2|3:2,0:0:0:0:
194,327,75507,1,0,0:0:0:0:
194,327,75696,2,0,P|217:339|251:340,1,52.5000020027161,0|2,3:0|0:0,0:0:0:0:
290,318,76076,1,8,3:2:0:0:
386,359,76456,6,0,P|439:370|485:337,1,105.000004005432,0|8,3:0|3:2,0:0:0:0:
508,243,77215,2,0,L|499:190,1,52.5000020027161,0|2,3:0|0:0,0:0:0:0:
461,153,77595,2,0,L|470:100,1,52.5000020027161,10|2,3:2|0:0,0:0:0:0:
454,50,77975,6,0,P|411:28|354:37,1,105.000004005432,0|8,3:0|3:2,0:0:0:0:
319,72,78544,1,2,0:0:0:0:
319,72,78734,2,0,L|210:94,1,105.000004005432,0|8,3:0|3:2,0:0:0:0:
121,138,79494,6,0,P|146:181|160:238,1,105.000004005432,0|8,3:0|3:2,0:0:0:0:
203,262,80063,1,2,0:0:0:0:
203,262,80253,2,0,P|215:286|214:315,1,52.5000020027161,2|0,3:2|0:0,0:0:0:0:
184,354,80633,1,10,3:2:0:0:
284,384,81013,6,0,L|390:357,1,105.000004005432,4|8,3:2|3:2,0:0:0:0:
422,320,81582,1,0,0:0:0:0:
422,320,81772,2,0,P|424:293|409:265,1,52.5000020027161,0|2,3:0|0:0,0:0:0:0:
376,232,82152,1,8,3:2:0:0:
301,157,82532,6,0,L|322:40,1,105.000004005432,0|8,3:0|3:2,0:0:0:0:
222,12,83291,2,0,L|163:22,1,52.5000020027161,0|2,3:0|0:0,0:0:0:0:
127,52,83671,2,0,L|68:62,1,52.5000020027161,10|2,3:2|0:0,0:0:0:0:
35,95,84051,6,0,P|8:143|14:193,1,105.000004005432,0|8,3:0|3:2,0:0:0:0:
50,228,84620,1,2,0:0:0:0:
50,228,84810,2,0,L|39:280,1,52.5000020027161,0|0,3:0|0:0,0:0:0:0:
68,323,85190,1,8,3:2:0:0:
167,289,85570,6,0,L|275:308,1,105.000004005432,0|8,3:0|3:2,0:0:0:0:
364,260,86329,2,0,L|347:202,1,52.5000020027161,0|10,3:0|0:0,0:0:0:0:
387,172,86709,2,0,L|398:112,1,52.5000020027161,10|8,0:0|0:0,0:0:0:0:
374,72,87089,6,0,P|340:44|278:49,1,105.000004005432,2|0,0:0|0:0,0:0:0:0:
238,76,87658,2,0,P|179:59|127:48,1,105.000004005432,2|0,0:0|0:0,0:0:0:0:
84,60,88228,1,2,0:0:0:0:
9,134,88608,1,0,0:0:0:0:
9,134,88798,2,0,B|23:173|23:173|16:197|16:197|30:235,1,105.000004005432,2|0,0:0|0:0,0:0:0:0:
74,260,89367,2,0,L|58:319,1,52.5000020027161,2|2,0:0|0:0,0:0:0:0:
32,355,89747,1,2,0:0:0:0:
32,355,89937,1,2,0:0:0:0:
