osu file format v14

[General]
AudioFilename: audio.mp3
AudioLeadIn: 0
PreviewTime: 54678
Countdown: 0
SampleSet: None
StackLeniency: 0.2
Mode: 0
LetterboxInBreaks: 0
WidescreenStoryboard: 1

[Editor]
Bookmarks: 10533,20481,39290,40533,45507,75352,85145,89497
DistanceSpacing: 0.3
BeatDivisor: 4
GridSize: 4
TimelineZoom: 1.6

[Metadata]
Title:Scar (TV Size)
TitleUnicode:スカー (TV Size)
Artist:Tatsuya Kitani
ArtistUnicode:キタニタツヤ
Creator:Bazz B
Version:Irohas' Insane
Source:BLEACH 千年血戦篇
Tags:-Mikan Mikan Bazz_B Cami Came1lia Irohas MugiwaraSekai Kudosu so0p soop aishiteiru- mnyui reform kujinn Gelidium thousand-year thousand year blood war TYBW opening op 1 anime japanese rock j-rock jrock ブリーチ
BeatmapID:3844701
BeatmapSetID:1868830

[Difficulty]
HPDrainRate:5
CircleSize:4.3
OverallDifficulty:7
ApproachRate:9
SliderMultiplier:1.55
SliderTickRate:1

[Events]
//Background and Video events
0,0,"bg.jpg",0,0
Video,-120,"vid.mp4"
//Break Periods
2,40733,44907
//Storyboard Layer 0 (Background)
//Storyboard Layer 1 (Fail)
//Storyboard Layer 2 (Pass)
//Storyboard Layer 3 (Foreground)
//Storyboard Layer 4 (Overlay)
//Storyboard Sound Samples

[TimingPoints]
741,310.880829015544,4,2,1,45,1,0
741,-125,4,2,1,45,0,0
5559,-125,4,2,1,55,0,0
5715,-100,4,2,1,55,0,0
5870,-100,4,2,1,45,0,0
6025,-125,4,2,1,45,0,0
10067,-166.666666666667,4,2,1,55,0,0
10222,-250,4,2,1,55,0,0
10533,-100,4,2,1,65,0,0
14419,-76.9230769230769,4,2,1,65,0,0
15041,-125,4,2,1,65,0,0
15507,-100,4,2,1,65,0,0
19393,-68.9655172413793,4,2,1,65,0,0
19549,-80,4,2,1,65,0,0
20015,-90.9090909090909,4,2,1,65,0,0
20326,-68.9655172413793,4,2,1,65,0,0
20481,-111.111111111111,4,2,1,55,0,0
27787,-71.4285714285714,4,2,1,55,0,0
27943,-111.111111111111,4,2,1,55,0,0
30119,-100,4,2,1,55,0,0
35248,-71.4285714285714,4,2,1,55,0,0
35404,-100,4,2,1,55,0,0
37424,-71.4285714285714,4,2,1,55,0,0
37580,-100,4,2,1,55,0,0
39290,-83.3333333333333,4,2,1,55,0,0
39911,-71.4285714285714,4,2,1,55,0,0
40533,-125,4,2,1,40,0,0
45507,-100,4,2,1,70,0,0
50481,-111.111111111111,4,2,1,40,0,0
54367,-200,4,2,1,40,0,0
54834,-400,4,2,1,70,0,0
55456,-100,4,2,1,80,0,1
57165,-86.9565217391303,4,2,1,80,0,1
57632,-100,4,2,1,80,0,1
60741,-83.3333333333333,4,2,1,80,0,1
61051,-71.4285714285714,4,2,1,80,0,1
61207,-100,4,2,1,80,0,1
62606,-71.4285714285714,4,2,1,80,0,1
62761,-100,4,2,1,80,0,1
64160,-83.3333333333333,4,2,1,80,0,1
64782,-166.666666666667,4,2,1,80,0,1
65093,-71.4285714285714,4,2,1,80,0,1
65404,-100,4,2,1,80,0,1
67114,-86.9565217391304,4,2,1,80,0,1
67424,-80,4,2,1,80,0,1
67580,-100,4,2,1,80,0,1
70067,-66.6666666666667,4,2,1,80,0,1
70222,-86.9565217391304,4,2,1,80,0,1
70533,-100,4,2,1,80,0,1
72865,-111.111111111111,4,2,1,80,0,1
74419,-100,4,2,1,80,0,1
75041,-212.765957446809,4,2,1,80,0,1
75352,-111.111111111111,4,2,1,65,0,1
75663,-117.647058823529,4,2,1,65,0,1
82813,-125,4,2,1,65,0,0
84834,-333.333333333332,4,2,1,65,0,0
85145,-100,4,2,1,65,0,0
87165,-68.9655172413793,4,2,1,65,0,0
87321,-100,4,2,1,65,0,0

[Colours]
Combo1 : 255,203,168
Combo2 : 233,251,179
Combo3 : 184,254,226

[HitObjects]
477,266,10067,6,0,L|467:326,1,46.4999985809327,2|2,0:0|0:0,0:0:0:0:
490,336,10533,6,0,B|418:322|400:367|339:361,1,155,4|0,0:1|3:0,0:0:0:0:
240,191,11000,2,0,P|247:234|253:277,1,77.5,0|0,1:0|0:1,0:0:0:0:
158,367,11233,1,0,1:0:0:0:
153,363,11310,2,0,P|149:345|165:283,1,77.5,0|0,3:0|3:0,0:0:0:0:
66,89,11621,1,8,1:0:0:0:
8,183,11777,5,2,0:1:0:0:
16,188,11854,1,2,0:1:0:0:
23,193,11932,2,0,P|66:187|107:181,1,77.5,0|0,3:0|0:0,0:0:0:0:
257,80,12243,1,0,1:0:0:0:
313,150,12399,2,0,L|305:194,2,38.75,0|0|0,0:1|0:1|3:0,0:0:0:0:
185,8,12709,6,0,P|192:52|204:128,1,116.25,2|0,0:0|0:0,0:0:0:0:
148,213,13020,6,0,P|84:172|0:177,1,155,4|0,0:0|3:0,0:0:0:0:
316,56,13487,2,0,P|339:57|390:35,1,77.5,0|0,1:0|0:0,0:0:0:0:
464,87,13720,1,2,0:1:0:0:
467,95,13797,2,0,P|460:137|452:186,1,77.5,0|0,3:0|3:0,0:0:0:0:
330,365,14108,2,0,P|320:340|327:286,1,77.5,0|2,1:0|0:1,0:0:0:0:
398,231,14342,5,2,0:1:0:0:
408,227,14419,2,0,L|463:235,1,50.3749976940156,0|0,3:0|0:0,0:0:0:0:
227,357,14575,6,0,B|169:341|135:389|81:383,1,151.124993082047,2|0,0:1|3:0,0:0:0:0:
4,293,14886,6,0,L|15:231,1,50.3749976940156,0|0,3:0|0:0,0:0:0:0:
93,99,15041,6,0,P|84:71|82:30,2,62,4|0|4,1:0|3:0|1:0,0:0:0:0:
33,166,15507,6,0,P|92:158|160:149,1,116.25,4|0,0:1|0:0,0:0:0:0:
207,83,15818,2,0,L|198:40,2,38.75,2|2|0,0:1|0:1|1:1,0:0:0:0:
298,191,16129,5,2,0:1:0:0:
298,191,16207,1,2,0:1:0:0:
298,191,16285,2,0,P|290:234|283:280,1,77.5,0|2,3:0|0:0,0:0:0:0:
430,384,16595,1,0,1:0:0:0:
386,232,16751,1,2,0:1:0:0:
243,350,16906,6,0,P|211:341|164:339,2,77.5,0|0|0,3:0|3:0|1:0,0:0:0:0:
243,350,17373,1,2,0:0:0:0:
436,171,17528,6,0,P|468:180|515:182,2,77.5,0|0|0,3:0|3:0|1:0,0:0:0:0:
287,27,17994,6,0,P|296:91|309:192,1,155,4|0,0:0|3:0,0:0:0:0:
185,359,18461,2,0,B|164:324|164:324|189:241,1,116.25,0|0,1:0|0:0,0:0:0:0:
139,183,18772,6,0,L|92:190,1,38.75,0|0,3:0|0:0,0:0:0:0:
203,123,18927,6,0,L|287:131,1,77.5,2|0,0:0|1:0,0:0:0:0:
477,0,19238,1,2,0:0:0:0:
503,86,19393,2,0,P|477:90|443:105,1,56.1875017147065,0|0,3:0|0:0,0:0:0:0:
343,36,19549,6,0,B|413:60|413:60|381:177,1,193.75,2|2,0:0|0:0,0:0:0:0:
486,283,19937,5,2,1:1:0:0:
490,277,20015,2,0,L|473:180,1,85.2500026016236,0|4,1:0|3:0,0:0:0:0:
382,366,20326,2,0,P|408:367|443:378,1,56.1875017147065,0|0,1:0|0:0,0:0:0:0:
352,277,20481,6,0,P|286:287|204:300,1,139.499995742798,4|0,0:0|3:0,0:0:0:0:
137,247,20948,2,0,L|149:164,1,69.749997871399,0|0,1:0|0:0,0:0:0:0:
98,107,21181,1,0,1:0:0:0:
98,113,21259,2,0,P|69:127|32:132,1,69.749997871399,0|0,3:0|0:0,0:0:0:0:
172,37,21570,2,0,L|249:47,1,69.749997871399,0|0,1:0|0:0,0:0:0:0:
321,0,21803,1,2,0:1:0:0:
327,10,21880,2,0,L|316:81,1,69.749997871399,0|2,3:0|0:0,0:0:0:0:
172,37,22191,5,8,1:0:0:0:
285,161,22347,2,0,P|306:139|411:120,1,139.499995742798,2|2,0:0|0:0,0:0:0:0:
468,200,22813,2,0,L|457:271,1,69.749997871399,0|2,1:0|0:0,0:0:0:0:
357,366,23124,2,0,P|381:380|425:381,1,69.749997871399,4|0,0:0|0:0,0:0:0:0:
287,279,23435,2,0,P|227:288|149:301,1,139.499995742798,0|2,1:0|3:0,0:0:0:0:
23,229,23901,1,2,0:0:0:0:
23,229,24057,2,0,P|55:232|94:218,1,69.749997871399,0|0,1:0|0:0,0:0:0:0:
42,138,24367,5,4,0:0:0:0:
221,47,24523,1,0,3:0:0:0:
127,0,24678,2,0,P|121:37|118:76,1,69.749997871399,0|0,1:0|0:0,0:0:0:0:
237,176,24989,2,0,L|229:136,2,34.8749989356995,0|0|0,3:0|0:0|0:0,0:0:0:0:
329,96,25300,1,0,1:0:0:0:
193,267,25456,6,0,P|243:228|325:231,1,139.499995742798,0|2,1:0|3:0,0:0:0:0:
421,157,25922,2,0,L|403:271,1,104.624996807098,0|0,1:0|0:0,0:0:0:0:
475,332,26233,2,0,P|486:303|484:263,1,69.749997871399,0|2,3:0|0:0,0:0:0:0:
380,370,26544,2,0,P|357:371|309:384,1,69.749997871399,0|0,1:0|0:0,0:0:0:0:
124,245,26854,5,4,0:0:0:0:
288,301,27010,1,2,0:0:0:0:
189,377,27165,2,0,L|200:301,1,69.749997871399,0|0,1:0|0:0,0:0:0:0:
86,109,27476,6,0,B|55:133|55:133|68:201,1,104.624996807098,0|0,3:0|0:0,0:0:0:0:
118,312,27787,6,0,P|126:282|127:251,1,54.2499983444214,0|0,1:0|0:0,0:0:0:0:
68,198,27943,6,0,L|0:212,1,69.749997871399,4|0,0:0|3:0,0:0:0:0:
200,5,28253,5,0,0:1:0:0:
200,5,28331,1,0,0:1:0:0:
200,5,28409,2,0,L|185:116,1,104.624996807098,0|0,1:0|0:0,0:0:0:0:
241,188,28720,2,0,P|271:177|311:177,1,69.749997871399,0|2,3:0|0:0,0:0:0:0:
473,104,29031,2,0,P|438:104|404:95,1,69.749997871399,0|2,1:0|0:0,0:0:0:0:
320,43,29342,1,0,3:0:0:0:
474,0,29497,1,0,3:0:0:0:
423,200,29652,6,0,L|405:346,1,139.499995742798,0|0,1:0|3:0,0:0:0:0:
320,274,30119,1,0,1:0:0:0:
512,214,30274,1,0,1:0:0:0:
317,384,30430,6,0,P|253:342|178:352,1,155,4|0,3:2|0:0,0:0:0:0:
29,288,30896,2,0,P|67:281|105:275,1,77.5,0|0,1:0|0:0,0:0:0:0:
208,212,31129,1,0,1:0:0:0:
208,212,31207,2,0,P|215:221|223:285,1,77.5,0|2,3:0|0:0,0:0:0:0:
121,147,31518,2,0,P|126:118|134:70,1,77.5,0|0,1:0|0:0,0:0:0:0:
318,290,31829,2,0,P|308:325|304:374,1,77.5,0|0,3:0|0:0,0:0:0:0:
412,340,32139,1,0,1:0:0:0:
194,358,32295,6,0,B|124:344|104:389|43:383,1,155,2|0,0:1|3:0,0:0:0:0:
263,262,32761,2,0,P|298:275|339:276,1,77.5,0|0,1:0|0:0,0:0:0:0:
148,191,33072,2,0,P|106:198|65:206,1,77.5,0|0,3:0|0:0,0:0:0:0:
261,14,33383,2,0,P|251:91|240:170,1,155,0|0,1:0|3:0,0:0:0:0:
397,111,33849,6,0,L|442:117,2,38.75,2|2|2,0:1|0:1|1:1,0:0:0:0:
498,31,34160,5,2,0:1:0:0:
341,174,34316,1,0,3:0:0:0:
351,179,34471,2,0,B|434:163|434:163|462:188|502:183,1,155,0|0,3:0|0:0,0:0:0:0:
270,368,34937,2,0,P|270:349|287:278,1,77.5,0|0,3:0|3:0,0:0:0:0:
197,226,35248,6,0,L|138:235,1,54.2499983444214,0|0,1:0|0:0,0:0:0:0:
116,217,35404,6,0,P|123:165|139:53,1,155,4|0,0:0|0:0,0:0:0:0:
18,204,35870,2,0,P|-1:224|4:313,1,116.25,0|0,1:0|0:0,0:0:0:0:
59,370,36181,2,0,P|99:364|141:358,1,77.5,0|0,3:0|0:0,0:0:0:0:
298,213,36492,2,0,P|258:219|216:225,1,77.5,0|0,1:0|0:0,0:0:0:0:
253,123,36803,1,4,0:0:0:0:
363,299,36958,6,0,P|391:303|486:227,1,155,2|2,0:0|0:0,0:0:0:0:
306,377,37347,5,2,0:1:0:0:
301,373,37424,2,0,P|284:374|240:386,1,54.2499983444214,0|0,3:0|0:0,0:0:0:0:
173,337,37580,6,0,P|172:321|185:260,1,77.5,2|0,0:0|1:0,0:0:0:0:
91,90,37891,6,0,L|111:214,1,116.25,4|0,0:0|3:0,0:0:0:0:
56,275,38202,2,0,L|17:271,2,38.75,2|2|0,0:1|0:1|1:1,0:0:0:0:
4,176,38513,1,2,0:0:0:0:
173,337,38668,5,2,0:0:0:0:
183,343,38823,2,0,P|220:331|263:332,1,77.5,2|0,0:0|1:0,0:0:0:0:
375,249,39134,1,0,3:0:0:0:
317,166,39290,6,0,L|331:69,2,92.9999971618653,4|0|12,3:0|3:0|1:0,0:0:0:0:
511,384,39834,5,0,1:0:0:0:
503,376,39911,2,0,L|512:319,1,54.2499983444214,0|0,1:0|0:0,0:0:0:0:
424,229,40067,6,0,L|432:282,1,54.2499983444214,0|0,1:0|0:0,0:0:0:0:
374,358,40222,6,0,L|319:353,1,54.2499983444214,0|0,1:0|0:0,0:0:0:0:
237,303,40378,6,0,L|176:311,1,54.2499983444214,0|0,1:0|0:0,0:0:0:0:
103,355,40533,5,2,0:0:0:0:
442,371,45507,5,4,0:0:0:0:
434,376,45663,2,0,B|394:339|394:339|428:233,1,155,0|0,3:0|3:0,0:0:0:0:
328,101,46129,2,0,P|338:141|343:185,1,77.5,0|0,1:0|3:0,0:0:0:0:
455,140,46440,1,0,1:0:0:0:
272,246,46595,6,0,B|201:232|172:280|121:271,1,155,4|0,3:1|3:0,0:0:0:0:
26,198,47062,2,0,P|69:192|110:186,1,77.5,2|0,0:0|3:0,0:0:0:0:
354,53,47373,1,0,1:0:0:0:
246,0,47528,2,0,P|240:43|223:166,1,155,0|0,3:0|0:0,0:0:0:0:
354,53,47994,1,0,1:0:0:0:
490,129,48150,6,0,P|471:148|347:163,1,155,0|0,3:0|3:0,0:0:0:0:
230,286,48616,2,0,P|263:273|307:271,1,77.5,0|0,1:0|0:0,0:0:0:0:
153,169,48927,6,0,P|113:165|70:161,1,77.5,0|4,1:0|0:0,0:0:0:0:
59,181,49393,6,0,P|57:158|34:19,1,155,0|0,3:0|3:0,0:0:0:0:
147,264,49860,1,0,1:0:0:0:
89,318,50015,1,0,3:0:0:0:
11,306,50171,1,4,1:2:0:0:
243,103,50481,5,2,0:0:0:0:
512,303,54212,5,2,0:0:0:0:
449,384,54367,2,0,P|427:371|337:364,1,116.25,2|2,0:0|0:0,0:0:0:0:
332,339,55456,6,0,P|278:345|172:360,1,155,4|0,0:3|1:3,0:3:0:0:
27,266,56000,1,0,1:0:0:0:
21,269,56077,2,0,P|8:291|8:346,1,77.5,0|0,3:0|0:0,0:0:0:0:
134,217,56388,2,0,P|123:160|111:92,1,116.25,0|0,1:3|0:0,0:0:0:0:
213,0,56699,2,0,P|207:40|200:90,1,77.5,4|0,0:0|0:0,0:0:0:0:
92,10,57010,5,0,1:0:0:0:
245,198,57165,2,0,P|275:174|372:165,1,133.687502549887,2|0,0:0|0:0,0:0:0:0:
439,98,57476,6,0,L|430:47,1,44.5625008499623,4|0,3:0|0:0,0:0:0:0:
512,174,57632,6,0,L|499:255,1,77.5,0|0,1:0|0:0,0:0:0:0:
407,367,57865,1,2,0:1:0:0:
402,365,57943,2,0,P|392:345|396:286,1,77.5,4|0,0:0|3:0,0:0:0:0:
510,348,58253,1,0,1:0:0:0:
296,374,58409,2,0,P|274:374|214:391,1,77.5,2|0,0:0|3:0,0:0:0:0:
28,297,58720,2,0,L|117:307,1,77.5,2|0,0:0|1:0,0:0:0:0:
194,247,59031,5,2,0:1:0:0:
198,243,59108,1,2,0:1:0:0:
203,239,59186,2,0,P|196:189|181:85,1,155,0|0,3:0|1:0,0:0:0:0:
334,271,59652,1,2,0:0:0:0:
274,358,59808,2,0,P|248:371|201:373,1,77.5,0|2,3:0|0:0,0:0:0:0:
334,271,60119,1,0,1:0:0:0:
441,380,60274,6,0,P|449:333|456:292,1,77.5,2|0,0:0|3:0,0:0:0:0:
301,103,60585,1,2,0:0:0:0:
259,214,60741,2,0,P|287:220|392:175,1,139.499995742798,0|0,1:0|0:0,0:0:0:0:
436,58,61051,6,0,P|415:66|379:71,1,54.2499983444214,0|0,3:0|0:0,0:0:0:0:
464,142,61207,6,0,L|547:152,1,77.5,0|0,3:0|1:0,0:0:0:0:
312,256,61518,6,0,L|235:265,1,77.5,2|0,0:1|3:0,0:0:0:0:
436,369,61829,6,0,L|512:378,1,77.5,2|0,0:0|1:0,0:0:0:0:
185,126,62139,6,0,B|137:154|137:154|159:254,1,155,2|0,0:0|3:0,0:0:0:0:
255,384,62606,6,0,P|263:359|263:324,1,54.2499983444214,0|0,1:0|0:0,0:0:0:0:
148,384,62761,6,0,P|75:347|1:356,1,155,4|0,0:0|3:0,0:0:0:0:
291,250,63228,2,0,L|371:239,1,77.5,0|0,1:0|0:0,0:0:0:0:
442,285,63461,1,2,0:1:0:0:
448,292,63538,2,0,P|441:335|435:375,1,77.5,0|2,3:0|0:0,0:0:0:0:
343,324,63849,1,8,1:0:0:0:
510,211,64005,1,0,3:0:0:0:
353,122,64160,6,0,P|330:153|339:212,1,92.9999971618653,12|0,1:0|3:0,0:0:0:0:
474,87,64471,6,0,L|456:-13,1,92.9999971618653,12|4,1:0|0:0,0:0:0:0:
256,235,64782,6,0,P|246:269|245:308,1,69.749997871399,14|0,3:0|0:0,0:0:0:0:
297,375,65093,6,0,P|338:382|392:335,1,108.499996688843,2|8,1:0|1:0,0:0:0:0:
160,271,65326,5,0,1:0:0:0:
153,281,65404,2,0,P|91:290|-6:305,1,155,4|0,0:0|1:0,0:0:0:0:
208,61,65948,1,0,1:0:0:0:
214,70,66025,2,0,P|208:110|201:160,1,77.5,0|0,3:0|3:0,0:0:0:0:
312,296,66336,2,0,P|325:261|319:223,1,77.5,0|0,1:0|3:0,0:0:0:0:
455,115,66647,6,0,P|416:121|372:127,1,77.5,4|0,0:0|3:0,0:0:0:0:
470,341,66958,1,0,1:0:0:0:
365,379,67114,6,0,P|335:355|238:346,1,133.687502549887,2|0,0:0|0:0,0:0:0:0:
167,293,67424,6,0,P|160:266|162:234,1,48.4375,0|0,3:0|0:0,0:0:0:0:
94,363,67580,6,0,L|16:356,1,77.5,0|2,1:0|0:1,0:0:0:0:
261,263,67813,1,2,0:1:0:0:
265,268,67891,2,0,L|344:276,1,77.5,0|2,3:0|0:1,0:0:0:0:
48,102,68202,1,8,1:0:0:0:
137,30,68357,2,0,B|176:55|176:55|154:166,1,155,2|2,0:0|0:0,0:0:0:0:
265,268,68823,2,0,P|274:239|271:190,1,77.5,8|2,1:0|0:1,0:0:0:0:
151,330,69134,5,0,3:0:0:0:
301,377,69290,1,0,3:0:0:0:
166,191,69445,1,0,1:0:0:0:
402,362,69678,5,0,1:0:0:0:
396,351,69756,2,0,P|402:312|410:265,1,77.5,0|0,3:0|0:0,0:0:0:0:
483,98,70067,6,0,P|475:72|473:29,1,58.125,0|0,1:0|0:0,0:0:0:0:
391,184,70222,2,0,P|413:179|518:226,1,133.687502549887,2|0,0:0|0:0,0:0:0:0:
346,90,70533,6,0,P|302:97|260:105,1,77.5,2|0,0:1|1:0,0:0:0:0:
133,38,70844,6,0,L|140:-5,1,38.75,2|2,0:1|0:1,0:0:0:0:
55,85,71000,2,0,B|42:110|42:110|51:162,1,77.5,0|0,3:0|0:0,0:0:0:0:
158,258,71310,1,0,1:0:0:0:
76,334,71466,6,0,P|55:329|-8:327,1,77.5,2|0,0:0|3:0,0:0:0:0:
252,196,71777,2,0,P|273:201|336:203,1,77.5,2|0,0:0|1:0,0:0:0:0:
512,270,72088,1,2,0:0:0:0:
342,338,72243,1,0,3:0:0:0:
417,219,72399,5,0,0:0:0:0:
431,125,72554,1,0,1:0:0:0:
449,33,72709,1,0,3:0:0:0:
326,111,72865,5,12,1:0:0:0:
317,115,73020,2,0,P|257:89|181:98,1,139.499995742798,0|2,3:0|0:0,0:0:0:0:
128,38,73487,1,0,1:0:0:0:
44,137,73642,6,0,P|35:86|19:-9,1,139.499995742798,0|0,3:0|3:0,0:0:0:0:
150,175,74108,6,0,P|146:201|139:251,1,69.749997871399,12|0,1:0|3:0,0:0:0:0:
231,355,74419,6,0,B|159:343|146:388|78:383,1,155,0|0,1:0|1:0,0:0:0:0:
264,221,74886,1,0,1:0:0:0:
376,381,75041,6,0,P|408:362|446:361,1,72.8499988883972,0|4,3:0|0:0,0:0:0:0:
442,360,75663,5,0,3:0:0:0:
508,287,75818,2,0,P|498:228|485:146,1,131.750002512932,0|0,1:0|3:0,0:0:0:0:
415,88,76285,2,0,P|421:50|427:14,1,65.8750012564659,0|0,1:0|0:0,0:0:0:0:
210,0,76595,5,0,3:0:0:0:
194,103,76751,2,0,P|233:106|302:50,2,131.750002512932,0|0|0,3:0|1:0|3:0,0:0:0:0:
118,236,77528,2,0,P|120:206|128:170,1,65.8750012564659,0|0,1:0|0:0,0:0:0:0:
13,24,77839,6,0,P|22:86|33:158,1,131.750002512932,0|0,3:0|3:0,0:0:0:0:
120,234,78305,1,0,1:0:0:0:
120,234,78616,1,0,3:0:0:0:
65,302,78772,2,0,L|-1:295,1,65.8750012564659,0|0,1:0|0:0,0:0:0:0:
130,384,79082,6,0,P|162:383|195:371,1,65.8750012564659,0|0,3:0|0:0,0:0:0:0:
337,316,79393,2,0,P|306:305|273:304,1,65.8750012564659,2|0,0:0|1:0,0:0:0:0:
204,239,79704,2,0,P|212:184|224:98,1,131.750002512932,2|0,0:0|1:0,0:0:0:0:
129,6,80171,2,0,P|135:42|142:82,1,65.8750012564659,2|0,0:0|3:0,0:0:0:0:
257,11,80481,6,0,P|303:35|383:21,1,131.750002512932,2|2,0:0|1:0,0:0:0:0:
222,108,80948,1,2,0:0:0:0:
213,116,81103,2,0,L|144:108,1,65.8750012564659,0|0,3:0|1:0,0:0:0:0:
44,63,81414,6,0,L|64:198,1,131.750002512932,2|0,0:0|0:0,0:0:0:0:
167,306,81880,1,2,0:0:0:0:
167,306,82036,2,0,P|192:254|173:184,1,131.750002512932,0|0,1:0|3:0,0:0:0:0:
12,284,82502,2,0,P|35:283|77:267,1,65.8750012564659,0|0,3:0|3:0,0:0:0:0:
329,339,82813,6,0,B|176:320|145:388|88:375,1,248,4|2,0:0|0:0,0:0:0:0:
71,361,83668,6,0,L|75:334,1,15.5,2|0,0:0|0:0,0:0:0:0:
146,255,83901,6,0,L|142:228,1,15.5,2|0,0:0|0:0,0:0:0:0:
72,157,84057,5,4,0:0:0:0:
70,146,84367,2,0,L|80:79,1,62,2|0,0:0|0:0,0:0:0:0:
34,20,84601,6,0,L|-3:26,1,31,12|8,3:0|1:0,0:0:0:0:
176,131,84834,1,0,1:0:0:0:
184,138,85145,6,0,P|242:130|340:117,1,155,4|0,0:0|3:0,0:0:0:0:
452,232,85611,2,0,P|463:201|461:157,1,77.5,0|2,1:0|0:1,0:0:0:0:
381,332,85844,1,0,1:0:0:0:
388,338,85922,2,0,P|429:341|471:350,1,77.5,0|0,3:0|0:0,0:0:0:0:
305,261,86233,2,0,P|265:267|217:274,1,77.5,0|2,1:0|0:0,0:0:0:0:
10,165,86544,5,0,3:0:0:0:
207,111,86699,1,0,3:0:0:0:
120,49,86854,2,0,P|113:104|105:177,1,116.25,0|0,1:0|0:0,0:0:0:0:
163,235,87165,6,0,P|190:234|220:220,1,56.1875017147065,0|0,3:0|0:0,0:0:0:0:
96,299,87321,6,0,P|57:295|9:290,1,77.5,0|0,3:0|1:0,0:0:0:0:
305,141,87632,6,0,P|327:137|431:221,1,155,4|0,0:1|3:0,0:0:0:0:
243,384,88098,2,0,P|250:337|262:258,1,116.25,0|0,1:0|0:0,0:0:0:0:
196,207,88409,2,0,P|147:214|106:220,1,77.5,0|2,3:0|0:0,0:0:0:0:
316,125,88720,2,0,P|354:130|392:136,1,77.5,0|2,1:0|0:0,0:0:0:0:
191,5,89031,5,0,1:0:0:0:
217,107,89186,1,0,3:0:0:0:
112,67,89342,5,0,1:0:0:0:
74,210,89497,1,4,0:0:0:0:
