osu file format v14

[General]
AudioFilename: audio.mp3
AudioLeadIn: 0
PreviewTime: 30555
Countdown: 0
SampleSet: Soft
StackLeniency: 0.7
Mode: 3
LetterboxInBreaks: 0
SpecialStyle: 0
WidescreenStoryboard: 0

[Editor]
DistanceSpacing: 0.5
BeatDivisor: 8
GridSize: 4
TimelineZoom: 1.5

[Metadata]
Title:DETERMINATION
TitleUnicode:DETERMINATION
Artist:Tatsuya Kato
ArtistUnicode:加藤達也
Creator:FadillSan
Version:Kanan
Source:Love Live! Sunshine!!
Tags:love live! sunshine!!, eps 9, sailing to the sunshine, 加藤達也, determination, kanan, mari, FadillSan
BeatmapID:1249392
BeatmapSetID:590326

[Difficulty]
HPDrainRate:7
CircleSize:4
OverallDifficulty:8
ApproachRate:5
SliderMultiplier:1.4
SliderTickRate:1

[Events]
//Background and Video events
0,0,"bg1.jpg",0,0
//Break Periods
//Storyboard Layer 0 (Background)
//Storyboard Layer 1 (Fail)
//Storyboard Layer 2 (Pass)
//Storyboard Layer 3 (Foreground)
//Storyboard Sound Samples

[TimingPoints]
222,666.666666666667,4,2,1,30,1,0
31555,666.666666666667,3,2,1,30,1,0
55555,666.666666666667,4,2,1,30,1,0
70221,666.666666666667,4,2,1,30,1,0
92887,666.666666666667,4,2,1,30,1,0
92887,-100,4,2,1,30,0,1
114220,-100,4,2,1,30,0,0

[HitObjects]
320,192,222,5,2,0:0:0:0:
192,192,222,1,0,0:0:0:0:
64,192,555,1,0,0:0:0:0:
192,192,888,1,0,0:0:0:0:
448,192,1222,1,0,0:0:0:0:
320,192,1555,1,0,0:0:0:0:
192,192,1888,1,0,0:0:0:0:
64,192,2222,1,0,0:0:0:0:
320,192,2555,1,0,0:0:0:0:
448,192,2888,1,2,0:0:0:0:
64,192,2888,1,0,0:0:0:0:
192,192,3222,1,0,0:0:0:0:
320,192,3555,1,0,0:0:0:0:
448,192,3888,1,0,0:0:0:0:
192,192,4222,1,0,0:0:0:0:
320,192,4555,1,0,0:0:0:0:
64,192,4888,1,0,0:0:0:0:
320,192,5222,1,0,0:0:0:0:
448,192,5555,1,2,0:0:0:0:
192,192,5555,1,0,0:0:0:0:
320,192,5888,1,0,0:0:0:0:
448,192,6222,1,0,0:0:0:0:
320,192,6555,1,0,0:0:0:0:
64,192,6888,1,0,0:0:0:0:
192,192,7222,1,0,0:0:0:0:
448,192,7555,1,0,0:0:0:0:
320,192,7888,1,0,0:0:0:0:
448,192,8222,1,2,0:0:0:0:
64,192,8222,1,0,0:0:0:0:
320,192,8555,1,0,0:0:0:0:
192,192,8888,1,0,0:0:0:0:
64,192,9222,1,0,0:0:0:0:
448,192,9555,1,0,0:0:0:0:
320,192,9888,1,0,0:0:0:0:
64,192,10222,1,0,0:0:0:0:
192,192,10555,1,0,0:0:0:0:
64,192,10888,1,0,0:0:0:0:
320,192,10888,1,2,0:0:0:0:
192,192,11222,1,0,0:0:0:0:
320,192,11555,1,0,0:0:0:0:
448,192,11888,1,0,0:0:0:0:
320,192,12222,1,0,0:0:0:0:
64,192,12222,1,0,0:0:0:0:
192,192,12555,1,0,0:0:0:0:
64,192,12888,1,0,0:0:0:0:
192,192,13222,1,0,0:0:0:0:
448,192,13555,1,2,0:0:0:0:
64,192,13555,1,0,0:0:0:0:
320,192,13888,1,0,0:0:0:0:
448,192,14222,1,0,0:0:0:0:
192,192,14555,1,0,0:0:0:0:
64,192,14888,1,0,0:0:0:0:
320,192,14888,1,0,0:0:0:0:
192,192,15222,1,0,0:0:0:0:
64,192,15555,1,0,0:0:0:0:
320,192,15888,1,0,0:0:0:0:
448,192,16222,1,2,0:0:0:0:
192,192,16222,1,0,0:0:0:0:
64,192,16555,1,0,0:0:0:0:
320,192,16888,1,0,0:0:0:0:
192,192,17222,1,0,0:0:0:0:
64,192,17555,1,0,0:0:0:0:
320,192,17555,1,0,0:0:0:0:
192,192,17888,1,0,0:0:0:0:
448,192,18222,1,0,0:0:0:0:
320,192,18555,1,0,0:0:0:0:
192,192,18888,1,0,0:0:0:0:
448,192,18888,1,2,0:0:0:0:
320,192,19222,1,0,0:0:0:0:
448,192,19555,1,0,0:0:0:0:
192,192,19888,1,0,0:0:0:0:
64,192,20222,1,0,0:0:0:0:
320,192,20222,1,0,0:0:0:0:
192,192,20555,1,0,0:0:0:0:
64,192,20888,1,0,0:0:0:0:
320,192,21222,1,0,0:0:0:0:
448,192,21555,1,0,0:0:0:0:
192,192,21888,1,0,0:0:0:0:
320,192,22222,1,0,0:0:0:0:
448,192,22555,1,0,0:0:0:0:
320,192,22888,1,0,0:0:0:0:
192,192,23222,1,0,0:0:0:0:
64,192,23555,1,0,0:0:0:0:
192,192,23888,1,0,0:0:0:0:
448,192,24222,1,0,0:0:0:0:
192,192,24555,1,0,0:0:0:0:
448,192,24888,1,0,0:0:0:0:
320,192,25222,1,0,0:0:0:0:
192,192,25555,1,0,0:0:0:0:
64,192,25888,1,0,0:0:0:0:
192,192,26222,1,0,0:0:0:0:
320,192,26555,1,0,0:0:0:0:
448,192,26888,128,0,29555:0:0:0:0:
192,192,30888,1,0,0:0:0:0:
64,192,31555,1,0,0:0:0:0:
320,192,31555,1,0,0:0:0:0:
192,192,32555,1,0,0:0:0:0:
320,192,32888,1,0,0:0:0:0:
448,192,33221,1,0,0:0:0:0:
192,192,33555,1,0,0:0:0:0:
320,192,33555,1,0,0:0:0:0:
320,192,34888,1,0,0:0:0:0:
192,192,35221,1,0,0:0:0:0:
64,192,35555,1,0,0:0:0:0:
320,192,35555,1,0,0:0:0:0:
320,192,38888,1,0,0:0:0:0:
192,192,39555,1,0,0:0:0:0:
448,192,39555,1,0,0:0:0:0:
320,192,40555,1,0,0:0:0:0:
448,192,40888,1,0,0:0:0:0:
320,192,41221,1,0,0:0:0:0:
192,192,41555,1,0,0:0:0:0:
448,192,41555,1,0,0:0:0:0:
320,192,42888,1,0,0:0:0:0:
192,192,43221,1,0,0:0:0:0:
64,192,43555,1,0,0:0:0:0:
320,192,43555,1,0,0:0:0:0:
192,192,44888,1,0,0:0:0:0:
64,192,45555,1,0,0:0:0:0:
320,192,48888,1,0,0:0:0:0:
448,192,49555,1,2,0:0:0:0:
192,192,49555,1,0,0:0:0:0:
64,192,49888,1,0,0:0:0:0:
192,192,50221,1,0,0:0:0:0:
320,192,50555,1,0,0:0:0:0:
192,192,50888,1,0,0:0:0:0:
320,192,51221,1,0,0:0:0:0:
448,192,51555,1,2,0:0:0:0:
64,192,51555,1,0,0:0:0:0:
192,192,51888,1,0,0:0:0:0:
320,192,52221,1,0,0:0:0:0:
448,192,52555,1,0,0:0:0:0:
320,192,52888,1,0,0:0:0:0:
192,192,53221,1,0,0:0:0:0:
64,192,53555,1,0,0:0:0:0:
320,192,53555,1,2,0:0:0:0:
192,192,53888,1,0,0:0:0:0:
64,192,54221,1,0,0:0:0:0:
192,192,54555,1,0,0:0:0:0:
320,192,54888,1,0,0:0:0:0:
448,192,55221,1,0,0:0:0:0:
320,192,55555,1,2,0:0:0:0:
192,192,55555,1,0,0:0:0:0:
64,192,55888,1,0,0:0:0:0:
192,192,56221,1,0,0:0:0:0:
64,192,56555,1,0,0:0:0:0:
320,192,56888,1,0,0:0:0:0:
448,192,56888,1,0,0:0:0:0:
192,192,57221,1,0,0:0:0:0:
320,192,57555,1,0,0:0:0:0:
192,192,57888,1,0,0:0:0:0:
64,192,58221,1,0,0:0:0:0:
320,192,58221,1,2,0:0:0:0:
192,192,59555,1,0,0:0:0:0:
320,192,59888,1,0,0:0:0:0:
448,192,60221,1,0,0:0:0:0:
192,192,60888,1,0,0:0:0:0:
64,192,60888,1,0,0:0:0:0:
192,192,62221,1,0,0:0:0:0:
320,192,62555,1,0,0:0:0:0:
448,192,62888,1,0,0:0:0:0:
320,192,63555,1,2,0:0:0:0:
192,192,63555,1,0,0:0:0:0:
320,192,65555,1,0,0:0:0:0:
192,192,66221,1,0,0:0:0:0:
320,192,69555,128,0,70221:0:0:0:0:
448,192,70221,1,2,0:0:0:0:
192,192,70221,1,0,0:0:0:0:
64,192,71554,1,0,0:0:0:0:
192,192,71887,1,0,0:0:0:0:
320,192,72221,1,0,0:0:0:0:
448,192,72554,1,0,0:0:0:0:
320,192,72887,1,2,0:0:0:0:
64,192,72887,1,0,0:0:0:0:
320,192,74887,1,0,0:0:0:0:
192,192,75221,1,0,0:0:0:0:
64,192,75554,1,0,0:0:0:0:
320,192,75554,1,2,0:0:0:0:
320,192,76887,1,0,0:0:0:0:
192,192,78221,1,0,0:0:0:0:
448,192,78221,1,2,0:0:0:0:
192,192,79554,1,2,0:0:0:0:
64,192,79554,1,0,0:0:0:0:
320,192,80221,128,0,80887:0:0:0:0:
448,192,80887,1,2,0:0:0:0:
192,192,80887,1,0,0:0:0:0:
192,192,82221,1,0,0:0:0:0:
64,192,82554,1,0,0:0:0:0:
192,192,82887,1,0,0:0:0:0:
320,192,83221,1,0,0:0:0:0:
448,192,83554,1,2,0:0:0:0:
192,192,83554,1,0,0:0:0:0:
320,192,85554,1,0,0:0:0:0:
192,192,85887,1,0,0:0:0:0:
320,192,86221,1,2,0:0:0:0:
64,192,86221,1,0,0:0:0:0:
192,192,88221,1,0,0:0:0:0:
64,192,88887,1,0,0:0:0:0:
320,192,88887,1,2,0:0:0:0:
448,192,89554,1,2,0:0:0:0:
192,192,89554,1,0,0:0:0:0:
64,192,90221,1,0,0:0:0:0:
320,192,90221,1,2,0:0:0:0:
64,192,91554,1,0,0:0:0:0:
192,192,91554,1,0,0:0:0:0:
448,192,91554,1,2,0:0:0:0:
64,192,92887,1,0,0:0:0:0:
320,192,92887,1,0,0:0:0:0:
448,192,92887,1,2,0:0:0:0:
192,192,93220,1,0,0:0:0:0:
320,192,93553,1,0,0:0:0:0:
448,192,93887,1,0,0:0:0:0:
320,192,94220,1,0,0:0:0:0:
192,192,94553,128,0,94887:0:0:0:0:
64,192,94887,1,0,0:0:0:0:
448,192,94887,1,2,0:0:0:0:
192,192,95220,1,0,0:0:0:0:
320,192,95220,1,2,0:0:0:0:
64,192,95553,1,0,0:0:0:0:
448,192,95553,1,2,0:0:0:0:
192,192,95887,1,0,0:0:0:0:
320,192,96220,1,0,0:0:0:0:
192,192,96553,1,0,0:0:0:0:
64,192,96887,1,0,0:0:0:0:
448,192,96887,128,0,97553:0:0:0:0:
320,192,97220,1,0,0:0:0:0:
192,192,97553,128,0,98220:0:0:0:0:
64,192,98220,1,0,0:0:0:0:
448,192,98220,1,2,0:0:0:0:
192,192,98887,1,0,0:0:0:0:
320,192,99220,1,0,0:0:0:0:
448,192,99553,1,0,0:0:0:0:
320,192,99887,1,0,0:0:0:0:
64,192,100220,1,0,0:0:0:0:
192,192,100553,1,0,0:0:0:0:
448,192,100887,1,2,0:0:0:0:
64,192,100887,1,0,0:0:0:0:
192,192,101220,1,0,0:0:0:0:
64,192,101553,1,0,0:0:0:0:
192,192,101887,1,0,0:0:0:0:
320,192,102220,1,0,0:0:0:0:
192,192,102553,1,0,0:0:0:0:
320,192,102887,1,0,0:0:0:0:
64,192,103553,1,2,0:0:0:0:
192,192,103553,1,0,0:0:0:0:
320,192,103553,1,0,0:0:0:0:
64,192,104220,1,0,0:0:0:0:
192,192,104553,1,0,0:0:0:0:
64,192,104887,1,0,0:0:0:0:
320,192,104887,1,0,0:0:0:0:
320,192,105220,1,0,0:0:0:0:
192,192,105553,128,0,106220:0:0:0:0:
448,192,105553,128,0,106220:0:0:0:0:
64,192,106220,1,2,0:0:0:0:
320,192,106887,1,0,0:0:0:0:
64,192,107220,1,0,0:0:0:0:
192,192,107553,1,0,0:0:0:0:
320,192,107553,1,0,0:0:0:0:
320,192,107887,1,0,0:0:0:0:
192,192,108220,1,0,0:0:0:0:
448,192,108220,1,0,0:0:0:0:
192,192,108887,1,2,0:0:0:0:
64,192,108887,1,0,0:0:0:0:
320,192,108970,1,0,0:0:0:0:
448,192,109053,128,0,109553:0:0:0:0:
320,192,109553,1,0,0:0:0:0:
64,192,109553,1,0,0:0:0:0:
192,192,109887,1,0,0:0:0:0:
320,192,110220,1,0,0:0:0:0:
192,192,110553,1,0,0:0:0:0:
64,192,110887,1,0,0:0:0:0:
192,192,111220,1,0,0:0:0:0:
448,192,111553,1,0,0:0:0:0:
320,192,111887,1,0,0:0:0:0:
448,192,112220,1,0,0:0:0:0:
64,192,112220,1,0,0:0:0:0:
192,192,112553,1,0,0:0:0:0:
64,192,112887,1,2,0:0:0:0:
448,192,112887,1,0,0:0:0:0:
320,192,112887,1,0,0:0:0:0:
192,192,113220,1,0,0:0:0:0:
192,192,113553,1,0,0:0:0:0:
448,192,113553,1,0,0:0:0:0:
64,192,114220,1,0,0:0:0:0:
192,192,114220,1,0,0:0:0:0:
448,192,114220,1,2,0:0:0:0:
192,192,116887,1,0,0:0:0:0:
192,192,119553,1,0,0:0:0:0:
320,192,119553,1,0,0:0:0:0:
448,192,119553,1,2,0:0:0:0:
64,192,119887,1,0,0:0:0:0:
192,192,120220,1,0,0:0:0:0:
320,192,120553,1,0,0:0:0:0:
448,192,120887,1,0,0:0:0:0:
64,192,121220,1,0,0:0:0:0:
192,192,121553,1,0,0:0:0:0:
320,192,121887,1,0,0:0:0:0:
448,192,122220,1,0,0:0:0:0:
320,192,122887,1,0,0:0:0:0:
192,192,123553,128,0,126887:0:0:0:0:
192,192,129553,5,0,0:0:0:0:
320,192,129887,1,0,0:0:0:0:
192,192,130220,1,0,0:0:0:0:
448,192,130220,1,2,0:0:0:0:
64,192,130220,1,0,0:0:0:0:
320,192,131553,1,0,0:0:0:0:
64,192,132887,1,0,0:0:0:0:
192,192,132887,1,0,0:0:0:0:
320,192,134220,1,0,0:0:0:0:
64,192,134220,1,0,0:0:0:0:
320,192,135553,1,0,0:0:0:0:
448,192,135553,1,2,0:0:0:0:
64,192,135553,1,0,0:0:0:0:
192,192,135887,1,0,0:0:0:0:
448,192,136220,1,0,0:0:0:0:
320,192,136553,1,0,0:0:0:0:
64,192,136887,1,0,0:0:0:0:
192,192,137220,1,0,0:0:0:0:
64,192,137553,1,0,0:0:0:0:
192,192,137887,1,0,0:0:0:0:
448,192,138220,1,0,0:0:0:0:
192,192,138553,1,0,0:0:0:0:
320,192,138887,1,0,0:0:0:0:
192,192,139220,1,0,0:0:0:0:
64,192,139553,1,0,0:0:0:0:
320,192,139887,1,0,0:0:0:0:
64,192,140220,1,0,0:0:0:0:
192,192,140553,1,0,0:0:0:0:
