osu file format v14

[General]
AudioFilename: Tatsuro Yamashita - Daydream.mp3
AudioLeadIn: 0
PreviewTime: 156038
Countdown: 0
SampleSet: None
StackLeniency: 0.7
Mode: 3
LetterboxInBreaks: 0
SpecialStyle: 0
WidescreenStoryboard: 1

[Editor]
Bookmarks: 8088,23511,35151,43253,54421,62222,77610,92992,127788,141278,144998,156638,162451,174451,177736,253952,267339,275716,287630
DistanceSpacing: 0.8
BeatDivisor: 4
GridSize: 32
TimelineZoom: 1.8

[Metadata]
Title:Daydream
TitleUnicode:Daydream
Artist:Tatsuro Yamashita
ArtistUnicode:Tatsuro Yamashita
Creator:Ska
Version:Live Osaka 1999
Source:
Tags:tech dump stream jack
BeatmapID:3632462
BeatmapSetID:1774067

[Difficulty]
HPDrainRate:8.4
CircleSize:4
OverallDifficulty:8.4
ApproachRate:5
SliderMultiplier:1.4
SliderTickRate:1

[Events]
//Background and Video events
0,0,"b.jpg",0,0
//Break Periods
//Storyboard Layer 0 (Background)
//Storyboard Layer 1 (Fail)
//Storyboard Layer 2 (Pass)
//Storyboard Layer 3 (Foreground)
//Storyboard Layer 4 (Overlay)
//Storyboard Sound Samples

[TimingPoints]
383,461.538462,4,1,0,0,1,0
383,-103.9999999,4,1,0,0,0,0
845,472.440945,4,1,0,0,1,0
845,-101.6,4,1,0,0,0,0
1789,487.804878,4,1,0,0,1,0
1789,-98.40000001,4,1,0,0,0,0
2765,480,4,1,0,0,1,0
2765,-100,4,1,0,0,0,0
4205,487.804878,4,1,0,0,1,0
4205,-98.40000001,4,1,0,0,0,0
5181,483.870968,4,1,0,0,1,0
5181,-99.19999995,4,1,0,0,0,0
5665,487.804878,4,1,0,0,1,0
5665,-98.40000001,4,1,0,0,0,0
7128,480,4,1,0,0,1,0
7128,-100,4,1,0,0,0,0
8088,504.201681,4,1,0,0,1,0
8088,-95.19999994,4,1,0,0,0,0
8592,480,4,1,0,0,1,0
8592,-100,4,1,0,0,0,0
10032,483.870968,4,1,0,0,1,0
10032,-99.19999995,4,1,0,0,0,0
14871,480,4,1,0,0,1,0
14871,-100,4,1,0,0,0,0
36951,491.803279,4,1,0,0,1,0
36951,-97.59999994,4,1,0,0,0,0
37934,487.804878,4,1,0,0,1,0
37934,-98.40000001,4,1,0,0,0,0
40373,480,4,1,0,0,1,0
40373,-100,4,1,0,0,0,0
53813,491.803279,4,1,0,0,1,0
53813,-97.59999994,4,1,0,0,0,0
54305,465.116279,4,1,0,0,1,0
54305,-103.2,4,1,0,0,0,0
59422,487.804878,4,1,0,0,1,0
59422,-98.40000001,4,1,0,0,0,0
59909,480,4,1,0,0,1,0
59909,-100,4,1,0,0,0,0
61829,392.156863,4,1,0,0,1,0
61829,-122.3999999,4,1,0,0,0,0
62222,508.474576,4,1,0,0,1,0
62222,-94.40000005,4,1,0,0,0,0
62730,476.190476,4,1,0,0,1,0
62730,-100.8,4,1,0,0,0,0
63682,491.803279,4,1,0,0,1,0
63682,-97.59999994,4,1,0,0,0,0
65650,461.538462,4,1,0,0,1,0
65650,-103.9999999,4,1,0,0,0,0
66111,504.201681,4,1,0,0,1,0
66111,-95.19999994,4,1,0,0,0,0
66615,487.804878,4,1,0,0,1,0
66615,-98.40000001,4,1,0,0,0,0
68079,480,4,1,0,0,1,0
68079,-100,4,1,0,0,0,0
69519,487.804878,4,1,0,0,1,0
69519,-98.40000001,4,1,0,0,0,0
70007,483.870968,4,1,0,0,1,0
70007,-99.19999995,4,1,0,0,0,0
74845,480,4,1,0,0,1,0
74845,-100,4,1,0,0,0,0
77245,487.804878,4,1,0,0,1,0
77245,-98.40000001,4,1,0,0,0,0
79196,476.190476,4,1,0,0,1,0
79196,-100.8,4,1,0,0,0,0
81101,483.870968,4,1,0,0,1,0
81101,-99.19999995,4,1,0,0,0,0
84004,472.440945,4,1,0,0,1,0
84004,-101.6,4,1,0,0,0,0
85422,480,4,1,0,0,1,0
85422,-100,4,1,0,0,0,0
87342,476.190476,4,1,0,0,1,0
87342,-100.8,4,1,0,0,0,0
88770,480,4,1,0,0,1,0
88770,-100,4,1,0,0,0,0
90210,483.870968,4,1,0,0,1,0
90210,-99.19999995,4,1,0,0,0,0
97952,472.440945,4,1,0,0,1,0
97952,-101.6,4,1,0,0,0,0
99370,480,4,1,0,0,1,0
99370,-100,4,1,0,0,0,0
100810,483.870968,4,1,0,0,1,0
100810,-99.19999995,4,1,0,0,0,0
102261,480,4,1,0,0,1,0
102261,-100,4,1,0,0,0,0
121461,517.241379,4,1,0,0,1,0
121461,-92.80000006,4,1,0,0,0,0
121978,491.803279,4,1,0,0,1,0
121978,-97.59999994,4,1,0,0,0,0
122470,480,4,1,0,0,1,0
122470,-100,4,1,0,0,0,0
127270,517.241379,4,1,0,0,1,0
127270,-92.80000006,4,1,0,0,0,0
127788,483.870968,4,1,0,0,1,0
127788,-99.19999995,4,1,0,0,0,0
132626,480,4,1,0,0,1,0
132626,-100,4,1,0,0,0,0
135986,491.803279,4,1,0,0,1,0
135986,-97.59999994,4,1,0,0,0,0
136478,480,4,1,0,0,1,0
136478,-100,4,1,0,0,0,0
160958,526.315789,4,1,0,0,1,0
160958,-91.20000008,4,1,0,0,0,0
161484,483.870968,4,1,0,0,1,0
161484,-99.19999995,4,1,0,0,0,0
162936,468.75,4,1,0,0,1,0
162936,-102.4,4,1,0,0,0,0
163873,472.440945,4,1,0,0,1,0
163873,-101.6,4,1,0,0,0,0
164346,487.804878,4,1,0,0,1,0
164346,-98.40000001,4,1,0,0,0,0
165809,483.870968,4,1,0,0,1,0
165809,-99.19999995,4,1,0,0,0,0
171616,480,4,1,0,0,1,0
171616,-100,4,1,0,0,0,0
174016,434.782609,4,1,0,0,1,0
174016,-110.3999999,4,1,0,0,0,0
174451,508.474576,4,1,0,0,1,0
174451,-94.40000005,4,1,0,0,0,0
175467,468.75,4,1,0,0,1,0
175467,-102.4,4,1,0,0,0,0
175936,480,4,1,0,0,1,0
175936,-100,4,1,0,0,0,0
178336,465.116279,4,1,0,0,1,0
178336,-103.2,4,1,0,0,0,0
179266,487.804878,4,1,0,0,1,0
179266,-98.40000001,4,1,0,0,0,0
180242,480,4,1,0,0,1,0
180242,-100,4,1,0,0,0,0
185042,461.538462,4,1,0,0,1,0
185042,-103.9999999,4,1,0,0,0,0
185965,472.440945,4,1,0,0,1,0
185965,-101.6,4,1,0,0,0,0
186438,487.804878,4,1,0,0,1,0
186438,-98.40000001,4,1,0,0,0,0
186925,480,4,1,0,0,1,0
186925,-100,4,1,0,0,0,0
189805,476.190476,4,1,0,0,1,0
189805,-100.8,4,1,0,0,0,0
190282,472.440945,4,1,0,0,1,0
190282,-101.6,4,1,0,0,0,0
192171,483.870968,4,1,0,0,1,0
192171,-99.19999995,4,1,0,0,0,0
194107,468.75,4,1,0,0,1,0
194107,-102.4,4,1,0,0,0,0
195982,483.870968,4,1,0,0,1,0
195982,-99.19999995,4,1,0,0,0,0
198401,476.190476,4,1,0,0,1,0
198401,-100.8,4,1,0,0,0,0
198877,472.440945,4,1,0,0,1,0
198877,-101.6,4,1,0,0,0,0
201712,508.474576,4,1,0,0,1,0
201712,-94.40000005,4,1,0,0,0,0
202221,476.190476,4,1,0,0,1,0
202221,-100.8,4,1,0,0,0,0
206982,472.440945,4,1,0,0,1,0
206982,-101.6,4,1,0,0,0,0
209817,483.870968,4,1,0,0,1,0
209817,-99.19999995,4,1,0,0,0,0
211269,472.440945,4,1,0,0,1,0
211269,-101.6,4,1,0,0,0,0
213631,476.190476,4,1,0,0,1,0
213631,-100.8,4,1,0,0,0,0
217440,480,4,1,0,0,1,0
217440,-100,4,1,0,0,0,0
220320,476.190476,4,1,0,0,1,0
220320,-100.8,4,1,0,0,0,0
221273,468.75,4,1,0,0,1,0
221273,-102.4,4,1,0,0,0,0
223148,480,4,1,0,0,1,0
223148,-100,4,1,0,0,0,0
225068,476.190476,4,1,0,0,1,0
225068,-100.8,4,1,0,0,0,0
228877,480,4,1,0,0,1,0
228877,-100,4,1,0,0,0,0
230797,472.440945,4,1,0,0,1,0
230797,-101.6,4,1,0,0,0,0
234577,480,4,1,0,0,1,0
234577,-100,4,1,0,0,0,0
235537,472.440945,4,1,0,0,1,0
235537,-101.6,4,1,0,0,0,0
238371,476.190476,4,1,0,0,1,0
238371,-100.8,4,1,0,0,0,0
240276,480,4,1,0,0,1,0
240276,-100,4,1,0,0,0,0
242676,472.440945,4,1,0,0,1,0
242676,-101.6,4,1,0,0,0,0
244094,476.190476,4,1,0,0,1,0
244094,-100.8,4,1,0,0,0,0
247427,454.545455,4,1,0,0,1,0
247427,-105.5999999,4,1,0,0,0,0
247881,476.190476,4,1,0,0,1,0
247881,-100.8,4,1,0,0,0,0
254548,480,4,1,0,0,1,0
254548,-100,4,1,0,0,0,0
261268,476.190476,4,1,0,0,1,0
261268,-100.8,4,1,0,0,0,0
269840,521.73913,4,1,0,0,1,0
269840,-92.00000008,4,1,0,0,0,0
270361,472.440945,4,1,0,0,1,0
270361,-101.6,4,1,0,0,0,0
270834,480,4,1,0,0,1,0
270834,-100,4,1,0,0,0,0
273714,508.474576,4,1,0,0,1,0
273714,-94.40000005,4,1,0,0,0,0
274222,526.315789,4,1,0,0,1,0
274222,-91.20000008,4,1,0,0,0,0
274749,483.870968,4,1,0,0,1,0
274749,-99.19999995,4,1,0,0,0,0
276684,491.803279,4,1,0,0,1,0
276684,-97.59999994,4,1,0,0,0,0
280618,480,4,1,0,0,1,0
280618,-100,4,1,0,0,0,0
282538,472.440945,4,1,0,0,1,0
282538,-101.6,4,1,0,0,0,0
284428,480,4,1,0,0,1,0
284428,-100,4,1,0,0,0,0
286348,512.820513,4,1,0,0,1,0
286348,-93.59999997,4,1,0,0,0,0

[HitObjects]
448,192,383,5,0,0:0:0:0:
64,192,383,1,0,0:0:0:0:
192,192,498,1,0,0:0:0:0:
320,192,613,1,0,0:0:0:0:
64,192,613,1,0,0:0:0:0:
320,192,729,1,0,0:0:0:0:
192,192,844,1,0,0:0:0:0:
448,192,844,1,0,0:0:0:0:
192,192,963,1,0,0:0:0:0:
448,192,1081,1,0,0:0:0:0:
64,192,1199,1,0,0:0:0:0:
448,192,1199,1,0,0:0:0:0:
320,192,1317,1,0,0:0:0:0:
192,192,1435,1,0,0:0:0:0:
192,192,1553,1,0,0:0:0:0:
448,192,1553,1,0,0:0:0:0:
448,192,1671,1,0,0:0:0:0:
320,192,1789,1,0,0:0:0:0:
64,192,1789,1,0,0:0:0:0:
192,192,1910,1,0,0:0:0:0:
192,192,2032,1,0,0:0:0:0:
320,192,2032,1,0,0:0:0:0:
192,192,2154,1,0,0:0:0:0:
448,192,2276,1,0,0:0:0:0:
64,192,2276,1,0,0:0:0:0:
320,192,2398,1,0,0:0:0:0:
192,192,2520,1,0,0:0:0:0:
448,192,2520,1,0,0:0:0:0:
192,192,2642,1,0,0:0:0:0:
320,192,2765,1,0,0:0:0:0:
64,192,2765,1,0,0:0:0:0:
320,192,2885,1,0,0:0:0:0:
64,192,3005,1,0,0:0:0:0:
448,192,3125,1,0,0:0:0:0:
64,192,3125,1,0,0:0:0:0:
192,192,3245,1,0,0:0:0:0:
320,192,3365,1,0,0:0:0:0:
320,192,3485,1,0,0:0:0:0:
64,192,3485,1,0,0:0:0:0:
64,192,3605,1,0,0:0:0:0:
448,192,3725,1,0,0:0:0:0:
192,192,3725,1,0,0:0:0:0:
320,192,3845,1,0,0:0:0:0:
320,192,3965,1,0,0:0:0:0:
192,192,3965,1,0,0:0:0:0:
320,192,4085,1,0,0:0:0:0:
448,192,4205,1,0,0:0:0:0:
64,192,4205,1,0,0:0:0:0:
192,192,4326,1,0,0:0:0:0:
64,192,4448,1,0,0:0:0:0:
320,192,4448,1,0,0:0:0:0:
320,192,4570,1,0,0:0:0:0:
192,192,4692,1,0,0:0:0:0:
448,192,4692,1,0,0:0:0:0:
192,192,4814,1,0,0:0:0:0:
448,192,4936,1,0,0:0:0:0:
64,192,5058,1,0,0:0:0:0:
448,192,5058,1,0,0:0:0:0:
320,192,5180,1,0,0:0:0:0:
192,192,5301,1,0,0:0:0:0:
192,192,5422,1,0,0:0:0:0:
448,192,5422,1,0,0:0:0:0:
448,192,5543,1,0,0:0:0:0:
64,192,5665,1,0,0:0:0:0:
320,192,5665,1,0,0:0:0:0:
192,192,5786,1,0,0:0:0:0:
192,192,5908,1,0,0:0:0:0:
320,192,5908,1,0,0:0:0:0:
192,192,6030,1,0,0:0:0:0:
448,192,6152,1,0,0:0:0:0:
64,192,6152,1,0,0:0:0:0:
320,192,6274,1,0,0:0:0:0:
448,192,6396,1,0,0:0:0:0:
64,192,6396,1,0,0:0:0:0:
320,192,6518,1,0,0:0:0:0:
192,192,6518,1,0,0:0:0:0:
320,192,6640,1,0,0:0:0:0:
192,192,6640,1,0,0:0:0:0:
448,192,6762,1,0,0:0:0:0:
192,192,6762,1,0,0:0:0:0:
64,192,6884,1,0,0:0:0:0:
320,192,6884,1,0,0:0:0:0:
320,192,7006,1,0,0:0:0:0:
448,192,7128,1,0,0:0:0:0:
64,192,7128,1,0,0:0:0:0:
192,192,7128,1,0,0:0:0:0:
320,192,7248,1,0,0:0:0:0:
448,192,7248,1,0,0:0:0:0:
320,192,7368,1,0,0:0:0:0:
448,192,7368,1,0,0:0:0:0:
192,192,7488,1,0,0:0:0:0:
64,192,7488,1,0,0:0:0:0:
448,192,7528,1,0,0:0:0:0:
320,192,7568,1,0,0:0:0:0:
192,192,7608,1,0,0:0:0:0:
64,192,7608,1,0,0:0:0:0:
448,192,7648,1,0,0:0:0:0:
320,192,7688,1,0,0:0:0:0:
64,192,7728,1,0,0:0:0:0:
192,192,7728,1,0,0:0:0:0:
448,192,7768,1,0,0:0:0:0:
320,192,7808,1,0,0:0:0:0:
64,192,7848,1,0,0:0:0:0:
448,192,7888,1,0,0:0:0:0:
320,192,7928,1,0,0:0:0:0:
192,192,7968,1,0,0:0:0:0:
64,192,8008,1,0,0:0:0:0:
320,192,8088,128,0,8214:0:0:0:0:
448,192,8088,128,0,8340:0:0:0:0:
192,192,8214,1,0,0:0:0:0:
64,192,8340,1,0,0:0:0:0:
192,192,8403,1,0,0:0:0:0:
320,192,8466,1,0,0:0:0:0:
192,192,8529,1,0,0:0:0:0:
320,192,8592,1,0,0:0:0:0:
448,192,8652,1,0,0:0:0:0:
192,192,8712,1,0,0:0:0:0:
64,192,8712,1,0,0:0:0:0:
448,192,8792,1,0,0:0:0:0:
320,192,8872,1,0,0:0:0:0:
64,192,8952,1,0,0:0:0:0:
192,192,8952,1,0,0:0:0:0:
192,192,9072,1,0,0:0:0:0:
64,192,9072,1,0,0:0:0:0:
320,192,9192,1,0,0:0:0:0:
448,192,9192,1,0,0:0:0:0:
64,192,9272,1,0,0:0:0:0:
192,192,9352,1,0,0:0:0:0:
448,192,9432,1,0,0:0:0:0:
320,192,9432,1,0,0:0:0:0:
320,192,9552,1,0,0:0:0:0:
64,192,9552,1,0,0:0:0:0:
192,192,9672,1,0,0:0:0:0:
64,192,9672,1,0,0:0:0:0:
448,192,9672,1,0,0:0:0:0:
320,192,9792,1,0,0:0:0:0:
448,192,9792,1,0,0:0:0:0:
64,192,9872,1,0,0:0:0:0:
320,192,9952,1,0,0:0:0:0:
448,192,10032,1,0,0:0:0:0:
192,192,10032,1,0,0:0:0:0:
64,192,10112,1,0,0:0:0:0:
192,192,10193,1,0,0:0:0:0:
320,192,10273,1,0,0:0:0:0:
448,192,10273,1,0,0:0:0:0:
64,192,10394,1,0,0:0:0:0:
320,192,10394,1,0,0:0:0:0:
192,192,10515,1,0,0:0:0:0:
448,192,10515,1,0,0:0:0:0:
64,192,10636,1,0,0:0:0:0:
192,192,10636,1,0,0:0:0:0:
320,192,10636,1,0,0:0:0:0:
320,192,10757,1,0,0:0:0:0:
448,192,10757,1,0,0:0:0:0:
64,192,10878,1,0,0:0:0:0:
448,192,10878,1,0,0:0:0:0:
192,192,10999,1,0,0:0:0:0:
64,192,10999,1,0,0:0:0:0:
320,192,11120,1,0,0:0:0:0:
448,192,11120,1,0,0:0:0:0:
320,192,11241,1,0,0:0:0:0:
64,192,11241,128,0,11362:0:0:0:0:
448,192,11362,1,0,0:0:0:0:
192,192,11362,128,0,11483:0:0:0:0:
448,192,11483,1,0,0:0:0:0:
320,192,11483,1,0,0:0:0:0:
448,192,11604,1,0,0:0:0:0:
192,192,11604,128,0,11725:0:0:0:0:
320,192,11604,1,0,0:0:0:0:
64,192,11725,128,0,11846:0:0:0:0:
448,192,11725,1,0,0:0:0:0:
320,192,11846,1,0,0:0:0:0:
192,192,11967,1,0,0:0:0:0:
64,192,11967,1,0,0:0:0:0:
320,192,12088,1,0,0:0:0:0:
448,192,12209,1,0,0:0:0:0:
64,192,12209,1,0,0:0:0:0:
320,192,12269,1,0,0:0:0:0:
192,192,12330,1,0,0:0:0:0:
320,192,12390,1,0,0:0:0:0:
192,192,12451,1,0,0:0:0:0:
64,192,12511,1,0,0:0:0:0:
320,192,12572,1,0,0:0:0:0:
448,192,12572,1,0,0:0:0:0:
64,192,12652,1,0,0:0:0:0:
192,192,12733,1,0,0:0:0:0:
320,192,12814,1,0,0:0:0:0:
448,192,12814,1,0,0:0:0:0:
320,192,12935,1,0,0:0:0:0:
64,192,12935,1,0,0:0:0:0:
192,192,13056,1,0,0:0:0:0:
64,192,13056,1,0,0:0:0:0:
448,192,13136,1,0,0:0:0:0:
192,192,13177,1,0,0:0:0:0:
64,192,13298,1,0,0:0:0:0:
320,192,13298,1,0,0:0:0:0:
320,192,13419,1,0,0:0:0:0:
448,192,13419,1,0,0:0:0:0:
448,192,13540,1,0,0:0:0:0:
64,192,13540,1,0,0:0:0:0:
192,192,13540,1,0,0:0:0:0:
64,192,13661,1,0,0:0:0:0:
320,192,13661,1,0,0:0:0:0:
192,192,13741,1,0,0:0:0:0:
320,192,13822,1,0,0:0:0:0:
64,192,13902,1,0,0:0:0:0:
448,192,13902,1,0,0:0:0:0:
320,192,13983,1,0,0:0:0:0:
192,192,14064,1,0,0:0:0:0:
448,192,14144,1,0,0:0:0:0:
64,192,14144,1,0,0:0:0:0:
64,192,14265,1,0,0:0:0:0:
448,192,14265,1,0,0:0:0:0:
192,192,14386,1,0,0:0:0:0:
320,192,14386,1,0,0:0:0:0:
192,192,14507,1,0,0:0:0:0:
320,192,14507,1,0,0:0:0:0:
448,192,14507,1,0,0:0:0:0:
192,192,14628,1,0,0:0:0:0:
64,192,14628,1,0,0:0:0:0:
320,192,14749,1,0,0:0:0:0:
448,192,14749,1,0,0:0:0:0:
320,192,14871,1,0,0:0:0:0:
448,192,14871,1,0,0:0:0:0:
192,192,14991,1,0,0:0:0:0:
64,192,14991,1,0,0:0:0:0:
192,192,15111,1,0,0:0:0:0:
448,192,15111,128,0,15231:0:0:0:0:
320,192,15111,128,0,15231:0:0:0:0:
64,192,15231,1,0,0:0:0:0:
192,192,15351,1,0,0:0:0:0:
64,192,15351,1,0,0:0:0:0:
448,192,15351,128,0,15471:0:0:0:0:
320,192,15351,128,0,15471:0:0:0:0:
64,192,15471,1,0,0:0:0:0:
192,192,15471,1,0,0:0:0:0:
448,192,15591,128,0,15711:0:0:0:0:
64,192,15591,1,0,0:0:0:0:
320,192,15591,128,0,15711:0:0:0:0:
192,192,15711,1,0,0:0:0:0:
320,192,15831,1,0,0:0:0:0:
448,192,15831,1,0,0:0:0:0:
192,192,15951,1,0,0:0:0:0:
64,192,16071,1,0,0:0:0:0:
448,192,16071,1,0,0:0:0:0:
320,192,16131,1,0,0:0:0:0:
192,192,16191,1,0,0:0:0:0:
320,192,16251,1,0,0:0:0:0:
448,192,16311,1,0,0:0:0:0:
64,192,16371,1,0,0:0:0:0:
192,192,16431,1,0,0:0:0:0:
320,192,16431,1,0,0:0:0:0:
64,192,16511,1,0,0:0:0:0:
192,192,16591,1,0,0:0:0:0:
320,192,16671,1,0,0:0:0:0:
448,192,16671,1,0,0:0:0:0:
320,192,16791,1,0,0:0:0:0:
448,192,16791,1,0,0:0:0:0:
64,192,16911,1,0,0:0:0:0:
192,192,16911,1,0,0:0:0:0:
320,192,16991,1,0,0:0:0:0:
192,192,17071,1,0,0:0:0:0:
64,192,17151,1,0,0:0:0:0:
448,192,17151,1,0,0:0:0:0:
320,192,17271,1,0,0:0:0:0:
448,192,17271,1,0,0:0:0:0:
192,192,17391,1,0,0:0:0:0:
64,192,17391,1,0,0:0:0:0:
320,192,17391,1,0,0:0:0:0:
64,192,17511,1,0,0:0:0:0:
448,192,17511,1,0,0:0:0:0:
192,192,17591,1,0,0:0:0:0:
320,192,17671,1,0,0:0:0:0:
64,192,17751,1,0,0:0:0:0:
448,192,17751,1,0,0:0:0:0:
320,192,17831,1,0,0:0:0:0:
64,192,17911,1,0,0:0:0:0:
192,192,17991,1,0,0:0:0:0:
448,192,17991,1,0,0:0:0:0:
448,192,18111,1,0,0:0:0:0:
192,192,18111,1,0,0:0:0:0:
320,192,18231,1,0,0:0:0:0:
64,192,18231,1,0,0:0:0:0:
320,192,18351,1,0,0:0:0:0:
448,192,18351,1,0,0:0:0:0:
192,192,18351,1,0,0:0:0:0:
320,192,18471,1,0,0:0:0:0:
448,192,18471,1,0,0:0:0:0:
192,192,18591,1,0,0:0:0:0:
64,192,18591,1,0,0:0:0:0:
64,192,18711,1,0,0:0:0:0:
192,192,18711,1,0,0:0:0:0:
320,192,18831,1,0,0:0:0:0:
448,192,18831,1,0,0:0:0:0:
320,192,18951,1,0,0:0:0:0:
64,192,18951,128,0,19071:0:0:0:0:
448,192,19071,1,0,0:0:0:0:
192,192,19071,128,0,19191:0:0:0:0:
320,192,19191,1,0,0:0:0:0:
448,192,19191,1,0,0:0:0:0:
192,192,19311,128,0,19431:0:0:0:0:
320,192,19311,1,0,0:0:0:0:
448,192,19311,1,0,0:0:0:0:
64,192,19431,128,0,19551:0:0:0:0:
448,192,19431,1,0,0:0:0:0:
320,192,19551,1,0,0:0:0:0:
192,192,19671,1,0,0:0:0:0:
64,192,19671,1,0,0:0:0:0:
320,192,19791,1,0,0:0:0:0:
448,192,19911,1,0,0:0:0:0:
64,192,19911,1,0,0:0:0:0:
192,192,19971,1,0,0:0:0:0:
320,192,20031,1,0,0:0:0:0:
192,192,20091,1,0,0:0:0:0:
64,192,20151,1,0,0:0:0:0:
448,192,20211,1,0,0:0:0:0:
320,192,20271,1,0,0:0:0:0:
192,192,20271,1,0,0:0:0:0:
448,192,20351,1,0,0:0:0:0:
320,192,20431,1,0,0:0:0:0:
192,192,20511,1,0,0:0:0:0:
64,192,20511,1,0,0:0:0:0:
192,192,20631,1,0,0:0:0:0:
64,192,20631,1,0,0:0:0:0:
320,192,20751,1,0,0:0:0:0:
448,192,20751,1,0,0:0:0:0:
192,192,20831,1,0,0:0:0:0:
320,192,20911,1,0,0:0:0:0:
448,192,20991,1,0,0:0:0:0:
64,192,20991,1,0,0:0:0:0:
64,192,21111,1,0,0:0:0:0:
192,192,21111,1,0,0:0:0:0:
448,192,21231,1,0,0:0:0:0:
192,192,21231,1,0,0:0:0:0:
320,192,21231,1,0,0:0:0:0:
448,192,21351,1,0,0:0:0:0:
320,192,21351,1,0,0:0:0:0:
192,192,21351,1,0,0:0:0:0:
320,192,21711,1,0,0:0:0:0:
64,192,21711,128,0,22071:0:0:0:0:
320,192,21831,1,0,0:0:0:0:
192,192,21951,1,0,0:0:0:0:
192,192,22071,1,0,0:0:0:0:
448,192,22071,128,0,22431:0:0:0:0:
320,192,22191,1,0,0:0:0:0:
320,192,22311,1,0,0:0:0:0:
192,192,22431,1,0,0:0:0:0:
64,192,22431,128,0,22911:0:0:0:0:
192,192,22551,1,0,0:0:0:0:
320,192,22671,1,0,0:0:0:0:
320,192,22791,1,0,0:0:0:0:
192,192,22911,1,0,0:0:0:0:
448,192,22911,1,0,0:0:0:0:
192,192,23151,1,0,0:0:0:0:
64,192,23151,1,0,0:0:0:0:
320,192,23151,1,0,0:0:0:0:
192,192,23271,1,0,0:0:0:0:
64,192,23271,1,0,0:0:0:0:
320,192,23271,1,0,0:0:0:0:
448,192,23511,1,0,0:0:0:0:
320,192,23511,1,0,0:0:0:0:
320,192,23631,1,0,0:0:0:0:
448,192,23751,1,0,0:0:0:0:
192,192,23751,1,0,0:0:0:0:
192,192,23871,1,0,0:0:0:0:
64,192,23871,1,0,0:0:0:0:
320,192,23991,1,0,0:0:0:0:
448,192,23991,1,0,0:0:0:0:
64,192,24044,1,0,0:0:0:0:
320,192,24097,1,0,0:0:0:0:
192,192,24151,1,0,0:0:0:0:
64,192,24204,1,0,0:0:0:0:
448,192,24204,1,0,0:0:0:0:
192,192,24257,1,0,0:0:0:0:
320,192,24311,1,0,0:0:0:0:
448,192,24364,1,0,0:0:0:0:
64,192,24391,1,0,0:0:0:0:
192,192,24431,1,0,0:0:0:0:
448,192,24471,1,0,0:0:0:0:
320,192,24524,1,0,0:0:0:0:
192,192,24591,1,0,0:0:0:0:
64,192,24591,1,0,0:0:0:0:
64,192,24681,1,0,0:0:0:0:
192,192,24681,1,0,0:0:0:0:
64,192,24801,1,0,0:0:0:0:
320,192,24831,1,0,0:0:0:0:
320,192,24951,1,0,0:0:0:0:
192,192,24951,1,0,0:0:0:0:
64,192,25071,1,0,0:0:0:0:
448,192,25071,1,0,0:0:0:0:
320,192,25131,1,0,0:0:0:0:
64,192,25191,1,0,0:0:0:0:
192,192,25251,1,0,0:0:0:0:
320,192,25311,1,0,0:0:0:0:
448,192,25371,1,0,0:0:0:0:
192,192,25431,1,0,0:0:0:0:
64,192,25431,1,0,0:0:0:0:
448,192,25484,1,0,0:0:0:0:
192,192,25537,1,0,0:0:0:0:
320,192,25591,1,0,0:0:0:0:
64,192,25644,1,0,0:0:0:0:
448,192,25697,1,0,0:0:0:0:
320,192,25751,1,0,0:0:0:0:
192,192,25804,1,0,0:0:0:0:
448,192,25857,1,0,0:0:0:0:
64,192,25911,1,0,0:0:0:0:
192,192,25971,1,0,0:0:0:0:
320,192,26031,1,0,0:0:0:0:
448,192,26031,1,0,0:0:0:0:
192,192,26091,1,0,0:0:0:0:
320,192,26151,1,0,0:0:0:0:
448,192,26211,1,0,0:0:0:0:
64,192,26271,1,0,0:0:0:0:
320,192,26331,1,0,0:0:0:0:
64,192,26391,1,0,0:0:0:0:
192,192,26451,1,0,0:0:0:0:
448,192,26511,1,0,0:0:0:0:
320,192,26511,1,0,0:0:0:0:
64,192,26511,1,0,0:0:0:0:
320,192,26631,1,0,0:0:0:0:
448,192,26631,1,0,0:0:0:0:
192,192,26751,1,0,0:0:0:0:
320,192,26751,1,0,0:0:0:0:
192,192,26871,1,0,0:0:0:0:
320,192,26991,1,0,0:0:0:0:
448,192,26991,1,0,0:0:0:0:
64,192,26991,1,0,0:0:0:0:
192,192,27111,1,0,0:0:0:0:
320,192,27111,1,0,0:0:0:0:
320,192,27231,1,0,0:0:0:0:
448,192,27231,1,0,0:0:0:0:
192,192,27351,1,0,0:0:0:0:
64,192,27351,1,0,0:0:0:0:
448,192,27471,1,0,0:0:0:0:
320,192,27591,1,0,0:0:0:0:
64,192,27591,1,0,0:0:0:0:
320,192,27711,1,0,0:0:0:0:
448,192,27711,1,0,0:0:0:0:
64,192,27831,1,0,0:0:0:0:
192,192,27831,1,0,0:0:0:0:
448,192,27884,1,0,0:0:0:0:
64,192,27937,1,0,0:0:0:0:
320,192,27991,1,0,0:0:0:0:
192,192,28044,1,0,0:0:0:0:
448,192,28097,1,0,0:0:0:0:
320,192,28097,1,0,0:0:0:0:
64,192,28151,1,0,0:0:0:0:
192,192,28204,1,0,0:0:0:0:
320,192,28257,1,0,0:0:0:0:
64,192,28311,1,0,0:0:0:0:
192,192,28364,1,0,0:0:0:0:
320,192,28431,1,0,0:0:0:0:
448,192,28431,1,0,0:0:0:0:
320,192,28521,1,0,0:0:0:0:
448,192,28521,1,0,0:0:0:0:
448,192,28641,1,0,0:0:0:0:
192,192,28671,1,0,0:0:0:0:
320,192,28791,1,0,0:0:0:0:
192,192,28791,1,0,0:0:0:0:
64,192,28911,1,0,0:0:0:0:
448,192,28911,1,0,0:0:0:0:
192,192,28971,1,0,0:0:0:0:
448,192,29031,1,0,0:0:0:0:
64,192,29091,1,0,0:0:0:0:
320,192,29151,1,0,0:0:0:0:
192,192,29151,1,0,0:0:0:0:
64,192,29271,1,0,0:0:0:0:
448,192,29271,1,0,0:0:0:0:
320,192,29324,1,0,0:0:0:0:
192,192,29377,1,0,0:0:0:0:
448,192,29431,1,0,0:0:0:0:
320,192,29431,1,0,0:0:0:0:
64,192,29484,1,0,0:0:0:0:
192,192,29537,1,0,0:0:0:0:
320,192,29591,1,0,0:0:0:0:
64,192,29644,1,0,0:0:0:0:
448,192,29697,1,0,0:0:0:0:
320,192,29751,1,0,0:0:0:0:
192,192,29811,1,0,0:0:0:0:
64,192,29871,1,0,0:0:0:0:
448,192,29871,1,0,0:0:0:0:
64,192,29991,1,0,0:0:0:0:
448,192,29991,1,0,0:0:0:0:
320,192,30111,1,0,0:0:0:0:
192,192,30111,1,0,0:0:0:0:
320,192,30231,1,0,0:0:0:0:
192,192,30231,1,0,0:0:0:0:
192,192,30351,1,0,0:0:0:0:
64,192,30351,1,0,0:0:0:0:
192,192,30471,1,0,0:0:0:0:
64,192,30471,1,0,0:0:0:0:
320,192,30591,1,0,0:0:0:0:
320,192,30711,1,0,0:0:0:0:
192,192,30711,1,0,0:0:0:0:
192,192,30831,1,0,0:0:0:0:
64,192,30831,1,0,0:0:0:0:
448,192,30831,1,0,0:0:0:0:
64,192,30951,1,0,0:0:0:0:
320,192,30951,1,0,0:0:0:0:
192,192,31071,1,0,0:0:0:0:
320,192,31191,1,0,0:0:0:0:
448,192,31191,1,0,0:0:0:0:
448,192,31311,1,0,0:0:0:0:
64,192,31311,1,0,0:0:0:0:
320,192,31391,1,0,0:0:0:0:
64,192,31431,1,0,0:0:0:0:
448,192,31471,1,0,0:0:0:0:
320,192,31551,1,0,0:0:0:0:
192,192,31551,1,0,0:0:0:0:
192,192,31671,1,0,0:0:0:0:
64,192,31671,1,0,0:0:0:0:
448,192,31724,1,0,0:0:0:0:
320,192,31777,1,0,0:0:0:0:
192,192,31831,1,0,0:0:0:0:
64,192,31831,1,0,0:0:0:0:
320,192,31884,1,0,0:0:0:0:
192,192,31937,1,0,0:0:0:0:
448,192,31991,1,0,0:0:0:0:
64,192,32044,1,0,0:0:0:0:
320,192,32044,1,0,0:0:0:0:
192,192,32097,1,0,0:0:0:0:
448,192,32151,1,0,0:0:0:0:
320,192,32204,1,0,0:0:0:0:
64,192,32271,1,0,0:0:0:0:
192,192,32271,1,0,0:0:0:0:
192,192,32361,1,0,0:0:0:0:
64,192,32361,1,0,0:0:0:0:
64,192,32481,1,0,0:0:0:0:
320,192,32511,1,0,0:0:0:0:
320,192,32631,1,0,0:0:0:0:
192,192,32631,1,0,0:0:0:0:
64,192,32751,1,0,0:0:0:0:
448,192,32751,1,0,0:0:0:0:
192,192,32811,1,0,0:0:0:0:
448,192,32871,1,0,0:0:0:0:
320,192,32931,1,0,0:0:0:0:
192,192,32991,1,0,0:0:0:0:
64,192,32991,1,0,0:0:0:0:
320,192,33111,1,0,0:0:0:0:
448,192,33111,1,0,0:0:0:0:
192,192,33164,1,0,0:0:0:0:
64,192,33217,1,0,0:0:0:0:
192,192,33271,1,0,0:0:0:0:
448,192,33271,1,0,0:0:0:0:
320,192,33324,1,0,0:0:0:0:
448,192,33377,1,0,0:0:0:0:
320,192,33431,1,0,0:0:0:0:
64,192,33484,1,0,0:0:0:0:
192,192,33537,1,0,0:0:0:0:
448,192,33591,1,0,0:0:0:0:
320,192,33651,1,0,0:0:0:0:
64,192,33711,1,0,0:0:0:0:
192,192,33711,1,0,0:0:0:0:
320,192,33771,1,0,0:0:0:0:
192,192,33831,1,0,0:0:0:0:
64,192,33891,1,0,0:0:0:0:
448,192,33951,1,0,0:0:0:0:
320,192,33951,1,0,0:0:0:0:
192,192,34011,1,0,0:0:0:0:
448,192,34071,1,0,0:0:0:0:
320,192,34131,1,0,0:0:0:0:
64,192,34191,1,0,0:0:0:0:
192,192,34191,1,0,0:0:0:0:
64,192,34311,1,0,0:0:0:0:
448,192,34311,1,0,0:0:0:0:
320,192,34431,128,0,34611:0:0:0:0:
64,192,34431,1,0,0:0:0:0:
192,192,34551,1,0,0:0:0:0:
320,192,34671,1,0,0:0:0:0:
448,192,34671,1,0,0:0:0:0:
64,192,34671,1,0,0:0:0:0:
320,192,34791,1,0,0:0:0:0:
448,192,34791,1,0,0:0:0:0:
64,192,34791,1,0,0:0:0:0:
320,192,34911,1,0,0:0:0:0:
192,192,35031,1,0,0:0:0:0:
192,192,35151,1,0,0:0:0:0:
64,192,35151,1,0,0:0:0:0:
320,192,35191,1,0,0:0:0:0:
448,192,35231,1,0,0:0:0:0:
320,192,35271,1,0,0:0:0:0:
192,192,35311,1,0,0:0:0:0:
64,192,35351,1,0,0:0:0:0:
448,192,35391,1,0,0:0:0:0:
192,192,35431,1,0,0:0:0:0:
320,192,35471,1,0,0:0:0:0:
448,192,35511,1,0,0:0:0:0:
64,192,35571,1,0,0:0:0:0:
320,192,35631,1,0,0:0:0:0:
192,192,35631,1,0,0:0:0:0:
64,192,35724,1,0,0:0:0:0:
448,192,35777,1,0,0:0:0:0:
320,192,35777,1,0,0:0:0:0:
192,192,35811,1,0,0:0:0:0:
448,192,35884,1,0,0:0:0:0:
320,192,35937,1,0,0:0:0:0:
192,192,35991,1,0,0:0:0:0:
64,192,35991,1,0,0:0:0:0:
64,192,36097,1,0,0:0:0:0:
192,192,36097,1,0,0:0:0:0:
192,192,36204,1,0,0:0:0:0:
64,192,36204,1,0,0:0:0:0:
320,192,36257,1,0,0:0:0:0:
448,192,36311,1,0,0:0:0:0:
320,192,36411,1,0,0:0:0:0:
192,192,36471,1,0,0:0:0:0:
64,192,36471,1,0,0:0:0:0:
448,192,36511,1,0,0:0:0:0:
320,192,36551,1,0,0:0:0:0:
64,192,36591,1,0,0:0:0:0:
448,192,36631,1,0,0:0:0:0:
192,192,36671,1,0,0:0:0:0:
64,192,36737,1,0,0:0:0:0:
192,192,36791,1,0,0:0:0:0:
320,192,36844,1,0,0:0:0:0:
448,192,36897,1,0,0:0:0:0:
64,192,36951,1,0,0:0:0:0:
320,192,37012,1,0,0:0:0:0:
192,192,37073,1,0,0:0:0:0:
64,192,37073,1,0,0:0:0:0:
448,192,37114,1,0,0:0:0:0:
320,192,37155,1,0,0:0:0:0:
192,192,37196,1,0,0:0:0:0:
448,192,37237,1,0,0:0:0:0:
64,192,37278,1,0,0:0:0:0:
192,192,37319,1,0,0:0:0:0:
448,192,37360,1,0,0:0:0:0:
320,192,37401,1,0,0:0:0:0:
64,192,37442,1,0,0:0:0:0:
192,192,37504,1,0,0:0:0:0:
320,192,37565,1,0,0:0:0:0:
448,192,37565,1,0,0:0:0:0:
64,192,37661,1,0,0:0:0:0:
320,192,37716,1,0,0:0:0:0:
448,192,37716,1,0,0:0:0:0:
192,192,37770,1,0,0:0:0:0:
64,192,37825,1,0,0:0:0:0:
192,192,37879,1,0,0:0:0:0:
320,192,37934,1,0,0:0:0:0:
448,192,37934,1,0,0:0:0:0:
320,192,38042,1,0,0:0:0:0:
448,192,38042,1,0,0:0:0:0:
320,192,38150,1,0,0:0:0:0:
448,192,38150,1,0,0:0:0:0:
192,192,38205,1,0,0:0:0:0:
64,192,38259,1,0,0:0:0:0:
192,192,38360,1,0,0:0:0:0:
320,192,38421,1,0,0:0:0:0:
448,192,38421,1,0,0:0:0:0:
64,192,38476,1,0,0:0:0:0:
192,192,38530,1,0,0:0:0:0:
320,192,38584,1,0,0:0:0:0:
64,192,38638,1,0,0:0:0:0:
448,192,38638,1,0,0:0:0:0:
320,192,38692,1,0,0:0:0:0:
192,192,38747,1,0,0:0:0:0:
64,192,38801,1,0,0:0:0:0:
448,192,38828,1,0,0:0:0:0:
320,192,38909,1,0,0:0:0:0:
192,192,38970,1,0,0:0:0:0:
320,192,39031,1,0,0:0:0:0:
448,192,39031,1,0,0:0:0:0:
64,192,39072,1,0,0:0:0:0:
192,192,39112,1,0,0:0:0:0:
320,192,39153,1,0,0:0:0:0:
448,192,39194,1,0,0:0:0:0:
64,192,39234,1,0,0:0:0:0:
320,192,39275,1,0,0:0:0:0:
192,192,39316,1,0,0:0:0:0:
64,192,39356,1,0,0:0:0:0:
192,192,39397,1,0,0:0:0:0:
320,192,39458,1,0,0:0:0:0:
448,192,39519,1,0,0:0:0:0:
64,192,39519,1,0,0:0:0:0:
192,192,39668,1,0,0:0:0:0:
320,192,39668,1,0,0:0:0:0:
448,192,39722,1,0,0:0:0:0:
320,192,39776,1,0,0:0:0:0:
192,192,39831,1,0,0:0:0:0:
64,192,39885,1,0,0:0:0:0:
448,192,39885,1,0,0:0:0:0:
64,192,39993,1,0,0:0:0:0:
448,192,39993,1,0,0:0:0:0:
448,192,40102,1,0,0:0:0:0:
64,192,40102,1,0,0:0:0:0:
192,192,40156,1,0,0:0:0:0:
320,192,40251,1,0,0:0:0:0:
448,192,40251,1,0,0:0:0:0:
192,192,40373,1,0,0:0:0:0:
64,192,40373,1,0,0:0:0:0:
448,192,40433,1,0,0:0:0:0:
192,192,40493,1,0,0:0:0:0:
64,192,40553,1,0,0:0:0:0:
320,192,40613,1,0,0:0:0:0:
448,192,40613,1,0,0:0:0:0:
192,192,40673,1,0,0:0:0:0:
448,192,40733,1,0,0:0:0:0:
320,192,40793,1,0,0:0:0:0:
192,192,40853,1,0,0:0:0:0:
64,192,40853,1,0,0:0:0:0:
448,192,40913,1,0,0:0:0:0:
64,192,40973,1,0,0:0:0:0:
192,192,41013,1,0,0:0:0:0:
320,192,41053,1,0,0:0:0:0:
448,192,41093,1,0,0:0:0:0:
64,192,41133,1,0,0:0:0:0:
320,192,41173,1,0,0:0:0:0:
192,192,41226,1,0,0:0:0:0:
448,192,41279,1,0,0:0:0:0:
64,192,41333,1,0,0:0:0:0:
192,192,41386,1,0,0:0:0:0:
320,192,41439,1,0,0:0:0:0:
448,192,41439,1,0,0:0:0:0:
64,192,41493,1,0,0:0:0:0:
320,192,41546,1,0,0:0:0:0:
192,192,41599,1,0,0:0:0:0:
448,192,41653,1,0,0:0:0:0:
192,192,41706,1,0,0:0:0:0:
320,192,41759,1,0,0:0:0:0:
64,192,41813,1,0,0:0:0:0:
448,192,41866,1,0,0:0:0:0:
64,192,41919,1,0,0:0:0:0:
192,192,41973,1,0,0:0:0:0:
320,192,42026,1,0,0:0:0:0:
448,192,42079,1,0,0:0:0:0:
192,192,42173,1,0,0:0:0:0:
64,192,42173,1,0,0:0:0:0:
320,192,42233,1,0,0:0:0:0:
192,192,42293,1,0,0:0:0:0:
320,192,42413,1,0,0:0:0:0:
448,192,42413,1,0,0:0:0:0:
64,192,42413,1,0,0:0:0:0:
192,192,42533,128,0,42653:0:0:0:0:
320,192,42533,128,0,42653:0:0:0:0:
448,192,42533,128,0,42653:0:0:0:0:
192,192,42773,128,0,42893:0:0:0:0:
64,192,42773,128,0,42893:0:0:0:0:
320,192,42773,128,0,42893:0:0:0:0:
192,192,43013,1,0,0:0:0:0:
192,192,43133,1,0,0:0:0:0:
320,192,43253,1,0,0:0:0:0:
448,192,43253,1,0,0:0:0:0:
64,192,43306,1,0,0:0:0:0:
320,192,43359,1,0,0:0:0:0:
192,192,43413,1,0,0:0:0:0:
448,192,43466,1,0,0:0:0:0:
64,192,43466,1,0,0:0:0:0:
320,192,43519,1,0,0:0:0:0:
64,192,43573,1,0,0:0:0:0:
192,192,43626,1,0,0:0:0:0:
448,192,43679,1,0,0:0:0:0:
320,192,43733,1,0,0:0:0:0:
192,192,43786,1,0,0:0:0:0:
64,192,43853,1,0,0:0:0:0:
448,192,43853,1,0,0:0:0:0:
448,192,43943,1,0,0:0:0:0:
64,192,43943,1,0,0:0:0:0:
448,192,44063,1,0,0:0:0:0:
192,192,44093,1,0,0:0:0:0:
192,192,44213,1,0,0:0:0:0:
320,192,44213,1,0,0:0:0:0:
448,192,44333,1,0,0:0:0:0:
64,192,44333,1,0,0:0:0:0:
320,192,44393,1,0,0:0:0:0:
64,192,44453,1,0,0:0:0:0:
192,192,44513,1,0,0:0:0:0:
448,192,44573,1,0,0:0:0:0:
320,192,44573,1,0,0:0:0:0:
192,192,44693,1,0,0:0:0:0:
64,192,44693,1,0,0:0:0:0:
320,192,44746,1,0,0:0:0:0:
448,192,44799,1,0,0:0:0:0:
320,192,44853,1,0,0:0:0:0:
64,192,44853,1,0,0:0:0:0:
192,192,44906,1,0,0:0:0:0:
64,192,44959,1,0,0:0:0:0:
448,192,45013,1,0,0:0:0:0:
192,192,45066,1,0,0:0:0:0:
320,192,45119,1,0,0:0:0:0:
448,192,45173,1,0,0:0:0:0:
64,192,45233,1,0,0:0:0:0:
192,192,45293,1,0,0:0:0:0:
320,192,45293,1,0,0:0:0:0:
64,192,45353,1,0,0:0:0:0:
448,192,45413,1,0,0:0:0:0:
320,192,45473,1,0,0:0:0:0:
192,192,45533,1,0,0:0:0:0:
64,192,45593,1,0,0:0:0:0:
448,192,45653,1,0,0:0:0:0:
320,192,45653,1,0,0:0:0:0:
448,192,45773,1,0,0:0:0:0:
320,192,45773,1,0,0:0:0:0:
192,192,45773,1,0,0:0:0:0:
320,192,45893,1,0,0:0:0:0:
448,192,45893,1,0,0:0:0:0:
192,192,45893,1,0,0:0:0:0:
192,192,46013,1,0,0:0:0:0:
64,192,46013,1,0,0:0:0:0:
192,192,46133,1,0,0:0:0:0:
320,192,46253,1,0,0:0:0:0:
448,192,46253,1,0,0:0:0:0:
64,192,46253,1,0,0:0:0:0:
320,192,46373,1,0,0:0:0:0:
192,192,46373,1,0,0:0:0:0:
192,192,46493,1,0,0:0:0:0:
320,192,46613,1,0,0:0:0:0:
448,192,46613,1,0,0:0:0:0:
320,192,46733,1,0,0:0:0:0:
64,192,46853,1,0,0:0:0:0:
448,192,46853,1,0,0:0:0:0:
192,192,46973,1,0,0:0:0:0:
64,192,46973,1,0,0:0:0:0:
320,192,47093,1,0,0:0:0:0:
448,192,47093,1,0,0:0:0:0:
64,192,47146,1,0,0:0:0:0:
448,192,47199,1,0,0:0:0:0:
320,192,47253,1,0,0:0:0:0:
64,192,47306,1,0,0:0:0:0:
192,192,47306,1,0,0:0:0:0:
448,192,47359,1,0,0:0:0:0:
192,192,47413,1,0,0:0:0:0:
320,192,47466,1,0,0:0:0:0:
64,192,47519,1,0,0:0:0:0:
192,192,47573,1,0,0:0:0:0:
320,192,47626,1,0,0:0:0:0:
448,192,47693,1,0,0:0:0:0:
64,192,47693,1,0,0:0:0:0:
448,192,47783,1,0,0:0:0:0:
64,192,47783,1,0,0:0:0:0:
64,192,47903,1,0,0:0:0:0:
192,192,47933,1,0,0:0:0:0:
320,192,48053,1,0,0:0:0:0:
448,192,48053,1,0,0:0:0:0:
320,192,48173,1,0,0:0:0:0:
192,192,48173,1,0,0:0:0:0:
64,192,48233,1,0,0:0:0:0:
192,192,48293,1,0,0:0:0:0:
320,192,48353,1,0,0:0:0:0:
64,192,48413,1,0,0:0:0:0:
448,192,48413,1,0,0:0:0:0:
320,192,48533,1,0,0:0:0:0:
448,192,48533,1,0,0:0:0:0:
64,192,48586,1,0,0:0:0:0:
192,192,48639,1,0,0:0:0:0:
448,192,48639,1,0,0:0:0:0:
320,192,48693,1,0,0:0:0:0:
64,192,48746,1,0,0:0:0:0:
448,192,48799,1,0,0:0:0:0:
320,192,48853,1,0,0:0:0:0:
192,192,48906,1,0,0:0:0:0:
320,192,48959,1,0,0:0:0:0:
192,192,49013,1,0,0:0:0:0:
64,192,49073,1,0,0:0:0:0:
320,192,49133,1,0,0:0:0:0:
448,192,49133,1,0,0:0:0:0:
192,192,49193,1,0,0:0:0:0:
448,192,49253,1,0,0:0:0:0:
64,192,49313,1,0,0:0:0:0:
320,192,49333,1,0,0:0:0:0:
192,192,49373,1,0,0:0:0:0:
448,192,49433,1,0,0:0:0:0:
320,192,49493,1,0,0:0:0:0:
192,192,49553,1,0,0:0:0:0:
448,192,49613,1,0,0:0:0:0:
64,192,49613,1,0,0:0:0:0:
64,192,49733,1,0,0:0:0:0:
448,192,49733,1,0,0:0:0:0:
320,192,49853,1,0,0:0:0:0:
192,192,49853,1,0,0:0:0:0:
192,192,49973,1,0,0:0:0:0:
320,192,50093,1,0,0:0:0:0:
448,192,50093,1,0,0:0:0:0:
64,192,50093,1,0,0:0:0:0:
320,192,50213,1,0,0:0:0:0:
448,192,50213,1,0,0:0:0:0:
192,192,50213,1,0,0:0:0:0:
320,192,50333,1,0,0:0:0:0:
448,192,50453,1,0,0:0:0:0:
64,192,50453,1,0,0:0:0:0:
192,192,50453,1,0,0:0:0:0:
192,192,50573,1,0,0:0:0:0:
320,192,50693,1,0,0:0:0:0:
64,192,50693,1,0,0:0:0:0:
320,192,50813,1,0,0:0:0:0:
448,192,50813,1,0,0:0:0:0:
192,192,50933,1,0,0:0:0:0:
64,192,50933,1,0,0:0:0:0:
448,192,50986,1,0,0:0:0:0:
64,192,51039,1,0,0:0:0:0:
320,192,51093,1,0,0:0:0:0:
192,192,51146,1,0,0:0:0:0:
448,192,51199,1,0,0:0:0:0:
320,192,51199,1,0,0:0:0:0:
64,192,51253,1,0,0:0:0:0:
192,192,51306,1,0,0:0:0:0:
320,192,51359,1,0,0:0:0:0:
448,192,51413,1,0,0:0:0:0:
64,192,51473,1,0,0:0:0:0:
192,192,51533,1,0,0:0:0:0:
320,192,51533,1,0,0:0:0:0:
192,192,51623,1,0,0:0:0:0:
320,192,51623,1,0,0:0:0:0:
192,192,51743,1,0,0:0:0:0:
64,192,51773,1,0,0:0:0:0:
320,192,51893,1,0,0:0:0:0:
448,192,51893,1,0,0:0:0:0:
448,192,52013,1,0,0:0:0:0:
64,192,52013,1,0,0:0:0:0:
320,192,52073,1,0,0:0:0:0:
64,192,52133,1,0,0:0:0:0:
192,192,52193,1,0,0:0:0:0:
448,192,52253,1,0,0:0:0:0:
320,192,52253,1,0,0:0:0:0:
192,192,52373,1,0,0:0:0:0:
64,192,52373,1,0,0:0:0:0:
448,192,52426,1,0,0:0:0:0:
320,192,52479,1,0,0:0:0:0:
192,192,52533,1,0,0:0:0:0:
64,192,52586,1,0,0:0:0:0:
448,192,52639,1,0,0:0:0:0:
320,192,52639,1,0,0:0:0:0:
192,192,52693,1,0,0:0:0:0:
448,192,52746,1,0,0:0:0:0:
64,192,52799,1,0,0:0:0:0:
192,192,52853,1,0,0:0:0:0:
448,192,52913,1,0,0:0:0:0:
64,192,52973,1,0,0:0:0:0:
320,192,52973,1,0,0:0:0:0:
192,192,53033,1,0,0:0:0:0:
448,192,53093,1,0,0:0:0:0:
320,192,53153,1,0,0:0:0:0:
192,192,53213,1,0,0:0:0:0:
64,192,53213,1,0,0:0:0:0:
448,192,53273,1,0,0:0:0:0:
192,192,53333,1,0,0:0:0:0:
64,192,53393,1,0,0:0:0:0:
448,192,53453,1,0,0:0:0:0:
320,192,53453,1,0,0:0:0:0:
320,192,53573,1,0,0:0:0:0:
448,192,53573,1,0,0:0:0:0:
320,192,53693,1,0,0:0:0:0:
192,192,53693,128,0,53874:0:0:0:0:
448,192,53813,1,0,0:0:0:0:
320,192,53935,1,0,0:0:0:0:
192,192,53935,1,0,0:0:0:0:
64,192,53935,1,0,0:0:0:0:
320,192,54058,1,0,0:0:0:0:
192,192,54058,1,0,0:0:0:0:
64,192,54058,1,0,0:0:0:0:
320,192,54181,1,0,0:0:0:0:
448,192,54181,1,0,0:0:0:0:
320,192,54305,1,0,0:0:0:0:
448,192,54305,1,0,0:0:0:0:
192,192,54421,1,0,0:0:0:0:
64,192,54421,1,0,0:0:0:0:
448,192,54460,1,0,0:0:0:0:
320,192,54498,1,0,0:0:0:0:
192,192,54537,1,0,0:0:0:0:
64,192,54576,1,0,0:0:0:0:
192,192,54615,1,0,0:0:0:0:
320,192,54653,1,0,0:0:0:0:
64,192,54692,1,0,0:0:0:0:
448,192,54731,1,0,0:0:0:0:
320,192,54770,1,0,0:0:0:0:
192,192,54828,1,0,0:0:0:0:
64,192,54886,1,0,0:0:0:0:
448,192,54886,1,0,0:0:0:0:
448,192,55002,1,0,0:0:0:0:
320,192,55028,1,0,0:0:0:0:
192,192,55080,1,0,0:0:0:0:
64,192,55131,1,0,0:0:0:0:
192,192,55183,1,0,0:0:0:0:
448,192,55235,1,0,0:0:0:0:
320,192,55235,1,0,0:0:0:0:
64,192,55293,1,0,0:0:0:0:
192,192,55322,1,0,0:0:0:0:
320,192,55338,1,0,0:0:0:0:
448,192,55338,1,0,0:0:0:0:
320,192,55441,1,0,0:0:0:0:
448,192,55441,1,0,0:0:0:0:
192,192,55493,1,0,0:0:0:0:
64,192,55545,1,0,0:0:0:0:
192,192,55642,1,0,0:0:0:0:
320,192,55700,1,0,0:0:0:0:
448,192,55700,1,0,0:0:0:0:
64,192,55739,1,0,0:0:0:0:
192,192,55777,1,0,0:0:0:0:
448,192,55816,1,0,0:0:0:0:
320,192,55855,1,0,0:0:0:0:
192,192,55894,1,0,0:0:0:0:
448,192,55958,1,0,0:0:0:0:
64,192,56010,1,0,0:0:0:0:
192,192,56049,1,0,0:0:0:0:
320,192,56107,1,0,0:0:0:0:
192,192,56165,1,0,0:0:0:0:
320,192,56217,1,0,0:0:0:0:
448,192,56268,1,0,0:0:0:0:
64,192,56320,1,0,0:0:0:0:
192,192,56398,1,0,0:0:0:0:
320,192,56398,1,0,0:0:0:0:
448,192,56436,1,0,0:0:0:0:
64,192,56475,1,0,0:0:0:0:
192,192,56514,1,0,0:0:0:0:
320,192,56553,1,0,0:0:0:0:
64,192,56591,1,0,0:0:0:0:
448,192,56630,1,0,0:0:0:0:
320,192,56669,1,0,0:0:0:0:
192,192,56708,1,0,0:0:0:0:
64,192,56746,1,0,0:0:0:0:
192,192,56804,1,0,0:0:0:0:
320,192,56863,1,0,0:0:0:0:
448,192,56863,1,0,0:0:0:0:
448,192,56992,1,0,0:0:0:0:
64,192,56992,1,0,0:0:0:0:
192,192,57044,1,0,0:0:0:0:
320,192,57095,1,0,0:0:0:0:
448,192,57147,1,0,0:0:0:0:
320,192,57199,1,0,0:0:0:0:
192,192,57250,1,0,0:0:0:0:
64,192,57250,1,0,0:0:0:0:
192,192,57354,1,0,0:0:0:0:
64,192,57354,1,0,0:0:0:0:
192,192,57457,1,0,0:0:0:0:
64,192,57457,1,0,0:0:0:0:
448,192,57522,1,0,0:0:0:0:
320,192,57560,1,0,0:0:0:0:
192,192,57618,1,0,0:0:0:0:
64,192,57677,1,0,0:0:0:0:
192,192,57754,1,0,0:0:0:0:
448,192,57793,1,0,0:0:0:0:
320,192,57793,1,0,0:0:0:0:
320,192,57909,1,0,0:0:0:0:
448,192,57967,1,0,0:0:0:0:
64,192,58025,1,0,0:0:0:0:
192,192,58025,1,0,0:0:0:0:
320,192,58084,1,0,0:0:0:0:
64,192,58142,1,0,0:0:0:0:
192,192,58200,1,0,0:0:0:0:
320,192,58258,1,0,0:0:0:0:
448,192,58258,1,0,0:0:0:0:
64,192,58297,1,0,0:0:0:0:
448,192,58336,1,0,0:0:0:0:
192,192,58374,1,0,0:0:0:0:
320,192,58413,1,0,0:0:0:0:
448,192,58491,1,0,0:0:0:0:
192,192,58549,1,0,0:0:0:0:
64,192,58549,1,0,0:0:0:0:
320,192,58568,1,0,0:0:0:0:
192,192,58636,1,0,0:0:0:0:
320,192,58781,1,0,0:0:0:0:
448,192,58781,1,0,0:0:0:0:
64,192,58781,1,0,0:0:0:0:
448,192,58878,1,0,0:0:0:0:
192,192,58956,1,0,0:0:0:0:
64,192,58956,1,0,0:0:0:0:
320,192,59014,1,0,0:0:0:0:
192,192,59072,1,0,0:0:0:0:
448,192,59188,1,0,0:0:0:0:
64,192,59188,1,0,0:0:0:0:
192,192,59227,1,0,0:0:0:0:
320,192,59266,1,0,0:0:0:0:
448,192,59304,1,0,0:0:0:0:
64,192,59343,1,0,0:0:0:0:
320,192,59382,1,0,0:0:0:0:
192,192,59421,1,0,0:0:0:0:
448,192,59482,1,0,0:0:0:0:
192,192,59543,1,0,0:0:0:0:
64,192,59584,1,0,0:0:0:0:
320,192,59665,1,0,0:0:0:0:
448,192,59665,1,0,0:0:0:0:
192,192,59665,1,0,0:0:0:0:
64,192,59787,1,0,0:0:0:0:
320,192,59787,1,0,0:0:0:0:
320,192,59909,1,0,0:0:0:0:
448,192,59909,1,0,0:0:0:0:
320,192,60029,1,0,0:0:0:0:
448,192,60029,1,0,0:0:0:0:
320,192,60149,1,0,0:0:0:0:
448,192,60149,1,0,0:0:0:0:
192,192,60269,1,0,0:0:0:0:
64,192,60269,1,0,0:0:0:0:
448,192,60335,1,0,0:0:0:0:
320,192,60389,1,0,0:0:0:0:
192,192,60442,1,0,0:0:0:0:
64,192,60442,1,0,0:0:0:0:
448,192,60495,1,0,0:0:0:0:
64,192,60549,1,0,0:0:0:0:
192,192,60602,1,0,0:0:0:0:
320,192,60655,1,0,0:0:0:0:
448,192,60709,1,0,0:0:0:0:
320,192,60762,1,0,0:0:0:0:
64,192,60762,1,0,0:0:0:0:
192,192,60815,1,0,0:0:0:0:
64,192,60869,1,0,0:0:0:0:
448,192,60922,1,0,0:0:0:0:
192,192,60975,1,0,0:0:0:0:
320,192,61029,1,0,0:0:0:0:
192,192,61109,1,0,0:0:0:0:
64,192,61109,1,0,0:0:0:0:
448,192,61169,1,0,0:0:0:0:
64,192,61242,1,0,0:0:0:0:
192,192,61295,1,0,0:0:0:0:
320,192,61349,1,0,0:0:0:0:
448,192,61402,1,0,0:0:0:0:
192,192,61469,1,0,0:0:0:0:
64,192,61469,1,0,0:0:0:0:
320,192,61529,1,0,0:0:0:0:
192,192,61589,1,0,0:0:0:0:
64,192,61709,1,0,0:0:0:0:
448,192,61709,1,0,0:0:0:0:
320,192,61709,1,0,0:0:0:0:
192,192,61829,128,0,62074:0:0:0:0:
320,192,61829,128,0,62074:0:0:0:0:
320,192,62123,1,0,0:0:0:0:
448,192,62123,1,0,0:0:0:0:
192,192,62222,1,0,0:0:0:0:
64,192,62222,1,0,0:0:0:0:
448,192,62264,1,0,0:0:0:0:
320,192,62306,1,0,0:0:0:0:
192,192,62349,1,0,0:0:0:0:
64,192,62391,1,0,0:0:0:0:
448,192,62433,1,0,0:0:0:0:
320,192,62476,1,0,0:0:0:0:
192,192,62518,1,0,0:0:0:0:
64,192,62560,1,0,0:0:0:0:
320,192,62603,1,0,0:0:0:0:
448,192,62645,1,0,0:0:0:0:
64,192,62688,1,0,0:0:0:0:
192,192,62730,1,0,0:0:0:0:
448,192,62782,1,0,0:0:0:0:
192,192,62835,1,0,0:0:0:0:
320,192,62888,1,0,0:0:0:0:
64,192,62941,1,0,0:0:0:0:
448,192,62994,1,0,0:0:0:0:
320,192,63047,1,0,0:0:0:0:
64,192,63087,1,0,0:0:0:0:
192,192,63087,1,0,0:0:0:0:
448,192,63206,1,0,0:0:0:0:
320,192,63206,1,0,0:0:0:0:
192,192,63325,1,0,0:0:0:0:
320,192,63325,1,0,0:0:0:0:
448,192,63325,1,0,0:0:0:0:
192,192,63444,1,0,0:0:0:0:
64,192,63444,1,0,0:0:0:0:
320,192,63444,1,0,0:0:0:0:
192,192,63563,1,0,0:0:0:0:
64,192,63563,1,0,0:0:0:0:
64,192,63682,1,0,0:0:0:0:
448,192,63682,1,0,0:0:0:0:
192,192,63682,1,0,0:0:0:0:
320,192,63682,1,0,0:0:0:0:
320,192,63804,1,0,0:0:0:0:
448,192,63804,1,0,0:0:0:0:
192,192,63804,1,0,0:0:0:0:
320,192,63927,1,0,0:0:0:0:
192,192,64050,1,0,0:0:0:0:
64,192,64050,1,0,0:0:0:0:
448,192,64064,1,0,0:0:0:0:
320,192,64119,1,0,0:0:0:0:
192,192,64173,1,0,0:0:0:0:
64,192,64228,1,0,0:0:0:0:
448,192,64228,1,0,0:0:0:0:
192,192,64283,1,0,0:0:0:0:
320,192,64327,1,0,0:0:0:0:
448,192,64392,1,0,0:0:0:0:
320,192,64447,1,0,0:0:0:0:
192,192,64501,1,0,0:0:0:0:
64,192,64501,1,0,0:0:0:0:
448,192,64556,1,0,0:0:0:0:
64,192,64610,1,0,0:0:0:0:
192,192,64665,1,0,0:0:0:0:
448,192,64720,1,0,0:0:0:0:
320,192,64774,1,0,0:0:0:0:
192,192,64829,1,0,0:0:0:0:
64,192,64829,1,0,0:0:0:0:
448,192,64884,1,0,0:0:0:0:
192,192,64938,1,0,0:0:0:0:
320,192,64972,1,0,0:0:0:0:
64,192,65048,1,0,0:0:0:0:
448,192,65065,1,0,0:0:0:0:
320,192,65102,1,0,0:0:0:0:
64,192,65157,1,0,0:0:0:0:
192,192,65157,1,0,0:0:0:0:
448,192,65212,1,0,0:0:0:0:
320,192,65266,1,0,0:0:0:0:
192,192,65321,1,0,0:0:0:0:
448,192,65375,1,0,0:0:0:0:
64,192,65430,1,0,0:0:0:0:
192,192,65485,1,0,0:0:0:0:
320,192,65539,1,0,0:0:0:0:
448,192,65539,1,0,0:0:0:0:
64,192,65594,1,0,0:0:0:0:
320,192,65649,1,0,0:0:0:0:
448,192,65649,1,0,0:0:0:0:
192,192,65707,1,0,0:0:0:0:
448,192,65781,1,0,0:0:0:0:
64,192,65803,1,0,0:0:0:0:
320,192,65880,1,0,0:0:0:0:
192,192,65996,1,0,0:0:0:0:
64,192,65996,1,0,0:0:0:0:
320,192,66111,1,0,0:0:0:0:
448,192,66111,1,0,0:0:0:0:
64,192,66153,1,0,0:0:0:0:
192,192,66195,1,0,0:0:0:0:
320,192,66237,1,0,0:0:0:0:
448,192,66279,1,0,0:0:0:0:
192,192,66321,1,0,0:0:0:0:
320,192,66363,1,0,0:0:0:0:
64,192,66405,1,0,0:0:0:0:
448,192,66447,1,0,0:0:0:0:
320,192,66489,1,0,0:0:0:0:
192,192,66531,1,0,0:0:0:0:
64,192,66573,1,0,0:0:0:0:
448,192,66615,1,0,0:0:0:0:
192,192,66669,1,0,0:0:0:0:
320,192,66723,1,0,0:0:0:0:
192,192,66777,1,0,0:0:0:0:
448,192,66831,1,0,0:0:0:0:
64,192,66886,1,0,0:0:0:0:
192,192,66940,1,0,0:0:0:0:
320,192,66980,1,0,0:0:0:0:
448,192,66980,1,0,0:0:0:0:
192,192,67102,1,0,0:0:0:0:
64,192,67102,1,0,0:0:0:0:
192,192,67224,1,0,0:0:0:0:
64,192,67224,1,0,0:0:0:0:
320,192,67224,1,0,0:0:0:0:
320,192,67346,1,0,0:0:0:0:
448,192,67346,1,0,0:0:0:0:
192,192,67346,1,0,0:0:0:0:
320,192,67468,1,0,0:0:0:0:
448,192,67468,1,0,0:0:0:0:
192,192,67590,1,0,0:0:0:0:
64,192,67590,1,0,0:0:0:0:
320,192,67590,1,0,0:0:0:0:
448,192,67590,1,0,0:0:0:0:
192,192,67712,1,0,0:0:0:0:
64,192,67712,1,0,0:0:0:0:
320,192,67712,1,0,0:0:0:0:
192,192,67834,1,0,0:0:0:0:
448,192,67956,1,0,0:0:0:0:
192,192,68017,1,0,0:0:0:0:
448,192,68078,1,0,0:0:0:0:
320,192,68078,1,0,0:0:0:0:
64,192,68139,1,0,0:0:0:0:
320,192,68199,1,0,0:0:0:0:
64,192,68259,1,0,0:0:0:0:
192,192,68319,1,0,0:0:0:0:
448,192,68319,1,0,0:0:0:0:
320,192,68379,1,0,0:0:0:0:
192,192,68439,1,0,0:0:0:0:
320,192,68499,1,0,0:0:0:0:
448,192,68559,1,0,0:0:0:0:
64,192,68559,1,0,0:0:0:0:
192,192,68619,1,0,0:0:0:0:
320,192,68679,1,0,0:0:0:0:
192,192,68739,1,0,0:0:0:0:
448,192,68799,1,0,0:0:0:0:
64,192,68799,1,0,0:0:0:0:
64,192,68919,1,0,0:0:0:0:
448,192,68919,1,0,0:0:0:0:
64,192,69039,1,0,0:0:0:0:
192,192,69039,1,0,0:0:0:0:
448,192,69039,1,0,0:0:0:0:
320,192,69039,1,0,0:0:0:0:
320,192,69159,1,0,0:0:0:0:
192,192,69159,1,0,0:0:0:0:
192,192,69279,1,0,0:0:0:0:
320,192,69279,1,0,0:0:0:0:
320,192,69399,1,0,0:0:0:0:
64,192,69399,1,0,0:0:0:0:
448,192,69519,1,0,0:0:0:0:
192,192,69519,1,0,0:0:0:0:
64,192,69519,1,0,0:0:0:0:
448,192,69640,128,0,69884:0:0:0:0:
320,192,69640,128,0,69884:0:0:0:0:
192,192,69762,1,0,0:0:0:0:
192,192,69884,1,0,0:0:0:0:
320,192,70007,1,0,0:0:0:0:
448,192,70007,1,0,0:0:0:0:
64,192,70047,1,0,0:0:0:0:
192,192,70087,1,0,0:0:0:0:
320,192,70127,1,0,0:0:0:0:
448,192,70168,1,0,0:0:0:0:
320,192,70208,1,0,0:0:0:0:
192,192,70248,1,0,0:0:0:0:
64,192,70289,1,0,0:0:0:0:
448,192,70329,1,0,0:0:0:0:
192,192,70369,1,0,0:0:0:0:
320,192,70410,1,0,0:0:0:0:
64,192,70450,1,0,0:0:0:0:
448,192,70490,1,0,0:0:0:0:
192,192,70544,1,0,0:0:0:0:
320,192,70598,1,0,0:0:0:0:
448,192,70652,1,0,0:0:0:0:
320,192,70705,1,0,0:0:0:0:
192,192,70759,1,0,0:0:0:0:
64,192,70813,1,0,0:0:0:0:
448,192,70853,1,0,0:0:0:0:
320,192,70853,1,0,0:0:0:0:
192,192,70974,1,0,0:0:0:0:
64,192,70974,1,0,0:0:0:0:
192,192,71095,1,0,0:0:0:0:
64,192,71095,1,0,0:0:0:0:
448,192,71095,1,0,0:0:0:0:
320,192,71216,1,0,0:0:0:0:
448,192,71216,1,0,0:0:0:0:
64,192,71216,1,0,0:0:0:0:
320,192,71337,1,0,0:0:0:0:
448,192,71337,1,0,0:0:0:0:
192,192,71458,1,0,0:0:0:0:
64,192,71458,1,0,0:0:0:0:
448,192,71458,1,0,0:0:0:0:
320,192,71458,1,0,0:0:0:0:
192,192,71579,1,0,0:0:0:0:
64,192,71579,1,0,0:0:0:0:
320,192,71579,1,0,0:0:0:0:
192,192,71700,1,0,0:0:0:0:
320,192,71821,1,0,0:0:0:0:
448,192,71942,1,0,0:0:0:0:
64,192,71942,1,0,0:0:0:0:
192,192,71996,1,0,0:0:0:0:
320,192,72050,1,0,0:0:0:0:
448,192,72103,1,0,0:0:0:0:
64,192,72103,1,0,0:0:0:0:
320,192,72157,1,0,0:0:0:0:
192,192,72211,1,0,0:0:0:0:
64,192,72265,1,0,0:0:0:0:
448,192,72318,1,0,0:0:0:0:
320,192,72372,1,0,0:0:0:0:
192,192,72426,1,0,0:0:0:0:
64,192,72426,1,0,0:0:0:0:
448,192,72480,1,0,0:0:0:0:
64,192,72533,1,0,0:0:0:0:
192,192,72587,1,0,0:0:0:0:
320,192,72641,1,0,0:0:0:0:
448,192,72695,1,0,0:0:0:0:
320,192,72748,1,0,0:0:0:0:
64,192,72748,1,0,0:0:0:0:
192,192,72802,1,0,0:0:0:0:
64,192,72856,1,0,0:0:0:0:
448,192,72910,1,0,0:0:0:0:
192,192,72963,1,0,0:0:0:0:
320,192,73017,1,0,0:0:0:0:
448,192,73017,1,0,0:0:0:0:
64,192,73071,1,0,0:0:0:0:
320,192,73125,1,0,0:0:0:0:
192,192,73179,1,0,0:0:0:0:
448,192,73232,1,0,0:0:0:0:
64,192,73286,1,0,0:0:0:0:
192,192,73340,1,0,0:0:0:0:
320,192,73394,1,0,0:0:0:0:
448,192,73394,1,0,0:0:0:0:
64,192,73447,1,0,0:0:0:0:
192,192,73501,1,0,0:0:0:0:
320,192,73555,1,0,0:0:0:0:
64,192,73555,1,0,0:0:0:0:
448,192,73609,1,0,0:0:0:0:
320,192,73662,1,0,0:0:0:0:
192,192,73716,1,0,0:0:0:0:
448,192,73770,1,0,0:0:0:0:
320,192,73824,1,0,0:0:0:0:
192,192,73877,1,0,0:0:0:0:
64,192,73877,1,0,0:0:0:0:
64,192,73958,1,0,0:0:0:0:
192,192,73958,1,0,0:0:0:0:
320,192,74039,1,0,0:0:0:0:
448,192,74039,1,0,0:0:0:0:
64,192,74119,1,0,0:0:0:0:
320,192,74146,1,0,0:0:0:0:
448,192,74146,1,0,0:0:0:0:
192,192,74200,1,0,0:0:0:0:
64,192,74361,1,0,0:0:0:0:
192,192,74361,1,0,0:0:0:0:
320,192,74361,1,0,0:0:0:0:
320,192,74482,1,0,0:0:0:0:
192,192,74523,1,0,0:0:0:0:
448,192,74603,1,0,0:0:0:0:
320,192,74603,1,0,0:0:0:0:
64,192,74644,1,0,0:0:0:0:
192,192,74684,1,0,0:0:0:0:
320,192,74724,1,0,0:0:0:0:
448,192,74724,1,0,0:0:0:0:
192,192,74845,1,0,0:0:0:0:
64,192,74845,1,0,0:0:0:0:
64,192,74965,1,0,0:0:0:0:
448,192,74965,1,0,0:0:0:0:
320,192,75005,1,0,0:0:0:0:
448,192,75085,1,0,0:0:0:0:
192,192,75205,1,0,0:0:0:0:
64,192,75205,1,0,0:0:0:0:
320,192,75325,1,0,0:0:0:0:
448,192,75325,1,0,0:0:0:0:
64,192,75325,1,0,0:0:0:0:
320,192,75445,1,0,0:0:0:0:
448,192,75445,1,0,0:0:0:0:
64,192,75445,1,0,0:0:0:0:
320,192,75565,1,0,0:0:0:0:
192,192,75685,1,0,0:0:0:0:
320,192,75805,128,0,76165:0:0:0:0:
448,192,75805,1,0,0:0:0:0:
448,192,75925,1,0,0:0:0:0:
64,192,76045,1,0,0:0:0:0:
192,192,76165,128,0,76525:0:0:0:0:
64,192,76165,1,0,0:0:0:0:
448,192,76285,1,0,0:0:0:0:
448,192,76405,1,0,0:0:0:0:
320,192,76525,128,0,77005:0:0:0:0:
64,192,76525,1,0,0:0:0:0:
64,192,76645,1,0,0:0:0:0:
448,192,76765,1,0,0:0:0:0:
448,192,76885,1,0,0:0:0:0:
64,192,77005,1,0,0:0:0:0:
192,192,77005,1,0,0:0:0:0:
192,192,77245,1,0,0:0:0:0:
320,192,77245,1,0,0:0:0:0:
448,192,77245,1,0,0:0:0:0:
192,192,77366,1,0,0:0:0:0:
320,192,77366,1,0,0:0:0:0:
448,192,77366,1,0,0:0:0:0:
192,192,77610,1,0,0:0:0:0:
64,192,77610,1,0,0:0:0:0:
192,192,77732,1,0,0:0:0:0:
320,192,77854,1,0,0:0:0:0:
64,192,77854,1,0,0:0:0:0:
320,192,77976,1,0,0:0:0:0:
448,192,77976,1,0,0:0:0:0:
192,192,78098,1,0,0:0:0:0:
64,192,78098,1,0,0:0:0:0:
448,192,78112,1,0,0:0:0:0:
320,192,78166,1,0,0:0:0:0:
64,192,78220,1,0,0:0:0:0:
448,192,78274,1,0,0:0:0:0:
320,192,78329,1,0,0:0:0:0:
192,192,78329,1,0,0:0:0:0:
64,192,78383,1,0,0:0:0:0:
192,192,78437,1,0,0:0:0:0:
320,192,78491,1,0,0:0:0:0:
448,192,78545,1,0,0:0:0:0:
64,192,78600,1,0,0:0:0:0:
192,192,78654,1,0,0:0:0:0:
320,192,78708,1,0,0:0:0:0:
448,192,78708,1,0,0:0:0:0:
320,192,78799,1,0,0:0:0:0:
448,192,78799,1,0,0:0:0:0:
64,192,78952,1,0,0:0:0:0:
320,192,78952,1,0,0:0:0:0:
192,192,79074,1,0,0:0:0:0:
64,192,79074,1,0,0:0:0:0:
448,192,79196,1,0,0:0:0:0:
320,192,79196,1,0,0:0:0:0:
64,192,79255,1,0,0:0:0:0:
192,192,79315,1,0,0:0:0:0:
320,192,79315,1,0,0:0:0:0:
448,192,79374,1,0,0:0:0:0:
192,192,79434,1,0,0:0:0:0:
64,192,79553,1,0,0:0:0:0:
448,192,79553,1,0,0:0:0:0:
192,192,79612,1,0,0:0:0:0:
320,192,79672,1,0,0:0:0:0:
448,192,79725,1,0,0:0:0:0:
192,192,79778,1,0,0:0:0:0:
64,192,79778,1,0,0:0:0:0:
320,192,79830,1,0,0:0:0:0:
192,192,79883,1,0,0:0:0:0:
64,192,79936,1,0,0:0:0:0:
448,192,79989,1,0,0:0:0:0:
320,192,80042,1,0,0:0:0:0:
64,192,80095,1,0,0:0:0:0:
192,192,80148,1,0,0:0:0:0:
448,192,80148,1,0,0:0:0:0:
320,192,80207,1,0,0:0:0:0:
192,192,80267,1,0,0:0:0:0:
320,192,80326,1,0,0:0:0:0:
64,192,80386,1,0,0:0:0:0:
448,192,80445,1,0,0:0:0:0:
64,192,80505,1,0,0:0:0:0:
192,192,80565,1,0,0:0:0:0:
448,192,80624,1,0,0:0:0:0:
320,192,80624,1,0,0:0:0:0:
64,192,80624,1,0,0:0:0:0:
320,192,80743,1,0,0:0:0:0:
448,192,80743,1,0,0:0:0:0:
192,192,80862,1,0,0:0:0:0:
320,192,80862,1,0,0:0:0:0:
192,192,80981,1,0,0:0:0:0:
448,192,80981,1,0,0:0:0:0:
320,192,81101,1,0,0:0:0:0:
64,192,81101,1,0,0:0:0:0:
448,192,81101,1,0,0:0:0:0:
192,192,81221,1,0,0:0:0:0:
64,192,81221,1,0,0:0:0:0:
320,192,81342,1,0,0:0:0:0:
320,192,81463,1,0,0:0:0:0:
448,192,81463,1,0,0:0:0:0:
64,192,81463,1,0,0:0:0:0:
64,192,81584,1,0,0:0:0:0:
192,192,81584,1,0,0:0:0:0:
448,192,81705,1,0,0:0:0:0:
320,192,81705,1,0,0:0:0:0:
320,192,81826,1,0,0:0:0:0:
64,192,81826,1,0,0:0:0:0:
192,192,81947,1,0,0:0:0:0:
64,192,81947,1,0,0:0:0:0:
448,192,81961,1,0,0:0:0:0:
320,192,82014,1,0,0:0:0:0:
192,192,82068,1,0,0:0:0:0:
448,192,82122,1,0,0:0:0:0:
64,192,82176,1,0,0:0:0:0:
192,192,82230,1,0,0:0:0:0:
320,192,82230,1,0,0:0:0:0:
448,192,82283,1,0,0:0:0:0:
64,192,82337,1,0,0:0:0:0:
192,192,82391,1,0,0:0:0:0:
448,192,82445,1,0,0:0:0:0:
320,192,82498,1,0,0:0:0:0:
192,192,82552,1,0,0:0:0:0:
64,192,82552,1,0,0:0:0:0:
64,192,82643,1,0,0:0:0:0:
192,192,82643,1,0,0:0:0:0:
64,192,82764,1,0,0:0:0:0:
448,192,82794,1,0,0:0:0:0:
448,192,82915,1,0,0:0:0:0:
192,192,82915,1,0,0:0:0:0:
192,192,83036,1,0,0:0:0:0:
64,192,83036,1,0,0:0:0:0:
448,192,83096,1,0,0:0:0:0:
320,192,83157,1,0,0:0:0:0:
64,192,83157,1,0,0:0:0:0:
192,192,83217,1,0,0:0:0:0:
320,192,83278,1,0,0:0:0:0:
192,192,83399,1,0,0:0:0:0:
64,192,83399,1,0,0:0:0:0:
320,192,83459,1,0,0:0:0:0:
448,192,83520,1,0,0:0:0:0:
64,192,83574,1,0,0:0:0:0:
320,192,83627,1,0,0:0:0:0:
192,192,83681,1,0,0:0:0:0:
448,192,83681,1,0,0:0:0:0:
64,192,83735,1,0,0:0:0:0:
192,192,83789,1,0,0:0:0:0:
320,192,83842,1,0,0:0:0:0:
64,192,83896,1,0,0:0:0:0:
448,192,83950,1,0,0:0:0:0:
320,192,84004,1,0,0:0:0:0:
192,192,84004,1,0,0:0:0:0:
64,192,84063,1,0,0:0:0:0:
320,192,84122,1,0,0:0:0:0:
448,192,84181,1,0,0:0:0:0:
64,192,84240,1,0,0:0:0:0:
320,192,84279,1,0,0:0:0:0:
64,192,84358,1,0,0:0:0:0:
448,192,84397,1,0,0:0:0:0:
320,192,84437,1,0,0:0:0:0:
192,192,84476,1,0,0:0:0:0:
64,192,84476,1,0,0:0:0:0:
192,192,84594,1,0,0:0:0:0:
448,192,84594,1,0,0:0:0:0:
320,192,84712,1,0,0:0:0:0:
64,192,84712,1,0,0:0:0:0:
320,192,84830,1,0,0:0:0:0:
192,192,84948,1,0,0:0:0:0:
64,192,84948,1,0,0:0:0:0:
448,192,84948,1,0,0:0:0:0:
192,192,85066,1,0,0:0:0:0:
448,192,85066,1,0,0:0:0:0:
320,192,85185,1,0,0:0:0:0:
192,192,85303,1,0,0:0:0:0:
64,192,85303,1,0,0:0:0:0:
448,192,85422,1,0,0:0:0:0:
192,192,85542,1,0,0:0:0:0:
320,192,85542,1,0,0:0:0:0:
192,192,85662,1,0,0:0:0:0:
64,192,85662,1,0,0:0:0:0:
320,192,85782,1,0,0:0:0:0:
448,192,85782,1,0,0:0:0:0:
64,192,85795,1,0,0:0:0:0:
192,192,85848,1,0,0:0:0:0:
448,192,85902,1,0,0:0:0:0:
64,192,85955,1,0,0:0:0:0:
320,192,86008,1,0,0:0:0:0:
192,192,86062,1,0,0:0:0:0:
64,192,86115,1,0,0:0:0:0:
448,192,86115,1,0,0:0:0:0:
192,192,86168,1,0,0:0:0:0:
320,192,86222,1,0,0:0:0:0:
448,192,86275,1,0,0:0:0:0:
64,192,86328,1,0,0:0:0:0:
192,192,86382,1,0,0:0:0:0:
320,192,86382,1,0,0:0:0:0:
320,192,86472,1,0,0:0:0:0:
192,192,86472,1,0,0:0:0:0:
192,192,86592,1,0,0:0:0:0:
448,192,86622,1,0,0:0:0:0:
448,192,86742,1,0,0:0:0:0:
320,192,86742,1,0,0:0:0:0:
192,192,86862,1,0,0:0:0:0:
64,192,86862,1,0,0:0:0:0:
320,192,86902,1,0,0:0:0:0:
64,192,86942,1,0,0:0:0:0:
192,192,86982,1,0,0:0:0:0:
448,192,87022,1,0,0:0:0:0:
320,192,87062,1,0,0:0:0:0:
64,192,87102,1,0,0:0:0:0:
320,192,87222,1,0,0:0:0:0:
448,192,87222,1,0,0:0:0:0:
192,192,87282,1,0,0:0:0:0:
448,192,87342,1,0,0:0:0:0:
64,192,87394,1,0,0:0:0:0:
192,192,87447,1,0,0:0:0:0:
320,192,87500,1,0,0:0:0:0:
448,192,87500,1,0,0:0:0:0:
64,192,87553,1,0,0:0:0:0:
320,192,87606,1,0,0:0:0:0:
192,192,87659,1,0,0:0:0:0:
64,192,87712,1,0,0:0:0:0:
448,192,87765,1,0,0:0:0:0:
192,192,87818,1,0,0:0:0:0:
320,192,87818,1,0,0:0:0:0:
64,192,87877,1,0,0:0:0:0:
448,192,87937,1,0,0:0:0:0:
192,192,87996,1,0,0:0:0:0:
448,192,88056,1,0,0:0:0:0:
320,192,88115,1,0,0:0:0:0:
64,192,88175,1,0,0:0:0:0:
192,192,88175,1,0,0:0:0:0:
64,192,88294,1,0,0:0:0:0:
192,192,88294,1,0,0:0:0:0:
448,192,88400,1,0,0:0:0:0:
64,192,88413,1,0,0:0:0:0:
192,192,88413,1,0,0:0:0:0:
320,192,88453,1,0,0:0:0:0:
320,192,88558,1,0,0:0:0:0:
192,192,88651,1,0,0:0:0:0:
448,192,88651,1,0,0:0:0:0:
192,192,88770,1,0,0:0:0:0:
320,192,88770,1,0,0:0:0:0:
64,192,88770,1,0,0:0:0:0:
320,192,88890,1,0,0:0:0:0:
448,192,88890,1,0,0:0:0:0:
64,192,89010,1,0,0:0:0:0:
448,192,89010,1,0,0:0:0:0:
192,192,89130,1,0,0:0:0:0:
64,192,89130,1,0,0:0:0:0:
448,192,89250,1,0,0:0:0:0:
320,192,89370,1,0,0:0:0:0:
64,192,89370,1,0,0:0:0:0:
192,192,89490,1,0,0:0:0:0:
320,192,89490,1,0,0:0:0:0:
448,192,89610,1,0,0:0:0:0:
64,192,89610,1,0,0:0:0:0:
192,192,89670,1,0,0:0:0:0:
320,192,89730,1,0,0:0:0:0:
64,192,89783,1,0,0:0:0:0:
448,192,89836,1,0,0:0:0:0:
320,192,89890,1,0,0:0:0:0:
192,192,89890,1,0,0:0:0:0:
448,192,89943,1,0,0:0:0:0:
64,192,89996,1,0,0:0:0:0:
192,192,90050,1,0,0:0:0:0:
448,192,90103,1,0,0:0:0:0:
320,192,90156,1,0,0:0:0:0:
192,192,90210,1,0,0:0:0:0:
64,192,90210,1,0,0:0:0:0:
64,192,90300,1,0,0:0:0:0:
448,192,90300,1,0,0:0:0:0:
64,192,90421,1,0,0:0:0:0:
448,192,90451,1,0,0:0:0:0:
320,192,90572,1,0,0:0:0:0:
192,192,90572,1,0,0:0:0:0:
320,192,90693,1,0,0:0:0:0:
448,192,90693,1,0,0:0:0:0:
64,192,90693,1,0,0:0:0:0:
192,192,90814,1,0,0:0:0:0:
64,192,90814,1,0,0:0:0:0:
192,192,90935,1,0,0:0:0:0:
320,192,91056,1,0,0:0:0:0:
448,192,91056,1,0,0:0:0:0:
192,192,91177,1,0,0:0:0:0:
64,192,91177,1,0,0:0:0:0:
320,192,91177,1,0,0:0:0:0:
64,192,91298,1,0,0:0:0:0:
192,192,91298,1,0,0:0:0:0:
320,192,91298,1,0,0:0:0:0:
192,192,91419,1,0,0:0:0:0:
320,192,91480,1,0,0:0:0:0:
320,192,91601,1,0,0:0:0:0:
448,192,91691,1,0,0:0:0:0:
320,192,91722,1,0,0:0:0:0:
192,192,91782,1,0,0:0:0:0:
192,192,91903,1,0,0:0:0:0:
64,192,91994,1,0,0:0:0:0:
192,192,92024,1,0,0:0:0:0:
320,192,92085,1,0,0:0:0:0:
64,192,92145,1,0,0:0:0:0:
448,192,92175,1,0,0:0:0:0:
320,192,92236,1,0,0:0:0:0:
192,192,92296,1,0,0:0:0:0:
64,192,92357,1,0,0:0:0:0:
320,192,92387,1,0,0:0:0:0:
448,192,92387,1,0,0:0:0:0:
192,192,92629,1,0,0:0:0:0:
64,192,92629,1,0,0:0:0:0:
448,192,92689,1,0,0:0:0:0:
192,192,92750,1,0,0:0:0:0:
64,192,92750,1,0,0:0:0:0:
448,192,92810,1,0,0:0:0:0:
320,192,92871,1,0,0:0:0:0:
192,192,92931,1,0,0:0:0:0:
64,192,92992,1,0,0:0:0:0:
448,192,92992,1,0,0:0:0:0:
320,192,92992,1,0,0:0:0:0:
192,192,93052,1,0,0:0:0:0:
64,192,93113,1,0,0:0:0:0:
448,192,93153,1,0,0:0:0:0:
320,192,93193,1,0,0:0:0:0:
192,192,93234,1,0,0:0:0:0:
64,192,93274,1,0,0:0:0:0:
448,192,93328,1,0,0:0:0:0:
192,192,93382,1,0,0:0:0:0:
320,192,93435,1,0,0:0:0:0:
448,192,93489,1,0,0:0:0:0:
64,192,93543,1,0,0:0:0:0:
192,192,93597,1,0,0:0:0:0:
320,192,93597,1,0,0:0:0:0:
448,192,93650,1,0,0:0:0:0:
64,192,93704,1,0,0:0:0:0:
192,192,93758,1,0,0:0:0:0:
320,192,93812,1,0,0:0:0:0:
64,192,93865,1,0,0:0:0:0:
192,192,93919,1,0,0:0:0:0:
448,192,93973,1,0,0:0:0:0:
320,192,94027,1,0,0:0:0:0:
64,192,94080,1,0,0:0:0:0:
448,192,94134,1,0,0:0:0:0:
320,192,94188,1,0,0:0:0:0:
192,192,94242,1,0,0:0:0:0:
64,192,94296,1,0,0:0:0:0:
448,192,94349,1,0,0:0:0:0:
192,192,94403,1,0,0:0:0:0:
320,192,94457,1,0,0:0:0:0:
64,192,94511,1,0,0:0:0:0:
192,192,94564,1,0,0:0:0:0:
320,192,94564,1,0,0:0:0:0:
448,192,94618,1,0,0:0:0:0:
64,192,94672,1,0,0:0:0:0:
192,192,94726,1,0,0:0:0:0:
448,192,94779,1,0,0:0:0:0:
320,192,94833,1,0,0:0:0:0:
192,192,94887,1,0,0:0:0:0:
64,192,94941,1,0,0:0:0:0:
448,192,94994,1,0,0:0:0:0:
320,192,95048,1,0,0:0:0:0:
64,192,95102,1,0,0:0:0:0:
320,192,95156,1,0,0:0:0:0:
192,192,95210,1,0,0:0:0:0:
448,192,95263,1,0,0:0:0:0:
64,192,95317,1,0,0:0:0:0:
192,192,95371,1,0,0:0:0:0:
320,192,95425,1,0,0:0:0:0:
448,192,95478,1,0,0:0:0:0:
64,192,95532,1,0,0:0:0:0:
192,192,95532,1,0,0:0:0:0:
320,192,95586,1,0,0:0:0:0:
64,192,95640,1,0,0:0:0:0:
448,192,95693,1,0,0:0:0:0:
320,192,95747,1,0,0:0:0:0:
192,192,95801,1,0,0:0:0:0:
448,192,95855,1,0,0:0:0:0:
64,192,95908,1,0,0:0:0:0:
192,192,95962,1,0,0:0:0:0:
320,192,96016,1,0,0:0:0:0:
64,192,96070,1,0,0:0:0:0:
192,192,96123,1,0,0:0:0:0:
448,192,96177,1,0,0:0:0:0:
320,192,96231,1,0,0:0:0:0:
64,192,96285,1,0,0:0:0:0:
448,192,96339,1,0,0:0:0:0:
192,192,96392,1,0,0:0:0:0:
320,192,96446,1,0,0:0:0:0:
448,192,96500,1,0,0:0:0:0:
64,192,96500,1,0,0:0:0:0:
192,192,96554,1,0,0:0:0:0:
320,192,96607,1,0,0:0:0:0:
64,192,96661,1,0,0:0:0:0:
448,192,96715,1,0,0:0:0:0:
320,192,96769,1,0,0:0:0:0:
448,192,96863,128,0,97105:0:0:0:0:
192,192,96863,1,0,0:0:0:0:
64,192,96863,1,0,0:0:0:0:
320,192,96984,1,0,0:0:0:0:
192,192,96984,1,0,0:0:0:0:
64,192,97105,1,0,0:0:0:0:
192,192,97165,1,0,0:0:0:0:
320,192,97165,1,0,0:0:0:0:
448,192,97226,1,0,0:0:0:0:
192,192,97286,1,0,0:0:0:0:
64,192,97347,1,0,0:0:0:0:
320,192,97347,1,0,0:0:0:0:
192,192,97468,1,0,0:0:0:0:
64,192,97468,1,0,0:0:0:0:
448,192,97468,1,0,0:0:0:0:
320,192,97468,1,0,0:0:0:0:
448,192,97589,1,0,0:0:0:0:
192,192,97589,1,0,0:0:0:0:
64,192,97710,1,0,0:0:0:0:
320,192,97710,1,0,0:0:0:0:
320,192,97830,1,0,0:0:0:0:
192,192,97952,1,0,0:0:0:0:
64,192,97952,1,0,0:0:0:0:
448,192,98011,1,0,0:0:0:0:
320,192,98070,1,0,0:0:0:0:
192,192,98070,1,0,0:0:0:0:
64,192,98129,1,0,0:0:0:0:
448,192,98188,1,0,0:0:0:0:
320,192,98188,1,0,0:0:0:0:
192,192,98306,1,0,0:0:0:0:
64,192,98306,1,0,0:0:0:0:
320,192,98424,1,0,0:0:0:0:
448,192,98424,1,0,0:0:0:0:
64,192,98424,1,0,0:0:0:0:
192,192,98424,1,0,0:0:0:0:
320,192,98542,1,0,0:0:0:0:
448,192,98542,1,0,0:0:0:0:
192,192,98542,1,0,0:0:0:0:
320,192,98660,1,0,0:0:0:0:
448,192,98660,1,0,0:0:0:0:
192,192,98778,1,0,0:0:0:0:
64,192,98778,1,0,0:0:0:0:
320,192,98837,1,0,0:0:0:0:
448,192,98896,1,0,0:0:0:0:
64,192,98896,1,0,0:0:0:0:
192,192,98955,1,0,0:0:0:0:
320,192,99014,1,0,0:0:0:0:
448,192,99014,1,0,0:0:0:0:
192,192,99074,1,0,0:0:0:0:
64,192,99133,1,0,0:0:0:0:
320,192,99251,1,0,0:0:0:0:
448,192,99251,1,0,0:0:0:0:
192,192,99290,1,0,0:0:0:0:
64,192,99329,1,0,0:0:0:0:
320,192,99369,1,0,0:0:0:0:
448,192,99369,1,0,0:0:0:0:
192,192,99410,1,0,0:0:0:0:
64,192,99450,1,0,0:0:0:0:
448,192,99490,1,0,0:0:0:0:
320,192,99530,1,0,0:0:0:0:
64,192,99583,1,0,0:0:0:0:
192,192,99636,1,0,0:0:0:0:
320,192,99690,1,0,0:0:0:0:
448,192,99743,1,0,0:0:0:0:
64,192,99796,1,0,0:0:0:0:
192,192,99850,1,0,0:0:0:0:
320,192,99850,1,0,0:0:0:0:
448,192,99910,1,0,0:0:0:0:
64,192,99970,1,0,0:0:0:0:
192,192,99970,1,0,0:0:0:0:
320,192,100090,1,0,0:0:0:0:
448,192,100090,1,0,0:0:0:0:
192,192,100210,1,0,0:0:0:0:
64,192,100210,1,0,0:0:0:0:
320,192,100330,1,0,0:0:0:0:
448,192,100330,1,0,0:0:0:0:
64,192,100330,1,0,0:0:0:0:
320,192,100450,1,0,0:0:0:0:
64,192,100570,1,0,0:0:0:0:
192,192,100610,1,0,0:0:0:0:
320,192,100650,1,0,0:0:0:0:
64,192,100690,1,0,0:0:0:0:
192,192,100730,1,0,0:0:0:0:
448,192,100770,1,0,0:0:0:0:
320,192,100810,1,0,0:0:0:0:
192,192,100863,1,0,0:0:0:0:
64,192,100917,1,0,0:0:0:0:
448,192,100971,1,0,0:0:0:0:
320,192,101025,1,0,0:0:0:0:
64,192,101078,1,0,0:0:0:0:
192,192,101132,1,0,0:0:0:0:
320,192,101186,1,0,0:0:0:0:
192,192,101240,1,0,0:0:0:0:
320,192,101293,1,0,0:0:0:0:
448,192,101293,1,0,0:0:0:0:
64,192,101347,1,0,0:0:0:0:
448,192,101401,1,0,0:0:0:0:
192,192,101455,1,0,0:0:0:0:
320,192,101508,1,0,0:0:0:0:
448,192,101562,1,0,0:0:0:0:
64,192,101616,1,0,0:0:0:0:
192,192,101670,1,0,0:0:0:0:
320,192,101670,1,0,0:0:0:0:
64,192,101777,128,0,102019:0:0:0:0:
192,192,101777,128,0,102019:0:0:0:0:
320,192,101838,1,0,0:0:0:0:
448,192,101838,1,0,0:0:0:0:
448,192,101959,1,0,0:0:0:0:
320,192,101959,1,0,0:0:0:0:
320,192,102080,1,0,0:0:0:0:
448,192,102080,1,0,0:0:0:0:
192,192,102140,1,0,0:0:0:0:
64,192,102140,1,0,0:0:0:0:
192,192,102261,1,0,0:0:0:0:
64,192,102261,1,0,0:0:0:0:
320,192,102261,1,0,0:0:0:0:
448,192,102261,1,0,0:0:0:0:
192,192,102381,1,0,0:0:0:0:
448,192,102381,1,0,0:0:0:0:
320,192,102501,1,0,0:0:0:0:
192,192,102621,1,0,0:0:0:0:
64,192,102621,1,0,0:0:0:0:
448,192,102621,1,0,0:0:0:0:
320,192,102741,1,0,0:0:0:0:
448,192,102741,1,0,0:0:0:0:
320,192,102861,1,0,0:0:0:0:
192,192,102981,1,0,0:0:0:0:
64,192,102981,1,0,0:0:0:0:
448,192,103101,1,0,0:0:0:0:
320,192,103101,1,0,0:0:0:0:
64,192,103167,1,0,0:0:0:0:
192,192,103221,1,0,0:0:0:0:
320,192,103221,1,0,0:0:0:0:
448,192,103274,1,0,0:0:0:0:
64,192,103327,1,0,0:0:0:0:
192,192,103381,1,0,0:0:0:0:
448,192,103434,1,0,0:0:0:0:
320,192,103487,1,0,0:0:0:0:
64,192,103541,1,0,0:0:0:0:
192,192,103594,1,0,0:0:0:0:
320,192,103647,1,0,0:0:0:0:
448,192,103701,1,0,0:0:0:0:
64,192,103701,1,0,0:0:0:0:
320,192,103754,1,0,0:0:0:0:
192,192,103807,1,0,0:0:0:0:
448,192,103861,1,0,0:0:0:0:
64,192,103914,1,0,0:0:0:0:
192,192,103967,1,0,0:0:0:0:
320,192,104021,1,0,0:0:0:0:
64,192,104074,1,0,0:0:0:0:
448,192,104127,1,0,0:0:0:0:
320,192,104181,1,0,0:0:0:0:
192,192,104181,1,0,0:0:0:0:
64,192,104234,1,0,0:0:0:0:
448,192,104287,1,0,0:0:0:0:
320,192,104341,1,0,0:0:0:0:
64,192,104394,1,0,0:0:0:0:
192,192,104447,1,0,0:0:0:0:
320,192,104501,1,0,0:0:0:0:
448,192,104554,1,0,0:0:0:0:
320,192,104607,1,0,0:0:0:0:
192,192,104661,1,0,0:0:0:0:
64,192,104661,1,0,0:0:0:0:
448,192,104714,1,0,0:0:0:0:
320,192,104767,1,0,0:0:0:0:
64,192,104798,1,0,0:0:0:0:
192,192,104866,1,0,0:0:0:0:
320,192,104935,1,0,0:0:0:0:
448,192,104935,1,0,0:0:0:0:
64,192,105003,1,0,0:0:0:0:
448,192,105021,1,0,0:0:0:0:
64,192,105141,1,0,0:0:0:0:
320,192,105141,1,0,0:0:0:0:
192,192,105141,1,0,0:0:0:0:
192,192,105261,1,0,0:0:0:0:
320,192,105261,1,0,0:0:0:0:
192,192,105381,1,0,0:0:0:0:
448,192,105381,1,0,0:0:0:0:
64,192,105381,1,0,0:0:0:0:
448,192,105501,1,0,0:0:0:0:
192,192,105621,1,0,0:0:0:0:
320,192,105621,1,0,0:0:0:0:
64,192,105621,1,0,0:0:0:0:
320,192,105741,1,0,0:0:0:0:
192,192,105741,1,0,0:0:0:0:
64,192,105741,1,0,0:0:0:0:
320,192,105861,1,0,0:0:0:0:
448,192,105861,1,0,0:0:0:0:
192,192,105981,1,0,0:0:0:0:
64,192,105981,1,0,0:0:0:0:
320,192,106101,1,0,0:0:0:0:
448,192,106101,1,0,0:0:0:0:
64,192,106101,1,0,0:0:0:0:
192,192,106221,1,0,0:0:0:0:
448,192,106221,1,0,0:0:0:0:
320,192,106221,1,0,0:0:0:0:
320,192,106341,1,0,0:0:0:0:
64,192,106341,1,0,0:0:0:0:
192,192,106401,1,0,0:0:0:0:
448,192,106461,1,0,0:0:0:0:
320,192,106521,1,0,0:0:0:0:
192,192,106581,1,0,0:0:0:0:
64,192,106581,1,0,0:0:0:0:
448,192,106634,1,0,0:0:0:0:
192,192,106701,1,0,0:0:0:0:
64,192,106741,1,0,0:0:0:0:
320,192,106821,1,0,0:0:0:0:
448,192,106821,1,0,0:0:0:0:
64,192,106901,1,0,0:0:0:0:
192,192,106941,1,0,0:0:0:0:
320,192,106981,1,0,0:0:0:0:
448,192,107021,1,0,0:0:0:0:
64,192,107061,1,0,0:0:0:0:
192,192,107101,1,0,0:0:0:0:
320,192,107141,1,0,0:0:0:0:
448,192,107181,1,0,0:0:0:0:
64,192,107221,1,0,0:0:0:0:
192,192,107261,1,0,0:0:0:0:
448,192,107301,1,0,0:0:0:0:
320,192,107301,1,0,0:0:0:0:
320,192,107421,1,0,0:0:0:0:
64,192,107421,1,0,0:0:0:0:
192,192,107541,1,0,0:0:0:0:
448,192,107541,1,0,0:0:0:0:
64,192,107541,1,0,0:0:0:0:
64,192,107661,1,0,0:0:0:0:
192,192,107661,1,0,0:0:0:0:
448,192,107661,1,0,0:0:0:0:
320,192,107781,1,0,0:0:0:0:
448,192,107781,1,0,0:0:0:0:
192,192,107901,1,0,0:0:0:0:
320,192,108021,1,0,0:0:0:0:
448,192,108021,1,0,0:0:0:0:
64,192,108021,1,0,0:0:0:0:
192,192,108141,128,0,108261:0:0:0:0:
448,192,108141,128,0,108261:0:0:0:0:
320,192,108141,128,0,108261:0:0:0:0:
64,192,108261,1,0,0:0:0:0:
320,192,108381,1,0,0:0:0:0:
64,192,108381,128,0,108501:0:0:0:0:
192,192,108381,128,0,108501:0:0:0:0:
320,192,108501,1,0,0:0:0:0:
448,192,108501,1,0,0:0:0:0:
64,192,108591,1,0,0:0:0:0:
192,192,108621,1,0,0:0:0:0:
320,192,108651,1,0,0:0:0:0:
448,192,108681,1,0,0:0:0:0:
64,192,108741,1,0,0:0:0:0:
64,192,108861,1,0,0:0:0:0:
320,192,108891,1,0,0:0:0:0:
192,192,108981,1,0,0:0:0:0:
320,192,108981,1,0,0:0:0:0:
448,192,108981,1,0,0:0:0:0:
64,192,109101,1,0,0:0:0:0:
64,192,109221,128,0,109341:0:0:0:0:
320,192,109221,128,0,109341:0:0:0:0:
192,192,109221,128,0,109341:0:0:0:0:
448,192,109341,1,0,0:0:0:0:
192,192,109461,1,0,0:0:0:0:
320,192,109461,128,0,109581:0:0:0:0:
448,192,109461,128,0,109581:0:0:0:0:
192,192,109581,1,0,0:0:0:0:
64,192,109581,1,0,0:0:0:0:
448,192,109671,1,0,0:0:0:0:
320,192,109701,1,0,0:0:0:0:
192,192,109731,1,0,0:0:0:0:
64,192,109761,1,0,0:0:0:0:
448,192,109821,1,0,0:0:0:0:
448,192,109941,1,0,0:0:0:0:
192,192,109941,1,0,0:0:0:0:
320,192,109941,1,0,0:0:0:0:
448,192,110061,1,0,0:0:0:0:
192,192,110061,1,0,0:0:0:0:
320,192,110061,1,0,0:0:0:0:
448,192,110181,1,0,0:0:0:0:
320,192,110181,1,0,0:0:0:0:
192,192,110181,1,0,0:0:0:0:
192,192,110301,1,0,0:0:0:0:
64,192,110301,1,0,0:0:0:0:
320,192,110421,1,0,0:0:0:0:
64,192,110541,1,0,0:0:0:0:
192,192,110541,1,0,0:0:0:0:
448,192,110541,1,0,0:0:0:0:
320,192,110661,1,0,0:0:0:0:
64,192,110781,1,0,0:0:0:0:
192,192,110781,1,0,0:0:0:0:
64,192,110901,1,0,0:0:0:0:
192,192,110901,1,0,0:0:0:0:
448,192,110901,1,0,0:0:0:0:
320,192,110901,1,0,0:0:0:0:
320,192,111021,1,0,0:0:0:0:
192,192,111021,1,0,0:0:0:0:
448,192,111021,1,0,0:0:0:0:
320,192,111141,1,0,0:0:0:0:
192,192,111261,1,0,0:0:0:0:
64,192,111261,1,0,0:0:0:0:
320,192,111381,1,0,0:0:0:0:
448,192,111381,1,0,0:0:0:0:
64,192,111381,1,0,0:0:0:0:
192,192,111381,1,0,0:0:0:0:
448,192,111501,1,0,0:0:0:0:
192,192,111621,1,0,0:0:0:0:
320,192,111621,1,0,0:0:0:0:
64,192,111621,1,0,0:0:0:0:
320,192,111741,1,0,0:0:0:0:
192,192,111741,1,0,0:0:0:0:
192,192,111861,1,0,0:0:0:0:
64,192,111861,1,0,0:0:0:0:
448,192,111861,1,0,0:0:0:0:
320,192,111861,1,0,0:0:0:0:
448,192,111981,1,0,0:0:0:0:
320,192,111981,1,0,0:0:0:0:
192,192,112021,1,0,0:0:0:0:
64,192,112061,1,0,0:0:0:0:
448,192,112101,1,0,0:0:0:0:
320,192,112141,1,0,0:0:0:0:
192,192,112221,1,0,0:0:0:0:
64,192,112221,1,0,0:0:0:0:
64,192,112341,1,0,0:0:0:0:
320,192,112341,1,0,0:0:0:0:
192,192,112401,1,0,0:0:0:0:
448,192,112461,1,0,0:0:0:0:
320,192,112521,1,0,0:0:0:0:
192,192,112581,1,0,0:0:0:0:
64,192,112581,1,0,0:0:0:0:
448,192,112641,1,0,0:0:0:0:
64,192,112701,1,0,0:0:0:0:
192,192,112761,1,0,0:0:0:0:
320,192,112821,1,0,0:0:0:0:
448,192,112821,1,0,0:0:0:0:
64,192,112821,1,0,0:0:0:0:
320,192,112941,1,0,0:0:0:0:
192,192,113061,1,0,0:0:0:0:
64,192,113061,1,0,0:0:0:0:
448,192,113061,1,0,0:0:0:0:
192,192,113181,1,0,0:0:0:0:
448,192,113301,1,0,0:0:0:0:
320,192,113301,1,0,0:0:0:0:
64,192,113341,1,0,0:0:0:0:
192,192,113381,1,0,0:0:0:0:
448,192,113421,1,0,0:0:0:0:
64,192,113461,1,0,0:0:0:0:
192,192,113501,1,0,0:0:0:0:
320,192,113541,1,0,0:0:0:0:
448,192,113541,1,0,0:0:0:0:
320,192,113661,1,0,0:0:0:0:
64,192,113661,1,0,0:0:0:0:
192,192,113781,1,0,0:0:0:0:
64,192,113781,1,0,0:0:0:0:
448,192,113841,1,0,0:0:0:0:
64,192,113901,1,0,0:0:0:0:
320,192,113901,1,0,0:0:0:0:
320,192,114021,1,0,0:0:0:0:
448,192,114021,1,0,0:0:0:0:
64,192,114081,1,0,0:0:0:0:
192,192,114141,1,0,0:0:0:0:
448,192,114141,128,0,114321:0:0:0:0:
320,192,114141,128,0,114321:0:0:0:0:
192,192,114261,1,0,0:0:0:0:
448,192,114381,1,0,0:0:0:0:
192,192,114381,128,0,114621:0:0:0:0:
64,192,114381,128,0,114621:0:0:0:0:
448,192,114501,1,0,0:0:0:0:
448,192,114621,1,0,0:0:0:0:
192,192,114741,1,0,0:0:0:0:
64,192,114741,1,0,0:0:0:0:
320,192,114741,1,0,0:0:0:0:
448,192,114861,1,0,0:0:0:0:
192,192,114861,1,0,0:0:0:0:
320,192,114901,1,0,0:0:0:0:
448,192,114981,1,0,0:0:0:0:
64,192,114981,1,0,0:0:0:0:
192,192,115021,1,0,0:0:0:0:
64,192,115101,1,0,0:0:0:0:
320,192,115101,1,0,0:0:0:0:
448,192,115141,1,0,0:0:0:0:
320,192,115221,1,0,0:0:0:0:
192,192,115221,1,0,0:0:0:0:
64,192,115261,1,0,0:0:0:0:
320,192,115341,1,0,0:0:0:0:
448,192,115341,1,0,0:0:0:0:
192,192,115381,1,0,0:0:0:0:
448,192,115461,1,0,0:0:0:0:
64,192,115461,1,0,0:0:0:0:
192,192,115581,1,0,0:0:0:0:
320,192,115581,1,0,0:0:0:0:
192,192,115701,1,0,0:0:0:0:
64,192,115701,1,0,0:0:0:0:
448,192,115701,1,0,0:0:0:0:
320,192,115821,1,0,0:0:0:0:
64,192,115821,1,0,0:0:0:0:
192,192,115906,1,0,0:0:0:0:
448,192,115906,1,0,0:0:0:0:
320,192,115975,1,0,0:0:0:0:
192,192,116061,1,0,0:0:0:0:
64,192,116061,1,0,0:0:0:0:
448,192,116121,1,0,0:0:0:0:
320,192,116151,1,0,0:0:0:0:
192,192,116181,1,0,0:0:0:0:
448,192,116249,1,0,0:0:0:0:
64,192,116287,1,0,0:0:0:0:
192,192,116341,1,0,0:0:0:0:
320,192,116421,1,0,0:0:0:0:
448,192,116421,1,0,0:0:0:0:
64,192,116501,1,0,0:0:0:0:
320,192,116501,1,0,0:0:0:0:
192,192,116661,1,0,0:0:0:0:
64,192,116661,1,0,0:0:0:0:
448,192,116701,1,0,0:0:0:0:
320,192,116741,1,0,0:0:0:0:
192,192,116781,1,0,0:0:0:0:
64,192,116861,1,0,0:0:0:0:
320,192,116901,1,0,0:0:0:0:
448,192,116941,1,0,0:0:0:0:
64,192,116981,1,0,0:0:0:0:
192,192,117021,1,0,0:0:0:0:
320,192,117061,1,0,0:0:0:0:
448,192,117101,1,0,0:0:0:0:
64,192,117141,1,0,0:0:0:0:
320,192,117181,1,0,0:0:0:0:
192,192,117221,1,0,0:0:0:0:
448,192,117261,1,0,0:0:0:0:
64,192,117321,1,0,0:0:0:0:
320,192,117381,1,0,0:0:0:0:
192,192,117381,1,0,0:0:0:0:
64,192,117461,1,0,0:0:0:0:
448,192,117501,1,0,0:0:0:0:
320,192,117541,1,0,0:0:0:0:
192,192,117621,1,0,0:0:0:0:
64,192,117621,1,0,0:0:0:0:
448,192,117621,1,0,0:0:0:0:
320,192,117741,1,0,0:0:0:0:
192,192,117741,1,0,0:0:0:0:
448,192,117861,1,0,0:0:0:0:
320,192,117861,1,0,0:0:0:0:
192,192,117861,1,0,0:0:0:0:
320,192,117981,1,0,0:0:0:0:
448,192,117981,1,0,0:0:0:0:
192,192,117981,1,0,0:0:0:0:
192,192,118101,1,0,0:0:0:0:
64,192,118101,1,0,0:0:0:0:
320,192,118221,1,0,0:0:0:0:
64,192,118261,1,0,0:0:0:0:
192,192,118301,1,0,0:0:0:0:
448,192,118341,1,0,0:0:0:0:
320,192,118341,1,0,0:0:0:0:
448,192,118461,1,0,0:0:0:0:
320,192,118521,1,0,0:0:0:0:
192,192,118581,1,0,0:0:0:0:
64,192,118581,1,0,0:0:0:0:
448,192,118621,1,0,0:0:0:0:
320,192,118661,1,0,0:0:0:0:
192,192,118701,1,0,0:0:0:0:
64,192,118741,1,0,0:0:0:0:
448,192,118781,1,0,0:0:0:0:
320,192,118821,1,0,0:0:0:0:
192,192,118861,1,0,0:0:0:0:
64,192,118901,1,0,0:0:0:0:
448,192,118941,1,0,0:0:0:0:
320,192,118941,1,0,0:0:0:0:
192,192,119061,1,0,0:0:0:0:
64,192,119061,1,0,0:0:0:0:
192,192,119181,1,0,0:0:0:0:
320,192,119181,1,0,0:0:0:0:
448,192,119181,1,0,0:0:0:0:
320,192,119301,1,0,0:0:0:0:
64,192,119301,1,0,0:0:0:0:
192,192,119421,1,0,0:0:0:0:
448,192,119421,1,0,0:0:0:0:
320,192,119541,1,0,0:0:0:0:
192,192,119541,1,0,0:0:0:0:
64,192,119541,128,0,119781:0:0:0:0:
320,192,119661,1,0,0:0:0:0:
320,192,119781,1,0,0:0:0:0:
192,192,119781,1,0,0:0:0:0:
448,192,119781,128,0,119901:0:0:0:0:
192,192,119901,1,0,0:0:0:0:
448,192,120021,1,0,0:0:0:0:
320,192,120021,1,0,0:0:0:0:
64,192,120061,1,0,0:0:0:0:
192,192,120101,1,0,0:0:0:0:
320,192,120141,1,0,0:0:0:0:
64,192,120181,1,0,0:0:0:0:
448,192,120221,1,0,0:0:0:0:
320,192,120261,1,0,0:0:0:0:
192,192,120301,1,0,0:0:0:0:
64,192,120341,1,0,0:0:0:0:
448,192,120381,1,0,0:0:0:0:
192,192,120447,1,0,0:0:0:0:
320,192,120501,1,0,0:0:0:0:
448,192,120501,1,0,0:0:0:0:
64,192,120621,1,0,0:0:0:0:
448,192,120661,1,0,0:0:0:0:
320,192,120701,1,0,0:0:0:0:
192,192,120741,1,0,0:0:0:0:
448,192,120781,1,0,0:0:0:0:
64,192,120821,1,0,0:0:0:0:
192,192,120861,1,0,0:0:0:0:
320,192,120901,1,0,0:0:0:0:
448,192,120941,1,0,0:0:0:0:
64,192,120981,1,0,0:0:0:0:
320,192,121034,1,0,0:0:0:0:
192,192,121101,1,0,0:0:0:0:
448,192,121141,1,0,0:0:0:0:
64,192,121194,1,0,0:0:0:0:
192,192,121221,1,0,0:0:0:0:
320,192,121221,1,0,0:0:0:0:
320,192,121341,1,0,0:0:0:0:
448,192,121341,1,0,0:0:0:0:
192,192,121461,1,0,0:0:0:0:
64,192,121461,1,0,0:0:0:0:
448,192,121518,1,0,0:0:0:0:
320,192,121575,1,0,0:0:0:0:
64,192,121633,1,0,0:0:0:0:
448,192,121690,1,0,0:0:0:0:
320,192,121719,1,0,0:0:0:0:
192,192,121719,1,0,0:0:0:0:
64,192,121805,1,0,0:0:0:0:
448,192,121848,1,0,0:0:0:0:
192,192,121848,1,0,0:0:0:0:
320,192,121935,1,0,0:0:0:0:
448,192,121978,1,0,0:0:0:0:
64,192,121978,1,0,0:0:0:0:
192,192,122039,1,0,0:0:0:0:
320,192,122100,1,0,0:0:0:0:
64,192,122141,1,0,0:0:0:0:
448,192,122196,1,0,0:0:0:0:
320,192,122251,1,0,0:0:0:0:
192,192,122305,1,0,0:0:0:0:
64,192,122360,1,0,0:0:0:0:
448,192,122415,1,0,0:0:0:0:
320,192,122470,1,0,0:0:0:0:
192,192,122470,1,0,0:0:0:0:
64,192,122470,1,0,0:0:0:0:
192,192,122590,1,0,0:0:0:0:
448,192,122590,1,0,0:0:0:0:
64,192,122710,1,0,0:0:0:0:
320,192,122710,1,0,0:0:0:0:
320,192,122830,1,0,0:0:0:0:
192,192,122830,1,0,0:0:0:0:
64,192,122830,1,0,0:0:0:0:
192,192,122950,1,0,0:0:0:0:
448,192,122950,1,0,0:0:0:0:
192,192,123070,1,0,0:0:0:0:
448,192,123070,1,0,0:0:0:0:
320,192,123190,1,0,0:0:0:0:
64,192,123190,1,0,0:0:0:0:
192,192,123310,1,0,0:0:0:0:
448,192,123310,1,0,0:0:0:0:
320,192,123430,1,0,0:0:0:0:
192,192,123430,1,0,0:0:0:0:
64,192,123430,1,0,0:0:0:0:
320,192,123550,1,0,0:0:0:0:
192,192,123550,1,0,0:0:0:0:
64,192,123550,1,0,0:0:0:0:
320,192,123670,1,0,0:0:0:0:
448,192,123670,1,0,0:0:0:0:
320,192,123790,1,0,0:0:0:0:
448,192,123790,1,0,0:0:0:0:
192,192,123910,1,0,0:0:0:0:
448,192,123910,1,0,0:0:0:0:
64,192,123910,128,0,124270:0:0:0:0:
320,192,124030,1,0,0:0:0:0:
448,192,124150,1,0,0:0:0:0:
192,192,124150,1,0,0:0:0:0:
192,192,124270,1,0,0:0:0:0:
320,192,124390,1,0,0:0:0:0:
448,192,124390,1,0,0:0:0:0:
64,192,124390,1,0,0:0:0:0:
192,192,124510,1,0,0:0:0:0:
320,192,124630,1,0,0:0:0:0:
448,192,124630,1,0,0:0:0:0:
64,192,124670,1,0,0:0:0:0:
320,192,124710,1,0,0:0:0:0:
64,192,124790,1,0,0:0:0:0:
192,192,124790,1,0,0:0:0:0:
192,192,124870,1,0,0:0:0:0:
448,192,124870,1,0,0:0:0:0:
448,192,124990,1,0,0:0:0:0:
320,192,125110,1,0,0:0:0:0:
192,192,125110,1,0,0:0:0:0:
64,192,125110,1,0,0:0:0:0:
192,192,125230,1,0,0:0:0:0:
448,192,125230,1,0,0:0:0:0:
320,192,125350,1,0,0:0:0:0:
448,192,125350,1,0,0:0:0:0:
192,192,125390,1,0,0:0:0:0:
64,192,125430,1,0,0:0:0:0:
448,192,125470,1,0,0:0:0:0:
320,192,125510,1,0,0:0:0:0:
192,192,125550,1,0,0:0:0:0:
64,192,125590,1,0,0:0:0:0:
448,192,125630,1,0,0:0:0:0:
192,192,125670,1,0,0:0:0:0:
320,192,125734,1,0,0:0:0:0:
448,192,125800,1,0,0:0:0:0:
64,192,125830,1,0,0:0:0:0:
192,192,125830,1,0,0:0:0:0:
320,192,125883,1,0,0:0:0:0:
448,192,125936,1,0,0:0:0:0:
320,192,125990,1,0,0:0:0:0:
192,192,126043,1,0,0:0:0:0:
64,192,126096,1,0,0:0:0:0:
448,192,126150,1,0,0:0:0:0:
192,192,126203,1,0,0:0:0:0:
320,192,126203,1,0,0:0:0:0:
64,192,126256,1,0,0:0:0:0:
320,192,126310,1,0,0:0:0:0:
448,192,126310,1,0,0:0:0:0:
192,192,126363,1,0,0:0:0:0:
448,192,126416,1,0,0:0:0:0:
64,192,126470,1,0,0:0:0:0:
192,192,126523,1,0,0:0:0:0:
320,192,126576,1,0,0:0:0:0:
448,192,126630,1,0,0:0:0:0:
320,192,126683,1,0,0:0:0:0:
192,192,126736,1,0,0:0:0:0:
64,192,126790,1,0,0:0:0:0:
448,192,126790,1,0,0:0:0:0:
192,192,126843,1,0,0:0:0:0:
320,192,126896,1,0,0:0:0:0:
64,192,126950,1,0,0:0:0:0:
192,192,127003,1,0,0:0:0:0:
320,192,127056,1,0,0:0:0:0:
448,192,127056,1,0,0:0:0:0:
64,192,127110,1,0,0:0:0:0:
448,192,127163,1,0,0:0:0:0:
320,192,127216,1,0,0:0:0:0:
192,192,127270,1,0,0:0:0:0:
64,192,127270,1,0,0:0:0:0:
192,192,127399,128,0,127657:0:0:0:0:
320,192,127399,128,0,127657:0:0:0:0:
448,192,127399,128,0,127657:0:0:0:0:
192,192,127788,1,0,0:0:0:0:
64,192,127788,1,0,0:0:0:0:
448,192,127828,1,0,0:0:0:0:
320,192,127868,1,0,0:0:0:0:
192,192,127908,1,0,0:0:0:0:
448,192,127949,1,0,0:0:0:0:
64,192,127989,1,0,0:0:0:0:
192,192,128029,1,0,0:0:0:0:
320,192,128070,1,0,0:0:0:0:
64,192,128110,1,0,0:0:0:0:
448,192,128150,1,0,0:0:0:0:
320,192,128191,1,0,0:0:0:0:
192,192,128231,1,0,0:0:0:0:
64,192,128271,1,0,0:0:0:0:
448,192,128325,1,0,0:0:0:0:
192,192,128379,1,0,0:0:0:0:
448,192,128433,1,0,0:0:0:0:
320,192,128486,1,0,0:0:0:0:
64,192,128540,1,0,0:0:0:0:
192,192,128594,1,0,0:0:0:0:
320,192,128634,1,0,0:0:0:0:
448,192,128634,1,0,0:0:0:0:
192,192,128755,1,0,0:0:0:0:
64,192,128755,1,0,0:0:0:0:
192,192,128876,1,0,0:0:0:0:
64,192,128876,1,0,0:0:0:0:
320,192,128876,1,0,0:0:0:0:
320,192,128997,1,0,0:0:0:0:
192,192,128997,1,0,0:0:0:0:
448,192,128997,1,0,0:0:0:0:
320,192,129118,1,0,0:0:0:0:
448,192,129118,1,0,0:0:0:0:
448,192,129239,1,0,0:0:0:0:
320,192,129239,1,0,0:0:0:0:
192,192,129239,1,0,0:0:0:0:
64,192,129239,1,0,0:0:0:0:
192,192,129360,1,0,0:0:0:0:
64,192,129360,1,0,0:0:0:0:
320,192,129360,1,0,0:0:0:0:
192,192,129481,1,0,0:0:0:0:
320,192,129602,1,0,0:0:0:0:
448,192,129602,1,0,0:0:0:0:
64,192,129615,1,0,0:0:0:0:
192,192,129669,1,0,0:0:0:0:
320,192,129723,1,0,0:0:0:0:
448,192,129723,1,0,0:0:0:0:
64,192,129777,1,0,0:0:0:0:
448,192,129831,1,0,0:0:0:0:
320,192,129884,1,0,0:0:0:0:
192,192,129938,1,0,0:0:0:0:
448,192,129992,1,0,0:0:0:0:
64,192,129992,1,0,0:0:0:0:
192,192,130046,1,0,0:0:0:0:
320,192,130099,1,0,0:0:0:0:
448,192,130153,1,0,0:0:0:0:
192,192,130207,1,0,0:0:0:0:
64,192,130207,1,0,0:0:0:0:
320,192,130261,1,0,0:0:0:0:
64,192,130314,1,0,0:0:0:0:
448,192,130368,1,0,0:0:0:0:
320,192,130422,1,0,0:0:0:0:
192,192,130476,1,0,0:0:0:0:
320,192,130529,1,0,0:0:0:0:
448,192,130529,1,0,0:0:0:0:
64,192,130583,1,0,0:0:0:0:
192,192,130637,1,0,0:0:0:0:
320,192,130691,1,0,0:0:0:0:
448,192,130691,1,0,0:0:0:0:
192,192,130744,1,0,0:0:0:0:
64,192,130798,1,0,0:0:0:0:
448,192,130852,1,0,0:0:0:0:
320,192,130906,1,0,0:0:0:0:
64,192,130960,1,0,0:0:0:0:
192,192,131013,1,0,0:0:0:0:
320,192,131067,1,0,0:0:0:0:
448,192,131121,1,0,0:0:0:0:
64,192,131121,1,0,0:0:0:0:
320,192,131175,1,0,0:0:0:0:
192,192,131228,1,0,0:0:0:0:
448,192,131282,1,0,0:0:0:0:
64,192,131336,1,0,0:0:0:0:
192,192,131390,1,0,0:0:0:0:
320,192,131443,1,0,0:0:0:0:
448,192,131497,1,0,0:0:0:0:
64,192,131497,1,0,0:0:0:0:
320,192,131658,1,0,0:0:0:0:
192,192,131658,1,0,0:0:0:0:
64,192,131699,1,0,0:0:0:0:
448,192,131739,1,0,0:0:0:0:
320,192,131779,1,0,0:0:0:0:
192,192,131820,1,0,0:0:0:0:
448,192,131860,1,0,0:0:0:0:
64,192,131900,1,0,0:0:0:0:
192,192,131941,1,0,0:0:0:0:
320,192,131981,1,0,0:0:0:0:
448,192,132021,1,0,0:0:0:0:
64,192,132062,1,0,0:0:0:0:
320,192,132102,1,0,0:0:0:0:
192,192,132142,1,0,0:0:0:0:
448,192,132196,1,0,0:0:0:0:
64,192,132250,1,0,0:0:0:0:
192,192,132304,1,0,0:0:0:0:
448,192,132357,1,0,0:0:0:0:
320,192,132411,1,0,0:0:0:0:
192,192,132465,1,0,0:0:0:0:
448,192,132505,1,0,0:0:0:0:
64,192,132505,1,0,0:0:0:0:
192,192,132626,1,0,0:0:0:0:
320,192,132626,1,0,0:0:0:0:
320,192,132746,1,0,0:0:0:0:
448,192,132746,1,0,0:0:0:0:
64,192,132746,1,0,0:0:0:0:
320,192,132866,1,0,0:0:0:0:
448,192,132866,1,0,0:0:0:0:
64,192,132866,1,0,0:0:0:0:
192,192,132986,1,0,0:0:0:0:
64,192,132986,1,0,0:0:0:0:
192,192,133106,1,0,0:0:0:0:
320,192,133106,1,0,0:0:0:0:
448,192,133106,1,0,0:0:0:0:
64,192,133106,1,0,0:0:0:0:
320,192,133226,1,0,0:0:0:0:
448,192,133226,1,0,0:0:0:0:
192,192,133226,1,0,0:0:0:0:
320,192,133346,1,0,0:0:0:0:
64,192,133466,1,0,0:0:0:0:
192,192,133506,1,0,0:0:0:0:
320,192,133546,1,0,0:0:0:0:
64,192,133586,1,0,0:0:0:0:
448,192,133626,1,0,0:0:0:0:
320,192,133666,1,0,0:0:0:0:
192,192,133706,1,0,0:0:0:0:
64,192,133746,1,0,0:0:0:0:
320,192,133799,1,0,0:0:0:0:
448,192,133852,1,0,0:0:0:0:
64,192,133906,1,0,0:0:0:0:
192,192,133959,1,0,0:0:0:0:
320,192,134012,1,0,0:0:0:0:
64,192,134066,1,0,0:0:0:0:
448,192,134066,1,0,0:0:0:0:
320,192,134119,1,0,0:0:0:0:
192,192,134172,1,0,0:0:0:0:
320,192,134226,1,0,0:0:0:0:
64,192,134279,1,0,0:0:0:0:
192,192,134332,1,0,0:0:0:0:
448,192,134386,1,0,0:0:0:0:
320,192,134439,1,0,0:0:0:0:
192,192,134492,1,0,0:0:0:0:
64,192,134546,1,0,0:0:0:0:
448,192,134546,1,0,0:0:0:0:
320,192,134606,1,0,0:0:0:0:
192,192,134666,1,0,0:0:0:0:
64,192,134726,1,0,0:0:0:0:
192,192,134786,1,0,0:0:0:0:
320,192,134846,1,0,0:0:0:0:
448,192,134906,1,0,0:0:0:0:
320,192,134966,1,0,0:0:0:0:
192,192,135026,1,0,0:0:0:0:
64,192,135026,1,0,0:0:0:0:
64,192,135146,1,0,0:0:0:0:
192,192,135146,1,0,0:0:0:0:
448,192,135146,1,0,0:0:0:0:
192,192,135266,1,0,0:0:0:0:
320,192,135266,1,0,0:0:0:0:
320,192,135386,1,0,0:0:0:0:
192,192,135386,1,0,0:0:0:0:
448,192,135506,128,0,135746:0:0:0:0:
320,192,135506,1,0,0:0:0:0:
64,192,135506,128,0,135746:0:0:0:0:
192,192,135626,1,0,0:0:0:0:
320,192,135746,1,0,0:0:0:0:
320,192,135866,1,0,0:0:0:0:
448,192,135866,1,0,0:0:0:0:
64,192,135906,1,0,0:0:0:0:
192,192,135946,1,0,0:0:0:0:
320,192,135986,1,0,0:0:0:0:
64,192,136026,1,0,0:0:0:0:
448,192,136067,1,0,0:0:0:0:
320,192,136108,1,0,0:0:0:0:
192,192,136149,1,0,0:0:0:0:
64,192,136204,1,0,0:0:0:0:
192,192,136259,1,0,0:0:0:0:
320,192,136313,1,0,0:0:0:0:
448,192,136354,1,0,0:0:0:0:
64,192,136354,1,0,0:0:0:0:
320,192,136477,1,0,0:0:0:0:
448,192,136478,1,0,0:0:0:0:
192,192,136598,1,0,0:0:0:0:
64,192,136598,1,0,0:0:0:0:
320,192,136598,1,0,0:0:0:0:
192,192,136718,1,0,0:0:0:0:
64,192,136718,1,0,0:0:0:0:
448,192,136718,1,0,0:0:0:0:
192,192,136838,1,0,0:0:0:0:
64,192,136838,1,0,0:0:0:0:
320,192,136958,1,0,0:0:0:0:
192,192,136958,1,0,0:0:0:0:
64,192,136958,1,0,0:0:0:0:
448,192,136958,1,0,0:0:0:0:
192,192,137078,1,0,0:0:0:0:
320,192,137078,1,0,0:0:0:0:
448,192,137078,1,0,0:0:0:0:
320,192,137198,1,0,0:0:0:0:
448,192,137318,1,0,0:0:0:0:
64,192,137318,1,0,0:0:0:0:
192,192,137438,1,0,0:0:0:0:
64,192,137438,1,0,0:0:0:0:
320,192,137491,1,0,0:0:0:0:
448,192,137544,1,0,0:0:0:0:
320,192,137598,1,0,0:0:0:0:
64,192,137598,1,0,0:0:0:0:
192,192,137651,1,0,0:0:0:0:
64,192,137704,1,0,0:0:0:0:
448,192,137758,1,0,0:0:0:0:
320,192,137811,1,0,0:0:0:0:
192,192,137864,1,0,0:0:0:0:
64,192,137918,1,0,0:0:0:0:
448,192,137918,1,0,0:0:0:0:
320,192,137971,1,0,0:0:0:0:
192,192,138024,1,0,0:0:0:0:
320,192,138078,1,0,0:0:0:0:
448,192,138131,1,0,0:0:0:0:
64,192,138184,1,0,0:0:0:0:
192,192,138238,1,0,0:0:0:0:
320,192,138238,1,0,0:0:0:0:
448,192,138291,1,0,0:0:0:0:
64,192,138344,1,0,0:0:0:0:
192,192,138398,1,0,0:0:0:0:
320,192,138398,1,0,0:0:0:0:
448,192,138451,1,0,0:0:0:0:
64,192,138504,1,0,0:0:0:0:
192,192,138558,1,0,0:0:0:0:
320,192,138611,1,0,0:0:0:0:
192,192,138664,1,0,0:0:0:0:
64,192,138718,1,0,0:0:0:0:
448,192,138771,1,0,0:0:0:0:
320,192,138771,1,0,0:0:0:0:
192,192,138824,1,0,0:0:0:0:
64,192,138878,1,0,0:0:0:0:
448,192,138878,1,0,0:0:0:0:
320,192,138931,1,0,0:0:0:0:
192,192,138984,1,0,0:0:0:0:
448,192,139038,1,0,0:0:0:0:
320,192,139091,1,0,0:0:0:0:
64,192,139144,1,0,0:0:0:0:
192,192,139238,1,0,0:0:0:0:
448,192,139251,1,0,0:0:0:0:
320,192,139358,1,0,0:0:0:0:
192,192,139358,1,0,0:0:0:0:
64,192,139358,1,0,0:0:0:0:
320,192,139478,1,0,0:0:0:0:
64,192,139478,1,0,0:0:0:0:
448,192,139478,1,0,0:0:0:0:
192,192,139598,1,0,0:0:0:0:
448,192,139598,1,0,0:0:0:0:
192,192,139718,1,0,0:0:0:0:
448,192,139718,1,0,0:0:0:0:
192,192,139838,1,0,0:0:0:0:
320,192,139838,1,0,0:0:0:0:
448,192,139838,1,0,0:0:0:0:
64,192,139944,1,0,0:0:0:0:
192,192,139998,1,0,0:0:0:0:
320,192,140051,1,0,0:0:0:0:
64,192,140104,1,0,0:0:0:0:
192,192,140158,1,0,0:0:0:0:
320,192,140211,1,0,0:0:0:0:
448,192,140264,1,0,0:0:0:0:
192,192,140318,1,0,0:0:0:0:
64,192,140318,1,0,0:0:0:0:
320,192,140378,1,0,0:0:0:0:
320,192,140498,1,0,0:0:0:0:
320,192,140618,1,0,0:0:0:0:
192,192,140678,1,0,0:0:0:0:
64,192,140678,1,0,0:0:0:0:
192,192,140798,1,0,0:0:0:0:
320,192,140798,1,0,0:0:0:0:
448,192,140798,1,0,0:0:0:0:
320,192,140918,1,0,0:0:0:0:
448,192,140918,1,0,0:0:0:0:
192,192,140918,1,0,0:0:0:0:
320,192,141038,1,0,0:0:0:0:
192,192,141158,1,0,0:0:0:0:
448,192,141158,1,0,0:0:0:0:
64,192,141278,128,0,141638:0:0:0:0:
320,192,141278,1,0,0:0:0:0:
320,192,141398,1,0,0:0:0:0:
192,192,141518,1,0,0:0:0:0:
448,192,141638,128,0,141998:0:0:0:0:
192,192,141638,1,0,0:0:0:0:
320,192,141758,1,0,0:0:0:0:
320,192,141878,1,0,0:0:0:0:
64,192,141998,128,0,142478:0:0:0:0:
192,192,141998,1,0,0:0:0:0:
192,192,142118,1,0,0:0:0:0:
320,192,142238,1,0,0:0:0:0:
320,192,142358,1,0,0:0:0:0:
192,192,142478,1,0,0:0:0:0:
448,192,142478,1,0,0:0:0:0:
320,192,142718,1,0,0:0:0:0:
448,192,142718,1,0,0:0:0:0:
192,192,142718,1,0,0:0:0:0:
320,192,142838,1,0,0:0:0:0:
448,192,142838,1,0,0:0:0:0:
192,192,142838,1,0,0:0:0:0:
448,192,143078,1,0,0:0:0:0:
192,192,143078,1,0,0:0:0:0:
320,192,143198,128,0,143558:0:0:0:0:
64,192,143198,1,0,0:0:0:0:
64,192,143318,1,0,0:0:0:0:
448,192,143438,1,0,0:0:0:0:
192,192,143558,128,0,143918:0:0:0:0:
448,192,143558,1,0,0:0:0:0:
64,192,143678,1,0,0:0:0:0:
64,192,143798,1,0,0:0:0:0:
320,192,143918,128,0,144398:0:0:0:0:
448,192,143918,1,0,0:0:0:0:
448,192,144038,1,0,0:0:0:0:
64,192,144158,1,0,0:0:0:0:
64,192,144278,1,0,0:0:0:0:
192,192,144398,1,0,0:0:0:0:
448,192,144398,1,0,0:0:0:0:
320,192,144638,1,0,0:0:0:0:
192,192,144638,1,0,0:0:0:0:
64,192,144638,1,0,0:0:0:0:
64,192,144758,1,0,0:0:0:0:
192,192,144758,1,0,0:0:0:0:
320,192,144758,1,0,0:0:0:0:
192,192,144998,1,0,0:0:0:0:
320,192,144998,1,0,0:0:0:0:
448,192,144998,1,0,0:0:0:0:
64,192,145118,1,0,0:0:0:0:
192,192,145238,1,0,0:0:0:0:
320,192,145358,1,0,0:0:0:0:
448,192,145358,1,0,0:0:0:0:
192,192,145478,1,0,0:0:0:0:
64,192,145478,1,0,0:0:0:0:
448,192,145491,1,0,0:0:0:0:
320,192,145544,1,0,0:0:0:0:
192,192,145598,1,0,0:0:0:0:
448,192,145651,1,0,0:0:0:0:
64,192,145704,1,0,0:0:0:0:
192,192,145758,1,0,0:0:0:0:
320,192,145758,1,0,0:0:0:0:
448,192,145811,1,0,0:0:0:0:
64,192,145864,1,0,0:0:0:0:
320,192,145918,1,0,0:0:0:0:
192,192,145971,1,0,0:0:0:0:
64,192,146024,1,0,0:0:0:0:
448,192,146078,1,0,0:0:0:0:
320,192,146078,1,0,0:0:0:0:
320,192,146174,1,0,0:0:0:0:
448,192,146174,1,0,0:0:0:0:
448,192,146288,1,0,0:0:0:0:
64,192,146318,1,0,0:0:0:0:
64,192,146438,1,0,0:0:0:0:
192,192,146438,1,0,0:0:0:0:
448,192,146558,1,0,0:0:0:0:
320,192,146558,1,0,0:0:0:0:
64,192,146618,1,0,0:0:0:0:
192,192,146678,1,0,0:0:0:0:
320,192,146678,1,0,0:0:0:0:
448,192,146738,1,0,0:0:0:0:
192,192,146798,1,0,0:0:0:0:
448,192,146918,1,0,0:0:0:0:
64,192,146918,1,0,0:0:0:0:
192,192,146969,1,0,0:0:0:0:
320,192,147038,1,0,0:0:0:0:
64,192,147091,1,0,0:0:0:0:
448,192,147144,1,0,0:0:0:0:
320,192,147198,1,0,0:0:0:0:
192,192,147198,1,0,0:0:0:0:
64,192,147251,1,0,0:0:0:0:
448,192,147304,1,0,0:0:0:0:
320,192,147358,1,0,0:0:0:0:
64,192,147411,1,0,0:0:0:0:
192,192,147464,1,0,0:0:0:0:
448,192,147518,1,0,0:0:0:0:
320,192,147518,1,0,0:0:0:0:
64,192,147578,1,0,0:0:0:0:
448,192,147638,1,0,0:0:0:0:
320,192,147698,1,0,0:0:0:0:
192,192,147758,1,0,0:0:0:0:
64,192,147758,1,0,0:0:0:0:
448,192,147818,1,0,0:0:0:0:
192,192,147878,1,0,0:0:0:0:
64,192,147998,1,0,0:0:0:0:
320,192,147998,1,0,0:0:0:0:
448,192,147998,1,0,0:0:0:0:
320,192,148118,1,0,0:0:0:0:
448,192,148118,1,0,0:0:0:0:
320,192,148238,1,0,0:0:0:0:
64,192,148238,1,0,0:0:0:0:
192,192,148358,1,0,0:0:0:0:
448,192,148358,1,0,0:0:0:0:
192,192,148478,1,0,0:0:0:0:
320,192,148478,1,0,0:0:0:0:
64,192,148478,1,0,0:0:0:0:
64,192,148598,1,0,0:0:0:0:
192,192,148598,1,0,0:0:0:0:
320,192,148718,1,0,0:0:0:0:
320,192,148838,1,0,0:0:0:0:
448,192,148838,1,0,0:0:0:0:
64,192,148838,1,0,0:0:0:0:
192,192,148958,1,0,0:0:0:0:
64,192,148958,1,0,0:0:0:0:
448,192,149078,1,0,0:0:0:0:
320,192,149078,1,0,0:0:0:0:
448,192,149198,1,0,0:0:0:0:
192,192,149198,1,0,0:0:0:0:
64,192,149318,1,0,0:0:0:0:
320,192,149318,1,0,0:0:0:0:
192,192,149384,1,0,0:0:0:0:
448,192,149438,1,0,0:0:0:0:
320,192,149491,1,0,0:0:0:0:
64,192,149544,1,0,0:0:0:0:
192,192,149598,1,0,0:0:0:0:
320,192,149598,1,0,0:0:0:0:
448,192,149651,1,0,0:0:0:0:
64,192,149704,1,0,0:0:0:0:
192,192,149758,1,0,0:0:0:0:
448,192,149811,1,0,0:0:0:0:
320,192,149864,1,0,0:0:0:0:
192,192,149918,1,0,0:0:0:0:
64,192,149918,1,0,0:0:0:0:
192,192,150014,1,0,0:0:0:0:
64,192,150014,1,0,0:0:0:0:
64,192,150128,1,0,0:0:0:0:
448,192,150158,1,0,0:0:0:0:
320,192,150158,1,0,0:0:0:0:
448,192,150278,1,0,0:0:0:0:
320,192,150278,1,0,0:0:0:0:
192,192,150398,1,0,0:0:0:0:
64,192,150398,1,0,0:0:0:0:
320,192,150458,1,0,0:0:0:0:
448,192,150518,1,0,0:0:0:0:
64,192,150518,1,0,0:0:0:0:
192,192,150578,1,0,0:0:0:0:
320,192,150638,1,0,0:0:0:0:
64,192,150758,1,0,0:0:0:0:
192,192,150758,1,0,0:0:0:0:
448,192,150824,1,0,0:0:0:0:
320,192,150878,1,0,0:0:0:0:
192,192,150931,1,0,0:0:0:0:
64,192,150984,1,0,0:0:0:0:
320,192,151038,1,0,0:0:0:0:
448,192,151038,1,0,0:0:0:0:
192,192,151091,1,0,0:0:0:0:
320,192,151144,1,0,0:0:0:0:
64,192,151198,1,0,0:0:0:0:
448,192,151251,1,0,0:0:0:0:
320,192,151304,1,0,0:0:0:0:
192,192,151358,1,0,0:0:0:0:
64,192,151358,1,0,0:0:0:0:
192,192,151478,1,0,0:0:0:0:
448,192,151495,1,0,0:0:0:0:
320,192,151598,1,0,0:0:0:0:
64,192,151598,1,0,0:0:0:0:
64,192,151718,1,0,0:0:0:0:
192,192,151718,1,0,0:0:0:0:
64,192,151838,1,0,0:0:0:0:
320,192,151838,1,0,0:0:0:0:
448,192,151838,1,0,0:0:0:0:
192,192,151958,1,0,0:0:0:0:
448,192,151958,1,0,0:0:0:0:
320,192,152078,1,0,0:0:0:0:
64,192,152078,1,0,0:0:0:0:
320,192,152198,1,0,0:0:0:0:
192,192,152318,1,0,0:0:0:0:
64,192,152318,1,0,0:0:0:0:
448,192,152318,1,0,0:0:0:0:
192,192,152438,1,0,0:0:0:0:
448,192,152438,1,0,0:0:0:0:
320,192,152558,1,0,0:0:0:0:
192,192,152678,1,0,0:0:0:0:
64,192,152678,1,0,0:0:0:0:
448,192,152798,1,0,0:0:0:0:
320,192,152918,1,0,0:0:0:0:
192,192,152918,1,0,0:0:0:0:
192,192,153038,1,0,0:0:0:0:
64,192,153038,1,0,0:0:0:0:
320,192,153158,1,0,0:0:0:0:
448,192,153158,1,0,0:0:0:0:
64,192,153171,1,0,0:0:0:0:
192,192,153224,1,0,0:0:0:0:
448,192,153278,1,0,0:0:0:0:
64,192,153331,1,0,0:0:0:0:
320,192,153384,1,0,0:0:0:0:
192,192,153438,1,0,0:0:0:0:
448,192,153491,1,0,0:0:0:0:
64,192,153491,1,0,0:0:0:0:
192,192,153544,1,0,0:0:0:0:
320,192,153598,1,0,0:0:0:0:
448,192,153651,1,0,0:0:0:0:
64,192,153704,1,0,0:0:0:0:
192,192,153758,1,0,0:0:0:0:
320,192,153758,1,0,0:0:0:0:
320,192,153854,1,0,0:0:0:0:
192,192,153854,1,0,0:0:0:0:
192,192,153968,1,0,0:0:0:0:
448,192,153998,1,0,0:0:0:0:
320,192,154118,1,0,0:0:0:0:
448,192,154118,1,0,0:0:0:0:
192,192,154238,1,0,0:0:0:0:
64,192,154238,1,0,0:0:0:0:
448,192,154298,1,0,0:0:0:0:
64,192,154358,1,0,0:0:0:0:
320,192,154358,1,0,0:0:0:0:
192,192,154418,1,0,0:0:0:0:
320,192,154478,1,0,0:0:0:0:
192,192,154598,1,0,0:0:0:0:
64,192,154598,1,0,0:0:0:0:
448,192,154611,1,0,0:0:0:0:
320,192,154664,1,0,0:0:0:0:
64,192,154718,1,0,0:0:0:0:
448,192,154771,1,0,0:0:0:0:
192,192,154824,1,0,0:0:0:0:
320,192,154878,1,0,0:0:0:0:
448,192,154878,1,0,0:0:0:0:
64,192,154931,1,0,0:0:0:0:
192,192,154984,1,0,0:0:0:0:
320,192,155038,1,0,0:0:0:0:
64,192,155091,1,0,0:0:0:0:
448,192,155144,1,0,0:0:0:0:
192,192,155198,1,0,0:0:0:0:
320,192,155198,1,0,0:0:0:0:
64,192,155258,1,0,0:0:0:0:
448,192,155318,1,0,0:0:0:0:
192,192,155378,1,0,0:0:0:0:
448,192,155438,1,0,0:0:0:0:
320,192,155438,1,0,0:0:0:0:
64,192,155558,1,0,0:0:0:0:
320,192,155558,1,0,0:0:0:0:
192,192,155678,1,0,0:0:0:0:
64,192,155678,1,0,0:0:0:0:
448,192,155678,1,0,0:0:0:0:
192,192,155798,1,0,0:0:0:0:
64,192,155798,1,0,0:0:0:0:
448,192,155918,1,0,0:0:0:0:
320,192,155978,1,0,0:0:0:0:
64,192,156038,1,0,0:0:0:0:
192,192,156098,1,0,0:0:0:0:
320,192,156158,1,0,0:0:0:0:
448,192,156158,1,0,0:0:0:0:
64,192,156158,1,0,0:0:0:0:
192,192,156278,1,0,0:0:0:0:
320,192,156278,1,0,0:0:0:0:
448,192,156278,1,0,0:0:0:0:
192,192,156398,1,0,0:0:0:0:
64,192,156398,1,0,0:0:0:0:
192,192,156518,1,0,0:0:0:0:
64,192,156518,1,0,0:0:0:0:
320,192,156638,1,0,0:0:0:0:
448,192,156638,1,0,0:0:0:0:
64,192,156678,1,0,0:0:0:0:
192,192,156718,1,0,0:0:0:0:
320,192,156758,1,0,0:0:0:0:
448,192,156798,1,0,0:0:0:0:
320,192,156838,1,0,0:0:0:0:
192,192,156878,1,0,0:0:0:0:
448,192,156918,1,0,0:0:0:0:
64,192,156958,1,0,0:0:0:0:
192,192,156998,1,0,0:0:0:0:
320,192,157058,1,0,0:0:0:0:
448,192,157118,1,0,0:0:0:0:
64,192,157118,1,0,0:0:0:0:
192,192,157238,1,0,0:0:0:0:
320,192,157278,1,0,0:0:0:0:
64,192,157331,1,0,0:0:0:0:
448,192,157384,1,0,0:0:0:0:
320,192,157438,1,0,0:0:0:0:
192,192,157491,1,0,0:0:0:0:
64,192,157491,1,0,0:0:0:0:
448,192,157538,1,0,0:0:0:0:
320,192,157568,1,0,0:0:0:0:
192,192,157598,1,0,0:0:0:0:
64,192,157598,1,0,0:0:0:0:
64,192,157704,1,0,0:0:0:0:
192,192,157704,1,0,0:0:0:0:
320,192,157758,1,0,0:0:0:0:
448,192,157811,1,0,0:0:0:0:
320,192,157918,1,0,0:0:0:0:
192,192,157958,1,0,0:0:0:0:
64,192,157958,1,0,0:0:0:0:
448,192,157998,1,0,0:0:0:0:
320,192,158038,1,0,0:0:0:0:
192,192,158078,1,0,0:0:0:0:
64,192,158118,1,0,0:0:0:0:
448,192,158158,1,0,0:0:0:0:
192,192,158198,1,0,0:0:0:0:
320,192,158258,1,0,0:0:0:0:
64,192,158318,1,0,0:0:0:0:
448,192,158378,1,0,0:0:0:0:
320,192,158438,1,0,0:0:0:0:
192,192,158498,1,0,0:0:0:0:
64,192,158558,1,0,0:0:0:0:
448,192,158558,1,0,0:0:0:0:
192,192,158598,1,0,0:0:0:0:
320,192,158638,1,0,0:0:0:0:
448,192,158678,1,0,0:0:0:0:
192,192,158718,1,0,0:0:0:0:
64,192,158758,1,0,0:0:0:0:
448,192,158798,1,0,0:0:0:0:
320,192,158838,1,0,0:0:0:0:
192,192,158878,1,0,0:0:0:0:
448,192,158958,1,0,0:0:0:0:
64,192,159038,1,0,0:0:0:0:
192,192,159038,1,0,0:0:0:0:
448,192,159158,1,0,0:0:0:0:
192,192,159158,1,0,0:0:0:0:
320,192,159198,1,0,0:0:0:0:
64,192,159251,1,0,0:0:0:0:
320,192,159304,1,0,0:0:0:0:
192,192,159358,1,0,0:0:0:0:
448,192,159411,1,0,0:0:0:0:
64,192,159411,1,0,0:0:0:0:
448,192,159518,1,0,0:0:0:0:
64,192,159518,1,0,0:0:0:0:
448,192,159624,1,0,0:0:0:0:
64,192,159624,1,0,0:0:0:0:
192,192,159678,1,0,0:0:0:0:
320,192,159731,1,0,0:0:0:0:
64,192,159784,1,0,0:0:0:0:
448,192,159838,1,0,0:0:0:0:
320,192,159918,1,0,0:0:0:0:
64,192,159998,1,0,0:0:0:0:
192,192,159998,1,0,0:0:0:0:
192,192,160118,1,0,0:0:0:0:
320,192,160118,1,0,0:0:0:0:
448,192,160118,1,0,0:0:0:0:
320,192,160238,1,0,0:0:0:0:
448,192,160238,1,0,0:0:0:0:
192,192,160238,1,0,0:0:0:0:
192,192,160358,1,0,0:0:0:0:
320,192,160358,1,0,0:0:0:0:
448,192,160358,1,0,0:0:0:0:
192,192,160478,1,0,0:0:0:0:
64,192,160478,1,0,0:0:0:0:
320,192,160518,1,0,0:0:0:0:
64,192,160598,1,0,0:0:0:0:
448,192,160598,1,0,0:0:0:0:
192,192,160678,1,0,0:0:0:0:
448,192,160718,1,0,0:0:0:0:
320,192,160758,1,0,0:0:0:0:
192,192,160798,1,0,0:0:0:0:
64,192,160838,1,0,0:0:0:0:
320,192,160958,1,0,0:0:0:0:
448,192,160958,1,0,0:0:0:0:
64,192,161023,1,0,0:0:0:0:
192,192,161089,1,0,0:0:0:0:
320,192,161155,1,0,0:0:0:0:
448,192,161155,1,0,0:0:0:0:
64,192,161221,1,0,0:0:0:0:
320,192,161286,1,0,0:0:0:0:
192,192,161352,1,0,0:0:0:0:
64,192,161352,1,0,0:0:0:0:
448,192,161396,1,0,0:0:0:0:
320,192,161440,1,0,0:0:0:0:
192,192,161484,1,0,0:0:0:0:
64,192,161524,1,0,0:0:0:0:
448,192,161564,1,0,0:0:0:0:
192,192,161604,1,0,0:0:0:0:
320,192,161645,1,0,0:0:0:0:
64,192,161725,1,0,0:0:0:0:
320,192,161760,1,0,0:0:0:0:
192,192,161846,1,0,0:0:0:0:
448,192,161846,1,0,0:0:0:0:
320,192,161967,1,0,0:0:0:0:
192,192,161967,1,0,0:0:0:0:
64,192,161967,1,0,0:0:0:0:
192,192,162088,1,0,0:0:0:0:
448,192,162088,1,0,0:0:0:0:
320,192,162209,1,0,0:0:0:0:
64,192,162209,1,0,0:0:0:0:
64,192,162330,1,0,0:0:0:0:
320,192,162330,1,0,0:0:0:0:
320,192,162451,1,0,0:0:0:0:
448,192,162451,1,0,0:0:0:0:
192,192,162505,1,0,0:0:0:0:
64,192,162559,1,0,0:0:0:0:
192,192,162613,1,0,0:0:0:0:
320,192,162666,1,0,0:0:0:0:
448,192,162720,1,0,0:0:0:0:
64,192,162774,1,0,0:0:0:0:
320,192,162828,1,0,0:0:0:0:
192,192,162881,1,0,0:0:0:0:
64,192,162935,1,0,0:0:0:0:
448,192,162935,1,0,0:0:0:0:
320,192,162988,1,0,0:0:0:0:
448,192,163040,1,0,0:0:0:0:
320,192,163092,1,0,0:0:0:0:
192,192,163144,1,0,0:0:0:0:
448,192,163196,1,0,0:0:0:0:
64,192,163248,1,0,0:0:0:0:
320,192,163248,1,0,0:0:0:0:
192,192,163300,1,0,0:0:0:0:
64,192,163352,1,0,0:0:0:0:
192,192,163404,1,0,0:0:0:0:
320,192,163456,1,0,0:0:0:0:
448,192,163508,1,0,0:0:0:0:
448,192,163639,1,0,0:0:0:0:
64,192,163639,1,0,0:0:0:0:
320,192,163756,1,0,0:0:0:0:
64,192,163873,1,0,0:0:0:0:
192,192,163873,1,0,0:0:0:0:
320,192,163873,1,0,0:0:0:0:
64,192,163991,1,0,0:0:0:0:
192,192,163991,1,0,0:0:0:0:
448,192,164109,1,0,0:0:0:0:
320,192,164168,1,0,0:0:0:0:
64,192,164227,1,0,0:0:0:0:
192,192,164286,1,0,0:0:0:0:
448,192,164346,1,0,0:0:0:0:
320,192,164346,1,0,0:0:0:0:
64,192,164386,1,0,0:0:0:0:
192,192,164427,1,0,0:0:0:0:
320,192,164467,1,0,0:0:0:0:
448,192,164508,1,0,0:0:0:0:
320,192,164549,1,0,0:0:0:0:
192,192,164589,1,0,0:0:0:0:
64,192,164630,1,0,0:0:0:0:
448,192,164671,1,0,0:0:0:0:
192,192,164725,1,0,0:0:0:0:
320,192,164779,1,0,0:0:0:0:
64,192,164833,1,0,0:0:0:0:
448,192,164833,1,0,0:0:0:0:
64,192,164942,1,0,0:0:0:0:
320,192,164996,1,0,0:0:0:0:
192,192,165050,1,0,0:0:0:0:
448,192,165104,1,0,0:0:0:0:
320,192,165159,1,0,0:0:0:0:
192,192,165213,1,0,0:0:0:0:
64,192,165267,1,0,0:0:0:0:
448,192,165321,1,0,0:0:0:0:
320,192,165321,1,0,0:0:0:0:
192,192,165375,1,0,0:0:0:0:
64,192,165430,1,0,0:0:0:0:
448,192,165443,1,0,0:0:0:0:
320,192,165565,1,0,0:0:0:0:
192,192,165565,1,0,0:0:0:0:
320,192,165687,1,0,0:0:0:0:
448,192,165809,1,0,0:0:0:0:
192,192,165809,1,0,0:0:0:0:
64,192,165809,1,0,0:0:0:0:
192,192,165929,1,0,0:0:0:0:
64,192,165929,1,0,0:0:0:0:
448,192,165929,1,0,0:0:0:0:
320,192,166050,1,0,0:0:0:0:
64,192,166050,1,0,0:0:0:0:
192,192,166171,1,0,0:0:0:0:
320,192,166292,1,0,0:0:0:0:
448,192,166292,1,0,0:0:0:0:
64,192,166333,1,0,0:0:0:0:
192,192,166373,1,0,0:0:0:0:
320,192,166413,1,0,0:0:0:0:
64,192,166454,1,0,0:0:0:0:
448,192,166494,1,0,0:0:0:0:
320,192,166534,1,0,0:0:0:0:
192,192,166575,1,0,0:0:0:0:
64,192,166615,1,0,0:0:0:0:
448,192,166669,1,0,0:0:0:0:
192,192,166722,1,0,0:0:0:0:
448,192,166776,1,0,0:0:0:0:
320,192,166776,1,0,0:0:0:0:
64,192,166830,1,0,0:0:0:0:
192,192,166884,1,0,0:0:0:0:
448,192,166938,1,0,0:0:0:0:
320,192,167018,1,0,0:0:0:0:
64,192,167018,1,0,0:0:0:0:
320,192,167139,1,0,0:0:0:0:
192,192,167139,1,0,0:0:0:0:
192,192,167260,1,0,0:0:0:0:
64,192,167260,1,0,0:0:0:0:
448,192,167300,1,0,0:0:0:0:
64,192,167368,1,0,0:0:0:0:
192,192,167421,1,0,0:0:0:0:
320,192,167421,1,0,0:0:0:0:
448,192,167502,1,0,0:0:0:0:
192,192,167623,1,0,0:0:0:0:
320,192,167744,1,0,0:0:0:0:
448,192,167744,1,0,0:0:0:0:
64,192,167744,1,0,0:0:0:0:
64,192,167865,1,0,0:0:0:0:
448,192,167865,1,0,0:0:0:0:
320,192,167865,1,0,0:0:0:0:
320,192,167986,1,0,0:0:0:0:
192,192,168107,1,0,0:0:0:0:
64,192,168107,1,0,0:0:0:0:
320,192,168228,1,0,0:0:0:0:
448,192,168228,1,0,0:0:0:0:
192,192,168282,1,0,0:0:0:0:
64,192,168335,1,0,0:0:0:0:
192,192,168389,1,0,0:0:0:0:
448,192,168443,1,0,0:0:0:0:
320,192,168497,1,0,0:0:0:0:
192,192,168550,1,0,0:0:0:0:
448,192,168604,1,0,0:0:0:0:
320,192,168658,1,0,0:0:0:0:
448,192,168712,1,0,0:0:0:0:
64,192,168712,1,0,0:0:0:0:
192,192,168765,1,0,0:0:0:0:
320,192,168819,1,0,0:0:0:0:
64,192,168873,1,0,0:0:0:0:
192,192,168927,1,0,0:0:0:0:
448,192,168981,1,0,0:0:0:0:
64,192,169034,1,0,0:0:0:0:
192,192,169088,1,0,0:0:0:0:
320,192,169196,1,0,0:0:0:0:
448,192,169196,1,0,0:0:0:0:
64,192,169317,1,0,0:0:0:0:
448,192,169317,1,0,0:0:0:0:
192,192,169317,1,0,0:0:0:0:
192,192,169438,1,0,0:0:0:0:
320,192,169559,1,0,0:0:0:0:
448,192,169559,1,0,0:0:0:0:
320,192,169679,1,0,0:0:0:0:
192,192,169679,1,0,0:0:0:0:
64,192,169679,1,0,0:0:0:0:
448,192,169679,128,0,169921:0:0:0:0:
64,192,169800,1,0,0:0:0:0:
192,192,169800,1,0,0:0:0:0:
64,192,169921,1,0,0:0:0:0:
320,192,169921,1,0,0:0:0:0:
192,192,170042,1,0,0:0:0:0:
64,192,170042,1,0,0:0:0:0:
320,192,170163,1,0,0:0:0:0:
448,192,170163,1,0,0:0:0:0:
64,192,170217,1,0,0:0:0:0:
192,192,170271,1,0,0:0:0:0:
320,192,170325,1,0,0:0:0:0:
64,192,170378,1,0,0:0:0:0:
448,192,170432,1,0,0:0:0:0:
320,192,170486,1,0,0:0:0:0:
192,192,170540,1,0,0:0:0:0:
64,192,170593,1,0,0:0:0:0:
320,192,170647,1,0,0:0:0:0:
448,192,170647,1,0,0:0:0:0:
192,192,170701,1,0,0:0:0:0:
448,192,170755,1,0,0:0:0:0:
64,192,170809,1,0,0:0:0:0:
192,192,170862,1,0,0:0:0:0:
320,192,170916,1,0,0:0:0:0:
448,192,170970,1,0,0:0:0:0:
192,192,171024,1,0,0:0:0:0:
320,192,171077,1,0,0:0:0:0:
64,192,171131,1,0,0:0:0:0:
448,192,171131,1,0,0:0:0:0:
320,192,171185,1,0,0:0:0:0:
192,192,171239,1,0,0:0:0:0:
64,192,171292,1,0,0:0:0:0:
448,192,171346,1,0,0:0:0:0:
320,192,171400,1,0,0:0:0:0:
192,192,171454,1,0,0:0:0:0:
448,192,171507,1,0,0:0:0:0:
64,192,171561,1,0,0:0:0:0:
192,192,171615,1,0,0:0:0:0:
320,192,171615,1,0,0:0:0:0:
448,192,171669,1,0,0:0:0:0:
64,192,171722,1,0,0:0:0:0:
192,192,171776,1,0,0:0:0:0:
320,192,171829,1,0,0:0:0:0:
64,192,171882,1,0,0:0:0:0:
448,192,171936,1,0,0:0:0:0:
320,192,171989,1,0,0:0:0:0:
192,192,172042,1,0,0:0:0:0:
448,192,172096,1,0,0:0:0:0:
64,192,172096,1,0,0:0:0:0:
192,192,172149,1,0,0:0:0:0:
320,192,172202,1,0,0:0:0:0:
448,192,172256,1,0,0:0:0:0:
64,192,172309,1,0,0:0:0:0:
320,192,172362,1,0,0:0:0:0:
192,192,172416,1,0,0:0:0:0:
64,192,172469,1,0,0:0:0:0:
448,192,172522,1,0,0:0:0:0:
320,192,172576,1,0,0:0:0:0:
192,192,172576,1,0,0:0:0:0:
64,192,172629,1,0,0:0:0:0:
448,192,172682,1,0,0:0:0:0:
192,192,172736,1,0,0:0:0:0:
320,192,172789,1,0,0:0:0:0:
448,192,172842,1,0,0:0:0:0:
64,192,172896,1,0,0:0:0:0:
192,192,172949,1,0,0:0:0:0:
448,192,173002,1,0,0:0:0:0:
320,192,173056,1,0,0:0:0:0:
192,192,173109,1,0,0:0:0:0:
448,192,173162,1,0,0:0:0:0:
64,192,173176,1,0,0:0:0:0:
192,192,173236,1,0,0:0:0:0:
320,192,173296,1,0,0:0:0:0:
448,192,173296,1,0,0:0:0:0:
64,192,173398,1,0,0:0:0:0:
448,192,173398,1,0,0:0:0:0:
192,192,173496,1,0,0:0:0:0:
320,192,173496,1,0,0:0:0:0:
320,192,173616,128,0,173696:0:0:0:0:
448,192,173616,128,0,173696:0:0:0:0:
64,192,173616,128,0,173696:0:0:0:0:
64,192,173836,128,0,173926:0:0:0:0:
320,192,173836,128,0,173926:0:0:0:0:
192,192,173836,128,0,173926:0:0:0:0:
64,192,174451,1,0,0:0:0:0:
448,192,174451,1,0,0:0:0:0:
192,192,174514,1,0,0:0:0:0:
320,192,174578,1,0,0:0:0:0:
448,192,174641,1,0,0:0:0:0:
320,192,174705,1,0,0:0:0:0:
192,192,174768,1,0,0:0:0:0:
320,192,174832,1,0,0:0:0:0:
192,192,174895,1,0,0:0:0:0:
64,192,174959,1,0,0:0:0:0:
192,192,175023,1,0,0:0:0:0:
320,192,175086,1,0,0:0:0:0:
192,192,175150,1,0,0:0:0:0:
64,192,175213,1,0,0:0:0:0:
192,192,175277,1,0,0:0:0:0:
320,192,175340,1,0,0:0:0:0:
448,192,175404,1,0,0:0:0:0:
320,192,175467,1,0,0:0:0:0:
192,192,175525,1,0,0:0:0:0:
320,192,175584,1,0,0:0:0:0:
448,192,175642,1,0,0:0:0:0:
320,192,175701,1,0,0:0:0:0:
192,192,175759,1,0,0:0:0:0:
64,192,175818,1,0,0:0:0:0:
192,192,175877,1,0,0:0:0:0:
64,192,175935,1,0,0:0:0:0:
448,192,175935,1,0,0:0:0:0:
320,192,175935,1,0,0:0:0:0:
192,192,176016,1,0,0:0:0:0:
320,192,176096,1,0,0:0:0:0:
192,192,176176,1,0,0:0:0:0:
64,192,176176,1,0,0:0:0:0:
448,192,176176,1,0,0:0:0:0:
320,192,176236,1,0,0:0:0:0:
192,192,176296,1,0,0:0:0:0:
448,192,176356,1,0,0:0:0:0:
64,192,176416,1,0,0:0:0:0:
192,192,176476,1,0,0:0:0:0:
320,192,176536,1,0,0:0:0:0:
448,192,176536,1,0,0:0:0:0:
64,192,176536,1,0,0:0:0:0:
192,192,176596,1,0,0:0:0:0:
320,192,176656,1,0,0:0:0:0:
64,192,176716,1,0,0:0:0:0:
448,192,176776,1,0,0:0:0:0:
320,192,176836,1,0,0:0:0:0:
192,192,176896,1,0,0:0:0:0:
448,192,176896,1,0,0:0:0:0:
64,192,176896,128,0,177136:0:0:0:0:
320,192,177016,1,0,0:0:0:0:
448,192,177136,128,0,177376:0:0:0:0:
320,192,177136,1,0,0:0:0:0:
192,192,177136,1,0,0:0:0:0:
64,192,177256,1,0,0:0:0:0:
64,192,177376,1,0,0:0:0:0:
320,192,177376,1,0,0:0:0:0:
192,192,177376,1,0,0:0:0:0:
64,192,177496,1,0,0:0:0:0:
192,192,177496,1,0,0:0:0:0:
320,192,177496,1,0,0:0:0:0:
448,192,177616,1,0,0:0:0:0:
320,192,177616,1,0,0:0:0:0:
192,192,177718,1,0,0:0:0:0:
64,192,177718,1,0,0:0:0:0:
448,192,177718,1,0,0:0:0:0:
192,192,177856,1,0,0:0:0:0:
320,192,177976,1,0,0:0:0:0:
448,192,177976,1,0,0:0:0:0:
64,192,177976,1,0,0:0:0:0:
192,192,178096,1,0,0:0:0:0:
448,192,178096,1,0,0:0:0:0:
192,192,178216,1,0,0:0:0:0:
448,192,178216,1,0,0:0:0:0:
64,192,178336,1,0,0:0:0:0:
192,192,178336,1,0,0:0:0:0:
320,192,178336,1,0,0:0:0:0:
192,192,178452,1,0,0:0:0:0:
320,192,178452,1,0,0:0:0:0:
64,192,178568,1,0,0:0:0:0:
448,192,178568,128,0,178801:0:0:0:0:
320,192,178684,128,0,178801:0:0:0:0:
192,192,178801,1,0,0:0:0:0:
64,192,178801,1,0,0:0:0:0:
448,192,178917,1,0,0:0:0:0:
64,192,178917,1,0,0:0:0:0:
192,192,179033,1,0,0:0:0:0:
320,192,179033,1,0,0:0:0:0:
64,192,179111,1,0,0:0:0:0:
192,192,179188,1,0,0:0:0:0:
320,192,179266,1,0,0:0:0:0:
448,192,179266,1,0,0:0:0:0:
64,192,179266,1,0,0:0:0:0:
448,192,179387,1,0,0:0:0:0:
192,192,179448,1,0,0:0:0:0:
320,192,179448,1,0,0:0:0:0:
64,192,179631,1,0,0:0:0:0:
448,192,179631,1,0,0:0:0:0:
192,192,179692,1,0,0:0:0:0:
320,192,179753,1,0,0:0:0:0:
64,192,179814,1,0,0:0:0:0:
192,192,179875,1,0,0:0:0:0:
320,192,179936,1,0,0:0:0:0:
64,192,179997,1,0,0:0:0:0:
448,192,179997,1,0,0:0:0:0:
448,192,180119,1,0,0:0:0:0:
64,192,180119,1,0,0:0:0:0:
192,192,180242,1,0,0:0:0:0:
320,192,180242,1,0,0:0:0:0:
64,192,180242,1,0,0:0:0:0:
448,192,180362,1,0,0:0:0:0:
320,192,180362,1,0,0:0:0:0:
64,192,180482,1,0,0:0:0:0:
192,192,180482,1,0,0:0:0:0:
192,192,180602,1,0,0:0:0:0:
64,192,180722,1,0,0:0:0:0:
448,192,180722,1,0,0:0:0:0:
320,192,180722,1,0,0:0:0:0:
320,192,180842,1,0,0:0:0:0:
192,192,180842,1,0,0:0:0:0:
448,192,180962,1,0,0:0:0:0:
64,192,180962,1,0,0:0:0:0:
320,192,181022,1,0,0:0:0:0:
192,192,181082,1,0,0:0:0:0:
64,192,181142,1,0,0:0:0:0:
448,192,181202,1,0,0:0:0:0:
320,192,181202,1,0,0:0:0:0:
64,192,181322,1,0,0:0:0:0:
192,192,181322,1,0,0:0:0:0:
448,192,181382,1,0,0:0:0:0:
192,192,181442,1,0,0:0:0:0:
320,192,181502,1,0,0:0:0:0:
64,192,181562,1,0,0:0:0:0:
448,192,181562,1,0,0:0:0:0:
192,192,181642,1,0,0:0:0:0:
448,192,181682,1,0,0:0:0:0:
64,192,181722,1,0,0:0:0:0:
448,192,181802,1,0,0:0:0:0:
64,192,181842,1,0,0:0:0:0:
448,192,181922,1,0,0:0:0:0:
192,192,181922,1,0,0:0:0:0:
320,192,182042,1,0,0:0:0:0:
192,192,182042,1,0,0:0:0:0:
448,192,182162,1,0,0:0:0:0:
320,192,182162,1,0,0:0:0:0:
64,192,182162,1,0,0:0:0:0:
192,192,182242,1,0,0:0:0:0:
448,192,182282,1,0,0:0:0:0:
64,192,182322,1,0,0:0:0:0:
192,192,182402,1,0,0:0:0:0:
448,192,182402,1,0,0:0:0:0:
320,192,182522,1,0,0:0:0:0:
192,192,182522,1,0,0:0:0:0:
320,192,182642,1,0,0:0:0:0:
64,192,182642,1,0,0:0:0:0:
448,192,182642,1,0,0:0:0:0:
64,192,182762,1,0,0:0:0:0:
192,192,182762,1,0,0:0:0:0:
448,192,182882,1,0,0:0:0:0:
320,192,183002,1,0,0:0:0:0:
64,192,183002,1,0,0:0:0:0:
448,192,183122,1,0,0:0:0:0:
64,192,183122,1,0,0:0:0:0:
192,192,183122,1,0,0:0:0:0:
320,192,183242,1,0,0:0:0:0:
448,192,183242,1,0,0:0:0:0:
64,192,183242,1,0,0:0:0:0:
320,192,183362,1,0,0:0:0:0:
192,192,183482,1,0,0:0:0:0:
64,192,183482,1,0,0:0:0:0:
448,192,183602,1,0,0:0:0:0:
192,192,183602,1,0,0:0:0:0:
448,192,183722,1,0,0:0:0:0:
192,192,183722,1,0,0:0:0:0:
320,192,183842,1,0,0:0:0:0:
192,192,183842,1,0,0:0:0:0:
64,192,183842,1,0,0:0:0:0:
320,192,183962,1,0,0:0:0:0:
192,192,184082,1,0,0:0:0:0:
448,192,184082,1,0,0:0:0:0:
64,192,184082,1,0,0:0:0:0:
448,192,184202,1,0,0:0:0:0:
192,192,184202,1,0,0:0:0:0:
192,192,184322,1,0,0:0:0:0:
64,192,184322,1,0,0:0:0:0:
320,192,184322,1,0,0:0:0:0:
320,192,184442,1,0,0:0:0:0:
448,192,184442,1,0,0:0:0:0:
64,192,184562,1,0,0:0:0:0:
192,192,184562,1,0,0:0:0:0:
448,192,184682,1,0,0:0:0:0:
320,192,184682,1,0,0:0:0:0:
64,192,184682,1,0,0:0:0:0:
320,192,184802,1,0,0:0:0:0:
448,192,184922,1,0,0:0:0:0:
64,192,184922,1,0,0:0:0:0:
192,192,184922,1,0,0:0:0:0:
192,192,185042,1,0,0:0:0:0:
320,192,185042,1,0,0:0:0:0:
320,192,185157,1,0,0:0:0:0:
64,192,185157,1,0,0:0:0:0:
448,192,185157,1,0,0:0:0:0:
192,192,185234,1,0,0:0:0:0:
192,192,185388,1,0,0:0:0:0:
448,192,185388,1,0,0:0:0:0:
64,192,185388,1,0,0:0:0:0:
64,192,185503,1,0,0:0:0:0:
448,192,185503,1,0,0:0:0:0:
448,192,185618,1,0,0:0:0:0:
64,192,185618,1,0,0:0:0:0:
320,192,185734,1,0,0:0:0:0:
192,192,185734,1,0,0:0:0:0:
192,192,185849,1,0,0:0:0:0:
448,192,185965,1,0,0:0:0:0:
64,192,185965,1,0,0:0:0:0:
320,192,185965,1,0,0:0:0:0:
192,192,186083,1,0,0:0:0:0:
64,192,186201,1,0,0:0:0:0:
448,192,186201,1,0,0:0:0:0:
320,192,186260,1,0,0:0:0:0:
192,192,186260,1,0,0:0:0:0:
192,192,186438,1,0,0:0:0:0:
320,192,186438,1,0,0:0:0:0:
448,192,186498,1,0,0:0:0:0:
64,192,186498,1,0,0:0:0:0:
64,192,186651,128,0,186773:0:0:0:0:
448,192,186651,128,0,186773:0:0:0:0:
320,192,186681,128,0,186834:0:0:0:0:
192,192,186681,128,0,186834:0:0:0:0:
64,192,186925,1,0,0:0:0:0:
320,192,186925,1,0,0:0:0:0:
192,192,186925,1,0,0:0:0:0:
448,192,187045,1,0,0:0:0:0:
192,192,187045,1,0,0:0:0:0:
448,192,187165,1,0,0:0:0:0:
320,192,187285,1,0,0:0:0:0:
192,192,187285,1,0,0:0:0:0:
64,192,187285,1,0,0:0:0:0:
192,192,187405,1,0,0:0:0:0:
64,192,187525,1,0,0:0:0:0:
320,192,187525,1,0,0:0:0:0:
448,192,187525,1,0,0:0:0:0:
192,192,187645,1,0,0:0:0:0:
320,192,187645,1,0,0:0:0:0:
192,192,187765,1,0,0:0:0:0:
320,192,187765,1,0,0:0:0:0:
64,192,187885,1,0,0:0:0:0:
448,192,187885,1,0,0:0:0:0:
320,192,187885,1,0,0:0:0:0:
192,192,188005,1,0,0:0:0:0:
64,192,188005,1,0,0:0:0:0:
448,192,188125,1,0,0:0:0:0:
320,192,188125,1,0,0:0:0:0:
320,192,188245,1,0,0:0:0:0:
448,192,188365,1,0,0:0:0:0:
64,192,188365,1,0,0:0:0:0:
192,192,188365,1,0,0:0:0:0:
320,192,188485,1,0,0:0:0:0:
192,192,188485,1,0,0:0:0:0:
448,192,188605,128,0,188725:0:0:0:0:
64,192,188605,1,0,0:0:0:0:
320,192,188725,1,0,0:0:0:0:
192,192,188725,128,0,188845:0:0:0:0:
448,192,188845,1,0,0:0:0:0:
320,192,188845,1,0,0:0:0:0:
64,192,188845,1,0,0:0:0:0:
192,192,188965,1,0,0:0:0:0:
64,192,188965,1,0,0:0:0:0:
448,192,189085,1,0,0:0:0:0:
192,192,189085,1,0,0:0:0:0:
448,192,189205,1,0,0:0:0:0:
64,192,189205,1,0,0:0:0:0:
320,192,189205,1,0,0:0:0:0:
320,192,189325,1,0,0:0:0:0:
64,192,189445,1,0,0:0:0:0:
320,192,189445,1,0,0:0:0:0:
192,192,189565,1,0,0:0:0:0:
448,192,189565,1,0,0:0:0:0:
448,192,189685,1,0,0:0:0:0:
192,192,189685,1,0,0:0:0:0:
64,192,189805,1,0,0:0:0:0:
192,192,189805,1,0,0:0:0:0:
320,192,189805,1,0,0:0:0:0:
64,192,189924,1,0,0:0:0:0:
320,192,189924,1,0,0:0:0:0:
448,192,190043,1,0,0:0:0:0:
192,192,190043,1,0,0:0:0:0:
192,192,190162,1,0,0:0:0:0:
448,192,190162,1,0,0:0:0:0:
64,192,190282,1,0,0:0:0:0:
192,192,190282,1,0,0:0:0:0:
320,192,190282,1,0,0:0:0:0:
64,192,190400,1,0,0:0:0:0:
320,192,190400,1,0,0:0:0:0:
448,192,190518,1,0,0:0:0:0:
192,192,190518,1,0,0:0:0:0:
192,192,190636,1,0,0:0:0:0:
448,192,190636,1,0,0:0:0:0:
192,192,190754,1,0,0:0:0:0:
64,192,190754,1,0,0:0:0:0:
320,192,190754,1,0,0:0:0:0:
320,192,190872,1,0,0:0:0:0:
64,192,190872,1,0,0:0:0:0:
192,192,190990,1,0,0:0:0:0:
64,192,191108,1,0,0:0:0:0:
320,192,191108,1,0,0:0:0:0:
448,192,191108,1,0,0:0:0:0:
192,192,191167,1,0,0:0:0:0:
448,192,191226,1,0,0:0:0:0:
320,192,191285,1,0,0:0:0:0:
64,192,191344,1,0,0:0:0:0:
192,192,191344,1,0,0:0:0:0:
448,192,191404,1,0,0:0:0:0:
64,192,191463,1,0,0:0:0:0:
192,192,191522,1,0,0:0:0:0:
320,192,191581,1,0,0:0:0:0:
448,192,191640,1,0,0:0:0:0:
64,192,191699,1,0,0:0:0:0:
192,192,191699,1,0,0:0:0:0:
448,192,191758,1,0,0:0:0:0:
320,192,191817,1,0,0:0:0:0:
64,192,191817,1,0,0:0:0:0:
320,192,191935,1,0,0:0:0:0:
192,192,191935,1,0,0:0:0:0:
448,192,192053,1,0,0:0:0:0:
64,192,192053,1,0,0:0:0:0:
192,192,192053,1,0,0:0:0:0:
448,192,192171,1,0,0:0:0:0:
320,192,192171,1,0,0:0:0:0:
64,192,192291,1,0,0:0:0:0:
448,192,192291,1,0,0:0:0:0:
320,192,192291,1,0,0:0:0:0:
192,192,192412,1,0,0:0:0:0:
64,192,192412,128,0,192594:0:0:0:0:
448,192,192473,128,0,192594:0:0:0:0:
320,192,192533,128,0,192594:0:0:0:0:
192,192,192654,1,0,0:0:0:0:
64,192,192654,1,0,0:0:0:0:
448,192,192654,1,0,0:0:0:0:
320,192,192775,1,0,0:0:0:0:
320,192,192896,1,0,0:0:0:0:
448,192,192896,1,0,0:0:0:0:
64,192,192896,1,0,0:0:0:0:
320,192,193017,1,0,0:0:0:0:
192,192,193017,1,0,0:0:0:0:
192,192,193138,1,0,0:0:0:0:
64,192,193138,1,0,0:0:0:0:
448,192,193138,1,0,0:0:0:0:
320,192,193199,1,0,0:0:0:0:
64,192,193259,1,0,0:0:0:0:
320,192,193320,1,0,0:0:0:0:
192,192,193380,1,0,0:0:0:0:
448,192,193380,1,0,0:0:0:0:
320,192,193501,1,0,0:0:0:0:
192,192,193501,1,0,0:0:0:0:
192,192,193622,1,0,0:0:0:0:
64,192,193622,1,0,0:0:0:0:
448,192,193622,1,0,0:0:0:0:
320,192,193683,1,0,0:0:0:0:
64,192,193743,1,0,0:0:0:0:
320,192,193804,1,0,0:0:0:0:
448,192,193864,1,0,0:0:0:0:
192,192,193864,1,0,0:0:0:0:
64,192,193985,1,0,0:0:0:0:
320,192,193985,1,0,0:0:0:0:
192,192,194046,1,0,0:0:0:0:
320,192,194106,1,0,0:0:0:0:
448,192,194107,1,0,0:0:0:0:
192,192,194165,1,0,0:0:0:0:
64,192,194224,1,0,0:0:0:0:
192,192,194282,1,0,0:0:0:0:
320,192,194341,1,0,0:0:0:0:
448,192,194399,1,0,0:0:0:0:
320,192,194458,1,0,0:0:0:0:
192,192,194517,1,0,0:0:0:0:
64,192,194575,1,0,0:0:0:0:
448,192,194575,1,0,0:0:0:0:
192,192,194634,1,0,0:0:0:0:
448,192,194692,1,0,0:0:0:0:
320,192,194751,1,0,0:0:0:0:
64,192,194810,1,0,0:0:0:0:
192,192,194810,1,0,0:0:0:0:
448,192,194927,1,0,0:0:0:0:
64,192,194927,1,0,0:0:0:0:
320,192,194927,1,0,0:0:0:0:
320,192,195044,1,0,0:0:0:0:
192,192,195161,1,0,0:0:0:0:
64,192,195161,1,0,0:0:0:0:
448,192,195278,1,0,0:0:0:0:
192,192,195278,1,0,0:0:0:0:
192,192,195396,1,0,0:0:0:0:
448,192,195396,1,0,0:0:0:0:
320,192,195513,1,0,0:0:0:0:
448,192,195513,1,0,0:0:0:0:
64,192,195513,1,0,0:0:0:0:
192,192,195630,1,0,0:0:0:0:
320,192,195747,1,0,0:0:0:0:
64,192,195747,1,0,0:0:0:0:
320,192,195864,1,0,0:0:0:0:
192,192,195982,1,0,0:0:0:0:
64,192,195982,1,0,0:0:0:0:
320,192,196102,1,0,0:0:0:0:
64,192,196102,1,0,0:0:0:0:
448,192,196102,1,0,0:0:0:0:
320,192,196223,1,0,0:0:0:0:
64,192,196344,1,0,0:0:0:0:
448,192,196344,1,0,0:0:0:0:
192,192,196344,1,0,0:0:0:0:
320,192,196465,1,0,0:0:0:0:
192,192,196465,1,0,0:0:0:0:
64,192,196586,1,0,0:0:0:0:
448,192,196586,1,0,0:0:0:0:
320,192,196586,1,0,0:0:0:0:
64,192,196707,1,0,0:0:0:0:
192,192,196707,1,0,0:0:0:0:
192,192,196828,1,0,0:0:0:0:
320,192,196828,1,0,0:0:0:0:
448,192,196828,1,0,0:0:0:0:
320,192,196949,1,0,0:0:0:0:
448,192,197070,1,0,0:0:0:0:
64,192,197070,1,0,0:0:0:0:
192,192,197131,1,0,0:0:0:0:
320,192,197191,1,0,0:0:0:0:
64,192,197191,1,0,0:0:0:0:
192,192,197252,1,0,0:0:0:0:
320,192,197312,1,0,0:0:0:0:
192,192,197373,1,0,0:0:0:0:
448,192,197433,1,0,0:0:0:0:
64,192,197433,1,0,0:0:0:0:
448,192,197554,1,0,0:0:0:0:
320,192,197554,1,0,0:0:0:0:
64,192,197615,1,0,0:0:0:0:
320,192,197675,1,0,0:0:0:0:
192,192,197675,1,0,0:0:0:0:
448,192,197796,1,0,0:0:0:0:
320,192,197796,1,0,0:0:0:0:
64,192,197857,1,0,0:0:0:0:
320,192,197917,1,0,0:0:0:0:
192,192,197917,1,0,0:0:0:0:
64,192,198038,1,0,0:0:0:0:
192,192,198038,1,0,0:0:0:0:
192,192,198159,1,0,0:0:0:0:
448,192,198219,1,0,0:0:0:0:
64,192,198280,1,0,0:0:0:0:
320,192,198280,1,0,0:0:0:0:
64,192,198401,1,0,0:0:0:0:
448,192,198401,1,0,0:0:0:0:
320,192,198401,1,0,0:0:0:0:
192,192,198520,1,0,0:0:0:0:
448,192,198520,1,0,0:0:0:0:
320,192,198639,1,0,0:0:0:0:
64,192,198639,1,0,0:0:0:0:
192,192,198758,1,0,0:0:0:0:
320,192,198758,1,0,0:0:0:0:
192,192,198877,1,0,0:0:0:0:
448,192,198877,1,0,0:0:0:0:
64,192,198877,1,0,0:0:0:0:
448,192,198995,1,0,0:0:0:0:
192,192,199113,1,0,0:0:0:0:
64,192,199113,1,0,0:0:0:0:
320,192,199113,1,0,0:0:0:0:
320,192,199231,1,0,0:0:0:0:
448,192,199349,1,0,0:0:0:0:
192,192,199349,1,0,0:0:0:0:
64,192,199349,1,0,0:0:0:0:
64,192,199467,1,0,0:0:0:0:
320,192,199585,1,0,0:0:0:0:
448,192,199585,1,0,0:0:0:0:
192,192,199585,1,0,0:0:0:0:
64,192,199703,1,0,0:0:0:0:
320,192,199703,1,0,0:0:0:0:
448,192,199703,1,0,0:0:0:0:
192,192,199821,1,0,0:0:0:0:
320,192,199821,1,0,0:0:0:0:
64,192,199939,1,0,0:0:0:0:
448,192,199939,1,0,0:0:0:0:
192,192,199939,1,0,0:0:0:0:
64,192,200058,1,0,0:0:0:0:
320,192,200176,1,0,0:0:0:0:
192,192,200176,1,0,0:0:0:0:
448,192,200176,1,0,0:0:0:0:
320,192,200294,1,0,0:0:0:0:
64,192,200294,1,0,0:0:0:0:
448,192,200412,1,0,0:0:0:0:
192,192,200412,1,0,0:0:0:0:
64,192,200412,1,0,0:0:0:0:
192,192,200530,1,0,0:0:0:0:
448,192,200648,1,0,0:0:0:0:
320,192,200648,1,0,0:0:0:0:
64,192,200707,1,0,0:0:0:0:
192,192,200766,1,0,0:0:0:0:
448,192,200825,1,0,0:0:0:0:
64,192,200884,1,0,0:0:0:0:
320,192,200884,1,0,0:0:0:0:
192,192,200943,1,0,0:0:0:0:
448,192,201002,1,0,0:0:0:0:
64,192,201002,1,0,0:0:0:0:
192,192,201062,1,0,0:0:0:0:
320,192,201121,1,0,0:0:0:0:
64,192,201180,1,0,0:0:0:0:
192,192,201239,1,0,0:0:0:0:
448,192,201239,1,0,0:0:0:0:
320,192,201239,1,0,0:0:0:0:
192,192,201357,1,0,0:0:0:0:
448,192,201357,1,0,0:0:0:0:
320,192,201475,1,0,0:0:0:0:
64,192,201475,1,0,0:0:0:0:
320,192,201593,1,0,0:0:0:0:
192,192,201593,1,0,0:0:0:0:
64,192,201712,1,0,0:0:0:0:
448,192,201712,1,0,0:0:0:0:
64,192,201839,1,0,0:0:0:0:
192,192,201839,1,0,0:0:0:0:
448,192,201881,1,0,0:0:0:0:
320,192,201937,1,0,0:0:0:0:
192,192,201966,1,0,0:0:0:0:
64,192,201994,1,0,0:0:0:0:
448,192,202029,1,0,0:0:0:0:
320,192,202093,1,0,0:0:0:0:
192,192,202156,1,0,0:0:0:0:
320,192,202221,1,0,0:0:0:0:
448,192,202221,1,0,0:0:0:0:
192,192,202280,1,0,0:0:0:0:
64,192,202340,1,0,0:0:0:0:
448,192,202399,1,0,0:0:0:0:
320,192,202459,1,0,0:0:0:0:
192,192,202459,1,0,0:0:0:0:
64,192,202578,1,0,0:0:0:0:
448,192,202578,1,0,0:0:0:0:
192,192,202637,1,0,0:0:0:0:
320,192,202697,1,0,0:0:0:0:
64,192,202756,1,0,0:0:0:0:
448,192,202816,1,0,0:0:0:0:
320,192,202816,1,0,0:0:0:0:
192,192,202875,1,0,0:0:0:0:
64,192,202935,1,0,0:0:0:0:
192,192,202994,1,0,0:0:0:0:
448,192,203054,1,0,0:0:0:0:
320,192,203054,1,0,0:0:0:0:
192,192,203113,1,0,0:0:0:0:
64,192,203173,1,0,0:0:0:0:
448,192,203173,1,0,0:0:0:0:
320,192,203232,1,0,0:0:0:0:
448,192,203292,1,0,0:0:0:0:
64,192,203351,1,0,0:0:0:0:
320,192,203411,1,0,0:0:0:0:
192,192,203411,1,0,0:0:0:0:
192,192,203530,1,0,0:0:0:0:
64,192,203530,1,0,0:0:0:0:
448,192,203590,1,0,0:0:0:0:
320,192,203649,1,0,0:0:0:0:
192,192,203709,1,0,0:0:0:0:
64,192,203768,1,0,0:0:0:0:
320,192,203828,1,0,0:0:0:0:
448,192,203887,1,0,0:0:0:0:
64,192,203887,1,0,0:0:0:0:
320,192,203947,1,0,0:0:0:0:
64,192,204006,1,0,0:0:0:0:
192,192,204066,1,0,0:0:0:0:
320,192,204125,1,0,0:0:0:0:
448,192,204125,1,0,0:0:0:0:
64,192,204244,1,0,0:0:0:0:
448,192,204244,1,0,0:0:0:0:
192,192,204304,1,0,0:0:0:0:
320,192,204363,1,0,0:0:0:0:
64,192,204482,1,0,0:0:0:0:
192,192,204482,1,0,0:0:0:0:
448,192,204542,1,0,0:0:0:0:
192,192,204601,1,0,0:0:0:0:
320,192,204601,1,0,0:0:0:0:
448,192,204661,1,0,0:0:0:0:
64,192,204720,1,0,0:0:0:0:
320,192,204780,1,0,0:0:0:0:
64,192,204840,1,0,0:0:0:0:
192,192,204840,1,0,0:0:0:0:
448,192,204899,1,0,0:0:0:0:
192,192,204959,1,0,0:0:0:0:
320,192,205018,1,0,0:0:0:0:
64,192,205078,1,0,0:0:0:0:
448,192,205078,1,0,0:0:0:0:
192,192,205137,1,0,0:0:0:0:
64,192,205197,1,0,0:0:0:0:
320,192,205197,1,0,0:0:0:0:
192,192,205316,1,0,0:0:0:0:
448,192,205316,1,0,0:0:0:0:
448,192,205435,1,0,0:0:0:0:
64,192,205474,1,0,0:0:0:0:
192,192,205514,1,0,0:0:0:0:
320,192,205554,1,0,0:0:0:0:
448,192,205594,1,0,0:0:0:0:
192,192,205673,1,0,0:0:0:0:
448,192,205792,1,0,0:0:0:0:
64,192,205792,1,0,0:0:0:0:
192,192,205911,1,0,0:0:0:0:
320,192,205911,1,0,0:0:0:0:
448,192,206030,1,0,0:0:0:0:
64,192,206030,1,0,0:0:0:0:
192,192,206030,1,0,0:0:0:0:
64,192,206149,1,0,0:0:0:0:
320,192,206149,1,0,0:0:0:0:
320,192,206268,1,0,0:0:0:0:
64,192,206387,1,0,0:0:0:0:
192,192,206387,1,0,0:0:0:0:
448,192,206447,1,0,0:0:0:0:
320,192,206506,1,0,0:0:0:0:
448,192,206566,1,0,0:0:0:0:
64,192,206625,1,0,0:0:0:0:
192,192,206685,1,0,0:0:0:0:
448,192,206744,1,0,0:0:0:0:
320,192,206744,1,0,0:0:0:0:
192,192,206804,1,0,0:0:0:0:
320,192,206863,1,0,0:0:0:0:
192,192,206923,1,0,0:0:0:0:
64,192,206982,1,0,0:0:0:0:
448,192,206982,1,0,0:0:0:0:
320,192,207041,1,0,0:0:0:0:
192,192,207100,1,0,0:0:0:0:
320,192,207159,1,0,0:0:0:0:
448,192,207218,1,0,0:0:0:0:
64,192,207218,1,0,0:0:0:0:
192,192,207277,1,0,0:0:0:0:
64,192,207336,1,0,0:0:0:0:
448,192,207336,1,0,0:0:0:0:
320,192,207454,1,0,0:0:0:0:
192,192,207454,1,0,0:0:0:0:
448,192,207572,1,0,0:0:0:0:
320,192,207572,1,0,0:0:0:0:
192,192,207690,1,0,0:0:0:0:
448,192,207690,1,0,0:0:0:0:
64,192,207749,1,0,0:0:0:0:
320,192,207808,1,0,0:0:0:0:
192,192,207867,1,0,0:0:0:0:
64,192,207926,1,0,0:0:0:0:
320,192,207926,1,0,0:0:0:0:
448,192,207926,1,0,0:0:0:0:
64,192,208044,1,0,0:0:0:0:
448,192,208044,1,0,0:0:0:0:
320,192,208044,1,0,0:0:0:0:
192,192,208133,1,0,0:0:0:0:
320,192,208163,1,0,0:0:0:0:
64,192,208281,1,0,0:0:0:0:
192,192,208281,1,0,0:0:0:0:
448,192,208320,1,0,0:0:0:0:
320,192,208359,1,0,0:0:0:0:
192,192,208399,1,0,0:0:0:0:
448,192,208451,1,0,0:0:0:0:
64,192,208504,1,0,0:0:0:0:
192,192,208556,1,0,0:0:0:0:
320,192,208609,1,0,0:0:0:0:
448,192,208661,1,0,0:0:0:0:
320,192,208714,1,0,0:0:0:0:
192,192,208766,1,0,0:0:0:0:
64,192,208819,1,0,0:0:0:0:
448,192,208871,1,0,0:0:0:0:
320,192,208871,1,0,0:0:0:0:
192,192,208930,1,0,0:0:0:0:
64,192,208989,1,0,0:0:0:0:
448,192,209048,1,0,0:0:0:0:
192,192,209107,1,0,0:0:0:0:
320,192,209107,1,0,0:0:0:0:
64,192,209167,1,0,0:0:0:0:
320,192,209226,1,0,0:0:0:0:
448,192,209226,1,0,0:0:0:0:
192,192,209285,1,0,0:0:0:0:
320,192,209344,1,0,0:0:0:0:
64,192,209403,1,0,0:0:0:0:
448,192,209462,1,0,0:0:0:0:
320,192,209521,1,0,0:0:0:0:
64,192,209580,1,0,0:0:0:0:
192,192,209580,1,0,0:0:0:0:
192,192,209698,1,0,0:0:0:0:
64,192,209816,1,0,0:0:0:0:
448,192,209816,1,0,0:0:0:0:
320,192,209816,1,0,0:0:0:0:
64,192,209937,1,0,0:0:0:0:
192,192,209937,1,0,0:0:0:0:
320,192,209998,1,0,0:0:0:0:
448,192,210058,1,0,0:0:0:0:
64,192,210179,1,0,0:0:0:0:
192,192,210179,1,0,0:0:0:0:
320,192,210220,1,0,0:0:0:0:
448,192,210260,1,0,0:0:0:0:
64,192,210300,1,0,0:0:0:0:
320,192,210354,1,0,0:0:0:0:
192,192,210408,1,0,0:0:0:0:
64,192,210462,1,0,0:0:0:0:
448,192,210515,1,0,0:0:0:0:
192,192,210569,1,0,0:0:0:0:
320,192,210623,1,0,0:0:0:0:
448,192,210677,1,0,0:0:0:0:
320,192,210730,1,0,0:0:0:0:
64,192,210784,1,0,0:0:0:0:
192,192,210784,1,0,0:0:0:0:
448,192,210845,1,0,0:0:0:0:
320,192,210905,1,0,0:0:0:0:
192,192,210966,1,0,0:0:0:0:
448,192,211026,1,0,0:0:0:0:
64,192,211026,1,0,0:0:0:0:
320,192,211087,1,0,0:0:0:0:
64,192,211147,1,0,0:0:0:0:
192,192,211147,1,0,0:0:0:0:
320,192,211208,1,0,0:0:0:0:
448,192,211268,1,0,0:0:0:0:
320,192,211328,1,0,0:0:0:0:
64,192,211387,1,0,0:0:0:0:
192,192,211446,1,0,0:0:0:0:
448,192,211505,1,0,0:0:0:0:
64,192,211505,1,0,0:0:0:0:
192,192,211564,1,0,0:0:0:0:
320,192,211623,1,0,0:0:0:0:
448,192,211682,1,0,0:0:0:0:
64,192,211741,1,0,0:0:0:0:
192,192,211741,1,0,0:0:0:0:
192,192,211859,1,0,0:0:0:0:
448,192,211859,1,0,0:0:0:0:
64,192,211977,1,0,0:0:0:0:
320,192,211977,1,0,0:0:0:0:
448,192,212095,1,0,0:0:0:0:
320,192,212095,1,0,0:0:0:0:
64,192,212135,1,0,0:0:0:0:
192,192,212174,1,0,0:0:0:0:
320,192,212213,1,0,0:0:0:0:
64,192,212266,1,0,0:0:0:0:
448,192,212318,1,0,0:0:0:0:
320,192,212371,1,0,0:0:0:0:
192,192,212423,1,0,0:0:0:0:
64,192,212476,1,0,0:0:0:0:
192,192,212528,1,0,0:0:0:0:
320,192,212581,1,0,0:0:0:0:
448,192,212633,1,0,0:0:0:0:
64,192,212686,1,0,0:0:0:0:
192,192,212686,1,0,0:0:0:0:
320,192,212745,1,0,0:0:0:0:
448,192,212804,1,0,0:0:0:0:
64,192,212863,1,0,0:0:0:0:
320,192,212922,1,0,0:0:0:0:
192,192,212922,1,0,0:0:0:0:
448,192,212981,1,0,0:0:0:0:
192,192,213040,1,0,0:0:0:0:
64,192,213040,1,0,0:0:0:0:
320,192,213099,1,0,0:0:0:0:
192,192,213158,1,0,0:0:0:0:
448,192,213217,1,0,0:0:0:0:
64,192,213276,1,0,0:0:0:0:
192,192,213335,1,0,0:0:0:0:
448,192,213394,1,0,0:0:0:0:
320,192,213394,1,0,0:0:0:0:
64,192,213454,1,0,0:0:0:0:
320,192,213513,1,0,0:0:0:0:
192,192,213572,1,0,0:0:0:0:
64,192,213631,1,0,0:0:0:0:
448,192,213631,1,0,0:0:0:0:
192,192,213690,1,0,0:0:0:0:
448,192,213750,1,0,0:0:0:0:
64,192,213809,1,0,0:0:0:0:
320,192,213869,1,0,0:0:0:0:
64,192,213928,1,0,0:0:0:0:
448,192,213988,1,0,0:0:0:0:
320,192,214027,1,0,0:0:0:0:
192,192,214067,1,0,0:0:0:0:
64,192,214107,1,0,0:0:0:0:
448,192,214166,1,0,0:0:0:0:
192,192,214226,1,0,0:0:0:0:
320,192,214226,1,0,0:0:0:0:
64,192,214285,1,0,0:0:0:0:
448,192,214345,1,0,0:0:0:0:
320,192,214404,1,0,0:0:0:0:
192,192,214464,1,0,0:0:0:0:
64,192,214464,1,0,0:0:0:0:
64,192,214583,1,0,0:0:0:0:
448,192,214583,1,0,0:0:0:0:
320,192,214583,1,0,0:0:0:0:
448,192,214702,1,0,0:0:0:0:
192,192,214702,1,0,0:0:0:0:
192,192,214821,1,0,0:0:0:0:
64,192,214940,1,0,0:0:0:0:
192,192,214940,1,0,0:0:0:0:
448,192,215000,1,0,0:0:0:0:
64,192,215059,1,0,0:0:0:0:
320,192,215059,1,0,0:0:0:0:
320,192,215178,1,0,0:0:0:0:
448,192,215297,1,0,0:0:0:0:
320,192,215297,1,0,0:0:0:0:
64,192,215357,1,0,0:0:0:0:
448,192,215416,1,0,0:0:0:0:
192,192,215416,1,0,0:0:0:0:
64,192,215535,1,0,0:0:0:0:
320,192,215535,1,0,0:0:0:0:
192,192,215535,1,0,0:0:0:0:
448,192,215654,1,0,0:0:0:0:
192,192,215654,1,0,0:0:0:0:
320,192,215773,1,0,0:0:0:0:
64,192,215773,1,0,0:0:0:0:
320,192,215892,1,0,0:0:0:0:
192,192,215892,1,0,0:0:0:0:
448,192,215892,128,0,216130:0:0:0:0:
320,192,216011,1,0,0:0:0:0:
64,192,216011,1,0,0:0:0:0:
192,192,216130,1,0,0:0:0:0:
64,192,216130,1,0,0:0:0:0:
320,192,216190,1,0,0:0:0:0:
192,192,216250,1,0,0:0:0:0:
448,192,216250,1,0,0:0:0:0:
320,192,216309,1,0,0:0:0:0:
64,192,216369,1,0,0:0:0:0:
192,192,216428,1,0,0:0:0:0:
320,192,216488,1,0,0:0:0:0:
448,192,216488,1,0,0:0:0:0:
192,192,216547,1,0,0:0:0:0:
64,192,216607,1,0,0:0:0:0:
448,192,216666,1,0,0:0:0:0:
320,192,216726,1,0,0:0:0:0:
192,192,216726,1,0,0:0:0:0:
448,192,216785,1,0,0:0:0:0:
320,192,216845,1,0,0:0:0:0:
448,192,216904,1,0,0:0:0:0:
192,192,216964,1,0,0:0:0:0:
64,192,216964,1,0,0:0:0:0:
320,192,217023,1,0,0:0:0:0:
448,192,217083,1,0,0:0:0:0:
192,192,217083,1,0,0:0:0:0:
64,192,217142,1,0,0:0:0:0:
320,192,217202,1,0,0:0:0:0:
448,192,217202,1,0,0:0:0:0:
192,192,217261,1,0,0:0:0:0:
320,192,217321,1,0,0:0:0:0:
448,192,217380,1,0,0:0:0:0:
64,192,217440,1,0,0:0:0:0:
192,192,217440,1,0,0:0:0:0:
320,192,217500,1,0,0:0:0:0:
192,192,217560,1,0,0:0:0:0:
448,192,217560,1,0,0:0:0:0:
64,192,217620,1,0,0:0:0:0:
448,192,217680,1,0,0:0:0:0:
320,192,217680,1,0,0:0:0:0:
64,192,217740,1,0,0:0:0:0:
320,192,217800,1,0,0:0:0:0:
192,192,217800,1,0,0:0:0:0:
192,192,217920,1,0,0:0:0:0:
448,192,218040,1,0,0:0:0:0:
320,192,218040,1,0,0:0:0:0:
64,192,218100,1,0,0:0:0:0:
320,192,218160,1,0,0:0:0:0:
192,192,218160,1,0,0:0:0:0:
448,192,218220,1,0,0:0:0:0:
320,192,218280,1,0,0:0:0:0:
192,192,218340,1,0,0:0:0:0:
64,192,218400,1,0,0:0:0:0:
448,192,218400,1,0,0:0:0:0:
320,192,218460,1,0,0:0:0:0:
64,192,218520,1,0,0:0:0:0:
192,192,218580,1,0,0:0:0:0:
320,192,218640,1,0,0:0:0:0:
64,192,218640,1,0,0:0:0:0:
192,192,218700,1,0,0:0:0:0:
448,192,218760,1,0,0:0:0:0:
64,192,218820,1,0,0:0:0:0:
448,192,218880,1,0,0:0:0:0:
320,192,218940,1,0,0:0:0:0:
64,192,219000,1,0,0:0:0:0:
448,192,219000,1,0,0:0:0:0:
320,192,219060,1,0,0:0:0:0:
192,192,219120,1,0,0:0:0:0:
448,192,219180,1,0,0:0:0:0:
192,192,219240,1,0,0:0:0:0:
64,192,219300,1,0,0:0:0:0:
448,192,219360,1,0,0:0:0:0:
192,192,219360,1,0,0:0:0:0:
64,192,219420,1,0,0:0:0:0:
320,192,219480,1,0,0:0:0:0:
192,192,219540,1,0,0:0:0:0:
320,192,219600,1,0,0:0:0:0:
448,192,219660,1,0,0:0:0:0:
320,192,219720,1,0,0:0:0:0:
192,192,219720,1,0,0:0:0:0:
64,192,219720,1,0,0:0:0:0:
448,192,219780,1,0,0:0:0:0:
64,192,219840,1,0,0:0:0:0:
192,192,219960,1,0,0:0:0:0:
448,192,219960,1,0,0:0:0:0:
320,192,220080,1,0,0:0:0:0:
64,192,220080,1,0,0:0:0:0:
64,192,220200,1,0,0:0:0:0:
320,192,220200,1,0,0:0:0:0:
64,192,220320,1,0,0:0:0:0:
192,192,220320,1,0,0:0:0:0:
448,192,220320,1,0,0:0:0:0:
192,192,220439,1,0,0:0:0:0:
448,192,220439,1,0,0:0:0:0:
320,192,220558,1,0,0:0:0:0:
64,192,220558,1,0,0:0:0:0:
448,192,220677,1,0,0:0:0:0:
192,192,220677,1,0,0:0:0:0:
64,192,220796,1,0,0:0:0:0:
448,192,220796,1,0,0:0:0:0:
192,192,220796,1,0,0:0:0:0:
192,192,220915,1,0,0:0:0:0:
448,192,220915,1,0,0:0:0:0:
320,192,221034,1,0,0:0:0:0:
64,192,221034,1,0,0:0:0:0:
192,192,221153,1,0,0:0:0:0:
448,192,221153,1,0,0:0:0:0:
320,192,221273,1,0,0:0:0:0:
64,192,221273,1,0,0:0:0:0:
192,192,221273,1,0,0:0:0:0:
320,192,221390,1,0,0:0:0:0:
448,192,221390,1,0,0:0:0:0:
192,192,221507,1,0,0:0:0:0:
64,192,221507,1,0,0:0:0:0:
448,192,221624,1,0,0:0:0:0:
320,192,221624,1,0,0:0:0:0:
192,192,221624,1,0,0:0:0:0:
64,192,221741,1,0,0:0:0:0:
192,192,221793,1,0,0:0:0:0:
320,192,221845,1,0,0:0:0:0:
448,192,221898,1,0,0:0:0:0:
64,192,221937,1,0,0:0:0:0:
192,192,221976,1,0,0:0:0:0:
320,192,222015,1,0,0:0:0:0:
448,192,222054,1,0,0:0:0:0:
64,192,222093,1,0,0:0:0:0:
192,192,222132,1,0,0:0:0:0:
64,192,222210,1,0,0:0:0:0:
448,192,222210,1,0,0:0:0:0:
320,192,222210,1,0,0:0:0:0:
448,192,222327,1,0,0:0:0:0:
320,192,222444,1,0,0:0:0:0:
64,192,222444,1,0,0:0:0:0:
192,192,222444,1,0,0:0:0:0:
64,192,222562,1,0,0:0:0:0:
320,192,222562,1,0,0:0:0:0:
448,192,222679,1,0,0:0:0:0:
192,192,222679,1,0,0:0:0:0:
320,192,222796,1,0,0:0:0:0:
64,192,222796,1,0,0:0:0:0:
64,192,222913,1,0,0:0:0:0:
320,192,222913,1,0,0:0:0:0:
448,192,223030,1,0,0:0:0:0:
192,192,223030,1,0,0:0:0:0:
448,192,223148,1,0,0:0:0:0:
192,192,223148,1,0,0:0:0:0:
448,192,223268,1,0,0:0:0:0:
192,192,223268,1,0,0:0:0:0:
64,192,223388,1,0,0:0:0:0:
320,192,223388,1,0,0:0:0:0:
320,192,223508,1,0,0:0:0:0:
448,192,223508,1,0,0:0:0:0:
192,192,223508,1,0,0:0:0:0:
192,192,223628,1,0,0:0:0:0:
64,192,223748,1,0,0:0:0:0:
448,192,223748,1,0,0:0:0:0:
320,192,223748,1,0,0:0:0:0:
448,192,223868,1,0,0:0:0:0:
192,192,223868,1,0,0:0:0:0:
448,192,223988,1,0,0:0:0:0:
192,192,223988,1,0,0:0:0:0:
320,192,224108,1,0,0:0:0:0:
64,192,224108,1,0,0:0:0:0:
192,192,224108,1,0,0:0:0:0:
320,192,224228,1,0,0:0:0:0:
64,192,224228,1,0,0:0:0:0:
448,192,224348,1,0,0:0:0:0:
192,192,224348,1,0,0:0:0:0:
448,192,224468,1,0,0:0:0:0:
192,192,224468,1,0,0:0:0:0:
192,192,224588,1,0,0:0:0:0:
64,192,224588,1,0,0:0:0:0:
64,192,224708,1,0,0:0:0:0:
448,192,224708,1,0,0:0:0:0:
320,192,224708,1,0,0:0:0:0:
448,192,224828,1,0,0:0:0:0:
192,192,224828,1,0,0:0:0:0:
448,192,224948,1,0,0:0:0:0:
192,192,224948,1,0,0:0:0:0:
320,192,225068,1,0,0:0:0:0:
64,192,225068,1,0,0:0:0:0:
192,192,225068,1,0,0:0:0:0:
64,192,225187,1,0,0:0:0:0:
320,192,225187,1,0,0:0:0:0:
448,192,225306,1,0,0:0:0:0:
192,192,225306,1,0,0:0:0:0:
192,192,225425,1,0,0:0:0:0:
448,192,225425,1,0,0:0:0:0:
192,192,225544,1,0,0:0:0:0:
64,192,225544,1,0,0:0:0:0:
448,192,225663,1,0,0:0:0:0:
320,192,225663,1,0,0:0:0:0:
64,192,225663,1,0,0:0:0:0:
448,192,225782,1,0,0:0:0:0:
192,192,225782,1,0,0:0:0:0:
448,192,225901,1,0,0:0:0:0:
192,192,225901,1,0,0:0:0:0:
320,192,226020,1,0,0:0:0:0:
64,192,226020,1,0,0:0:0:0:
192,192,226020,1,0,0:0:0:0:
64,192,226139,1,0,0:0:0:0:
320,192,226139,1,0,0:0:0:0:
448,192,226258,1,0,0:0:0:0:
192,192,226258,1,0,0:0:0:0:
192,192,226377,1,0,0:0:0:0:
448,192,226377,1,0,0:0:0:0:
64,192,226496,1,0,0:0:0:0:
192,192,226496,1,0,0:0:0:0:
64,192,226615,1,0,0:0:0:0:
448,192,226615,1,0,0:0:0:0:
320,192,226615,1,0,0:0:0:0:
448,192,226734,1,0,0:0:0:0:
192,192,226734,1,0,0:0:0:0:
192,192,226853,1,0,0:0:0:0:
448,192,226853,1,0,0:0:0:0:
320,192,226972,1,0,0:0:0:0:
64,192,226972,1,0,0:0:0:0:
192,192,226972,1,0,0:0:0:0:
320,192,227091,1,0,0:0:0:0:
64,192,227091,1,0,0:0:0:0:
448,192,227210,1,0,0:0:0:0:
192,192,227210,1,0,0:0:0:0:
448,192,227329,1,0,0:0:0:0:
192,192,227329,1,0,0:0:0:0:
64,192,227448,1,0,0:0:0:0:
192,192,227448,1,0,0:0:0:0:
64,192,227567,1,0,0:0:0:0:
448,192,227567,1,0,0:0:0:0:
320,192,227567,1,0,0:0:0:0:
448,192,227687,1,0,0:0:0:0:
192,192,227687,1,0,0:0:0:0:
448,192,227806,1,0,0:0:0:0:
192,192,227806,1,0,0:0:0:0:
320,192,227925,1,0,0:0:0:0:
64,192,227925,1,0,0:0:0:0:
192,192,227925,1,0,0:0:0:0:
320,192,228044,1,0,0:0:0:0:
64,192,228044,1,0,0:0:0:0:
448,192,228163,1,0,0:0:0:0:
192,192,228163,1,0,0:0:0:0:
192,192,228282,1,0,0:0:0:0:
448,192,228282,1,0,0:0:0:0:
64,192,228401,1,0,0:0:0:0:
192,192,228401,1,0,0:0:0:0:
320,192,228401,1,0,0:0:0:0:
64,192,228520,1,0,0:0:0:0:
320,192,228520,1,0,0:0:0:0:
192,192,228639,1,0,0:0:0:0:
320,192,228639,1,0,0:0:0:0:
64,192,228758,1,0,0:0:0:0:
192,192,228758,1,0,0:0:0:0:
64,192,228877,1,0,0:0:0:0:
320,192,228877,1,0,0:0:0:0:
448,192,228877,1,0,0:0:0:0:
64,192,228997,1,0,0:0:0:0:
448,192,228997,1,0,0:0:0:0:
192,192,229117,1,0,0:0:0:0:
320,192,229117,1,0,0:0:0:0:
192,192,229237,1,0,0:0:0:0:
320,192,229237,1,0,0:0:0:0:
448,192,229237,1,0,0:0:0:0:
64,192,229357,1,0,0:0:0:0:
192,192,229477,1,0,0:0:0:0:
320,192,229477,1,0,0:0:0:0:
448,192,229477,1,0,0:0:0:0:
448,192,229597,1,0,0:0:0:0:
64,192,229597,1,0,0:0:0:0:
320,192,229717,1,0,0:0:0:0:
192,192,229717,1,0,0:0:0:0:
192,192,229837,128,0,229957:0:0:0:0:
64,192,229837,128,0,229957:0:0:0:0:
448,192,229837,1,0,0:0:0:0:
448,192,229957,1,0,0:0:0:0:
192,192,230077,128,0,230197:0:0:0:0:
64,192,230077,128,0,230197:0:0:0:0:
448,192,230077,1,0,0:0:0:0:
448,192,230197,1,0,0:0:0:0:
448,192,230317,1,0,0:0:0:0:
64,192,230317,1,0,0:0:0:0:
192,192,230317,1,0,0:0:0:0:
192,192,230423,1,0,0:0:0:0:
64,192,230423,1,0,0:0:0:0:
448,192,230530,1,0,0:0:0:0:
320,192,230530,1,0,0:0:0:0:
192,192,230530,1,0,0:0:0:0:
64,192,230677,1,0,0:0:0:0:
320,192,230677,1,0,0:0:0:0:
320,192,230797,1,0,0:0:0:0:
448,192,230797,1,0,0:0:0:0:
192,192,230797,1,0,0:0:0:0:
192,192,230915,1,0,0:0:0:0:
64,192,230915,1,0,0:0:0:0:
320,192,231033,1,0,0:0:0:0:
448,192,231033,1,0,0:0:0:0:
320,192,231151,128,0,231269:0:0:0:0:
448,192,231151,128,0,231269:0:0:0:0:
64,192,231151,128,0,231269:0:0:0:0:
192,192,231151,128,0,231269:0:0:0:0:
64,192,231387,1,0,0:0:0:0:
448,192,231387,1,0,0:0:0:0:
192,192,231446,1,0,0:0:0:0:
320,192,231505,1,0,0:0:0:0:
192,192,231564,1,0,0:0:0:0:
64,192,231623,1,0,0:0:0:0:
192,192,231682,1,0,0:0:0:0:
448,192,231741,1,0,0:0:0:0:
320,192,231741,1,0,0:0:0:0:
64,192,231800,1,0,0:0:0:0:
448,192,231859,1,0,0:0:0:0:
320,192,231859,1,0,0:0:0:0:
192,192,231919,1,0,0:0:0:0:
448,192,231978,1,0,0:0:0:0:
64,192,232017,1,0,0:0:0:0:
192,192,232056,1,0,0:0:0:0:
320,192,232096,1,0,0:0:0:0:
448,192,232135,1,0,0:0:0:0:
64,192,232214,1,0,0:0:0:0:
192,192,232214,1,0,0:0:0:0:
320,192,232273,1,0,0:0:0:0:
64,192,232332,1,0,0:0:0:0:
192,192,232332,1,0,0:0:0:0:
320,192,232391,1,0,0:0:0:0:
64,192,232450,1,0,0:0:0:0:
448,192,232489,1,0,0:0:0:0:
320,192,232529,1,0,0:0:0:0:
192,192,232568,1,0,0:0:0:0:
64,192,232608,1,0,0:0:0:0:
320,192,232686,1,0,0:0:0:0:
448,192,232686,1,0,0:0:0:0:
192,192,232739,1,0,0:0:0:0:
448,192,232791,1,0,0:0:0:0:
64,192,232844,1,0,0:0:0:0:
192,192,232883,1,0,0:0:0:0:
320,192,232922,1,0,0:0:0:0:
64,192,232962,1,0,0:0:0:0:
448,192,233001,1,0,0:0:0:0:
320,192,233041,1,0,0:0:0:0:
192,192,233080,1,0,0:0:0:0:
64,192,233119,1,0,0:0:0:0:
448,192,233159,1,0,0:0:0:0:
320,192,233159,1,0,0:0:0:0:
192,192,233218,1,0,0:0:0:0:
448,192,233277,1,0,0:0:0:0:
64,192,233316,1,0,0:0:0:0:
320,192,233356,1,0,0:0:0:0:
192,192,233395,1,0,0:0:0:0:
448,192,233474,1,0,0:0:0:0:
64,192,233513,1,0,0:0:0:0:
192,192,233552,1,0,0:0:0:0:
320,192,233592,1,0,0:0:0:0:
64,192,233631,1,0,0:0:0:0:
448,192,233631,1,0,0:0:0:0:
320,192,233690,1,0,0:0:0:0:
192,192,233749,1,0,0:0:0:0:
448,192,233789,1,0,0:0:0:0:
64,192,233828,1,0,0:0:0:0:
320,192,233867,1,0,0:0:0:0:
192,192,233897,1,0,0:0:0:0:
448,192,233946,1,0,0:0:0:0:
64,192,233985,1,0,0:0:0:0:
192,192,234025,1,0,0:0:0:0:
448,192,234104,1,0,0:0:0:0:
320,192,234104,1,0,0:0:0:0:
192,192,234163,1,0,0:0:0:0:
448,192,234222,1,0,0:0:0:0:
64,192,234261,1,0,0:0:0:0:
192,192,234300,1,0,0:0:0:0:
320,192,234340,1,0,0:0:0:0:
448,192,234379,1,0,0:0:0:0:
64,192,234419,1,0,0:0:0:0:
320,192,234497,1,0,0:0:0:0:
64,192,234576,1,0,0:0:0:0:
192,192,234576,1,0,0:0:0:0:
448,192,234637,1,0,0:0:0:0:
192,192,234697,1,0,0:0:0:0:
320,192,234737,1,0,0:0:0:0:
64,192,234777,1,0,0:0:0:0:
448,192,234857,1,0,0:0:0:0:
320,192,234897,1,0,0:0:0:0:
64,192,234937,1,0,0:0:0:0:
192,192,234937,1,0,0:0:0:0:
320,192,235057,1,0,0:0:0:0:
64,192,235177,1,0,0:0:0:0:
448,192,235177,1,0,0:0:0:0:
192,192,235237,1,0,0:0:0:0:
448,192,235297,1,0,0:0:0:0:
64,192,235297,1,0,0:0:0:0:
320,192,235357,1,0,0:0:0:0:
192,192,235417,1,0,0:0:0:0:
448,192,235417,1,0,0:0:0:0:
320,192,235477,1,0,0:0:0:0:
64,192,235537,1,0,0:0:0:0:
192,192,235537,1,0,0:0:0:0:
448,192,235596,1,0,0:0:0:0:
64,192,235655,1,0,0:0:0:0:
320,192,235773,1,0,0:0:0:0:
448,192,235773,1,0,0:0:0:0:
64,192,235832,1,0,0:0:0:0:
192,192,235891,1,0,0:0:0:0:
448,192,235950,1,0,0:0:0:0:
192,192,236009,1,0,0:0:0:0:
320,192,236009,1,0,0:0:0:0:
64,192,236068,1,0,0:0:0:0:
320,192,236127,1,0,0:0:0:0:
192,192,236245,1,0,0:0:0:0:
448,192,236245,1,0,0:0:0:0:
64,192,236245,1,0,0:0:0:0:
320,192,236363,1,0,0:0:0:0:
64,192,236363,1,0,0:0:0:0:
192,192,236393,1,0,0:0:0:0:
64,192,236481,1,0,0:0:0:0:
448,192,236481,1,0,0:0:0:0:
320,192,236481,1,0,0:0:0:0:
192,192,236599,1,0,0:0:0:0:
448,192,236599,1,0,0:0:0:0:
320,192,236629,1,0,0:0:0:0:
192,192,236718,1,0,0:0:0:0:
448,192,236836,128,0,236954:0:0:0:0:
320,192,236836,128,0,236954:0:0:0:0:
64,192,236836,1,0,0:0:0:0:
192,192,236954,1,0,0:0:0:0:
64,192,237072,1,0,0:0:0:0:
448,192,237072,1,0,0:0:0:0:
320,192,237190,1,0,0:0:0:0:
192,192,237190,1,0,0:0:0:0:
192,192,237308,1,0,0:0:0:0:
320,192,237308,1,0,0:0:0:0:
448,192,237426,1,0,0:0:0:0:
64,192,237426,1,0,0:0:0:0:
192,192,237426,1,0,0:0:0:0:
64,192,237544,1,0,0:0:0:0:
448,192,237544,1,0,0:0:0:0:
320,192,237662,1,0,0:0:0:0:
448,192,237662,1,0,0:0:0:0:
320,192,237781,1,0,0:0:0:0:
192,192,237781,1,0,0:0:0:0:
192,192,237899,1,0,0:0:0:0:
64,192,237899,1,0,0:0:0:0:
192,192,238017,1,0,0:0:0:0:
64,192,238017,1,0,0:0:0:0:
192,192,238135,1,0,0:0:0:0:
448,192,238135,1,0,0:0:0:0:
320,192,238135,1,0,0:0:0:0:
448,192,238253,1,0,0:0:0:0:
320,192,238253,1,0,0:0:0:0:
64,192,238371,1,0,0:0:0:0:
448,192,238371,1,0,0:0:0:0:
320,192,238371,1,0,0:0:0:0:
192,192,238371,1,0,0:0:0:0:
320,192,238490,1,0,0:0:0:0:
448,192,238609,1,0,0:0:0:0:
64,192,238609,1,0,0:0:0:0:
192,192,238609,1,0,0:0:0:0:
64,192,238728,1,0,0:0:0:0:
320,192,238728,1,0,0:0:0:0:
192,192,238728,1,0,0:0:0:0:
448,192,238787,1,0,0:0:0:0:
320,192,238847,1,0,0:0:0:0:
192,192,238906,1,0,0:0:0:0:
448,192,238966,1,0,0:0:0:0:
64,192,239025,1,0,0:0:0:0:
320,192,239085,1,0,0:0:0:0:
192,192,239085,1,0,0:0:0:0:
192,192,239204,1,0,0:0:0:0:
64,192,239204,1,0,0:0:0:0:
64,192,239323,1,0,0:0:0:0:
320,192,239323,1,0,0:0:0:0:
448,192,239323,1,0,0:0:0:0:
192,192,239442,1,0,0:0:0:0:
320,192,239442,1,0,0:0:0:0:
448,192,239501,1,0,0:0:0:0:
320,192,239561,1,0,0:0:0:0:
192,192,239620,1,0,0:0:0:0:
64,192,239680,1,0,0:0:0:0:
448,192,239740,1,0,0:0:0:0:
64,192,239799,1,0,0:0:0:0:
448,192,239859,1,0,0:0:0:0:
64,192,239918,1,0,0:0:0:0:
448,192,239978,1,0,0:0:0:0:
64,192,240037,1,0,0:0:0:0:
448,192,240097,1,0,0:0:0:0:
64,192,240156,1,0,0:0:0:0:
192,192,240216,1,0,0:0:0:0:
448,192,240275,1,0,0:0:0:0:
320,192,240275,1,0,0:0:0:0:
64,192,240396,1,0,0:0:0:0:
320,192,240396,1,0,0:0:0:0:
192,192,240516,1,0,0:0:0:0:
64,192,240636,1,0,0:0:0:0:
448,192,240636,1,0,0:0:0:0:
320,192,240696,1,0,0:0:0:0:
192,192,240756,1,0,0:0:0:0:
448,192,240816,1,0,0:0:0:0:
64,192,240876,1,0,0:0:0:0:
192,192,240876,1,0,0:0:0:0:
448,192,240936,1,0,0:0:0:0:
64,192,240996,1,0,0:0:0:0:
320,192,240996,1,0,0:0:0:0:
320,192,241116,1,0,0:0:0:0:
448,192,241236,1,0,0:0:0:0:
192,192,241236,1,0,0:0:0:0:
64,192,241236,1,0,0:0:0:0:
320,192,241356,1,0,0:0:0:0:
192,192,241476,1,0,0:0:0:0:
64,192,241476,1,0,0:0:0:0:
448,192,241476,1,0,0:0:0:0:
448,192,241596,1,0,0:0:0:0:
320,192,241596,1,0,0:0:0:0:
192,192,241596,1,0,0:0:0:0:
64,192,241716,1,0,0:0:0:0:
320,192,241716,1,0,0:0:0:0:
64,192,241836,1,0,0:0:0:0:
192,192,241836,1,0,0:0:0:0:
448,192,241836,1,0,0:0:0:0:
192,192,241956,1,0,0:0:0:0:
320,192,241956,1,0,0:0:0:0:
320,192,242076,1,0,0:0:0:0:
64,192,242196,1,0,0:0:0:0:
192,192,242196,1,0,0:0:0:0:
448,192,242196,1,0,0:0:0:0:
192,192,242316,1,0,0:0:0:0:
448,192,242316,1,0,0:0:0:0:
448,192,242436,1,0,0:0:0:0:
320,192,242436,1,0,0:0:0:0:
448,192,242556,1,0,0:0:0:0:
320,192,242556,1,0,0:0:0:0:
192,192,242676,1,0,0:0:0:0:
64,192,242676,1,0,0:0:0:0:
448,192,242676,1,0,0:0:0:0:
320,192,242794,1,0,0:0:0:0:
64,192,242794,1,0,0:0:0:0:
192,192,242912,1,0,0:0:0:0:
64,192,242912,1,0,0:0:0:0:
64,192,243030,1,0,0:0:0:0:
192,192,243030,1,0,0:0:0:0:
64,192,243148,1,0,0:0:0:0:
192,192,243148,1,0,0:0:0:0:
192,192,243266,1,0,0:0:0:0:
64,192,243266,1,0,0:0:0:0:
320,192,243384,1,0,0:0:0:0:
64,192,243384,1,0,0:0:0:0:
448,192,243384,1,0,0:0:0:0:
192,192,243502,1,0,0:0:0:0:
448,192,243502,1,0,0:0:0:0:
448,192,243620,1,0,0:0:0:0:
320,192,243620,1,0,0:0:0:0:
192,192,243738,1,0,0:0:0:0:
64,192,243738,1,0,0:0:0:0:
448,192,243738,1,0,0:0:0:0:
320,192,243857,1,0,0:0:0:0:
64,192,243857,1,0,0:0:0:0:
192,192,243975,1,0,0:0:0:0:
64,192,243975,1,0,0:0:0:0:
320,192,244094,1,0,0:0:0:0:
448,192,244094,1,0,0:0:0:0:
64,192,244094,1,0,0:0:0:0:
192,192,244213,1,0,0:0:0:0:
448,192,244213,1,0,0:0:0:0:
448,192,244332,1,0,0:0:0:0:
320,192,244332,1,0,0:0:0:0:
320,192,244451,1,0,0:0:0:0:
64,192,244451,1,0,0:0:0:0:
192,192,244451,1,0,0:0:0:0:
192,192,244570,1,0,0:0:0:0:
64,192,244689,1,0,0:0:0:0:
448,192,244689,1,0,0:0:0:0:
320,192,244689,1,0,0:0:0:0:
192,192,244808,1,0,0:0:0:0:
448,192,244808,1,0,0:0:0:0:
320,192,244927,1,0,0:0:0:0:
64,192,245046,1,0,0:0:0:0:
448,192,245046,1,0,0:0:0:0:
320,192,245046,1,0,0:0:0:0:
192,192,245046,1,0,0:0:0:0:
192,192,245165,1,0,0:0:0:0:
320,192,245284,1,0,0:0:0:0:
64,192,245284,1,0,0:0:0:0:
448,192,245284,1,0,0:0:0:0:
448,192,245403,1,0,0:0:0:0:
192,192,245403,1,0,0:0:0:0:
64,192,245403,1,0,0:0:0:0:
320,192,245522,1,0,0:0:0:0:
448,192,245641,128,0,245879:0:0:0:0:
64,192,245641,1,0,0:0:0:0:
192,192,245641,1,0,0:0:0:0:
64,192,245760,1,0,0:0:0:0:
192,192,245760,1,0,0:0:0:0:
64,192,245879,1,0,0:0:0:0:
192,192,245879,1,0,0:0:0:0:
320,192,245998,1,0,0:0:0:0:
448,192,245998,1,0,0:0:0:0:
192,192,245998,1,0,0:0:0:0:
64,192,245998,1,0,0:0:0:0:
320,192,246117,1,0,0:0:0:0:
192,192,246236,1,0,0:0:0:0:
320,192,246236,1,0,0:0:0:0:
64,192,246355,128,0,246593:0:0:0:0:
448,192,246355,1,0,0:0:0:0:
192,192,246355,1,0,0:0:0:0:
320,192,246474,1,0,0:0:0:0:
320,192,246593,1,0,0:0:0:0:
448,192,246593,1,0,0:0:0:0:
192,192,246653,1,0,0:0:0:0:
64,192,246713,1,0,0:0:0:0:
448,192,246713,1,0,0:0:0:0:
192,192,246772,1,0,0:0:0:0:
320,192,246832,1,0,0:0:0:0:
448,192,246891,1,0,0:0:0:0:
64,192,246951,1,0,0:0:0:0:
192,192,246951,1,0,0:0:0:0:
320,192,247030,1,0,0:0:0:0:
192,192,247070,1,0,0:0:0:0:
64,192,247109,1,0,0:0:0:0:
448,192,247189,1,0,0:0:0:0:
192,192,247228,1,0,0:0:0:0:
448,192,247308,1,0,0:0:0:0:
320,192,247367,1,0,0:0:0:0:
64,192,247427,1,0,0:0:0:0:
192,192,247427,1,0,0:0:0:0:
448,192,247502,1,0,0:0:0:0:
192,192,247540,1,0,0:0:0:0:
320,192,247578,1,0,0:0:0:0:
448,192,247616,1,0,0:0:0:0:
64,192,247654,1,0,0:0:0:0:
320,192,247730,1,0,0:0:0:0:
64,192,247767,1,0,0:0:0:0:
192,192,247805,1,0,0:0:0:0:
448,192,247881,1,0,0:0:0:0:
320,192,247881,1,0,0:0:0:0:
64,192,247960,1,0,0:0:0:0:
320,192,248000,1,0,0:0:0:0:
192,192,248000,1,0,0:0:0:0:
192,192,248119,1,0,0:0:0:0:
64,192,248238,1,0,0:0:0:0:
448,192,248238,1,0,0:0:0:0:
64,192,248357,1,0,0:0:0:0:
448,192,248357,1,0,0:0:0:0:
64,192,248476,1,0,0:0:0:0:
448,192,248476,1,0,0:0:0:0:
320,192,248535,1,0,0:0:0:0:
192,192,248595,1,0,0:0:0:0:
320,192,248654,1,0,0:0:0:0:
64,192,248714,1,0,0:0:0:0:
448,192,248714,1,0,0:0:0:0:
448,192,248833,1,0,0:0:0:0:
64,192,248833,1,0,0:0:0:0:
448,192,248952,1,0,0:0:0:0:
64,192,248952,1,0,0:0:0:0:
192,192,249011,1,0,0:0:0:0:
320,192,249071,1,0,0:0:0:0:
192,192,249130,1,0,0:0:0:0:
448,192,249190,1,0,0:0:0:0:
64,192,249190,1,0,0:0:0:0:
64,192,249309,1,0,0:0:0:0:
448,192,249309,1,0,0:0:0:0:
64,192,249428,1,0,0:0:0:0:
448,192,249428,1,0,0:0:0:0:
320,192,249488,1,0,0:0:0:0:
192,192,249547,1,0,0:0:0:0:
320,192,249607,1,0,0:0:0:0:
64,192,249666,1,0,0:0:0:0:
448,192,249666,1,0,0:0:0:0:
192,192,249785,1,0,0:0:0:0:
320,192,249785,1,0,0:0:0:0:
64,192,249785,1,0,0:0:0:0:
192,192,249904,1,0,0:0:0:0:
448,192,249904,1,0,0:0:0:0:
64,192,250023,1,0,0:0:0:0:
448,192,250142,128,0,250380:0:0:0:0:
320,192,250142,1,0,0:0:0:0:
192,192,250142,1,0,0:0:0:0:
192,192,250261,1,0,0:0:0:0:
320,192,250380,1,0,0:0:0:0:
64,192,250380,1,0,0:0:0:0:
320,192,250500,1,0,0:0:0:0:
64,192,250500,1,0,0:0:0:0:
64,192,250619,1,0,0:0:0:0:
192,192,250619,1,0,0:0:0:0:
192,192,250738,1,0,0:0:0:0:
320,192,250738,1,0,0:0:0:0:
448,192,250738,1,0,0:0:0:0:
448,192,250857,1,0,0:0:0:0:
64,192,250976,1,0,0:0:0:0:
192,192,250976,1,0,0:0:0:0:
320,192,250976,1,0,0:0:0:0:
64,192,251095,1,0,0:0:0:0:
448,192,251214,1,0,0:0:0:0:
320,192,251214,1,0,0:0:0:0:
192,192,251214,1,0,0:0:0:0:
448,192,251333,1,0,0:0:0:0:
320,192,251333,1,0,0:0:0:0:
192,192,251333,1,0,0:0:0:0:
64,192,251452,1,0,0:0:0:0:
192,192,251452,1,0,0:0:0:0:
448,192,251571,1,0,0:0:0:0:
320,192,251571,1,0,0:0:0:0:
192,192,251571,1,0,0:0:0:0:
64,192,251690,1,0,0:0:0:0:
448,192,251690,1,0,0:0:0:0:
320,192,251690,1,0,0:0:0:0:
192,192,251809,1,0,0:0:0:0:
64,192,251928,1,0,0:0:0:0:
448,192,251928,1,0,0:0:0:0:
320,192,251928,1,0,0:0:0:0:
192,192,252047,128,0,252166:0:0:0:0:
64,192,252047,128,0,252285:0:0:0:0:
448,192,252047,1,0,0:0:0:0:
320,192,252166,1,0,0:0:0:0:
448,192,252285,1,0,0:0:0:0:
192,192,252285,1,0,0:0:0:0:
192,192,252404,1,0,0:0:0:0:
64,192,252404,1,0,0:0:0:0:
320,192,252404,1,0,0:0:0:0:
320,192,252523,1,0,0:0:0:0:
64,192,252523,1,0,0:0:0:0:
320,192,252642,1,0,0:0:0:0:
448,192,252642,1,0,0:0:0:0:
192,192,252642,1,0,0:0:0:0:
192,192,252761,5,0,0:0:0:0:
448,192,252761,1,0,0:0:0:0:
192,192,252880,1,0,0:0:0:0:
64,192,252880,1,0,0:0:0:0:
320,192,252880,1,0,0:0:0:0:
320,192,253000,1,0,0:0:0:0:
64,192,253000,1,0,0:0:0:0:
320,192,253119,1,0,0:0:0:0:
448,192,253119,1,0,0:0:0:0:
192,192,253119,1,0,0:0:0:0:
192,192,253238,1,0,0:0:0:0:
448,192,253238,1,0,0:0:0:0:
192,192,253357,1,0,0:0:0:0:
64,192,253357,1,0,0:0:0:0:
320,192,253357,1,0,0:0:0:0:
320,192,253476,1,0,0:0:0:0:
64,192,253476,1,0,0:0:0:0:
320,192,253595,1,0,0:0:0:0:
448,192,253595,1,0,0:0:0:0:
192,192,253595,1,0,0:0:0:0:
192,192,253714,1,0,0:0:0:0:
64,192,253714,1,0,0:0:0:0:
448,192,253714,1,0,0:0:0:0:
320,192,253833,1,0,0:0:0:0:
448,192,253952,5,0,0:0:0:0:
192,192,253952,1,0,0:0:0:0:
64,192,254011,1,0,0:0:0:0:
192,192,254071,1,0,0:0:0:0:
320,192,254130,1,0,0:0:0:0:
448,192,254190,1,0,0:0:0:0:
192,192,254250,1,0,0:0:0:0:
448,192,254309,1,0,0:0:0:0:
192,192,254369,1,0,0:0:0:0:
448,192,254428,1,0,0:0:0:0:
192,192,254488,1,0,0:0:0:0:
320,192,254548,1,0,0:0:0:0:
448,192,254548,1,0,0:0:0:0:
64,192,254608,1,0,0:0:0:0:
448,192,254668,1,0,0:0:0:0:
64,192,254728,1,0,0:0:0:0:
448,192,254788,1,0,0:0:0:0:
64,192,254848,1,0,0:0:0:0:
448,192,254908,1,0,0:0:0:0:
320,192,254968,1,0,0:0:0:0:
192,192,255028,1,0,0:0:0:0:
64,192,255088,1,0,0:0:0:0:
320,192,255148,1,0,0:0:0:0:
64,192,255208,1,0,0:0:0:0:
320,192,255268,1,0,0:0:0:0:
64,192,255328,1,0,0:0:0:0:
192,192,255388,1,0,0:0:0:0:
320,192,255448,1,0,0:0:0:0:
64,192,255508,1,0,0:0:0:0:
448,192,255508,1,0,0:0:0:0:
192,192,255568,1,0,0:0:0:0:
448,192,255628,1,0,0:0:0:0:
192,192,255688,1,0,0:0:0:0:
448,192,255748,1,0,0:0:0:0:
192,192,255808,1,0,0:0:0:0:
64,192,255868,1,0,0:0:0:0:
320,192,255868,1,0,0:0:0:0:
448,192,255928,1,0,0:0:0:0:
320,192,255988,1,0,0:0:0:0:
192,192,256048,1,0,0:0:0:0:
64,192,256108,1,0,0:0:0:0:
320,192,256168,1,0,0:0:0:0:
64,192,256228,1,0,0:0:0:0:
320,192,256288,1,0,0:0:0:0:
64,192,256348,1,0,0:0:0:0:
320,192,256408,1,0,0:0:0:0:
192,192,256468,1,0,0:0:0:0:
64,192,256468,1,0,0:0:0:0:
448,192,256528,1,0,0:0:0:0:
64,192,256588,1,0,0:0:0:0:
448,192,256648,1,0,0:0:0:0:
64,192,256708,1,0,0:0:0:0:
448,192,256768,1,0,0:0:0:0:
64,192,256828,1,0,0:0:0:0:
192,192,256888,1,0,0:0:0:0:
320,192,256948,1,0,0:0:0:0:
448,192,257008,1,0,0:0:0:0:
192,192,257068,1,0,0:0:0:0:
448,192,257128,1,0,0:0:0:0:
192,192,257188,1,0,0:0:0:0:
448,192,257248,1,0,0:0:0:0:
320,192,257308,1,0,0:0:0:0:
192,192,257368,1,0,0:0:0:0:
448,192,257428,1,0,0:0:0:0:
64,192,257428,1,0,0:0:0:0:
320,192,257488,1,0,0:0:0:0:
64,192,257548,1,0,0:0:0:0:
320,192,257608,1,0,0:0:0:0:
64,192,257668,1,0,0:0:0:0:
320,192,257728,1,0,0:0:0:0:
448,192,257788,1,0,0:0:0:0:
192,192,257788,1,0,0:0:0:0:
64,192,257848,1,0,0:0:0:0:
192,192,257908,1,0,0:0:0:0:
320,192,257968,1,0,0:0:0:0:
448,192,258028,1,0,0:0:0:0:
64,192,258088,1,0,0:0:0:0:
448,192,258148,1,0,0:0:0:0:
64,192,258208,1,0,0:0:0:0:
448,192,258268,1,0,0:0:0:0:
64,192,258328,1,0,0:0:0:0:
320,192,258388,1,0,0:0:0:0:
448,192,258388,1,0,0:0:0:0:
192,192,258448,1,0,0:0:0:0:
448,192,258508,1,0,0:0:0:0:
192,192,258568,1,0,0:0:0:0:
448,192,258628,1,0,0:0:0:0:
192,192,258688,1,0,0:0:0:0:
448,192,258748,1,0,0:0:0:0:
320,192,258808,1,0,0:0:0:0:
192,192,258868,1,0,0:0:0:0:
64,192,258928,1,0,0:0:0:0:
320,192,258988,1,0,0:0:0:0:
64,192,259048,1,0,0:0:0:0:
320,192,259108,1,0,0:0:0:0:
64,192,259168,1,0,0:0:0:0:
192,192,259228,1,0,0:0:0:0:
320,192,259288,1,0,0:0:0:0:
192,192,259348,1,0,0:0:0:0:
448,192,259348,1,0,0:0:0:0:
64,192,259408,1,0,0:0:0:0:
448,192,259468,1,0,0:0:0:0:
64,192,259528,1,0,0:0:0:0:
448,192,259588,1,0,0:0:0:0:
64,192,259648,1,0,0:0:0:0:
320,192,259708,1,0,0:0:0:0:
192,192,259708,1,0,0:0:0:0:
448,192,259768,1,0,0:0:0:0:
320,192,259828,1,0,0:0:0:0:
192,192,259888,1,0,0:0:0:0:
64,192,259948,1,0,0:0:0:0:
448,192,260008,1,0,0:0:0:0:
192,192,260068,1,0,0:0:0:0:
320,192,260128,1,0,0:0:0:0:
448,192,260188,1,0,0:0:0:0:
64,192,260248,1,0,0:0:0:0:
448,192,260308,1,0,0:0:0:0:
320,192,260308,1,0,0:0:0:0:
192,192,260368,1,0,0:0:0:0:
64,192,260428,1,0,0:0:0:0:
448,192,260488,1,0,0:0:0:0:
320,192,260548,1,0,0:0:0:0:
64,192,260608,1,0,0:0:0:0:
192,192,260668,1,0,0:0:0:0:
448,192,260728,1,0,0:0:0:0:
64,192,260788,1,0,0:0:0:0:
320,192,260841,1,0,0:0:0:0:
192,192,260894,1,0,0:0:0:0:
448,192,260948,1,0,0:0:0:0:
320,192,261001,1,0,0:0:0:0:
64,192,261054,1,0,0:0:0:0:
448,192,261108,1,0,0:0:0:0:
192,192,261161,1,0,0:0:0:0:
320,192,261214,1,0,0:0:0:0:
64,192,261268,1,0,0:0:0:0:
192,192,261320,1,0,0:0:0:0:
320,192,261373,1,0,0:0:0:0:
448,192,261426,1,0,0:0:0:0:
64,192,261466,1,0,0:0:0:0:
192,192,261506,1,0,0:0:0:0:
320,192,261545,1,0,0:0:0:0:
448,192,261585,1,0,0:0:0:0:
192,192,261625,1,0,0:0:0:0:
64,192,261625,1,0,0:0:0:0:
320,192,261684,1,0,0:0:0:0:
448,192,261744,1,0,0:0:0:0:
64,192,261803,1,0,0:0:0:0:
320,192,261863,1,0,0:0:0:0:
192,192,261922,1,0,0:0:0:0:
64,192,261982,1,0,0:0:0:0:
448,192,262041,1,0,0:0:0:0:
192,192,262101,1,0,0:0:0:0:
320,192,262160,1,0,0:0:0:0:
64,192,262220,1,0,0:0:0:0:
448,192,262220,1,0,0:0:0:0:
192,192,262279,1,0,0:0:0:0:
320,192,262339,1,0,0:0:0:0:
448,192,262398,1,0,0:0:0:0:
64,192,262458,1,0,0:0:0:0:
320,192,262517,1,0,0:0:0:0:
448,192,262577,1,0,0:0:0:0:
64,192,262637,1,0,0:0:0:0:
320,192,262696,1,0,0:0:0:0:
192,192,262749,1,0,0:0:0:0:
64,192,262802,1,0,0:0:0:0:
448,192,262855,1,0,0:0:0:0:
320,192,262908,1,0,0:0:0:0:
192,192,262961,1,0,0:0:0:0:
448,192,263014,1,0,0:0:0:0:
64,192,263066,1,0,0:0:0:0:
192,192,263119,1,0,0:0:0:0:
448,192,263172,1,0,0:0:0:0:
320,192,263225,1,0,0:0:0:0:
192,192,263278,1,0,0:0:0:0:
64,192,263331,1,0,0:0:0:0:
448,192,263371,1,0,0:0:0:0:
320,192,263410,1,0,0:0:0:0:
192,192,263450,1,0,0:0:0:0:
64,192,263490,1,0,0:0:0:0:
448,192,263529,1,0,0:0:0:0:
320,192,263529,1,0,0:0:0:0:
192,192,263589,1,0,0:0:0:0:
448,192,263648,1,0,0:0:0:0:
64,192,263708,1,0,0:0:0:0:
192,192,263785,1,0,0:0:0:0:
448,192,263853,1,0,0:0:0:0:
320,192,263921,1,0,0:0:0:0:
448,192,263989,1,0,0:0:0:0:
64,192,264057,1,0,0:0:0:0:
320,192,264125,1,0,0:0:0:0:
192,192,264125,1,0,0:0:0:0:
64,192,264193,1,0,0:0:0:0:
448,192,264261,1,0,0:0:0:0:
320,192,264329,1,0,0:0:0:0:
64,192,264397,1,0,0:0:0:0:
320,192,264465,1,0,0:0:0:0:
192,192,264533,1,0,0:0:0:0:
448,192,264601,1,0,0:0:0:0:
64,192,264669,1,0,0:0:0:0:
320,192,264737,1,0,0:0:0:0:
448,192,264805,1,0,0:0:0:0:
64,192,264839,1,0,0:0:0:0:
192,192,264879,1,0,0:0:0:0:
320,192,264918,1,0,0:0:0:0:
448,192,264958,1,0,0:0:0:0:
64,192,265077,1,0,0:0:0:0:
192,192,265077,1,0,0:0:0:0:
320,192,265137,1,0,0:0:0:0:
64,192,265196,1,0,0:0:0:0:
320,192,265256,1,0,0:0:0:0:
64,192,265315,1,0,0:0:0:0:
192,192,265375,1,0,0:0:0:0:
448,192,265434,1,0,0:0:0:0:
64,192,265434,1,0,0:0:0:0:
320,192,265494,1,0,0:0:0:0:
192,192,265553,1,0,0:0:0:0:
448,192,265613,1,0,0:0:0:0:
320,192,265672,1,0,0:0:0:0:
64,192,265732,1,0,0:0:0:0:
448,192,265791,1,0,0:0:0:0:
192,192,265851,1,0,0:0:0:0:
64,192,265910,1,0,0:0:0:0:
448,192,265970,1,0,0:0:0:0:
320,192,266029,1,0,0:0:0:0:
192,192,266029,1,0,0:0:0:0:
64,192,266089,1,0,0:0:0:0:
448,192,266148,1,0,0:0:0:0:
192,192,266208,1,0,0:0:0:0:
320,192,266267,1,0,0:0:0:0:
64,192,266327,1,0,0:0:0:0:
448,192,266387,1,0,0:0:0:0:
320,192,266446,1,0,0:0:0:0:
192,192,266506,1,0,0:0:0:0:
448,192,266565,1,0,0:0:0:0:
320,192,266625,1,0,0:0:0:0:
64,192,266684,1,0,0:0:0:0:
192,192,266744,1,0,0:0:0:0:
320,192,266803,1,0,0:0:0:0:
64,192,266863,1,0,0:0:0:0:
192,192,266922,1,0,0:0:0:0:
448,192,266982,1,0,0:0:0:0:
320,192,266982,1,0,0:0:0:0:
64,192,267050,1,0,0:0:0:0:
192,192,267101,1,0,0:0:0:0:
448,192,267118,1,0,0:0:0:0:
320,192,267186,1,0,0:0:0:0:
448,192,267254,1,0,0:0:0:0:
64,192,267339,1,0,0:0:0:0:
192,192,267339,1,0,0:0:0:0:
320,192,267458,1,0,0:0:0:0:
64,192,267577,1,0,0:0:0:0:
192,192,267577,1,0,0:0:0:0:
192,192,267696,1,0,0:0:0:0:
448,192,267696,1,0,0:0:0:0:
320,192,267756,1,0,0:0:0:0:
64,192,267815,1,0,0:0:0:0:
192,192,267875,1,0,0:0:0:0:
64,192,267934,1,0,0:0:0:0:
448,192,267934,1,0,0:0:0:0:
320,192,267934,1,0,0:0:0:0:
192,192,268053,1,0,0:0:0:0:
448,192,268053,1,0,0:0:0:0:
64,192,268172,1,0,0:0:0:0:
320,192,268172,1,0,0:0:0:0:
448,192,268291,1,0,0:0:0:0:
64,192,268291,1,0,0:0:0:0:
192,192,268291,1,0,0:0:0:0:
448,192,268410,1,0,0:0:0:0:
320,192,268410,1,0,0:0:0:0:
192,192,268529,1,0,0:0:0:0:
64,192,268529,1,0,0:0:0:0:
320,192,268648,1,0,0:0:0:0:
192,192,268648,1,0,0:0:0:0:
64,192,268767,1,0,0:0:0:0:
192,192,268767,1,0,0:0:0:0:
448,192,268887,1,0,0:0:0:0:
320,192,268887,1,0,0:0:0:0:
320,192,269006,1,0,0:0:0:0:
64,192,269006,1,0,0:0:0:0:
320,192,269125,1,0,0:0:0:0:
448,192,269125,1,0,0:0:0:0:
192,192,269244,1,0,0:0:0:0:
448,192,269244,1,0,0:0:0:0:
320,192,269363,1,0,0:0:0:0:
64,192,269363,1,0,0:0:0:0:
448,192,269363,1,0,0:0:0:0:
64,192,269482,1,0,0:0:0:0:
192,192,269541,1,0,0:0:0:0:
448,192,269601,1,0,0:0:0:0:
320,192,269601,1,0,0:0:0:0:
64,192,269660,1,0,0:0:0:0:
448,192,269720,1,0,0:0:0:0:
320,192,269779,1,0,0:0:0:0:
192,192,269840,1,0,0:0:0:0:
64,192,269840,1,0,0:0:0:0:
448,192,269905,1,0,0:0:0:0:
192,192,269970,1,0,0:0:0:0:
320,192,270035,1,0,0:0:0:0:
64,192,270100,1,0,0:0:0:0:
448,192,270100,1,0,0:0:0:0:
320,192,270166,1,0,0:0:0:0:
192,192,270231,1,0,0:0:0:0:
64,192,270296,1,0,0:0:0:0:
320,192,270361,1,0,0:0:0:0:
448,192,270361,1,0,0:0:0:0:
192,192,270420,1,0,0:0:0:0:
448,192,270479,1,0,0:0:0:0:
64,192,270538,1,0,0:0:0:0:
320,192,270597,1,0,0:0:0:0:
192,192,270597,1,0,0:0:0:0:
448,192,270656,1,0,0:0:0:0:
192,192,270715,1,0,0:0:0:0:
448,192,270834,1,0,0:0:0:0:
320,192,270834,1,0,0:0:0:0:
64,192,270834,1,0,0:0:0:0:
448,192,270954,1,0,0:0:0:0:
192,192,270954,1,0,0:0:0:0:
192,192,271074,1,0,0:0:0:0:
320,192,271074,1,0,0:0:0:0:
64,192,271194,1,0,0:0:0:0:
320,192,271194,1,0,0:0:0:0:
64,192,271314,1,0,0:0:0:0:
192,192,271314,1,0,0:0:0:0:
448,192,271394,1,0,0:0:0:0:
320,192,271434,1,0,0:0:0:0:
192,192,271474,1,0,0:0:0:0:
448,192,271514,1,0,0:0:0:0:
64,192,271554,1,0,0:0:0:0:
192,192,271594,1,0,0:0:0:0:
320,192,271634,1,0,0:0:0:0:
64,192,271714,1,0,0:0:0:0:
448,192,271754,1,0,0:0:0:0:
320,192,271794,1,0,0:0:0:0:
192,192,271794,1,0,0:0:0:0:
64,192,271874,1,0,0:0:0:0:
448,192,271914,1,0,0:0:0:0:
320,192,271954,1,0,0:0:0:0:
192,192,271994,1,0,0:0:0:0:
448,192,272034,1,0,0:0:0:0:
64,192,272114,1,0,0:0:0:0:
192,192,272154,1,0,0:0:0:0:
320,192,272194,1,0,0:0:0:0:
448,192,272234,1,0,0:0:0:0:
64,192,272274,1,0,0:0:0:0:
192,192,272327,1,0,0:0:0:0:
64,192,272380,1,0,0:0:0:0:
448,192,272434,1,0,0:0:0:0:
320,192,272487,1,0,0:0:0:0:
192,192,272540,1,0,0:0:0:0:
64,192,272594,1,0,0:0:0:0:
320,192,272647,1,0,0:0:0:0:
448,192,272700,1,0,0:0:0:0:
64,192,272754,1,0,0:0:0:0:
320,192,272754,1,0,0:0:0:0:
192,192,272814,1,0,0:0:0:0:
448,192,272874,1,0,0:0:0:0:
192,192,272914,1,0,0:0:0:0:
64,192,272994,1,0,0:0:0:0:
192,192,273034,1,0,0:0:0:0:
320,192,273074,1,0,0:0:0:0:
448,192,273114,1,0,0:0:0:0:
64,192,273154,1,0,0:0:0:0:
192,192,273194,1,0,0:0:0:0:
448,192,273234,1,0,0:0:0:0:
320,192,273234,1,0,0:0:0:0:
64,192,273474,1,0,0:0:0:0:
448,192,273474,1,0,0:0:0:0:
448,192,273714,1,0,0:0:0:0:
64,192,273714,1,0,0:0:0:0:
192,192,273777,1,0,0:0:0:0:
320,192,273841,1,0,0:0:0:0:
448,192,273904,1,0,0:0:0:0:
64,192,273968,1,0,0:0:0:0:
192,192,273968,1,0,0:0:0:0:
320,192,274031,1,0,0:0:0:0:
448,192,274095,1,0,0:0:0:0:
320,192,274158,1,0,0:0:0:0:
64,192,274222,1,0,0:0:0:0:
192,192,274222,1,0,0:0:0:0:
448,192,274287,1,0,0:0:0:0:
320,192,274353,1,0,0:0:0:0:
192,192,274419,1,0,0:0:0:0:
448,192,274485,1,0,0:0:0:0:
320,192,274485,1,0,0:0:0:0:
64,192,274550,1,0,0:0:0:0:
192,192,274616,1,0,0:0:0:0:
320,192,274682,1,0,0:0:0:0:
64,192,274749,1,0,0:0:0:0:
448,192,274749,1,0,0:0:0:0:
192,192,274809,1,0,0:0:0:0:
320,192,274869,1,0,0:0:0:0:
448,192,274930,128,0,275474:0:0:0:0:
192,192,275152,1,0,0:0:0:0:
64,192,275152,1,0,0:0:0:0:
64,192,275474,1,0,0:0:0:0:
448,192,275595,1,0,0:0:0:0:
192,192,275595,1,0,0:0:0:0:
320,192,275656,1,0,0:0:0:0:
64,192,275716,1,0,0:0:0:0:
192,192,275716,1,0,0:0:0:0:
448,192,275757,1,0,0:0:0:0:
320,192,275797,1,0,0:0:0:0:
192,192,275837,1,0,0:0:0:0:
448,192,275878,1,0,0:0:0:0:
64,192,275931,1,0,0:0:0:0:
192,192,275985,1,0,0:0:0:0:
320,192,276039,1,0,0:0:0:0:
448,192,276093,1,0,0:0:0:0:
64,192,276146,1,0,0:0:0:0:
320,192,276200,1,0,0:0:0:0:
192,192,276254,1,0,0:0:0:0:
64,192,276308,1,0,0:0:0:0:
448,192,276361,1,0,0:0:0:0:
192,192,276415,1,0,0:0:0:0:
448,192,276469,1,0,0:0:0:0:
320,192,276523,1,0,0:0:0:0:
64,192,276576,1,0,0:0:0:0:
192,192,276630,1,0,0:0:0:0:
320,192,276684,1,0,0:0:0:0:
448,192,276738,1,0,0:0:0:0:
64,192,276806,1,0,0:0:0:0:
192,192,276868,1,0,0:0:0:0:
448,192,276929,1,0,0:0:0:0:
64,192,276929,1,0,0:0:0:0:
320,192,276991,1,0,0:0:0:0:
448,192,277052,1,0,0:0:0:0:
320,192,277114,1,0,0:0:0:0:
64,192,277121,1,0,0:0:0:0:
192,192,277175,1,0,0:0:0:0:
64,192,277230,1,0,0:0:0:0:
448,192,277285,1,0,0:0:0:0:
192,192,277339,1,0,0:0:0:0:
64,192,277394,1,0,0:0:0:0:
448,192,277449,1,0,0:0:0:0:
192,192,277503,1,0,0:0:0:0:
320,192,277544,1,0,0:0:0:0:
448,192,277606,1,0,0:0:0:0:
64,192,277667,1,0,0:0:0:0:
320,192,277667,1,0,0:0:0:0:
192,192,277729,1,0,0:0:0:0:
64,192,277790,1,0,0:0:0:0:
192,192,277852,1,0,0:0:0:0:
448,192,277852,1,0,0:0:0:0:
320,192,277913,1,0,0:0:0:0:
192,192,277995,1,0,0:0:0:0:
448,192,278050,1,0,0:0:0:0:
320,192,278104,1,0,0:0:0:0:
192,192,278159,1,0,0:0:0:0:
448,192,278241,1,0,0:0:0:0:
320,192,278323,1,0,0:0:0:0:
192,192,278405,1,0,0:0:0:0:
448,192,278466,1,0,0:0:0:0:
64,192,278487,1,0,0:0:0:0:
192,192,278569,1,0,0:0:0:0:
448,192,278651,1,0,0:0:0:0:
320,192,278651,1,0,0:0:0:0:
64,192,278712,1,0,0:0:0:0:
192,192,278774,1,0,0:0:0:0:
320,192,278815,1,0,0:0:0:0:
448,192,278856,1,0,0:0:0:0:
64,192,278897,1,0,0:0:0:0:
320,192,278938,1,0,0:0:0:0:
192,192,278979,1,0,0:0:0:0:
448,192,279033,1,0,0:0:0:0:
64,192,279081,1,0,0:0:0:0:
192,192,279143,1,0,0:0:0:0:
448,192,279197,1,0,0:0:0:0:
320,192,279252,1,0,0:0:0:0:
448,192,279306,1,0,0:0:0:0:
192,192,279361,1,0,0:0:0:0:
448,192,279416,1,0,0:0:0:0:
320,192,279470,1,0,0:0:0:0:
64,192,279525,1,0,0:0:0:0:
192,192,279580,1,0,0:0:0:0:
320,192,279634,1,0,0:0:0:0:
192,192,279689,1,0,0:0:0:0:
64,192,279744,1,0,0:0:0:0:
448,192,279798,1,0,0:0:0:0:
320,192,279853,1,0,0:0:0:0:
448,192,279908,1,0,0:0:0:0:
64,192,279921,1,0,0:0:0:0:
192,192,279962,1,0,0:0:0:0:
320,192,280044,1,0,0:0:0:0:
448,192,280126,1,0,0:0:0:0:
64,192,280126,1,0,0:0:0:0:
192,192,280181,1,0,0:0:0:0:
64,192,280235,1,0,0:0:0:0:
320,192,280290,1,0,0:0:0:0:
192,192,280345,1,0,0:0:0:0:
64,192,280399,1,0,0:0:0:0:
448,192,280413,1,0,0:0:0:0:
192,192,280495,1,0,0:0:0:0:
320,192,280536,1,0,0:0:0:0:
448,192,280577,1,0,0:0:0:0:
64,192,280618,1,0,0:0:0:0:
320,192,280671,1,0,0:0:0:0:
192,192,280724,1,0,0:0:0:0:
448,192,280778,1,0,0:0:0:0:
64,192,280831,1,0,0:0:0:0:
320,192,280884,1,0,0:0:0:0:
448,192,280938,1,0,0:0:0:0:
320,192,280991,1,0,0:0:0:0:
192,192,281044,1,0,0:0:0:0:
448,192,281098,1,0,0:0:0:0:
64,192,281151,1,0,0:0:0:0:
320,192,281204,1,0,0:0:0:0:
192,192,281258,1,0,0:0:0:0:
64,192,281311,1,0,0:0:0:0:
192,192,281364,1,0,0:0:0:0:
320,192,281418,1,0,0:0:0:0:
448,192,281471,1,0,0:0:0:0:
64,192,281524,1,0,0:0:0:0:
192,192,281578,1,0,0:0:0:0:
448,192,281631,1,0,0:0:0:0:
320,192,281684,1,0,0:0:0:0:
448,192,281738,1,0,0:0:0:0:
192,192,281791,1,0,0:0:0:0:
320,192,281898,1,0,0:0:0:0:
192,192,281978,1,0,0:0:0:0:
448,192,282058,1,0,0:0:0:0:
64,192,282058,1,0,0:0:0:0:
192,192,282118,1,0,0:0:0:0:
320,192,282178,1,0,0:0:0:0:
448,192,282238,1,0,0:0:0:0:
64,192,282298,1,0,0:0:0:0:
320,192,282298,1,0,0:0:0:0:
192,192,282358,1,0,0:0:0:0:
64,192,282418,1,0,0:0:0:0:
192,192,282478,1,0,0:0:0:0:
448,192,282538,1,0,0:0:0:0:
320,192,282597,1,0,0:0:0:0:
192,192,282656,1,0,0:0:0:0:
448,192,282715,1,0,0:0:0:0:
320,192,282774,1,0,0:0:0:0:
448,192,282833,1,0,0:0:0:0:
64,192,282892,1,0,0:0:0:0:
192,192,282951,1,0,0:0:0:0:
320,192,283010,1,0,0:0:0:0:
64,192,283069,1,0,0:0:0:0:
192,192,283128,1,0,0:0:0:0:
320,192,283187,1,0,0:0:0:0:
448,192,283246,1,0,0:0:0:0:
192,192,283305,1,0,0:0:0:0:
64,192,283364,1,0,0:0:0:0:
192,192,283423,1,0,0:0:0:0:
448,192,283482,1,0,0:0:0:0:
320,192,283541,1,0,0:0:0:0:
64,192,283600,1,0,0:0:0:0:
448,192,283660,1,0,0:0:0:0:
192,192,283719,1,0,0:0:0:0:
320,192,283778,1,0,0:0:0:0:
448,192,283837,1,0,0:0:0:0:
320,192,283896,1,0,0:0:0:0:
192,192,283955,1,0,0:0:0:0:
64,192,284014,1,0,0:0:0:0:
320,192,284073,1,0,0:0:0:0:
64,192,284132,1,0,0:0:0:0:
448,192,284191,1,0,0:0:0:0:
192,192,284250,1,0,0:0:0:0:
320,192,284309,1,0,0:0:0:0:
448,192,284368,1,0,0:0:0:0:
64,192,284427,1,0,0:0:0:0:
320,192,284488,1,0,0:0:0:0:
192,192,284548,1,0,0:0:0:0:
320,192,284608,1,0,0:0:0:0:
64,192,284668,1,0,0:0:0:0:
448,192,284728,1,0,0:0:0:0:
320,192,284788,1,0,0:0:0:0:
64,192,284848,1,0,0:0:0:0:
192,192,284908,1,0,0:0:0:0:
448,192,284968,1,0,0:0:0:0:
320,192,285028,1,0,0:0:0:0:
64,192,285088,1,0,0:0:0:0:
192,192,285148,1,0,0:0:0:0:
448,192,285208,1,0,0:0:0:0:
320,192,285268,1,0,0:0:0:0:
64,192,285328,1,0,0:0:0:0:
192,192,285388,1,0,0:0:0:0:
448,192,285448,1,0,0:0:0:0:
320,192,285508,1,0,0:0:0:0:
64,192,285568,1,0,0:0:0:0:
192,192,285628,1,0,0:0:0:0:
448,192,285688,1,0,0:0:0:0:
320,192,285748,1,0,0:0:0:0:
64,192,285808,1,0,0:0:0:0:
192,192,285868,1,0,0:0:0:0:
448,192,285928,1,0,0:0:0:0:
320,192,285988,1,0,0:0:0:0:
64,192,286048,1,0,0:0:0:0:
320,192,286108,1,0,0:0:0:0:
192,192,286168,1,0,0:0:0:0:
64,192,286228,1,0,0:0:0:0:
320,192,286348,1,0,0:0:0:0:
448,192,286348,1,0,0:0:0:0:
64,192,286348,1,0,0:0:0:0:
192,192,286476,1,0,0:0:0:0:
448,192,286476,1,0,0:0:0:0:
320,192,286540,1,0,0:0:0:0:
192,192,286604,1,0,0:0:0:0:
64,192,286604,128,0,287245:0:0:0:0:
64,192,287373,1,0,0:0:0:0:
448,192,287373,1,0,0:0:0:0:
192,192,287437,1,0,0:0:0:0:
320,192,287501,1,0,0:0:0:0:
64,192,287565,1,0,0:0:0:0:
448,192,287565,128,0,287886:0:0:0:0:
