osu file format v14

[General]
AudioFilename: Tatsuro Yamashita - Daydream125.mp3
AudioLeadIn: 0
PreviewTime: 124843
Countdown: 0
SampleSet: None
StackLeniency: 0.7
Mode: 3
LetterboxInBreaks: 0
SpecialStyle: 0
WidescreenStoryboard: 1

[Editor]
Bookmarks: 6523,18862,28174,34655,43590,49831,62141,74447,102283,113075,116051,125363,130014,139614,142242,203215,213924,220626,230157
DistanceSpacing: 0.8
BeatDivisor: 4
GridSize: 32
TimelineZoom: 1.8

[Metadata]
Title:Daydream
TitleUnicode:Daydream
Artist:Tatsuro Yamashita
ArtistUnicode:Tatsuro Yamashita
Creator:Ska
Version:1.25
Source:
Tags:tech dump stream jack
BeatmapID:3632461
BeatmapSetID:1774067

[Difficulty]
HPDrainRate:8.4
CircleSize:4
OverallDifficulty:8.4
ApproachRate:5
SliderMultiplier:1.4
SliderTickRate:1

[Events]
//Background and Video events
0,0,"b.jpg",0,0
//Break Periods
//Storyboard Layer 0 (Background)
//Storyboard Layer 1 (Fail)
//Storyboard Layer 2 (Pass)
//Storyboard Layer 3 (Foreground)
//Storyboard Layer 4 (Overlay)
//Storyboard Sound Samples

[TimingPoints]
359,369.2307696,4,1,0,0,1,0
359,-103.9999999,4,1,0,0,0,0
729,377.952756,4,1,0,0,1,0
729,-101.6,4,1,0,0,0,0
1484,390.2439024,4,1,0,0,1,0
1484,-98.40000001,4,1,0,0,0,0
2265,384,4,1,0,0,1,0
2265,-100,4,1,0,0,0,0
3417,390.2439024,4,1,0,0,1,0
3417,-98.40000001,4,1,0,0,0,0
4198,387.0967744,4,1,0,0,1,0
4198,-99.19999995,4,1,0,0,0,0
4585,390.2439024,4,1,0,0,1,0
4585,-98.40000001,4,1,0,0,0,0
5755,384,4,1,0,0,1,0
5755,-100,4,1,0,0,0,0
6523,403.3613448,4,1,0,0,1,0
6523,-95.19999994,4,1,0,0,0,0
6927,384,4,1,0,0,1,0
6927,-100,4,1,0,0,0,0
8079,387.0967744,4,1,0,0,1,0
8079,-99.19999995,4,1,0,0,0,0
11950,384,4,1,0,0,1,0
11950,-100,4,1,0,0,0,0
29614,393.4426232,4,1,0,0,1,0
29614,-97.59999994,4,1,0,0,0,0
30400,390.2439024,4,1,0,0,1,0
30400,-98.40000001,4,1,0,0,0,0
32351,384,4,1,0,0,1,0
32351,-100,4,1,0,0,0,0
43103,393.4426232,4,1,0,0,1,0
43103,-97.59999994,4,1,0,0,0,0
43497,372.0930232,4,1,0,0,1,0
43497,-103.2,4,1,0,0,0,0
47591,390.2439024,4,1,0,0,1,0
47591,-98.40000001,4,1,0,0,0,0
47980,384,4,1,0,0,1,0
47980,-100,4,1,0,0,0,0
49516,313.7254904,4,1,0,0,1,0
49516,-122.3999999,4,1,0,0,0,0
49831,406.7796608,4,1,0,0,1,0
49831,-94.40000005,4,1,0,0,0,0
50237,380.9523808,4,1,0,0,1,0
50237,-100.8,4,1,0,0,0,0
50999,393.4426232,4,1,0,0,1,0
50999,-97.59999994,4,1,0,0,0,0
52573,369.2307696,4,1,0,0,1,0
52573,-103.9999999,4,1,0,0,0,0
52942,403.3613448,4,1,0,0,1,0
52942,-95.19999994,4,1,0,0,0,0
53345,390.2439024,4,1,0,0,1,0
53345,-98.40000001,4,1,0,0,0,0
54516,384,4,1,0,0,1,0
54516,-100,4,1,0,0,0,0
55668,390.2439024,4,1,0,0,1,0
55668,-98.40000001,4,1,0,0,0,0
56059,387.0967744,4,1,0,0,1,0
56059,-99.19999995,4,1,0,0,0,0
59929,384,4,1,0,0,1,0
59929,-100,4,1,0,0,0,0
61849,390.2439024,4,1,0,0,1,0
61849,-98.40000001,4,1,0,0,0,0
63410,380.9523808,4,1,0,0,1,0
63410,-100.8,4,1,0,0,0,0
64934,387.0967744,4,1,0,0,1,0
64934,-99.19999995,4,1,0,0,0,0
67256,377.952756,4,1,0,0,1,0
67256,-101.6,4,1,0,0,0,0
68391,384,4,1,0,0,1,0
68391,-100,4,1,0,0,0,0
69927,380.9523808,4,1,0,0,1,0
69927,-100.8,4,1,0,0,0,0
71069,384,4,1,0,0,1,0
71069,-100,4,1,0,0,0,0
72221,387.0967744,4,1,0,0,1,0
72221,-99.19999995,4,1,0,0,0,0
78415,377.952756,4,1,0,0,1,0
78415,-101.6,4,1,0,0,0,0
79549,384,4,1,0,0,1,0
79549,-100,4,1,0,0,0,0
80701,387.0967744,4,1,0,0,1,0
80701,-99.19999995,4,1,0,0,0,0
81862,384,4,1,0,0,1,0
81862,-100,4,1,0,0,0,0
97222,413.7931032,4,1,0,0,1,0
97222,-92.80000006,4,1,0,0,0,0
97635,393.4426232,4,1,0,0,1,0
97635,-97.59999994,4,1,0,0,0,0
98029,384,4,1,0,0,1,0
98029,-100,4,1,0,0,0,0
101869,413.7931032,4,1,0,0,1,0
101869,-92.80000006,4,1,0,0,0,0
102283,387.0967744,4,1,0,0,1,0
102283,-99.19999995,4,1,0,0,0,0
106154,384,4,1,0,0,1,0
106154,-100,4,1,0,0,0,0
108842,393.4426232,4,1,0,0,1,0
108842,-97.59999994,4,1,0,0,0,0
109235,384,4,1,0,0,1,0
109235,-100,4,1,0,0,0,0
128819,421.0526312,4,1,0,0,1,0
128819,-91.20000008,4,1,0,0,0,0
129240,387.0967744,4,1,0,0,1,0
129240,-99.19999995,4,1,0,0,0,0
130402,375,4,1,0,0,1,0
130402,-102.4,4,1,0,0,0,0
131151,377.952756,4,1,0,0,1,0
131151,-101.6,4,1,0,0,0,0
131530,390.2439024,4,1,0,0,1,0
131530,-98.40000001,4,1,0,0,0,0
132700,387.0967744,4,1,0,0,1,0
132700,-99.19999995,4,1,0,0,0,0
137346,384,4,1,0,0,1,0
137346,-100,4,1,0,0,0,0
139266,347.8260872,4,1,0,0,1,0
139266,-110.3999999,4,1,0,0,0,0
139614,406.7796608,4,1,0,0,1,0
139614,-94.40000005,4,1,0,0,0,0
140427,375,4,1,0,0,1,0
140427,-102.4,4,1,0,0,0,0
140802,384,4,1,0,0,1,0
140802,-100,4,1,0,0,0,0
142722,372.0930232,4,1,0,0,1,0
142722,-103.2,4,1,0,0,0,0
143466,390.2439024,4,1,0,0,1,0
143466,-98.40000001,4,1,0,0,0,0
144247,384,4,1,0,0,1,0
144247,-100,4,1,0,0,0,0
148087,369.2307696,4,1,0,0,1,0
148087,-103.9999999,4,1,0,0,0,0
148825,377.952756,4,1,0,0,1,0
148825,-101.6,4,1,0,0,0,0
149203,390.2439024,4,1,0,0,1,0
149203,-98.40000001,4,1,0,0,0,0
149593,384,4,1,0,0,1,0
149593,-100,4,1,0,0,0,0
151897,380.9523808,4,1,0,0,1,0
151897,-100.8,4,1,0,0,0,0
152279,377.952756,4,1,0,0,1,0
152279,-101.6,4,1,0,0,0,0
153790,387.0967744,4,1,0,0,1,0
153790,-99.19999995,4,1,0,0,0,0
155339,375,4,1,0,0,1,0
155339,-102.4,4,1,0,0,0,0
156839,387.0967744,4,1,0,0,1,0
156839,-99.19999995,4,1,0,0,0,0
158774,380.9523808,4,1,0,0,1,0
158774,-100.8,4,1,0,0,0,0
159155,377.952756,4,1,0,0,1,0
159155,-101.6,4,1,0,0,0,0
161423,406.7796608,4,1,0,0,1,0
161423,-94.40000005,4,1,0,0,0,0
161830,380.9523808,4,1,0,0,1,0
161830,-100.8,4,1,0,0,0,0
165639,377.952756,4,1,0,0,1,0
165639,-101.6,4,1,0,0,0,0
167907,387.0967744,4,1,0,0,1,0
167907,-99.19999995,4,1,0,0,0,0
169068,377.952756,4,1,0,0,1,0
169068,-101.6,4,1,0,0,0,0
170958,380.9523808,4,1,0,0,1,0
170958,-100.8,4,1,0,0,0,0
174005,384,4,1,0,0,1,0
174005,-100,4,1,0,0,0,0
176309,380.9523808,4,1,0,0,1,0
176309,-100.8,4,1,0,0,0,0
177071,375,4,1,0,0,1,0
177071,-102.4,4,1,0,0,0,0
178571,384,4,1,0,0,1,0
178571,-100,4,1,0,0,0,0
180107,380.9523808,4,1,0,0,1,0
180107,-100.8,4,1,0,0,0,0
183155,384,4,1,0,0,1,0
183155,-100,4,1,0,0,0,0
184691,377.952756,4,1,0,0,1,0
184691,-101.6,4,1,0,0,0,0
187715,384,4,1,0,0,1,0
187715,-100,4,1,0,0,0,0
188483,377.952756,4,1,0,0,1,0
188483,-101.6,4,1,0,0,0,0
190750,380.9523808,4,1,0,0,1,0
190750,-100.8,4,1,0,0,0,0
192274,384,4,1,0,0,1,0
192274,-100,4,1,0,0,0,0
194194,377.952756,4,1,0,0,1,0
194194,-101.6,4,1,0,0,0,0
195328,380.9523808,4,1,0,0,1,0
195328,-100.8,4,1,0,0,0,0
197995,363.636364,4,1,0,0,1,0
197995,-105.5999999,4,1,0,0,0,0
198358,380.9523808,4,1,0,0,1,0
198358,-100.8,4,1,0,0,0,0
203691,384,4,1,0,0,1,0
203691,-100,4,1,0,0,0,0
209067,380.9523808,4,1,0,0,1,0
209067,-100.8,4,1,0,0,0,0
215925,417.391304,4,1,0,0,1,0
215925,-92.00000008,4,1,0,0,0,0
216342,377.952756,4,1,0,0,1,0
216342,-101.6,4,1,0,0,0,0
216720,384,4,1,0,0,1,0
216720,-100,4,1,0,0,0,0
219024,406.7796608,4,1,0,0,1,0
219024,-94.40000005,4,1,0,0,0,0
219431,421.0526312,4,1,0,0,1,0
219431,-91.20000008,4,1,0,0,0,0
219852,387.0967744,4,1,0,0,1,0
219852,-99.19999995,4,1,0,0,0,0
221400,393.4426232,4,1,0,0,1,0
221400,-97.59999994,4,1,0,0,0,0
224547,384,4,1,0,0,1,0
224547,-100,4,1,0,0,0,0
226083,377.952756,4,1,0,0,1,0
226083,-101.6,4,1,0,0,0,0
227595,384,4,1,0,0,1,0
227595,-100,4,1,0,0,0,0
229131,410.2564104,4,1,0,0,1,0
229131,-93.59999997,4,1,0,0,0,0

[HitObjects]
448,192,359,5,0,0:0:0:0:
64,192,359,1,0,0:0:0:0:
192,192,451,1,0,0:0:0:0:
320,192,543,1,0,0:0:0:0:
64,192,543,1,0,0:0:0:0:
320,192,635,1,0,0:0:0:0:
192,192,728,1,0,0:0:0:0:
448,192,728,1,0,0:0:0:0:
192,192,823,1,0,0:0:0:0:
448,192,917,1,0,0:0:0:0:
64,192,1012,1,0,0:0:0:0:
448,192,1012,1,0,0:0:0:0:
320,192,1106,1,0,0:0:0:0:
192,192,1201,1,0,0:0:0:0:
192,192,1295,1,0,0:0:0:0:
448,192,1295,1,0,0:0:0:0:
448,192,1390,1,0,0:0:0:0:
320,192,1484,1,0,0:0:0:0:
64,192,1484,1,0,0:0:0:0:
192,192,1581,1,0,0:0:0:0:
192,192,1679,1,0,0:0:0:0:
320,192,1679,1,0,0:0:0:0:
192,192,1776,1,0,0:0:0:0:
448,192,1874,1,0,0:0:0:0:
64,192,1874,1,0,0:0:0:0:
320,192,1971,1,0,0:0:0:0:
192,192,2069,1,0,0:0:0:0:
448,192,2069,1,0,0:0:0:0:
192,192,2166,1,0,0:0:0:0:
320,192,2265,1,0,0:0:0:0:
64,192,2265,1,0,0:0:0:0:
320,192,2361,1,0,0:0:0:0:
64,192,2457,1,0,0:0:0:0:
448,192,2553,1,0,0:0:0:0:
64,192,2553,1,0,0:0:0:0:
192,192,2649,1,0,0:0:0:0:
320,192,2745,1,0,0:0:0:0:
320,192,2841,1,0,0:0:0:0:
64,192,2841,1,0,0:0:0:0:
64,192,2937,1,0,0:0:0:0:
448,192,3033,1,0,0:0:0:0:
192,192,3033,1,0,0:0:0:0:
320,192,3129,1,0,0:0:0:0:
320,192,3225,1,0,0:0:0:0:
192,192,3225,1,0,0:0:0:0:
320,192,3321,1,0,0:0:0:0:
448,192,3417,1,0,0:0:0:0:
64,192,3417,1,0,0:0:0:0:
192,192,3514,1,0,0:0:0:0:
64,192,3612,1,0,0:0:0:0:
320,192,3612,1,0,0:0:0:0:
320,192,3709,1,0,0:0:0:0:
192,192,3807,1,0,0:0:0:0:
448,192,3807,1,0,0:0:0:0:
192,192,3904,1,0,0:0:0:0:
448,192,4002,1,0,0:0:0:0:
64,192,4099,1,0,0:0:0:0:
448,192,4099,1,0,0:0:0:0:
320,192,4197,1,0,0:0:0:0:
192,192,4294,1,0,0:0:0:0:
192,192,4391,1,0,0:0:0:0:
448,192,4391,1,0,0:0:0:0:
448,192,4488,1,0,0:0:0:0:
64,192,4585,1,0,0:0:0:0:
320,192,4585,1,0,0:0:0:0:
192,192,4682,1,0,0:0:0:0:
192,192,4780,1,0,0:0:0:0:
320,192,4780,1,0,0:0:0:0:
192,192,4877,1,0,0:0:0:0:
448,192,4975,1,0,0:0:0:0:
64,192,4975,1,0,0:0:0:0:
320,192,5072,1,0,0:0:0:0:
448,192,5170,1,0,0:0:0:0:
64,192,5170,1,0,0:0:0:0:
320,192,5267,1,0,0:0:0:0:
192,192,5267,1,0,0:0:0:0:
320,192,5365,1,0,0:0:0:0:
192,192,5365,1,0,0:0:0:0:
448,192,5463,1,0,0:0:0:0:
192,192,5463,1,0,0:0:0:0:
64,192,5560,1,0,0:0:0:0:
320,192,5560,1,0,0:0:0:0:
320,192,5658,1,0,0:0:0:0:
448,192,5755,1,0,0:0:0:0:
64,192,5755,1,0,0:0:0:0:
192,192,5755,1,0,0:0:0:0:
320,192,5851,1,0,0:0:0:0:
448,192,5851,1,0,0:0:0:0:
320,192,5947,1,0,0:0:0:0:
448,192,5947,1,0,0:0:0:0:
192,192,6043,1,0,0:0:0:0:
64,192,6043,1,0,0:0:0:0:
448,192,6075,1,0,0:0:0:0:
320,192,6107,1,0,0:0:0:0:
192,192,6139,1,0,0:0:0:0:
64,192,6139,1,0,0:0:0:0:
448,192,6171,1,0,0:0:0:0:
320,192,6203,1,0,0:0:0:0:
64,192,6235,1,0,0:0:0:0:
192,192,6235,1,0,0:0:0:0:
448,192,6267,1,0,0:0:0:0:
320,192,6299,1,0,0:0:0:0:
64,192,6331,1,0,0:0:0:0:
448,192,6363,1,0,0:0:0:0:
320,192,6395,1,0,0:0:0:0:
192,192,6427,1,0,0:0:0:0:
64,192,6459,1,0,0:0:0:0:
320,192,6523,128,0,6623:0:0:0:0:
448,192,6523,128,0,6724:0:0:0:0:
192,192,6623,1,0,0:0:0:0:
64,192,6724,1,0,0:0:0:0:
192,192,6775,1,0,0:0:0:0:
320,192,6825,1,0,0:0:0:0:
192,192,6875,1,0,0:0:0:0:
320,192,6927,1,0,0:0:0:0:
448,192,6975,1,0,0:0:0:0:
192,192,7023,1,0,0:0:0:0:
64,192,7023,1,0,0:0:0:0:
448,192,7087,1,0,0:0:0:0:
320,192,7151,1,0,0:0:0:0:
64,192,7215,1,0,0:0:0:0:
192,192,7215,1,0,0:0:0:0:
192,192,7311,1,0,0:0:0:0:
64,192,7311,1,0,0:0:0:0:
320,192,7407,1,0,0:0:0:0:
448,192,7407,1,0,0:0:0:0:
64,192,7471,1,0,0:0:0:0:
192,192,7535,1,0,0:0:0:0:
448,192,7599,1,0,0:0:0:0:
320,192,7599,1,0,0:0:0:0:
320,192,7695,1,0,0:0:0:0:
64,192,7695,1,0,0:0:0:0:
192,192,7791,1,0,0:0:0:0:
64,192,7791,1,0,0:0:0:0:
448,192,7791,1,0,0:0:0:0:
320,192,7887,1,0,0:0:0:0:
448,192,7887,1,0,0:0:0:0:
64,192,7951,1,0,0:0:0:0:
320,192,8015,1,0,0:0:0:0:
448,192,8079,1,0,0:0:0:0:
192,192,8079,1,0,0:0:0:0:
64,192,8143,1,0,0:0:0:0:
192,192,8208,1,0,0:0:0:0:
320,192,8272,1,0,0:0:0:0:
448,192,8272,1,0,0:0:0:0:
64,192,8369,1,0,0:0:0:0:
320,192,8369,1,0,0:0:0:0:
192,192,8466,1,0,0:0:0:0:
448,192,8466,1,0,0:0:0:0:
64,192,8562,1,0,0:0:0:0:
192,192,8562,1,0,0:0:0:0:
320,192,8562,1,0,0:0:0:0:
320,192,8659,1,0,0:0:0:0:
448,192,8659,1,0,0:0:0:0:
64,192,8756,1,0,0:0:0:0:
448,192,8756,1,0,0:0:0:0:
192,192,8853,1,0,0:0:0:0:
64,192,8853,1,0,0:0:0:0:
320,192,8949,1,0,0:0:0:0:
448,192,8949,1,0,0:0:0:0:
320,192,9046,1,0,0:0:0:0:
64,192,9046,128,0,9143:0:0:0:0:
448,192,9143,1,0,0:0:0:0:
192,192,9143,128,0,9240:0:0:0:0:
448,192,9240,1,0,0:0:0:0:
320,192,9240,1,0,0:0:0:0:
448,192,9337,1,0,0:0:0:0:
192,192,9337,128,0,9433:0:0:0:0:
320,192,9337,1,0,0:0:0:0:
64,192,9433,128,0,9530:0:0:0:0:
448,192,9433,1,0,0:0:0:0:
320,192,9530,1,0,0:0:0:0:
192,192,9627,1,0,0:0:0:0:
64,192,9627,1,0,0:0:0:0:
320,192,9724,1,0,0:0:0:0:
448,192,9820,1,0,0:0:0:0:
64,192,9820,1,0,0:0:0:0:
320,192,9869,1,0,0:0:0:0:
192,192,9917,1,0,0:0:0:0:
320,192,9966,1,0,0:0:0:0:
192,192,10014,1,0,0:0:0:0:
64,192,10062,1,0,0:0:0:0:
320,192,10111,1,0,0:0:0:0:
448,192,10111,1,0,0:0:0:0:
64,192,10175,1,0,0:0:0:0:
192,192,10240,1,0,0:0:0:0:
320,192,10304,1,0,0:0:0:0:
448,192,10304,1,0,0:0:0:0:
320,192,10401,1,0,0:0:0:0:
64,192,10401,1,0,0:0:0:0:
192,192,10498,1,0,0:0:0:0:
64,192,10498,1,0,0:0:0:0:
448,192,10562,1,0,0:0:0:0:
192,192,10595,1,0,0:0:0:0:
64,192,10691,1,0,0:0:0:0:
320,192,10691,1,0,0:0:0:0:
320,192,10788,1,0,0:0:0:0:
448,192,10788,1,0,0:0:0:0:
448,192,10885,1,0,0:0:0:0:
64,192,10885,1,0,0:0:0:0:
192,192,10885,1,0,0:0:0:0:
64,192,10982,1,0,0:0:0:0:
320,192,10982,1,0,0:0:0:0:
192,192,11046,1,0,0:0:0:0:
320,192,11111,1,0,0:0:0:0:
64,192,11175,1,0,0:0:0:0:
448,192,11175,1,0,0:0:0:0:
320,192,11240,1,0,0:0:0:0:
192,192,11304,1,0,0:0:0:0:
448,192,11369,1,0,0:0:0:0:
64,192,11369,1,0,0:0:0:0:
64,192,11466,1,0,0:0:0:0:
448,192,11466,1,0,0:0:0:0:
192,192,11562,1,0,0:0:0:0:
320,192,11562,1,0,0:0:0:0:
192,192,11659,1,0,0:0:0:0:
320,192,11659,1,0,0:0:0:0:
448,192,11659,1,0,0:0:0:0:
192,192,11756,1,0,0:0:0:0:
64,192,11756,1,0,0:0:0:0:
320,192,11853,1,0,0:0:0:0:
448,192,11853,1,0,0:0:0:0:
320,192,11950,1,0,0:0:0:0:
448,192,11950,1,0,0:0:0:0:
192,192,12046,1,0,0:0:0:0:
64,192,12046,1,0,0:0:0:0:
192,192,12142,1,0,0:0:0:0:
448,192,12142,128,0,12238:0:0:0:0:
320,192,12142,128,0,12238:0:0:0:0:
64,192,12238,1,0,0:0:0:0:
192,192,12334,1,0,0:0:0:0:
64,192,12334,1,0,0:0:0:0:
448,192,12334,128,0,12430:0:0:0:0:
320,192,12334,128,0,12430:0:0:0:0:
64,192,12430,1,0,0:0:0:0:
192,192,12430,1,0,0:0:0:0:
448,192,12526,128,0,12622:0:0:0:0:
64,192,12526,1,0,0:0:0:0:
320,192,12526,128,0,12622:0:0:0:0:
192,192,12622,1,0,0:0:0:0:
320,192,12718,1,0,0:0:0:0:
448,192,12718,1,0,0:0:0:0:
192,192,12814,1,0,0:0:0:0:
64,192,12910,1,0,0:0:0:0:
448,192,12910,1,0,0:0:0:0:
320,192,12958,1,0,0:0:0:0:
192,192,13006,1,0,0:0:0:0:
320,192,13054,1,0,0:0:0:0:
448,192,13102,1,0,0:0:0:0:
64,192,13150,1,0,0:0:0:0:
192,192,13198,1,0,0:0:0:0:
320,192,13198,1,0,0:0:0:0:
64,192,13262,1,0,0:0:0:0:
192,192,13326,1,0,0:0:0:0:
320,192,13390,1,0,0:0:0:0:
448,192,13390,1,0,0:0:0:0:
320,192,13486,1,0,0:0:0:0:
448,192,13486,1,0,0:0:0:0:
64,192,13582,1,0,0:0:0:0:
192,192,13582,1,0,0:0:0:0:
320,192,13646,1,0,0:0:0:0:
192,192,13710,1,0,0:0:0:0:
64,192,13774,1,0,0:0:0:0:
448,192,13774,1,0,0:0:0:0:
320,192,13870,1,0,0:0:0:0:
448,192,13870,1,0,0:0:0:0:
192,192,13966,1,0,0:0:0:0:
64,192,13966,1,0,0:0:0:0:
320,192,13966,1,0,0:0:0:0:
64,192,14062,1,0,0:0:0:0:
448,192,14062,1,0,0:0:0:0:
192,192,14126,1,0,0:0:0:0:
320,192,14190,1,0,0:0:0:0:
64,192,14254,1,0,0:0:0:0:
448,192,14254,1,0,0:0:0:0:
320,192,14318,1,0,0:0:0:0:
64,192,14382,1,0,0:0:0:0:
192,192,14446,1,0,0:0:0:0:
448,192,14446,1,0,0:0:0:0:
448,192,14542,1,0,0:0:0:0:
192,192,14542,1,0,0:0:0:0:
320,192,14638,1,0,0:0:0:0:
64,192,14638,1,0,0:0:0:0:
320,192,14734,1,0,0:0:0:0:
448,192,14734,1,0,0:0:0:0:
192,192,14734,1,0,0:0:0:0:
320,192,14830,1,0,0:0:0:0:
448,192,14830,1,0,0:0:0:0:
192,192,14926,1,0,0:0:0:0:
64,192,14926,1,0,0:0:0:0:
64,192,15022,1,0,0:0:0:0:
192,192,15022,1,0,0:0:0:0:
320,192,15118,1,0,0:0:0:0:
448,192,15118,1,0,0:0:0:0:
320,192,15214,1,0,0:0:0:0:
64,192,15214,128,0,15310:0:0:0:0:
448,192,15310,1,0,0:0:0:0:
192,192,15310,128,0,15406:0:0:0:0:
320,192,15406,1,0,0:0:0:0:
448,192,15406,1,0,0:0:0:0:
192,192,15502,128,0,15598:0:0:0:0:
320,192,15502,1,0,0:0:0:0:
448,192,15502,1,0,0:0:0:0:
64,192,15598,128,0,15694:0:0:0:0:
448,192,15598,1,0,0:0:0:0:
320,192,15694,1,0,0:0:0:0:
192,192,15790,1,0,0:0:0:0:
64,192,15790,1,0,0:0:0:0:
320,192,15886,1,0,0:0:0:0:
448,192,15982,1,0,0:0:0:0:
64,192,15982,1,0,0:0:0:0:
192,192,16030,1,0,0:0:0:0:
320,192,16078,1,0,0:0:0:0:
192,192,16126,1,0,0:0:0:0:
64,192,16174,1,0,0:0:0:0:
448,192,16222,1,0,0:0:0:0:
320,192,16270,1,0,0:0:0:0:
192,192,16270,1,0,0:0:0:0:
448,192,16334,1,0,0:0:0:0:
320,192,16398,1,0,0:0:0:0:
192,192,16462,1,0,0:0:0:0:
64,192,16462,1,0,0:0:0:0:
192,192,16558,1,0,0:0:0:0:
64,192,16558,1,0,0:0:0:0:
320,192,16654,1,0,0:0:0:0:
448,192,16654,1,0,0:0:0:0:
192,192,16718,1,0,0:0:0:0:
320,192,16782,1,0,0:0:0:0:
448,192,16846,1,0,0:0:0:0:
64,192,16846,1,0,0:0:0:0:
64,192,16942,1,0,0:0:0:0:
192,192,16942,1,0,0:0:0:0:
448,192,17038,1,0,0:0:0:0:
192,192,17038,1,0,0:0:0:0:
320,192,17038,1,0,0:0:0:0:
448,192,17134,1,0,0:0:0:0:
320,192,17134,1,0,0:0:0:0:
192,192,17134,1,0,0:0:0:0:
320,192,17422,1,0,0:0:0:0:
64,192,17422,128,0,17710:0:0:0:0:
320,192,17518,1,0,0:0:0:0:
192,192,17614,1,0,0:0:0:0:
192,192,17710,1,0,0:0:0:0:
448,192,17710,128,0,17998:0:0:0:0:
320,192,17806,1,0,0:0:0:0:
320,192,17902,1,0,0:0:0:0:
192,192,17998,1,0,0:0:0:0:
64,192,17998,128,0,18382:0:0:0:0:
192,192,18094,1,0,0:0:0:0:
320,192,18190,1,0,0:0:0:0:
320,192,18286,1,0,0:0:0:0:
192,192,18382,1,0,0:0:0:0:
448,192,18382,1,0,0:0:0:0:
192,192,18574,1,0,0:0:0:0:
64,192,18574,1,0,0:0:0:0:
320,192,18574,1,0,0:0:0:0:
192,192,18670,1,0,0:0:0:0:
64,192,18670,1,0,0:0:0:0:
320,192,18670,1,0,0:0:0:0:
448,192,18862,1,0,0:0:0:0:
320,192,18862,1,0,0:0:0:0:
320,192,18958,1,0,0:0:0:0:
448,192,19054,1,0,0:0:0:0:
192,192,19054,1,0,0:0:0:0:
192,192,19150,1,0,0:0:0:0:
64,192,19150,1,0,0:0:0:0:
320,192,19246,1,0,0:0:0:0:
448,192,19246,1,0,0:0:0:0:
64,192,19288,1,0,0:0:0:0:
320,192,19331,1,0,0:0:0:0:
192,192,19374,1,0,0:0:0:0:
64,192,19416,1,0,0:0:0:0:
448,192,19416,1,0,0:0:0:0:
192,192,19459,1,0,0:0:0:0:
320,192,19502,1,0,0:0:0:0:
448,192,19544,1,0,0:0:0:0:
64,192,19566,1,0,0:0:0:0:
192,192,19598,1,0,0:0:0:0:
448,192,19630,1,0,0:0:0:0:
320,192,19672,1,0,0:0:0:0:
192,192,19726,1,0,0:0:0:0:
64,192,19726,1,0,0:0:0:0:
64,192,19798,1,0,0:0:0:0:
192,192,19798,1,0,0:0:0:0:
64,192,19894,1,0,0:0:0:0:
320,192,19918,1,0,0:0:0:0:
320,192,20014,1,0,0:0:0:0:
192,192,20014,1,0,0:0:0:0:
64,192,20110,1,0,0:0:0:0:
448,192,20110,1,0,0:0:0:0:
320,192,20158,1,0,0:0:0:0:
64,192,20206,1,0,0:0:0:0:
192,192,20254,1,0,0:0:0:0:
320,192,20302,1,0,0:0:0:0:
448,192,20350,1,0,0:0:0:0:
192,192,20398,1,0,0:0:0:0:
64,192,20398,1,0,0:0:0:0:
448,192,20440,1,0,0:0:0:0:
192,192,20483,1,0,0:0:0:0:
320,192,20526,1,0,0:0:0:0:
64,192,20568,1,0,0:0:0:0:
448,192,20611,1,0,0:0:0:0:
320,192,20654,1,0,0:0:0:0:
192,192,20696,1,0,0:0:0:0:
448,192,20739,1,0,0:0:0:0:
64,192,20782,1,0,0:0:0:0:
192,192,20830,1,0,0:0:0:0:
320,192,20878,1,0,0:0:0:0:
448,192,20878,1,0,0:0:0:0:
192,192,20926,1,0,0:0:0:0:
320,192,20974,1,0,0:0:0:0:
448,192,21022,1,0,0:0:0:0:
64,192,21070,1,0,0:0:0:0:
320,192,21118,1,0,0:0:0:0:
64,192,21166,1,0,0:0:0:0:
192,192,21214,1,0,0:0:0:0:
448,192,21262,1,0,0:0:0:0:
320,192,21262,1,0,0:0:0:0:
64,192,21262,1,0,0:0:0:0:
320,192,21358,1,0,0:0:0:0:
448,192,21358,1,0,0:0:0:0:
192,192,21454,1,0,0:0:0:0:
320,192,21454,1,0,0:0:0:0:
192,192,21550,1,0,0:0:0:0:
320,192,21646,1,0,0:0:0:0:
448,192,21646,1,0,0:0:0:0:
64,192,21646,1,0,0:0:0:0:
192,192,21742,1,0,0:0:0:0:
320,192,21742,1,0,0:0:0:0:
320,192,21838,1,0,0:0:0:0:
448,192,21838,1,0,0:0:0:0:
192,192,21934,1,0,0:0:0:0:
64,192,21934,1,0,0:0:0:0:
448,192,22030,1,0,0:0:0:0:
320,192,22126,1,0,0:0:0:0:
64,192,22126,1,0,0:0:0:0:
320,192,22222,1,0,0:0:0:0:
448,192,22222,1,0,0:0:0:0:
64,192,22318,1,0,0:0:0:0:
192,192,22318,1,0,0:0:0:0:
448,192,22360,1,0,0:0:0:0:
64,192,22403,1,0,0:0:0:0:
320,192,22446,1,0,0:0:0:0:
192,192,22488,1,0,0:0:0:0:
448,192,22531,1,0,0:0:0:0:
320,192,22531,1,0,0:0:0:0:
64,192,22574,1,0,0:0:0:0:
192,192,22616,1,0,0:0:0:0:
320,192,22659,1,0,0:0:0:0:
64,192,22702,1,0,0:0:0:0:
192,192,22744,1,0,0:0:0:0:
320,192,22798,1,0,0:0:0:0:
448,192,22798,1,0,0:0:0:0:
320,192,22870,1,0,0:0:0:0:
448,192,22870,1,0,0:0:0:0:
448,192,22966,1,0,0:0:0:0:
192,192,22990,1,0,0:0:0:0:
320,192,23086,1,0,0:0:0:0:
192,192,23086,1,0,0:0:0:0:
64,192,23182,1,0,0:0:0:0:
448,192,23182,1,0,0:0:0:0:
192,192,23230,1,0,0:0:0:0:
448,192,23278,1,0,0:0:0:0:
64,192,23326,1,0,0:0:0:0:
320,192,23374,1,0,0:0:0:0:
192,192,23374,1,0,0:0:0:0:
64,192,23470,1,0,0:0:0:0:
448,192,23470,1,0,0:0:0:0:
320,192,23512,1,0,0:0:0:0:
192,192,23555,1,0,0:0:0:0:
448,192,23598,1,0,0:0:0:0:
320,192,23598,1,0,0:0:0:0:
64,192,23640,1,0,0:0:0:0:
192,192,23683,1,0,0:0:0:0:
320,192,23726,1,0,0:0:0:0:
64,192,23768,1,0,0:0:0:0:
448,192,23811,1,0,0:0:0:0:
320,192,23854,1,0,0:0:0:0:
192,192,23902,1,0,0:0:0:0:
64,192,23950,1,0,0:0:0:0:
448,192,23950,1,0,0:0:0:0:
64,192,24046,1,0,0:0:0:0:
448,192,24046,1,0,0:0:0:0:
320,192,24142,1,0,0:0:0:0:
192,192,24142,1,0,0:0:0:0:
320,192,24238,1,0,0:0:0:0:
192,192,24238,1,0,0:0:0:0:
192,192,24334,1,0,0:0:0:0:
64,192,24334,1,0,0:0:0:0:
192,192,24430,1,0,0:0:0:0:
64,192,24430,1,0,0:0:0:0:
320,192,24526,1,0,0:0:0:0:
320,192,24622,1,0,0:0:0:0:
192,192,24622,1,0,0:0:0:0:
192,192,24718,1,0,0:0:0:0:
64,192,24718,1,0,0:0:0:0:
448,192,24718,1,0,0:0:0:0:
64,192,24814,1,0,0:0:0:0:
320,192,24814,1,0,0:0:0:0:
192,192,24910,1,0,0:0:0:0:
320,192,25006,1,0,0:0:0:0:
448,192,25006,1,0,0:0:0:0:
448,192,25102,1,0,0:0:0:0:
64,192,25102,1,0,0:0:0:0:
320,192,25166,1,0,0:0:0:0:
64,192,25198,1,0,0:0:0:0:
448,192,25230,1,0,0:0:0:0:
320,192,25294,1,0,0:0:0:0:
192,192,25294,1,0,0:0:0:0:
192,192,25390,1,0,0:0:0:0:
64,192,25390,1,0,0:0:0:0:
448,192,25432,1,0,0:0:0:0:
320,192,25475,1,0,0:0:0:0:
192,192,25518,1,0,0:0:0:0:
64,192,25518,1,0,0:0:0:0:
320,192,25560,1,0,0:0:0:0:
192,192,25603,1,0,0:0:0:0:
448,192,25646,1,0,0:0:0:0:
64,192,25688,1,0,0:0:0:0:
320,192,25688,1,0,0:0:0:0:
192,192,25731,1,0,0:0:0:0:
448,192,25774,1,0,0:0:0:0:
320,192,25816,1,0,0:0:0:0:
64,192,25870,1,0,0:0:0:0:
192,192,25870,1,0,0:0:0:0:
192,192,25942,1,0,0:0:0:0:
64,192,25942,1,0,0:0:0:0:
64,192,26038,1,0,0:0:0:0:
320,192,26062,1,0,0:0:0:0:
320,192,26158,1,0,0:0:0:0:
192,192,26158,1,0,0:0:0:0:
64,192,26254,1,0,0:0:0:0:
448,192,26254,1,0,0:0:0:0:
192,192,26302,1,0,0:0:0:0:
448,192,26350,1,0,0:0:0:0:
320,192,26398,1,0,0:0:0:0:
192,192,26446,1,0,0:0:0:0:
64,192,26446,1,0,0:0:0:0:
320,192,26542,1,0,0:0:0:0:
448,192,26542,1,0,0:0:0:0:
192,192,26584,1,0,0:0:0:0:
64,192,26627,1,0,0:0:0:0:
192,192,26670,1,0,0:0:0:0:
448,192,26670,1,0,0:0:0:0:
320,192,26712,1,0,0:0:0:0:
448,192,26755,1,0,0:0:0:0:
320,192,26798,1,0,0:0:0:0:
64,192,26840,1,0,0:0:0:0:
192,192,26883,1,0,0:0:0:0:
448,192,26926,1,0,0:0:0:0:
320,192,26974,1,0,0:0:0:0:
64,192,27022,1,0,0:0:0:0:
192,192,27022,1,0,0:0:0:0:
320,192,27070,1,0,0:0:0:0:
192,192,27118,1,0,0:0:0:0:
64,192,27166,1,0,0:0:0:0:
448,192,27214,1,0,0:0:0:0:
320,192,27214,1,0,0:0:0:0:
192,192,27262,1,0,0:0:0:0:
448,192,27310,1,0,0:0:0:0:
320,192,27358,1,0,0:0:0:0:
64,192,27406,1,0,0:0:0:0:
192,192,27406,1,0,0:0:0:0:
64,192,27502,1,0,0:0:0:0:
448,192,27502,1,0,0:0:0:0:
320,192,27598,128,0,27742:0:0:0:0:
64,192,27598,1,0,0:0:0:0:
192,192,27694,1,0,0:0:0:0:
320,192,27790,1,0,0:0:0:0:
448,192,27790,1,0,0:0:0:0:
64,192,27790,1,0,0:0:0:0:
320,192,27886,1,0,0:0:0:0:
448,192,27886,1,0,0:0:0:0:
64,192,27886,1,0,0:0:0:0:
320,192,27982,1,0,0:0:0:0:
192,192,28078,1,0,0:0:0:0:
192,192,28174,1,0,0:0:0:0:
64,192,28174,1,0,0:0:0:0:
320,192,28206,1,0,0:0:0:0:
448,192,28238,1,0,0:0:0:0:
320,192,28270,1,0,0:0:0:0:
192,192,28302,1,0,0:0:0:0:
64,192,28334,1,0,0:0:0:0:
448,192,28366,1,0,0:0:0:0:
192,192,28398,1,0,0:0:0:0:
320,192,28430,1,0,0:0:0:0:
448,192,28462,1,0,0:0:0:0:
64,192,28510,1,0,0:0:0:0:
320,192,28558,1,0,0:0:0:0:
192,192,28558,1,0,0:0:0:0:
64,192,28632,1,0,0:0:0:0:
448,192,28675,1,0,0:0:0:0:
320,192,28675,1,0,0:0:0:0:
192,192,28702,1,0,0:0:0:0:
448,192,28760,1,0,0:0:0:0:
320,192,28803,1,0,0:0:0:0:
192,192,28846,1,0,0:0:0:0:
64,192,28846,1,0,0:0:0:0:
64,192,28931,1,0,0:0:0:0:
192,192,28931,1,0,0:0:0:0:
192,192,29016,1,0,0:0:0:0:
64,192,29016,1,0,0:0:0:0:
320,192,29059,1,0,0:0:0:0:
448,192,29102,1,0,0:0:0:0:
320,192,29182,1,0,0:0:0:0:
192,192,29230,1,0,0:0:0:0:
64,192,29230,1,0,0:0:0:0:
448,192,29262,1,0,0:0:0:0:
320,192,29294,1,0,0:0:0:0:
64,192,29326,1,0,0:0:0:0:
448,192,29358,1,0,0:0:0:0:
192,192,29390,1,0,0:0:0:0:
64,192,29443,1,0,0:0:0:0:
192,192,29486,1,0,0:0:0:0:
320,192,29528,1,0,0:0:0:0:
448,192,29571,1,0,0:0:0:0:
64,192,29614,1,0,0:0:0:0:
320,192,29663,1,0,0:0:0:0:
192,192,29712,1,0,0:0:0:0:
64,192,29712,1,0,0:0:0:0:
448,192,29745,1,0,0:0:0:0:
320,192,29777,1,0,0:0:0:0:
192,192,29810,1,0,0:0:0:0:
448,192,29843,1,0,0:0:0:0:
64,192,29876,1,0,0:0:0:0:
192,192,29909,1,0,0:0:0:0:
448,192,29941,1,0,0:0:0:0:
320,192,29974,1,0,0:0:0:0:
64,192,30007,1,0,0:0:0:0:
192,192,30056,1,0,0:0:0:0:
320,192,30105,1,0,0:0:0:0:
448,192,30105,1,0,0:0:0:0:
64,192,30182,1,0,0:0:0:0:
320,192,30226,1,0,0:0:0:0:
448,192,30226,1,0,0:0:0:0:
192,192,30269,1,0,0:0:0:0:
64,192,30313,1,0,0:0:0:0:
192,192,30356,1,0,0:0:0:0:
320,192,30400,1,0,0:0:0:0:
448,192,30400,1,0,0:0:0:0:
320,192,30487,1,0,0:0:0:0:
448,192,30487,1,0,0:0:0:0:
320,192,30573,1,0,0:0:0:0:
448,192,30573,1,0,0:0:0:0:
192,192,30617,1,0,0:0:0:0:
64,192,30660,1,0,0:0:0:0:
192,192,30741,1,0,0:0:0:0:
320,192,30790,1,0,0:0:0:0:
448,192,30790,1,0,0:0:0:0:
64,192,30834,1,0,0:0:0:0:
192,192,30877,1,0,0:0:0:0:
320,192,30920,1,0,0:0:0:0:
64,192,30963,1,0,0:0:0:0:
448,192,30963,1,0,0:0:0:0:
320,192,31007,1,0,0:0:0:0:
192,192,31050,1,0,0:0:0:0:
64,192,31094,1,0,0:0:0:0:
448,192,31115,1,0,0:0:0:0:
320,192,31180,1,0,0:0:0:0:
192,192,31229,1,0,0:0:0:0:
320,192,31278,1,0,0:0:0:0:
448,192,31278,1,0,0:0:0:0:
64,192,31310,1,0,0:0:0:0:
192,192,31343,1,0,0:0:0:0:
320,192,31375,1,0,0:0:0:0:
448,192,31408,1,0,0:0:0:0:
64,192,31440,1,0,0:0:0:0:
320,192,31473,1,0,0:0:0:0:
192,192,31505,1,0,0:0:0:0:
64,192,31538,1,0,0:0:0:0:
192,192,31570,1,0,0:0:0:0:
320,192,31619,1,0,0:0:0:0:
448,192,31668,1,0,0:0:0:0:
64,192,31668,1,0,0:0:0:0:
192,192,31787,1,0,0:0:0:0:
320,192,31787,1,0,0:0:0:0:
448,192,31830,1,0,0:0:0:0:
320,192,31874,1,0,0:0:0:0:
192,192,31918,1,0,0:0:0:0:
64,192,31960,1,0,0:0:0:0:
448,192,31960,1,0,0:0:0:0:
64,192,32047,1,0,0:0:0:0:
448,192,32047,1,0,0:0:0:0:
448,192,32135,1,0,0:0:0:0:
64,192,32135,1,0,0:0:0:0:
192,192,32178,1,0,0:0:0:0:
320,192,32253,1,0,0:0:0:0:
448,192,32253,1,0,0:0:0:0:
192,192,32351,1,0,0:0:0:0:
64,192,32351,1,0,0:0:0:0:
448,192,32399,1,0,0:0:0:0:
192,192,32447,1,0,0:0:0:0:
64,192,32495,1,0,0:0:0:0:
320,192,32543,1,0,0:0:0:0:
448,192,32543,1,0,0:0:0:0:
192,192,32591,1,0,0:0:0:0:
448,192,32639,1,0,0:0:0:0:
320,192,32687,1,0,0:0:0:0:
192,192,32735,1,0,0:0:0:0:
64,192,32735,1,0,0:0:0:0:
448,192,32783,1,0,0:0:0:0:
64,192,32831,1,0,0:0:0:0:
192,192,32863,1,0,0:0:0:0:
320,192,32895,1,0,0:0:0:0:
448,192,32927,1,0,0:0:0:0:
64,192,32959,1,0,0:0:0:0:
320,192,32991,1,0,0:0:0:0:
192,192,33034,1,0,0:0:0:0:
448,192,33076,1,0,0:0:0:0:
64,192,33119,1,0,0:0:0:0:
192,192,33162,1,0,0:0:0:0:
320,192,33204,1,0,0:0:0:0:
448,192,33204,1,0,0:0:0:0:
64,192,33247,1,0,0:0:0:0:
320,192,33290,1,0,0:0:0:0:
192,192,33332,1,0,0:0:0:0:
448,192,33375,1,0,0:0:0:0:
192,192,33418,1,0,0:0:0:0:
320,192,33460,1,0,0:0:0:0:
64,192,33503,1,0,0:0:0:0:
448,192,33546,1,0,0:0:0:0:
64,192,33588,1,0,0:0:0:0:
192,192,33631,1,0,0:0:0:0:
320,192,33674,1,0,0:0:0:0:
448,192,33716,1,0,0:0:0:0:
192,192,33791,1,0,0:0:0:0:
64,192,33791,1,0,0:0:0:0:
320,192,33839,1,0,0:0:0:0:
192,192,33887,1,0,0:0:0:0:
320,192,33983,1,0,0:0:0:0:
448,192,33983,1,0,0:0:0:0:
64,192,33983,1,0,0:0:0:0:
192,192,34079,128,0,34175:0:0:0:0:
320,192,34079,128,0,34175:0:0:0:0:
448,192,34079,128,0,34175:0:0:0:0:
192,192,34271,128,0,34367:0:0:0:0:
64,192,34271,128,0,34367:0:0:0:0:
320,192,34271,128,0,34367:0:0:0:0:
192,192,34463,1,0,0:0:0:0:
192,192,34559,1,0,0:0:0:0:
320,192,34655,1,0,0:0:0:0:
448,192,34655,1,0,0:0:0:0:
64,192,34698,1,0,0:0:0:0:
320,192,34740,1,0,0:0:0:0:
192,192,34783,1,0,0:0:0:0:
448,192,34826,1,0,0:0:0:0:
64,192,34826,1,0,0:0:0:0:
320,192,34868,1,0,0:0:0:0:
64,192,34911,1,0,0:0:0:0:
192,192,34954,1,0,0:0:0:0:
448,192,34996,1,0,0:0:0:0:
320,192,35039,1,0,0:0:0:0:
192,192,35082,1,0,0:0:0:0:
64,192,35135,1,0,0:0:0:0:
448,192,35135,1,0,0:0:0:0:
448,192,35207,1,0,0:0:0:0:
64,192,35207,1,0,0:0:0:0:
448,192,35303,1,0,0:0:0:0:
192,192,35327,1,0,0:0:0:0:
192,192,35423,1,0,0:0:0:0:
320,192,35423,1,0,0:0:0:0:
448,192,35519,1,0,0:0:0:0:
64,192,35519,1,0,0:0:0:0:
320,192,35567,1,0,0:0:0:0:
64,192,35615,1,0,0:0:0:0:
192,192,35663,1,0,0:0:0:0:
448,192,35711,1,0,0:0:0:0:
320,192,35711,1,0,0:0:0:0:
192,192,35807,1,0,0:0:0:0:
64,192,35807,1,0,0:0:0:0:
320,192,35850,1,0,0:0:0:0:
448,192,35892,1,0,0:0:0:0:
320,192,35935,1,0,0:0:0:0:
64,192,35935,1,0,0:0:0:0:
192,192,35978,1,0,0:0:0:0:
64,192,36020,1,0,0:0:0:0:
448,192,36063,1,0,0:0:0:0:
192,192,36106,1,0,0:0:0:0:
320,192,36148,1,0,0:0:0:0:
448,192,36191,1,0,0:0:0:0:
64,192,36239,1,0,0:0:0:0:
192,192,36287,1,0,0:0:0:0:
320,192,36287,1,0,0:0:0:0:
64,192,36335,1,0,0:0:0:0:
448,192,36383,1,0,0:0:0:0:
320,192,36431,1,0,0:0:0:0:
192,192,36479,1,0,0:0:0:0:
64,192,36527,1,0,0:0:0:0:
448,192,36575,1,0,0:0:0:0:
320,192,36575,1,0,0:0:0:0:
448,192,36671,1,0,0:0:0:0:
320,192,36671,1,0,0:0:0:0:
192,192,36671,1,0,0:0:0:0:
320,192,36767,1,0,0:0:0:0:
448,192,36767,1,0,0:0:0:0:
192,192,36767,1,0,0:0:0:0:
192,192,36863,1,0,0:0:0:0:
64,192,36863,1,0,0:0:0:0:
192,192,36959,1,0,0:0:0:0:
320,192,37055,1,0,0:0:0:0:
448,192,37055,1,0,0:0:0:0:
64,192,37055,1,0,0:0:0:0:
320,192,37151,1,0,0:0:0:0:
192,192,37151,1,0,0:0:0:0:
192,192,37247,1,0,0:0:0:0:
320,192,37343,1,0,0:0:0:0:
448,192,37343,1,0,0:0:0:0:
320,192,37439,1,0,0:0:0:0:
64,192,37535,1,0,0:0:0:0:
448,192,37535,1,0,0:0:0:0:
192,192,37631,1,0,0:0:0:0:
64,192,37631,1,0,0:0:0:0:
320,192,37727,1,0,0:0:0:0:
448,192,37727,1,0,0:0:0:0:
64,192,37770,1,0,0:0:0:0:
448,192,37812,1,0,0:0:0:0:
320,192,37855,1,0,0:0:0:0:
64,192,37898,1,0,0:0:0:0:
192,192,37898,1,0,0:0:0:0:
448,192,37940,1,0,0:0:0:0:
192,192,37983,1,0,0:0:0:0:
320,192,38026,1,0,0:0:0:0:
64,192,38068,1,0,0:0:0:0:
192,192,38111,1,0,0:0:0:0:
320,192,38154,1,0,0:0:0:0:
448,192,38207,1,0,0:0:0:0:
64,192,38207,1,0,0:0:0:0:
448,192,38279,1,0,0:0:0:0:
64,192,38279,1,0,0:0:0:0:
64,192,38375,1,0,0:0:0:0:
192,192,38399,1,0,0:0:0:0:
320,192,38495,1,0,0:0:0:0:
448,192,38495,1,0,0:0:0:0:
320,192,38591,1,0,0:0:0:0:
192,192,38591,1,0,0:0:0:0:
64,192,38639,1,0,0:0:0:0:
192,192,38687,1,0,0:0:0:0:
320,192,38735,1,0,0:0:0:0:
64,192,38783,1,0,0:0:0:0:
448,192,38783,1,0,0:0:0:0:
320,192,38879,1,0,0:0:0:0:
448,192,38879,1,0,0:0:0:0:
64,192,38922,1,0,0:0:0:0:
192,192,38964,1,0,0:0:0:0:
448,192,38964,1,0,0:0:0:0:
320,192,39007,1,0,0:0:0:0:
64,192,39050,1,0,0:0:0:0:
448,192,39092,1,0,0:0:0:0:
320,192,39135,1,0,0:0:0:0:
192,192,39178,1,0,0:0:0:0:
320,192,39220,1,0,0:0:0:0:
192,192,39263,1,0,0:0:0:0:
64,192,39311,1,0,0:0:0:0:
320,192,39359,1,0,0:0:0:0:
448,192,39359,1,0,0:0:0:0:
192,192,39407,1,0,0:0:0:0:
448,192,39455,1,0,0:0:0:0:
64,192,39503,1,0,0:0:0:0:
320,192,39519,1,0,0:0:0:0:
192,192,39551,1,0,0:0:0:0:
448,192,39599,1,0,0:0:0:0:
320,192,39647,1,0,0:0:0:0:
192,192,39695,1,0,0:0:0:0:
448,192,39743,1,0,0:0:0:0:
64,192,39743,1,0,0:0:0:0:
64,192,39839,1,0,0:0:0:0:
448,192,39839,1,0,0:0:0:0:
320,192,39935,1,0,0:0:0:0:
192,192,39935,1,0,0:0:0:0:
192,192,40031,1,0,0:0:0:0:
320,192,40127,1,0,0:0:0:0:
448,192,40127,1,0,0:0:0:0:
64,192,40127,1,0,0:0:0:0:
320,192,40223,1,0,0:0:0:0:
448,192,40223,1,0,0:0:0:0:
192,192,40223,1,0,0:0:0:0:
320,192,40319,1,0,0:0:0:0:
448,192,40415,1,0,0:0:0:0:
64,192,40415,1,0,0:0:0:0:
192,192,40415,1,0,0:0:0:0:
192,192,40511,1,0,0:0:0:0:
320,192,40607,1,0,0:0:0:0:
64,192,40607,1,0,0:0:0:0:
320,192,40703,1,0,0:0:0:0:
448,192,40703,1,0,0:0:0:0:
192,192,40799,1,0,0:0:0:0:
64,192,40799,1,0,0:0:0:0:
448,192,40842,1,0,0:0:0:0:
64,192,40884,1,0,0:0:0:0:
320,192,40927,1,0,0:0:0:0:
192,192,40970,1,0,0:0:0:0:
448,192,41012,1,0,0:0:0:0:
320,192,41012,1,0,0:0:0:0:
64,192,41055,1,0,0:0:0:0:
192,192,41098,1,0,0:0:0:0:
320,192,41140,1,0,0:0:0:0:
448,192,41183,1,0,0:0:0:0:
64,192,41231,1,0,0:0:0:0:
192,192,41279,1,0,0:0:0:0:
320,192,41279,1,0,0:0:0:0:
192,192,41351,1,0,0:0:0:0:
320,192,41351,1,0,0:0:0:0:
192,192,41447,1,0,0:0:0:0:
64,192,41471,1,0,0:0:0:0:
320,192,41567,1,0,0:0:0:0:
448,192,41567,1,0,0:0:0:0:
448,192,41663,1,0,0:0:0:0:
64,192,41663,1,0,0:0:0:0:
320,192,41711,1,0,0:0:0:0:
64,192,41759,1,0,0:0:0:0:
192,192,41807,1,0,0:0:0:0:
448,192,41855,1,0,0:0:0:0:
320,192,41855,1,0,0:0:0:0:
192,192,41951,1,0,0:0:0:0:
64,192,41951,1,0,0:0:0:0:
448,192,41994,1,0,0:0:0:0:
320,192,42036,1,0,0:0:0:0:
192,192,42079,1,0,0:0:0:0:
64,192,42122,1,0,0:0:0:0:
448,192,42164,1,0,0:0:0:0:
320,192,42164,1,0,0:0:0:0:
192,192,42207,1,0,0:0:0:0:
448,192,42250,1,0,0:0:0:0:
64,192,42292,1,0,0:0:0:0:
192,192,42335,1,0,0:0:0:0:
448,192,42383,1,0,0:0:0:0:
64,192,42431,1,0,0:0:0:0:
320,192,42431,1,0,0:0:0:0:
192,192,42479,1,0,0:0:0:0:
448,192,42527,1,0,0:0:0:0:
320,192,42575,1,0,0:0:0:0:
192,192,42623,1,0,0:0:0:0:
64,192,42623,1,0,0:0:0:0:
448,192,42671,1,0,0:0:0:0:
192,192,42719,1,0,0:0:0:0:
64,192,42767,1,0,0:0:0:0:
448,192,42815,1,0,0:0:0:0:
320,192,42815,1,0,0:0:0:0:
320,192,42911,1,0,0:0:0:0:
448,192,42911,1,0,0:0:0:0:
320,192,43007,1,0,0:0:0:0:
192,192,43007,128,0,43152:0:0:0:0:
448,192,43103,1,0,0:0:0:0:
320,192,43201,1,0,0:0:0:0:
192,192,43201,1,0,0:0:0:0:
64,192,43201,1,0,0:0:0:0:
320,192,43299,1,0,0:0:0:0:
192,192,43299,1,0,0:0:0:0:
64,192,43299,1,0,0:0:0:0:
320,192,43398,1,0,0:0:0:0:
448,192,43398,1,0,0:0:0:0:
320,192,43497,1,0,0:0:0:0:
448,192,43497,1,0,0:0:0:0:
192,192,43590,1,0,0:0:0:0:
64,192,43590,1,0,0:0:0:0:
448,192,43621,1,0,0:0:0:0:
320,192,43652,1,0,0:0:0:0:
192,192,43683,1,0,0:0:0:0:
64,192,43714,1,0,0:0:0:0:
192,192,43745,1,0,0:0:0:0:
320,192,43776,1,0,0:0:0:0:
64,192,43807,1,0,0:0:0:0:
448,192,43838,1,0,0:0:0:0:
320,192,43869,1,0,0:0:0:0:
192,192,43915,1,0,0:0:0:0:
64,192,43962,1,0,0:0:0:0:
448,192,43962,1,0,0:0:0:0:
448,192,44055,1,0,0:0:0:0:
320,192,44075,1,0,0:0:0:0:
192,192,44117,1,0,0:0:0:0:
64,192,44158,1,0,0:0:0:0:
192,192,44199,1,0,0:0:0:0:
448,192,44241,1,0,0:0:0:0:
320,192,44241,1,0,0:0:0:0:
64,192,44287,1,0,0:0:0:0:
192,192,44310,1,0,0:0:0:0:
320,192,44323,1,0,0:0:0:0:
448,192,44323,1,0,0:0:0:0:
320,192,44406,1,0,0:0:0:0:
448,192,44406,1,0,0:0:0:0:
192,192,44447,1,0,0:0:0:0:
64,192,44489,1,0,0:0:0:0:
192,192,44566,1,0,0:0:0:0:
320,192,44613,1,0,0:0:0:0:
448,192,44613,1,0,0:0:0:0:
64,192,44644,1,0,0:0:0:0:
192,192,44675,1,0,0:0:0:0:
448,192,44706,1,0,0:0:0:0:
320,192,44737,1,0,0:0:0:0:
192,192,44768,1,0,0:0:0:0:
448,192,44819,1,0,0:0:0:0:
64,192,44861,1,0,0:0:0:0:
192,192,44892,1,0,0:0:0:0:
320,192,44938,1,0,0:0:0:0:
192,192,44985,1,0,0:0:0:0:
320,192,45027,1,0,0:0:0:0:
448,192,45067,1,0,0:0:0:0:
64,192,45109,1,0,0:0:0:0:
192,192,45171,1,0,0:0:0:0:
320,192,45171,1,0,0:0:0:0:
448,192,45202,1,0,0:0:0:0:
64,192,45233,1,0,0:0:0:0:
192,192,45264,1,0,0:0:0:0:
320,192,45295,1,0,0:0:0:0:
64,192,45326,1,0,0:0:0:0:
448,192,45357,1,0,0:0:0:0:
320,192,45388,1,0,0:0:0:0:
192,192,45419,1,0,0:0:0:0:
64,192,45450,1,0,0:0:0:0:
192,192,45496,1,0,0:0:0:0:
320,192,45543,1,0,0:0:0:0:
448,192,45543,1,0,0:0:0:0:
448,192,45647,1,0,0:0:0:0:
64,192,45647,1,0,0:0:0:0:
192,192,45688,1,0,0:0:0:0:
320,192,45729,1,0,0:0:0:0:
448,192,45771,1,0,0:0:0:0:
320,192,45812,1,0,0:0:0:0:
192,192,45853,1,0,0:0:0:0:
64,192,45853,1,0,0:0:0:0:
192,192,45936,1,0,0:0:0:0:
64,192,45936,1,0,0:0:0:0:
192,192,46019,1,0,0:0:0:0:
64,192,46019,1,0,0:0:0:0:
448,192,46070,1,0,0:0:0:0:
320,192,46101,1,0,0:0:0:0:
192,192,46148,1,0,0:0:0:0:
64,192,46194,1,0,0:0:0:0:
192,192,46256,1,0,0:0:0:0:
448,192,46287,1,0,0:0:0:0:
320,192,46287,1,0,0:0:0:0:
320,192,46380,1,0,0:0:0:0:
448,192,46427,1,0,0:0:0:0:
64,192,46473,1,0,0:0:0:0:
192,192,46473,1,0,0:0:0:0:
320,192,46520,1,0,0:0:0:0:
64,192,46566,1,0,0:0:0:0:
192,192,46613,1,0,0:0:0:0:
320,192,46659,1,0,0:0:0:0:
448,192,46659,1,0,0:0:0:0:
64,192,46690,1,0,0:0:0:0:
448,192,46721,1,0,0:0:0:0:
192,192,46752,1,0,0:0:0:0:
320,192,46783,1,0,0:0:0:0:
448,192,46845,1,0,0:0:0:0:
192,192,46892,1,0,0:0:0:0:
64,192,46892,1,0,0:0:0:0:
320,192,46907,1,0,0:0:0:0:
192,192,46962,1,0,0:0:0:0:
320,192,47078,1,0,0:0:0:0:
448,192,47078,1,0,0:0:0:0:
64,192,47078,1,0,0:0:0:0:
448,192,47155,1,0,0:0:0:0:
192,192,47217,1,0,0:0:0:0:
64,192,47217,1,0,0:0:0:0:
320,192,47264,1,0,0:0:0:0:
192,192,47310,1,0,0:0:0:0:
448,192,47403,1,0,0:0:0:0:
64,192,47403,1,0,0:0:0:0:
192,192,47434,1,0,0:0:0:0:
320,192,47465,1,0,0:0:0:0:
448,192,47496,1,0,0:0:0:0:
64,192,47528,1,0,0:0:0:0:
320,192,47559,1,0,0:0:0:0:
192,192,47590,1,0,0:0:0:0:
448,192,47639,1,0,0:0:0:0:
192,192,47688,1,0,0:0:0:0:
64,192,47721,1,0,0:0:0:0:
320,192,47786,1,0,0:0:0:0:
448,192,47786,1,0,0:0:0:0:
192,192,47786,1,0,0:0:0:0:
64,192,47883,1,0,0:0:0:0:
320,192,47883,1,0,0:0:0:0:
320,192,47980,1,0,0:0:0:0:
448,192,47980,1,0,0:0:0:0:
320,192,48076,1,0,0:0:0:0:
448,192,48076,1,0,0:0:0:0:
320,192,48172,1,0,0:0:0:0:
448,192,48172,1,0,0:0:0:0:
192,192,48268,1,0,0:0:0:0:
64,192,48268,1,0,0:0:0:0:
448,192,48321,1,0,0:0:0:0:
320,192,48364,1,0,0:0:0:0:
192,192,48407,1,0,0:0:0:0:
64,192,48407,1,0,0:0:0:0:
448,192,48449,1,0,0:0:0:0:
64,192,48492,1,0,0:0:0:0:
192,192,48535,1,0,0:0:0:0:
320,192,48577,1,0,0:0:0:0:
448,192,48620,1,0,0:0:0:0:
320,192,48663,1,0,0:0:0:0:
64,192,48663,1,0,0:0:0:0:
192,192,48705,1,0,0:0:0:0:
64,192,48748,1,0,0:0:0:0:
448,192,48791,1,0,0:0:0:0:
192,192,48833,1,0,0:0:0:0:
320,192,48876,1,0,0:0:0:0:
192,192,48940,1,0,0:0:0:0:
64,192,48940,1,0,0:0:0:0:
448,192,48988,1,0,0:0:0:0:
64,192,49047,1,0,0:0:0:0:
192,192,49089,1,0,0:0:0:0:
320,192,49132,1,0,0:0:0:0:
448,192,49175,1,0,0:0:0:0:
192,192,49228,1,0,0:0:0:0:
64,192,49228,1,0,0:0:0:0:
320,192,49276,1,0,0:0:0:0:
192,192,49324,1,0,0:0:0:0:
64,192,49420,1,0,0:0:0:0:
448,192,49420,1,0,0:0:0:0:
320,192,49420,1,0,0:0:0:0:
192,192,49516,128,0,49712:0:0:0:0:
320,192,49516,128,0,49712:0:0:0:0:
320,192,49751,1,0,0:0:0:0:
448,192,49751,1,0,0:0:0:0:
192,192,49831,1,0,0:0:0:0:
64,192,49831,1,0,0:0:0:0:
448,192,49864,1,0,0:0:0:0:
320,192,49898,1,0,0:0:0:0:
192,192,49932,1,0,0:0:0:0:
64,192,49966,1,0,0:0:0:0:
448,192,50000,1,0,0:0:0:0:
320,192,50034,1,0,0:0:0:0:
192,192,50068,1,0,0:0:0:0:
64,192,50102,1,0,0:0:0:0:
320,192,50136,1,0,0:0:0:0:
448,192,50169,1,0,0:0:0:0:
64,192,50203,1,0,0:0:0:0:
192,192,50237,1,0,0:0:0:0:
448,192,50279,1,0,0:0:0:0:
192,192,50321,1,0,0:0:0:0:
320,192,50363,1,0,0:0:0:0:
64,192,50406,1,0,0:0:0:0:
448,192,50448,1,0,0:0:0:0:
320,192,50490,1,0,0:0:0:0:
64,192,50522,1,0,0:0:0:0:
192,192,50522,1,0,0:0:0:0:
448,192,50617,1,0,0:0:0:0:
320,192,50617,1,0,0:0:0:0:
192,192,50713,1,0,0:0:0:0:
320,192,50713,1,0,0:0:0:0:
448,192,50713,1,0,0:0:0:0:
192,192,50808,1,0,0:0:0:0:
64,192,50808,1,0,0:0:0:0:
320,192,50808,1,0,0:0:0:0:
192,192,50903,1,0,0:0:0:0:
64,192,50903,1,0,0:0:0:0:
64,192,50999,1,0,0:0:0:0:
448,192,50999,1,0,0:0:0:0:
192,192,50999,1,0,0:0:0:0:
320,192,50999,1,0,0:0:0:0:
320,192,51097,1,0,0:0:0:0:
448,192,51097,1,0,0:0:0:0:
192,192,51097,1,0,0:0:0:0:
320,192,51195,1,0,0:0:0:0:
192,192,51294,1,0,0:0:0:0:
64,192,51294,1,0,0:0:0:0:
448,192,51304,1,0,0:0:0:0:
320,192,51348,1,0,0:0:0:0:
192,192,51392,1,0,0:0:0:0:
64,192,51435,1,0,0:0:0:0:
448,192,51435,1,0,0:0:0:0:
192,192,51479,1,0,0:0:0:0:
320,192,51515,1,0,0:0:0:0:
448,192,51567,1,0,0:0:0:0:
320,192,51611,1,0,0:0:0:0:
192,192,51654,1,0,0:0:0:0:
64,192,51654,1,0,0:0:0:0:
448,192,51698,1,0,0:0:0:0:
64,192,51741,1,0,0:0:0:0:
192,192,51785,1,0,0:0:0:0:
448,192,51829,1,0,0:0:0:0:
320,192,51872,1,0,0:0:0:0:
192,192,51917,1,0,0:0:0:0:
64,192,51917,1,0,0:0:0:0:
448,192,51960,1,0,0:0:0:0:
192,192,52003,1,0,0:0:0:0:
320,192,52031,1,0,0:0:0:0:
64,192,52091,1,0,0:0:0:0:
448,192,52105,1,0,0:0:0:0:
320,192,52135,1,0,0:0:0:0:
64,192,52179,1,0,0:0:0:0:
192,192,52179,1,0,0:0:0:0:
448,192,52223,1,0,0:0:0:0:
320,192,52266,1,0,0:0:0:0:
192,192,52310,1,0,0:0:0:0:
448,192,52353,1,0,0:0:0:0:
64,192,52397,1,0,0:0:0:0:
192,192,52441,1,0,0:0:0:0:
320,192,52484,1,0,0:0:0:0:
448,192,52484,1,0,0:0:0:0:
64,192,52528,1,0,0:0:0:0:
320,192,52572,1,0,0:0:0:0:
448,192,52572,1,0,0:0:0:0:
192,192,52619,1,0,0:0:0:0:
448,192,52678,1,0,0:0:0:0:
64,192,52696,1,0,0:0:0:0:
320,192,52757,1,0,0:0:0:0:
192,192,52849,1,0,0:0:0:0:
64,192,52849,1,0,0:0:0:0:
320,192,52942,1,0,0:0:0:0:
448,192,52942,1,0,0:0:0:0:
64,192,52975,1,0,0:0:0:0:
192,192,53009,1,0,0:0:0:0:
320,192,53042,1,0,0:0:0:0:
448,192,53076,1,0,0:0:0:0:
192,192,53110,1,0,0:0:0:0:
320,192,53143,1,0,0:0:0:0:
64,192,53177,1,0,0:0:0:0:
448,192,53210,1,0,0:0:0:0:
320,192,53244,1,0,0:0:0:0:
192,192,53278,1,0,0:0:0:0:
64,192,53311,1,0,0:0:0:0:
448,192,53345,1,0,0:0:0:0:
192,192,53388,1,0,0:0:0:0:
320,192,53431,1,0,0:0:0:0:
192,192,53475,1,0,0:0:0:0:
448,192,53518,1,0,0:0:0:0:
64,192,53562,1,0,0:0:0:0:
192,192,53605,1,0,0:0:0:0:
320,192,53637,1,0,0:0:0:0:
448,192,53637,1,0,0:0:0:0:
192,192,53735,1,0,0:0:0:0:
64,192,53735,1,0,0:0:0:0:
192,192,53832,1,0,0:0:0:0:
64,192,53832,1,0,0:0:0:0:
320,192,53832,1,0,0:0:0:0:
320,192,53930,1,0,0:0:0:0:
448,192,53930,1,0,0:0:0:0:
192,192,53930,1,0,0:0:0:0:
320,192,54027,1,0,0:0:0:0:
448,192,54027,1,0,0:0:0:0:
192,192,54125,1,0,0:0:0:0:
64,192,54125,1,0,0:0:0:0:
320,192,54125,1,0,0:0:0:0:
448,192,54125,1,0,0:0:0:0:
192,192,54223,1,0,0:0:0:0:
64,192,54223,1,0,0:0:0:0:
320,192,54223,1,0,0:0:0:0:
192,192,54320,1,0,0:0:0:0:
448,192,54418,1,0,0:0:0:0:
192,192,54466,1,0,0:0:0:0:
448,192,54515,1,0,0:0:0:0:
320,192,54515,1,0,0:0:0:0:
64,192,54564,1,0,0:0:0:0:
320,192,54612,1,0,0:0:0:0:
64,192,54660,1,0,0:0:0:0:
192,192,54708,1,0,0:0:0:0:
448,192,54708,1,0,0:0:0:0:
320,192,54756,1,0,0:0:0:0:
192,192,54804,1,0,0:0:0:0:
320,192,54852,1,0,0:0:0:0:
448,192,54900,1,0,0:0:0:0:
64,192,54900,1,0,0:0:0:0:
192,192,54948,1,0,0:0:0:0:
320,192,54996,1,0,0:0:0:0:
192,192,55044,1,0,0:0:0:0:
448,192,55092,1,0,0:0:0:0:
64,192,55092,1,0,0:0:0:0:
64,192,55188,1,0,0:0:0:0:
448,192,55188,1,0,0:0:0:0:
64,192,55284,1,0,0:0:0:0:
192,192,55284,1,0,0:0:0:0:
448,192,55284,1,0,0:0:0:0:
320,192,55284,1,0,0:0:0:0:
320,192,55380,1,0,0:0:0:0:
192,192,55380,1,0,0:0:0:0:
192,192,55476,1,0,0:0:0:0:
320,192,55476,1,0,0:0:0:0:
320,192,55572,1,0,0:0:0:0:
64,192,55572,1,0,0:0:0:0:
448,192,55668,1,0,0:0:0:0:
192,192,55668,1,0,0:0:0:0:
64,192,55668,1,0,0:0:0:0:
448,192,55765,128,0,55960:0:0:0:0:
320,192,55765,128,0,55960:0:0:0:0:
192,192,55863,1,0,0:0:0:0:
192,192,55960,1,0,0:0:0:0:
320,192,56059,1,0,0:0:0:0:
448,192,56059,1,0,0:0:0:0:
64,192,56091,1,0,0:0:0:0:
192,192,56123,1,0,0:0:0:0:
320,192,56155,1,0,0:0:0:0:
448,192,56188,1,0,0:0:0:0:
320,192,56220,1,0,0:0:0:0:
192,192,56252,1,0,0:0:0:0:
64,192,56284,1,0,0:0:0:0:
448,192,56317,1,0,0:0:0:0:
192,192,56349,1,0,0:0:0:0:
320,192,56381,1,0,0:0:0:0:
64,192,56413,1,0,0:0:0:0:
448,192,56446,1,0,0:0:0:0:
192,192,56488,1,0,0:0:0:0:
320,192,56531,1,0,0:0:0:0:
448,192,56575,1,0,0:0:0:0:
320,192,56617,1,0,0:0:0:0:
192,192,56660,1,0,0:0:0:0:
64,192,56704,1,0,0:0:0:0:
448,192,56736,1,0,0:0:0:0:
320,192,56736,1,0,0:0:0:0:
192,192,56833,1,0,0:0:0:0:
64,192,56833,1,0,0:0:0:0:
192,192,56929,1,0,0:0:0:0:
64,192,56929,1,0,0:0:0:0:
448,192,56929,1,0,0:0:0:0:
320,192,57026,1,0,0:0:0:0:
448,192,57026,1,0,0:0:0:0:
64,192,57026,1,0,0:0:0:0:
320,192,57123,1,0,0:0:0:0:
448,192,57123,1,0,0:0:0:0:
192,192,57220,1,0,0:0:0:0:
64,192,57220,1,0,0:0:0:0:
448,192,57220,1,0,0:0:0:0:
320,192,57220,1,0,0:0:0:0:
192,192,57317,1,0,0:0:0:0:
64,192,57317,1,0,0:0:0:0:
320,192,57317,1,0,0:0:0:0:
192,192,57413,1,0,0:0:0:0:
320,192,57510,1,0,0:0:0:0:
448,192,57607,1,0,0:0:0:0:
64,192,57607,1,0,0:0:0:0:
192,192,57650,1,0,0:0:0:0:
320,192,57693,1,0,0:0:0:0:
448,192,57736,1,0,0:0:0:0:
64,192,57736,1,0,0:0:0:0:
320,192,57779,1,0,0:0:0:0:
192,192,57822,1,0,0:0:0:0:
64,192,57865,1,0,0:0:0:0:
448,192,57907,1,0,0:0:0:0:
320,192,57951,1,0,0:0:0:0:
192,192,57994,1,0,0:0:0:0:
64,192,57994,1,0,0:0:0:0:
448,192,58037,1,0,0:0:0:0:
64,192,58079,1,0,0:0:0:0:
192,192,58123,1,0,0:0:0:0:
320,192,58166,1,0,0:0:0:0:
448,192,58209,1,0,0:0:0:0:
320,192,58252,1,0,0:0:0:0:
64,192,58252,1,0,0:0:0:0:
192,192,58295,1,0,0:0:0:0:
64,192,58338,1,0,0:0:0:0:
448,192,58381,1,0,0:0:0:0:
192,192,58423,1,0,0:0:0:0:
320,192,58467,1,0,0:0:0:0:
448,192,58467,1,0,0:0:0:0:
64,192,58510,1,0,0:0:0:0:
320,192,58553,1,0,0:0:0:0:
192,192,58596,1,0,0:0:0:0:
448,192,58639,1,0,0:0:0:0:
64,192,58682,1,0,0:0:0:0:
192,192,58725,1,0,0:0:0:0:
320,192,58768,1,0,0:0:0:0:
448,192,58768,1,0,0:0:0:0:
64,192,58811,1,0,0:0:0:0:
192,192,58854,1,0,0:0:0:0:
320,192,58897,1,0,0:0:0:0:
64,192,58897,1,0,0:0:0:0:
448,192,58940,1,0,0:0:0:0:
320,192,58983,1,0,0:0:0:0:
192,192,59026,1,0,0:0:0:0:
448,192,59069,1,0,0:0:0:0:
320,192,59112,1,0,0:0:0:0:
192,192,59155,1,0,0:0:0:0:
64,192,59155,1,0,0:0:0:0:
64,192,59220,1,0,0:0:0:0:
192,192,59220,1,0,0:0:0:0:
320,192,59284,1,0,0:0:0:0:
448,192,59284,1,0,0:0:0:0:
64,192,59349,1,0,0:0:0:0:
320,192,59370,1,0,0:0:0:0:
448,192,59370,1,0,0:0:0:0:
192,192,59413,1,0,0:0:0:0:
64,192,59542,1,0,0:0:0:0:
192,192,59542,1,0,0:0:0:0:
320,192,59542,1,0,0:0:0:0:
320,192,59639,1,0,0:0:0:0:
192,192,59671,1,0,0:0:0:0:
448,192,59736,1,0,0:0:0:0:
320,192,59736,1,0,0:0:0:0:
64,192,59768,1,0,0:0:0:0:
192,192,59800,1,0,0:0:0:0:
320,192,59833,1,0,0:0:0:0:
448,192,59833,1,0,0:0:0:0:
192,192,59929,1,0,0:0:0:0:
64,192,59929,1,0,0:0:0:0:
64,192,60025,1,0,0:0:0:0:
448,192,60025,1,0,0:0:0:0:
320,192,60057,1,0,0:0:0:0:
448,192,60121,1,0,0:0:0:0:
192,192,60217,1,0,0:0:0:0:
64,192,60217,1,0,0:0:0:0:
320,192,60313,1,0,0:0:0:0:
448,192,60313,1,0,0:0:0:0:
64,192,60313,1,0,0:0:0:0:
320,192,60409,1,0,0:0:0:0:
448,192,60409,1,0,0:0:0:0:
64,192,60409,1,0,0:0:0:0:
320,192,60505,1,0,0:0:0:0:
192,192,60601,1,0,0:0:0:0:
320,192,60697,128,0,60985:0:0:0:0:
448,192,60697,1,0,0:0:0:0:
448,192,60793,1,0,0:0:0:0:
64,192,60889,1,0,0:0:0:0:
192,192,60985,128,0,61273:0:0:0:0:
64,192,60985,1,0,0:0:0:0:
448,192,61081,1,0,0:0:0:0:
448,192,61177,1,0,0:0:0:0:
320,192,61273,128,0,61657:0:0:0:0:
64,192,61273,1,0,0:0:0:0:
64,192,61369,1,0,0:0:0:0:
448,192,61465,1,0,0:0:0:0:
448,192,61561,1,0,0:0:0:0:
64,192,61657,1,0,0:0:0:0:
192,192,61657,1,0,0:0:0:0:
192,192,61849,1,0,0:0:0:0:
320,192,61849,1,0,0:0:0:0:
448,192,61849,1,0,0:0:0:0:
192,192,61946,1,0,0:0:0:0:
320,192,61946,1,0,0:0:0:0:
448,192,61946,1,0,0:0:0:0:
192,192,62141,1,0,0:0:0:0:
64,192,62141,1,0,0:0:0:0:
192,192,62239,1,0,0:0:0:0:
320,192,62336,1,0,0:0:0:0:
64,192,62336,1,0,0:0:0:0:
320,192,62434,1,0,0:0:0:0:
448,192,62434,1,0,0:0:0:0:
192,192,62531,1,0,0:0:0:0:
64,192,62531,1,0,0:0:0:0:
448,192,62543,1,0,0:0:0:0:
320,192,62586,1,0,0:0:0:0:
64,192,62629,1,0,0:0:0:0:
448,192,62672,1,0,0:0:0:0:
320,192,62716,1,0,0:0:0:0:
192,192,62716,1,0,0:0:0:0:
64,192,62759,1,0,0:0:0:0:
192,192,62803,1,0,0:0:0:0:
320,192,62846,1,0,0:0:0:0:
448,192,62889,1,0,0:0:0:0:
64,192,62933,1,0,0:0:0:0:
192,192,62976,1,0,0:0:0:0:
320,192,63019,1,0,0:0:0:0:
448,192,63019,1,0,0:0:0:0:
320,192,63092,1,0,0:0:0:0:
448,192,63092,1,0,0:0:0:0:
64,192,63214,1,0,0:0:0:0:
320,192,63214,1,0,0:0:0:0:
192,192,63312,1,0,0:0:0:0:
64,192,63312,1,0,0:0:0:0:
448,192,63410,1,0,0:0:0:0:
320,192,63410,1,0,0:0:0:0:
64,192,63457,1,0,0:0:0:0:
192,192,63505,1,0,0:0:0:0:
320,192,63505,1,0,0:0:0:0:
448,192,63552,1,0,0:0:0:0:
192,192,63600,1,0,0:0:0:0:
64,192,63695,1,0,0:0:0:0:
448,192,63695,1,0,0:0:0:0:
192,192,63743,1,0,0:0:0:0:
320,192,63790,1,0,0:0:0:0:
448,192,63833,1,0,0:0:0:0:
192,192,63875,1,0,0:0:0:0:
64,192,63875,1,0,0:0:0:0:
320,192,63917,1,0,0:0:0:0:
192,192,63959,1,0,0:0:0:0:
64,192,64002,1,0,0:0:0:0:
448,192,64044,1,0,0:0:0:0:
320,192,64087,1,0,0:0:0:0:
64,192,64129,1,0,0:0:0:0:
192,192,64171,1,0,0:0:0:0:
448,192,64171,1,0,0:0:0:0:
320,192,64219,1,0,0:0:0:0:
192,192,64267,1,0,0:0:0:0:
320,192,64314,1,0,0:0:0:0:
64,192,64362,1,0,0:0:0:0:
448,192,64409,1,0,0:0:0:0:
64,192,64457,1,0,0:0:0:0:
192,192,64505,1,0,0:0:0:0:
448,192,64552,1,0,0:0:0:0:
320,192,64552,1,0,0:0:0:0:
64,192,64552,1,0,0:0:0:0:
320,192,64648,1,0,0:0:0:0:
448,192,64648,1,0,0:0:0:0:
192,192,64743,1,0,0:0:0:0:
320,192,64743,1,0,0:0:0:0:
192,192,64838,1,0,0:0:0:0:
448,192,64838,1,0,0:0:0:0:
320,192,64934,1,0,0:0:0:0:
64,192,64934,1,0,0:0:0:0:
448,192,64934,1,0,0:0:0:0:
192,192,65030,1,0,0:0:0:0:
64,192,65030,1,0,0:0:0:0:
320,192,65127,1,0,0:0:0:0:
320,192,65224,1,0,0:0:0:0:
448,192,65224,1,0,0:0:0:0:
64,192,65224,1,0,0:0:0:0:
64,192,65321,1,0,0:0:0:0:
192,192,65321,1,0,0:0:0:0:
448,192,65417,1,0,0:0:0:0:
320,192,65417,1,0,0:0:0:0:
320,192,65514,1,0,0:0:0:0:
64,192,65514,1,0,0:0:0:0:
192,192,65611,1,0,0:0:0:0:
64,192,65611,1,0,0:0:0:0:
448,192,65622,1,0,0:0:0:0:
320,192,65664,1,0,0:0:0:0:
192,192,65708,1,0,0:0:0:0:
448,192,65751,1,0,0:0:0:0:
64,192,65794,1,0,0:0:0:0:
192,192,65837,1,0,0:0:0:0:
320,192,65837,1,0,0:0:0:0:
448,192,65879,1,0,0:0:0:0:
64,192,65923,1,0,0:0:0:0:
192,192,65966,1,0,0:0:0:0:
448,192,66009,1,0,0:0:0:0:
320,192,66051,1,0,0:0:0:0:
192,192,66095,1,0,0:0:0:0:
64,192,66095,1,0,0:0:0:0:
64,192,66167,1,0,0:0:0:0:
192,192,66167,1,0,0:0:0:0:
64,192,66264,1,0,0:0:0:0:
448,192,66288,1,0,0:0:0:0:
448,192,66385,1,0,0:0:0:0:
192,192,66385,1,0,0:0:0:0:
192,192,66482,1,0,0:0:0:0:
64,192,66482,1,0,0:0:0:0:
448,192,66530,1,0,0:0:0:0:
320,192,66579,1,0,0:0:0:0:
64,192,66579,1,0,0:0:0:0:
192,192,66627,1,0,0:0:0:0:
320,192,66675,1,0,0:0:0:0:
192,192,66772,1,0,0:0:0:0:
64,192,66772,1,0,0:0:0:0:
320,192,66821,1,0,0:0:0:0:
448,192,66869,1,0,0:0:0:0:
64,192,66912,1,0,0:0:0:0:
320,192,66955,1,0,0:0:0:0:
192,192,66998,1,0,0:0:0:0:
448,192,66998,1,0,0:0:0:0:
64,192,67041,1,0,0:0:0:0:
192,192,67084,1,0,0:0:0:0:
320,192,67127,1,0,0:0:0:0:
64,192,67170,1,0,0:0:0:0:
448,192,67213,1,0,0:0:0:0:
320,192,67256,1,0,0:0:0:0:
192,192,67256,1,0,0:0:0:0:
64,192,67303,1,0,0:0:0:0:
320,192,67350,1,0,0:0:0:0:
448,192,67397,1,0,0:0:0:0:
64,192,67444,1,0,0:0:0:0:
320,192,67476,1,0,0:0:0:0:
64,192,67539,1,0,0:0:0:0:
448,192,67570,1,0,0:0:0:0:
320,192,67602,1,0,0:0:0:0:
192,192,67633,1,0,0:0:0:0:
64,192,67633,1,0,0:0:0:0:
192,192,67728,1,0,0:0:0:0:
448,192,67728,1,0,0:0:0:0:
320,192,67822,1,0,0:0:0:0:
64,192,67822,1,0,0:0:0:0:
320,192,67917,1,0,0:0:0:0:
192,192,68011,1,0,0:0:0:0:
64,192,68011,1,0,0:0:0:0:
448,192,68011,1,0,0:0:0:0:
192,192,68106,1,0,0:0:0:0:
448,192,68106,1,0,0:0:0:0:
320,192,68200,1,0,0:0:0:0:
192,192,68295,1,0,0:0:0:0:
64,192,68295,1,0,0:0:0:0:
448,192,68391,1,0,0:0:0:0:
192,192,68487,1,0,0:0:0:0:
320,192,68487,1,0,0:0:0:0:
192,192,68583,1,0,0:0:0:0:
64,192,68583,1,0,0:0:0:0:
320,192,68679,1,0,0:0:0:0:
448,192,68679,1,0,0:0:0:0:
64,192,68689,1,0,0:0:0:0:
192,192,68731,1,0,0:0:0:0:
448,192,68775,1,0,0:0:0:0:
64,192,68817,1,0,0:0:0:0:
320,192,68859,1,0,0:0:0:0:
192,192,68903,1,0,0:0:0:0:
64,192,68945,1,0,0:0:0:0:
448,192,68945,1,0,0:0:0:0:
192,192,68987,1,0,0:0:0:0:
320,192,69031,1,0,0:0:0:0:
448,192,69073,1,0,0:0:0:0:
64,192,69115,1,0,0:0:0:0:
192,192,69159,1,0,0:0:0:0:
320,192,69159,1,0,0:0:0:0:
320,192,69231,1,0,0:0:0:0:
192,192,69231,1,0,0:0:0:0:
192,192,69327,1,0,0:0:0:0:
448,192,69351,1,0,0:0:0:0:
448,192,69447,1,0,0:0:0:0:
320,192,69447,1,0,0:0:0:0:
192,192,69543,1,0,0:0:0:0:
64,192,69543,1,0,0:0:0:0:
320,192,69575,1,0,0:0:0:0:
64,192,69607,1,0,0:0:0:0:
192,192,69639,1,0,0:0:0:0:
448,192,69671,1,0,0:0:0:0:
320,192,69703,1,0,0:0:0:0:
64,192,69735,1,0,0:0:0:0:
320,192,69831,1,0,0:0:0:0:
448,192,69831,1,0,0:0:0:0:
192,192,69879,1,0,0:0:0:0:
448,192,69927,1,0,0:0:0:0:
64,192,69968,1,0,0:0:0:0:
192,192,70011,1,0,0:0:0:0:
320,192,70053,1,0,0:0:0:0:
448,192,70053,1,0,0:0:0:0:
64,192,70095,1,0,0:0:0:0:
320,192,70138,1,0,0:0:0:0:
192,192,70180,1,0,0:0:0:0:
64,192,70223,1,0,0:0:0:0:
448,192,70265,1,0,0:0:0:0:
192,192,70307,1,0,0:0:0:0:
320,192,70307,1,0,0:0:0:0:
64,192,70355,1,0,0:0:0:0:
448,192,70403,1,0,0:0:0:0:
192,192,70450,1,0,0:0:0:0:
448,192,70498,1,0,0:0:0:0:
320,192,70546,1,0,0:0:0:0:
64,192,70593,1,0,0:0:0:0:
192,192,70593,1,0,0:0:0:0:
64,192,70688,1,0,0:0:0:0:
192,192,70688,1,0,0:0:0:0:
448,192,70773,1,0,0:0:0:0:
64,192,70784,1,0,0:0:0:0:
192,192,70784,1,0,0:0:0:0:
320,192,70815,1,0,0:0:0:0:
320,192,70899,1,0,0:0:0:0:
192,192,70974,1,0,0:0:0:0:
448,192,70974,1,0,0:0:0:0:
192,192,71069,1,0,0:0:0:0:
320,192,71069,1,0,0:0:0:0:
64,192,71069,1,0,0:0:0:0:
320,192,71165,1,0,0:0:0:0:
448,192,71165,1,0,0:0:0:0:
64,192,71261,1,0,0:0:0:0:
448,192,71261,1,0,0:0:0:0:
192,192,71357,1,0,0:0:0:0:
64,192,71357,1,0,0:0:0:0:
448,192,71453,1,0,0:0:0:0:
320,192,71549,1,0,0:0:0:0:
64,192,71549,1,0,0:0:0:0:
192,192,71645,1,0,0:0:0:0:
320,192,71645,1,0,0:0:0:0:
448,192,71741,1,0,0:0:0:0:
64,192,71741,1,0,0:0:0:0:
192,192,71789,1,0,0:0:0:0:
320,192,71837,1,0,0:0:0:0:
64,192,71879,1,0,0:0:0:0:
448,192,71922,1,0,0:0:0:0:
320,192,71965,1,0,0:0:0:0:
192,192,71965,1,0,0:0:0:0:
448,192,72007,1,0,0:0:0:0:
64,192,72050,1,0,0:0:0:0:
192,192,72093,1,0,0:0:0:0:
448,192,72135,1,0,0:0:0:0:
320,192,72178,1,0,0:0:0:0:
192,192,72221,1,0,0:0:0:0:
64,192,72221,1,0,0:0:0:0:
64,192,72293,1,0,0:0:0:0:
448,192,72293,1,0,0:0:0:0:
64,192,72390,1,0,0:0:0:0:
448,192,72414,1,0,0:0:0:0:
320,192,72511,1,0,0:0:0:0:
192,192,72511,1,0,0:0:0:0:
320,192,72608,1,0,0:0:0:0:
448,192,72608,1,0,0:0:0:0:
64,192,72608,1,0,0:0:0:0:
192,192,72704,1,0,0:0:0:0:
64,192,72704,1,0,0:0:0:0:
192,192,72801,1,0,0:0:0:0:
320,192,72898,1,0,0:0:0:0:
448,192,72898,1,0,0:0:0:0:
192,192,72995,1,0,0:0:0:0:
64,192,72995,1,0,0:0:0:0:
320,192,72995,1,0,0:0:0:0:
64,192,73091,1,0,0:0:0:0:
192,192,73091,1,0,0:0:0:0:
320,192,73091,1,0,0:0:0:0:
192,192,73188,1,0,0:0:0:0:
320,192,73237,1,0,0:0:0:0:
320,192,73333,1,0,0:0:0:0:
448,192,73406,1,0,0:0:0:0:
320,192,73430,1,0,0:0:0:0:
192,192,73479,1,0,0:0:0:0:
192,192,73575,1,0,0:0:0:0:
64,192,73648,1,0,0:0:0:0:
192,192,73672,1,0,0:0:0:0:
320,192,73721,1,0,0:0:0:0:
64,192,73769,1,0,0:0:0:0:
448,192,73793,1,0,0:0:0:0:
320,192,73841,1,0,0:0:0:0:
192,192,73890,1,0,0:0:0:0:
64,192,73938,1,0,0:0:0:0:
320,192,73962,1,0,0:0:0:0:
448,192,73962,1,0,0:0:0:0:
192,192,74156,1,0,0:0:0:0:
64,192,74156,1,0,0:0:0:0:
448,192,74204,1,0,0:0:0:0:
192,192,74253,1,0,0:0:0:0:
64,192,74253,1,0,0:0:0:0:
448,192,74301,1,0,0:0:0:0:
320,192,74350,1,0,0:0:0:0:
192,192,74398,1,0,0:0:0:0:
64,192,74446,1,0,0:0:0:0:
448,192,74446,1,0,0:0:0:0:
320,192,74446,1,0,0:0:0:0:
192,192,74495,1,0,0:0:0:0:
64,192,74543,1,0,0:0:0:0:
448,192,74575,1,0,0:0:0:0:
320,192,74608,1,0,0:0:0:0:
192,192,74640,1,0,0:0:0:0:
64,192,74672,1,0,0:0:0:0:
448,192,74715,1,0,0:0:0:0:
192,192,74759,1,0,0:0:0:0:
320,192,74801,1,0,0:0:0:0:
448,192,74844,1,0,0:0:0:0:
64,192,74887,1,0,0:0:0:0:
192,192,74930,1,0,0:0:0:0:
320,192,74930,1,0,0:0:0:0:
448,192,74973,1,0,0:0:0:0:
64,192,75016,1,0,0:0:0:0:
192,192,75059,1,0,0:0:0:0:
320,192,75103,1,0,0:0:0:0:
64,192,75145,1,0,0:0:0:0:
192,192,75188,1,0,0:0:0:0:
448,192,75231,1,0,0:0:0:0:
320,192,75275,1,0,0:0:0:0:
64,192,75317,1,0,0:0:0:0:
448,192,75360,1,0,0:0:0:0:
320,192,75403,1,0,0:0:0:0:
192,192,75446,1,0,0:0:0:0:
64,192,75490,1,0,0:0:0:0:
448,192,75532,1,0,0:0:0:0:
192,192,75575,1,0,0:0:0:0:
320,192,75619,1,0,0:0:0:0:
64,192,75662,1,0,0:0:0:0:
192,192,75704,1,0,0:0:0:0:
320,192,75704,1,0,0:0:0:0:
448,192,75747,1,0,0:0:0:0:
64,192,75791,1,0,0:0:0:0:
192,192,75833,1,0,0:0:0:0:
448,192,75876,1,0,0:0:0:0:
320,192,75919,1,0,0:0:0:0:
192,192,75962,1,0,0:0:0:0:
64,192,76006,1,0,0:0:0:0:
448,192,76048,1,0,0:0:0:0:
320,192,76091,1,0,0:0:0:0:
64,192,76135,1,0,0:0:0:0:
320,192,76178,1,0,0:0:0:0:
192,192,76221,1,0,0:0:0:0:
448,192,76263,1,0,0:0:0:0:
64,192,76307,1,0,0:0:0:0:
192,192,76350,1,0,0:0:0:0:
320,192,76393,1,0,0:0:0:0:
448,192,76435,1,0,0:0:0:0:
64,192,76479,1,0,0:0:0:0:
192,192,76479,1,0,0:0:0:0:
320,192,76522,1,0,0:0:0:0:
64,192,76565,1,0,0:0:0:0:
448,192,76608,1,0,0:0:0:0:
320,192,76651,1,0,0:0:0:0:
192,192,76694,1,0,0:0:0:0:
448,192,76737,1,0,0:0:0:0:
64,192,76779,1,0,0:0:0:0:
192,192,76823,1,0,0:0:0:0:
320,192,76866,1,0,0:0:0:0:
64,192,76909,1,0,0:0:0:0:
192,192,76951,1,0,0:0:0:0:
448,192,76995,1,0,0:0:0:0:
320,192,77038,1,0,0:0:0:0:
64,192,77081,1,0,0:0:0:0:
448,192,77124,1,0,0:0:0:0:
192,192,77167,1,0,0:0:0:0:
320,192,77210,1,0,0:0:0:0:
448,192,77253,1,0,0:0:0:0:
64,192,77253,1,0,0:0:0:0:
192,192,77296,1,0,0:0:0:0:
320,192,77339,1,0,0:0:0:0:
64,192,77382,1,0,0:0:0:0:
448,192,77425,1,0,0:0:0:0:
320,192,77468,1,0,0:0:0:0:
448,192,77543,128,0,77737:0:0:0:0:
192,192,77543,1,0,0:0:0:0:
64,192,77543,1,0,0:0:0:0:
320,192,77640,1,0,0:0:0:0:
192,192,77640,1,0,0:0:0:0:
64,192,77737,1,0,0:0:0:0:
192,192,77785,1,0,0:0:0:0:
320,192,77785,1,0,0:0:0:0:
448,192,77833,1,0,0:0:0:0:
192,192,77882,1,0,0:0:0:0:
64,192,77930,1,0,0:0:0:0:
320,192,77930,1,0,0:0:0:0:
192,192,78027,1,0,0:0:0:0:
64,192,78027,1,0,0:0:0:0:
448,192,78027,1,0,0:0:0:0:
320,192,78027,1,0,0:0:0:0:
448,192,78124,1,0,0:0:0:0:
192,192,78124,1,0,0:0:0:0:
64,192,78221,1,0,0:0:0:0:
320,192,78221,1,0,0:0:0:0:
320,192,78317,1,0,0:0:0:0:
192,192,78415,1,0,0:0:0:0:
64,192,78415,1,0,0:0:0:0:
448,192,78462,1,0,0:0:0:0:
320,192,78509,1,0,0:0:0:0:
192,192,78509,1,0,0:0:0:0:
64,192,78556,1,0,0:0:0:0:
448,192,78603,1,0,0:0:0:0:
320,192,78603,1,0,0:0:0:0:
192,192,78698,1,0,0:0:0:0:
64,192,78698,1,0,0:0:0:0:
320,192,78792,1,0,0:0:0:0:
448,192,78792,1,0,0:0:0:0:
64,192,78792,1,0,0:0:0:0:
192,192,78792,1,0,0:0:0:0:
320,192,78887,1,0,0:0:0:0:
448,192,78887,1,0,0:0:0:0:
192,192,78887,1,0,0:0:0:0:
320,192,78981,1,0,0:0:0:0:
448,192,78981,1,0,0:0:0:0:
192,192,79076,1,0,0:0:0:0:
64,192,79076,1,0,0:0:0:0:
320,192,79123,1,0,0:0:0:0:
448,192,79170,1,0,0:0:0:0:
64,192,79170,1,0,0:0:0:0:
192,192,79218,1,0,0:0:0:0:
320,192,79265,1,0,0:0:0:0:
448,192,79265,1,0,0:0:0:0:
192,192,79312,1,0,0:0:0:0:
64,192,79359,1,0,0:0:0:0:
320,192,79454,1,0,0:0:0:0:
448,192,79454,1,0,0:0:0:0:
192,192,79485,1,0,0:0:0:0:
64,192,79517,1,0,0:0:0:0:
320,192,79548,1,0,0:0:0:0:
448,192,79548,1,0,0:0:0:0:
192,192,79581,1,0,0:0:0:0:
64,192,79613,1,0,0:0:0:0:
448,192,79645,1,0,0:0:0:0:
320,192,79677,1,0,0:0:0:0:
64,192,79719,1,0,0:0:0:0:
192,192,79762,1,0,0:0:0:0:
320,192,79805,1,0,0:0:0:0:
448,192,79847,1,0,0:0:0:0:
64,192,79890,1,0,0:0:0:0:
192,192,79933,1,0,0:0:0:0:
320,192,79933,1,0,0:0:0:0:
448,192,79981,1,0,0:0:0:0:
64,192,80029,1,0,0:0:0:0:
192,192,80029,1,0,0:0:0:0:
320,192,80125,1,0,0:0:0:0:
448,192,80125,1,0,0:0:0:0:
192,192,80221,1,0,0:0:0:0:
64,192,80221,1,0,0:0:0:0:
320,192,80317,1,0,0:0:0:0:
448,192,80317,1,0,0:0:0:0:
64,192,80317,1,0,0:0:0:0:
320,192,80413,1,0,0:0:0:0:
64,192,80509,1,0,0:0:0:0:
192,192,80541,1,0,0:0:0:0:
320,192,80573,1,0,0:0:0:0:
64,192,80605,1,0,0:0:0:0:
192,192,80637,1,0,0:0:0:0:
448,192,80669,1,0,0:0:0:0:
320,192,80701,1,0,0:0:0:0:
192,192,80743,1,0,0:0:0:0:
64,192,80787,1,0,0:0:0:0:
448,192,80830,1,0,0:0:0:0:
320,192,80873,1,0,0:0:0:0:
64,192,80915,1,0,0:0:0:0:
192,192,80959,1,0,0:0:0:0:
320,192,81002,1,0,0:0:0:0:
192,192,81045,1,0,0:0:0:0:
320,192,81088,1,0,0:0:0:0:
448,192,81088,1,0,0:0:0:0:
64,192,81131,1,0,0:0:0:0:
448,192,81174,1,0,0:0:0:0:
192,192,81217,1,0,0:0:0:0:
320,192,81259,1,0,0:0:0:0:
448,192,81303,1,0,0:0:0:0:
64,192,81346,1,0,0:0:0:0:
192,192,81389,1,0,0:0:0:0:
320,192,81389,1,0,0:0:0:0:
64,192,81475,128,0,81668:0:0:0:0:
192,192,81475,128,0,81668:0:0:0:0:
320,192,81523,1,0,0:0:0:0:
448,192,81523,1,0,0:0:0:0:
448,192,81620,1,0,0:0:0:0:
320,192,81620,1,0,0:0:0:0:
320,192,81717,1,0,0:0:0:0:
448,192,81717,1,0,0:0:0:0:
192,192,81765,1,0,0:0:0:0:
64,192,81765,1,0,0:0:0:0:
192,192,81862,1,0,0:0:0:0:
64,192,81862,1,0,0:0:0:0:
320,192,81862,1,0,0:0:0:0:
448,192,81862,1,0,0:0:0:0:
192,192,81958,1,0,0:0:0:0:
448,192,81958,1,0,0:0:0:0:
320,192,82054,1,0,0:0:0:0:
192,192,82150,1,0,0:0:0:0:
64,192,82150,1,0,0:0:0:0:
448,192,82150,1,0,0:0:0:0:
320,192,82246,1,0,0:0:0:0:
448,192,82246,1,0,0:0:0:0:
320,192,82342,1,0,0:0:0:0:
192,192,82438,1,0,0:0:0:0:
64,192,82438,1,0,0:0:0:0:
448,192,82534,1,0,0:0:0:0:
320,192,82534,1,0,0:0:0:0:
64,192,82587,1,0,0:0:0:0:
192,192,82630,1,0,0:0:0:0:
320,192,82630,1,0,0:0:0:0:
448,192,82672,1,0,0:0:0:0:
64,192,82715,1,0,0:0:0:0:
192,192,82758,1,0,0:0:0:0:
448,192,82800,1,0,0:0:0:0:
320,192,82843,1,0,0:0:0:0:
64,192,82886,1,0,0:0:0:0:
192,192,82928,1,0,0:0:0:0:
320,192,82971,1,0,0:0:0:0:
448,192,83014,1,0,0:0:0:0:
64,192,83014,1,0,0:0:0:0:
320,192,83056,1,0,0:0:0:0:
192,192,83099,1,0,0:0:0:0:
448,192,83142,1,0,0:0:0:0:
64,192,83184,1,0,0:0:0:0:
192,192,83227,1,0,0:0:0:0:
320,192,83270,1,0,0:0:0:0:
64,192,83312,1,0,0:0:0:0:
448,192,83355,1,0,0:0:0:0:
320,192,83398,1,0,0:0:0:0:
192,192,83398,1,0,0:0:0:0:
64,192,83440,1,0,0:0:0:0:
448,192,83483,1,0,0:0:0:0:
320,192,83526,1,0,0:0:0:0:
64,192,83568,1,0,0:0:0:0:
192,192,83611,1,0,0:0:0:0:
320,192,83654,1,0,0:0:0:0:
448,192,83696,1,0,0:0:0:0:
320,192,83739,1,0,0:0:0:0:
192,192,83782,1,0,0:0:0:0:
64,192,83782,1,0,0:0:0:0:
448,192,83824,1,0,0:0:0:0:
320,192,83867,1,0,0:0:0:0:
64,192,83891,1,0,0:0:0:0:
192,192,83946,1,0,0:0:0:0:
320,192,84001,1,0,0:0:0:0:
448,192,84001,1,0,0:0:0:0:
64,192,84055,1,0,0:0:0:0:
448,192,84070,1,0,0:0:0:0:
64,192,84166,1,0,0:0:0:0:
320,192,84166,1,0,0:0:0:0:
192,192,84166,1,0,0:0:0:0:
192,192,84262,1,0,0:0:0:0:
320,192,84262,1,0,0:0:0:0:
192,192,84358,1,0,0:0:0:0:
448,192,84358,1,0,0:0:0:0:
64,192,84358,1,0,0:0:0:0:
448,192,84454,1,0,0:0:0:0:
192,192,84550,1,0,0:0:0:0:
320,192,84550,1,0,0:0:0:0:
64,192,84550,1,0,0:0:0:0:
320,192,84646,1,0,0:0:0:0:
192,192,84646,1,0,0:0:0:0:
64,192,84646,1,0,0:0:0:0:
320,192,84742,1,0,0:0:0:0:
448,192,84742,1,0,0:0:0:0:
192,192,84838,1,0,0:0:0:0:
64,192,84838,1,0,0:0:0:0:
320,192,84934,1,0,0:0:0:0:
448,192,84934,1,0,0:0:0:0:
64,192,84934,1,0,0:0:0:0:
192,192,85030,1,0,0:0:0:0:
448,192,85030,1,0,0:0:0:0:
320,192,85030,1,0,0:0:0:0:
320,192,85126,1,0,0:0:0:0:
64,192,85126,1,0,0:0:0:0:
192,192,85174,1,0,0:0:0:0:
448,192,85222,1,0,0:0:0:0:
320,192,85270,1,0,0:0:0:0:
192,192,85318,1,0,0:0:0:0:
64,192,85318,1,0,0:0:0:0:
448,192,85360,1,0,0:0:0:0:
192,192,85414,1,0,0:0:0:0:
64,192,85446,1,0,0:0:0:0:
320,192,85510,1,0,0:0:0:0:
448,192,85510,1,0,0:0:0:0:
64,192,85574,1,0,0:0:0:0:
192,192,85606,1,0,0:0:0:0:
320,192,85638,1,0,0:0:0:0:
448,192,85670,1,0,0:0:0:0:
64,192,85702,1,0,0:0:0:0:
192,192,85734,1,0,0:0:0:0:
320,192,85766,1,0,0:0:0:0:
448,192,85798,1,0,0:0:0:0:
64,192,85830,1,0,0:0:0:0:
192,192,85862,1,0,0:0:0:0:
448,192,85894,1,0,0:0:0:0:
320,192,85894,1,0,0:0:0:0:
320,192,85990,1,0,0:0:0:0:
64,192,85990,1,0,0:0:0:0:
192,192,86086,1,0,0:0:0:0:
448,192,86086,1,0,0:0:0:0:
64,192,86086,1,0,0:0:0:0:
64,192,86182,1,0,0:0:0:0:
192,192,86182,1,0,0:0:0:0:
448,192,86182,1,0,0:0:0:0:
320,192,86278,1,0,0:0:0:0:
448,192,86278,1,0,0:0:0:0:
192,192,86374,1,0,0:0:0:0:
320,192,86470,1,0,0:0:0:0:
448,192,86470,1,0,0:0:0:0:
64,192,86470,1,0,0:0:0:0:
192,192,86566,128,0,86662:0:0:0:0:
448,192,86566,128,0,86662:0:0:0:0:
320,192,86566,128,0,86662:0:0:0:0:
64,192,86662,1,0,0:0:0:0:
320,192,86758,1,0,0:0:0:0:
64,192,86758,128,0,86854:0:0:0:0:
192,192,86758,128,0,86854:0:0:0:0:
320,192,86854,1,0,0:0:0:0:
448,192,86854,1,0,0:0:0:0:
64,192,86926,1,0,0:0:0:0:
192,192,86950,1,0,0:0:0:0:
320,192,86974,1,0,0:0:0:0:
448,192,86998,1,0,0:0:0:0:
64,192,87046,1,0,0:0:0:0:
64,192,87142,1,0,0:0:0:0:
320,192,87166,1,0,0:0:0:0:
192,192,87238,1,0,0:0:0:0:
320,192,87238,1,0,0:0:0:0:
448,192,87238,1,0,0:0:0:0:
64,192,87334,1,0,0:0:0:0:
64,192,87430,128,0,87526:0:0:0:0:
320,192,87430,128,0,87526:0:0:0:0:
192,192,87430,128,0,87526:0:0:0:0:
448,192,87526,1,0,0:0:0:0:
192,192,87622,1,0,0:0:0:0:
320,192,87622,128,0,87718:0:0:0:0:
448,192,87622,128,0,87718:0:0:0:0:
192,192,87718,1,0,0:0:0:0:
64,192,87718,1,0,0:0:0:0:
448,192,87790,1,0,0:0:0:0:
320,192,87814,1,0,0:0:0:0:
192,192,87838,1,0,0:0:0:0:
64,192,87862,1,0,0:0:0:0:
448,192,87910,1,0,0:0:0:0:
448,192,88006,1,0,0:0:0:0:
192,192,88006,1,0,0:0:0:0:
320,192,88006,1,0,0:0:0:0:
448,192,88102,1,0,0:0:0:0:
192,192,88102,1,0,0:0:0:0:
320,192,88102,1,0,0:0:0:0:
448,192,88198,1,0,0:0:0:0:
320,192,88198,1,0,0:0:0:0:
192,192,88198,1,0,0:0:0:0:
192,192,88294,1,0,0:0:0:0:
64,192,88294,1,0,0:0:0:0:
320,192,88390,1,0,0:0:0:0:
64,192,88486,1,0,0:0:0:0:
192,192,88486,1,0,0:0:0:0:
448,192,88486,1,0,0:0:0:0:
320,192,88582,1,0,0:0:0:0:
64,192,88678,1,0,0:0:0:0:
192,192,88678,1,0,0:0:0:0:
64,192,88774,1,0,0:0:0:0:
192,192,88774,1,0,0:0:0:0:
448,192,88774,1,0,0:0:0:0:
320,192,88774,1,0,0:0:0:0:
320,192,88870,1,0,0:0:0:0:
192,192,88870,1,0,0:0:0:0:
448,192,88870,1,0,0:0:0:0:
320,192,88966,1,0,0:0:0:0:
192,192,89062,1,0,0:0:0:0:
64,192,89062,1,0,0:0:0:0:
320,192,89158,1,0,0:0:0:0:
448,192,89158,1,0,0:0:0:0:
64,192,89158,1,0,0:0:0:0:
192,192,89158,1,0,0:0:0:0:
448,192,89254,1,0,0:0:0:0:
192,192,89350,1,0,0:0:0:0:
320,192,89350,1,0,0:0:0:0:
64,192,89350,1,0,0:0:0:0:
320,192,89446,1,0,0:0:0:0:
192,192,89446,1,0,0:0:0:0:
192,192,89542,1,0,0:0:0:0:
64,192,89542,1,0,0:0:0:0:
448,192,89542,1,0,0:0:0:0:
320,192,89542,1,0,0:0:0:0:
448,192,89638,1,0,0:0:0:0:
320,192,89638,1,0,0:0:0:0:
192,192,89670,1,0,0:0:0:0:
64,192,89702,1,0,0:0:0:0:
448,192,89734,1,0,0:0:0:0:
320,192,89766,1,0,0:0:0:0:
192,192,89830,1,0,0:0:0:0:
64,192,89830,1,0,0:0:0:0:
64,192,89926,1,0,0:0:0:0:
320,192,89926,1,0,0:0:0:0:
192,192,89974,1,0,0:0:0:0:
448,192,90022,1,0,0:0:0:0:
320,192,90070,1,0,0:0:0:0:
192,192,90118,1,0,0:0:0:0:
64,192,90118,1,0,0:0:0:0:
448,192,90166,1,0,0:0:0:0:
64,192,90214,1,0,0:0:0:0:
192,192,90262,1,0,0:0:0:0:
320,192,90310,1,0,0:0:0:0:
448,192,90310,1,0,0:0:0:0:
64,192,90310,1,0,0:0:0:0:
320,192,90406,1,0,0:0:0:0:
192,192,90502,1,0,0:0:0:0:
64,192,90502,1,0,0:0:0:0:
448,192,90502,1,0,0:0:0:0:
192,192,90598,1,0,0:0:0:0:
448,192,90694,1,0,0:0:0:0:
320,192,90694,1,0,0:0:0:0:
64,192,90726,1,0,0:0:0:0:
192,192,90758,1,0,0:0:0:0:
448,192,90790,1,0,0:0:0:0:
64,192,90822,1,0,0:0:0:0:
192,192,90854,1,0,0:0:0:0:
320,192,90886,1,0,0:0:0:0:
448,192,90886,1,0,0:0:0:0:
320,192,90982,1,0,0:0:0:0:
64,192,90982,1,0,0:0:0:0:
192,192,91078,1,0,0:0:0:0:
64,192,91078,1,0,0:0:0:0:
448,192,91126,1,0,0:0:0:0:
64,192,91174,1,0,0:0:0:0:
320,192,91174,1,0,0:0:0:0:
320,192,91270,1,0,0:0:0:0:
448,192,91270,1,0,0:0:0:0:
64,192,91318,1,0,0:0:0:0:
192,192,91366,1,0,0:0:0:0:
448,192,91366,128,0,91510:0:0:0:0:
320,192,91366,128,0,91510:0:0:0:0:
192,192,91462,1,0,0:0:0:0:
448,192,91558,1,0,0:0:0:0:
192,192,91558,128,0,91750:0:0:0:0:
64,192,91558,128,0,91750:0:0:0:0:
448,192,91654,1,0,0:0:0:0:
448,192,91750,1,0,0:0:0:0:
192,192,91846,1,0,0:0:0:0:
64,192,91846,1,0,0:0:0:0:
320,192,91846,1,0,0:0:0:0:
448,192,91942,1,0,0:0:0:0:
192,192,91942,1,0,0:0:0:0:
320,192,91974,1,0,0:0:0:0:
448,192,92038,1,0,0:0:0:0:
64,192,92038,1,0,0:0:0:0:
192,192,92070,1,0,0:0:0:0:
64,192,92134,1,0,0:0:0:0:
320,192,92134,1,0,0:0:0:0:
448,192,92166,1,0,0:0:0:0:
320,192,92230,1,0,0:0:0:0:
192,192,92230,1,0,0:0:0:0:
64,192,92262,1,0,0:0:0:0:
320,192,92326,1,0,0:0:0:0:
448,192,92326,1,0,0:0:0:0:
192,192,92358,1,0,0:0:0:0:
448,192,92422,1,0,0:0:0:0:
64,192,92422,1,0,0:0:0:0:
192,192,92518,1,0,0:0:0:0:
320,192,92518,1,0,0:0:0:0:
192,192,92614,1,0,0:0:0:0:
64,192,92614,1,0,0:0:0:0:
448,192,92614,1,0,0:0:0:0:
320,192,92710,1,0,0:0:0:0:
64,192,92710,1,0,0:0:0:0:
192,192,92778,1,0,0:0:0:0:
448,192,92778,1,0,0:0:0:0:
320,192,92833,1,0,0:0:0:0:
192,192,92902,1,0,0:0:0:0:
64,192,92902,1,0,0:0:0:0:
448,192,92950,1,0,0:0:0:0:
320,192,92974,1,0,0:0:0:0:
192,192,92998,1,0,0:0:0:0:
448,192,93052,1,0,0:0:0:0:
64,192,93083,1,0,0:0:0:0:
192,192,93126,1,0,0:0:0:0:
320,192,93190,1,0,0:0:0:0:
448,192,93190,1,0,0:0:0:0:
64,192,93254,1,0,0:0:0:0:
320,192,93254,1,0,0:0:0:0:
192,192,93382,1,0,0:0:0:0:
64,192,93382,1,0,0:0:0:0:
448,192,93414,1,0,0:0:0:0:
320,192,93446,1,0,0:0:0:0:
192,192,93478,1,0,0:0:0:0:
64,192,93542,1,0,0:0:0:0:
320,192,93574,1,0,0:0:0:0:
448,192,93606,1,0,0:0:0:0:
64,192,93638,1,0,0:0:0:0:
192,192,93670,1,0,0:0:0:0:
320,192,93702,1,0,0:0:0:0:
448,192,93734,1,0,0:0:0:0:
64,192,93766,1,0,0:0:0:0:
320,192,93798,1,0,0:0:0:0:
192,192,93830,1,0,0:0:0:0:
448,192,93862,1,0,0:0:0:0:
64,192,93910,1,0,0:0:0:0:
320,192,93958,1,0,0:0:0:0:
192,192,93958,1,0,0:0:0:0:
64,192,94022,1,0,0:0:0:0:
448,192,94054,1,0,0:0:0:0:
320,192,94086,1,0,0:0:0:0:
192,192,94150,1,0,0:0:0:0:
64,192,94150,1,0,0:0:0:0:
448,192,94150,1,0,0:0:0:0:
320,192,94246,1,0,0:0:0:0:
192,192,94246,1,0,0:0:0:0:
448,192,94342,1,0,0:0:0:0:
320,192,94342,1,0,0:0:0:0:
192,192,94342,1,0,0:0:0:0:
320,192,94438,1,0,0:0:0:0:
448,192,94438,1,0,0:0:0:0:
192,192,94438,1,0,0:0:0:0:
192,192,94534,1,0,0:0:0:0:
64,192,94534,1,0,0:0:0:0:
320,192,94630,1,0,0:0:0:0:
64,192,94662,1,0,0:0:0:0:
192,192,94694,1,0,0:0:0:0:
448,192,94726,1,0,0:0:0:0:
320,192,94726,1,0,0:0:0:0:
448,192,94822,1,0,0:0:0:0:
320,192,94870,1,0,0:0:0:0:
192,192,94918,1,0,0:0:0:0:
64,192,94918,1,0,0:0:0:0:
448,192,94950,1,0,0:0:0:0:
320,192,94982,1,0,0:0:0:0:
192,192,95014,1,0,0:0:0:0:
64,192,95046,1,0,0:0:0:0:
448,192,95078,1,0,0:0:0:0:
320,192,95110,1,0,0:0:0:0:
192,192,95142,1,0,0:0:0:0:
64,192,95174,1,0,0:0:0:0:
448,192,95206,1,0,0:0:0:0:
320,192,95206,1,0,0:0:0:0:
192,192,95302,1,0,0:0:0:0:
64,192,95302,1,0,0:0:0:0:
192,192,95398,1,0,0:0:0:0:
320,192,95398,1,0,0:0:0:0:
448,192,95398,1,0,0:0:0:0:
320,192,95494,1,0,0:0:0:0:
64,192,95494,1,0,0:0:0:0:
192,192,95590,1,0,0:0:0:0:
448,192,95590,1,0,0:0:0:0:
320,192,95686,1,0,0:0:0:0:
192,192,95686,1,0,0:0:0:0:
64,192,95686,128,0,95878:0:0:0:0:
320,192,95782,1,0,0:0:0:0:
320,192,95878,1,0,0:0:0:0:
192,192,95878,1,0,0:0:0:0:
448,192,95878,128,0,95974:0:0:0:0:
192,192,95974,1,0,0:0:0:0:
448,192,96070,1,0,0:0:0:0:
320,192,96070,1,0,0:0:0:0:
64,192,96102,1,0,0:0:0:0:
192,192,96134,1,0,0:0:0:0:
320,192,96166,1,0,0:0:0:0:
64,192,96198,1,0,0:0:0:0:
448,192,96230,1,0,0:0:0:0:
320,192,96262,1,0,0:0:0:0:
192,192,96294,1,0,0:0:0:0:
64,192,96326,1,0,0:0:0:0:
448,192,96358,1,0,0:0:0:0:
192,192,96411,1,0,0:0:0:0:
320,192,96454,1,0,0:0:0:0:
448,192,96454,1,0,0:0:0:0:
64,192,96550,1,0,0:0:0:0:
448,192,96582,1,0,0:0:0:0:
320,192,96614,1,0,0:0:0:0:
192,192,96646,1,0,0:0:0:0:
448,192,96678,1,0,0:0:0:0:
64,192,96710,1,0,0:0:0:0:
192,192,96742,1,0,0:0:0:0:
320,192,96774,1,0,0:0:0:0:
448,192,96806,1,0,0:0:0:0:
64,192,96838,1,0,0:0:0:0:
320,192,96880,1,0,0:0:0:0:
192,192,96934,1,0,0:0:0:0:
448,192,96966,1,0,0:0:0:0:
64,192,97008,1,0,0:0:0:0:
192,192,97030,1,0,0:0:0:0:
320,192,97030,1,0,0:0:0:0:
320,192,97126,1,0,0:0:0:0:
448,192,97126,1,0,0:0:0:0:
192,192,97222,1,0,0:0:0:0:
64,192,97222,1,0,0:0:0:0:
448,192,97267,1,0,0:0:0:0:
320,192,97313,1,0,0:0:0:0:
64,192,97359,1,0,0:0:0:0:
448,192,97405,1,0,0:0:0:0:
320,192,97428,1,0,0:0:0:0:
192,192,97428,1,0,0:0:0:0:
64,192,97497,1,0,0:0:0:0:
448,192,97532,1,0,0:0:0:0:
192,192,97532,1,0,0:0:0:0:
320,192,97601,1,0,0:0:0:0:
448,192,97635,1,0,0:0:0:0:
64,192,97635,1,0,0:0:0:0:
192,192,97684,1,0,0:0:0:0:
320,192,97733,1,0,0:0:0:0:
64,192,97766,1,0,0:0:0:0:
448,192,97810,1,0,0:0:0:0:
320,192,97854,1,0,0:0:0:0:
192,192,97897,1,0,0:0:0:0:
64,192,97941,1,0,0:0:0:0:
448,192,97985,1,0,0:0:0:0:
320,192,98029,1,0,0:0:0:0:
192,192,98029,1,0,0:0:0:0:
64,192,98029,1,0,0:0:0:0:
192,192,98125,1,0,0:0:0:0:
448,192,98125,1,0,0:0:0:0:
64,192,98221,1,0,0:0:0:0:
320,192,98221,1,0,0:0:0:0:
320,192,98317,1,0,0:0:0:0:
192,192,98317,1,0,0:0:0:0:
64,192,98317,1,0,0:0:0:0:
192,192,98413,1,0,0:0:0:0:
448,192,98413,1,0,0:0:0:0:
192,192,98509,1,0,0:0:0:0:
448,192,98509,1,0,0:0:0:0:
320,192,98605,1,0,0:0:0:0:
64,192,98605,1,0,0:0:0:0:
192,192,98701,1,0,0:0:0:0:
448,192,98701,1,0,0:0:0:0:
320,192,98797,1,0,0:0:0:0:
192,192,98797,1,0,0:0:0:0:
64,192,98797,1,0,0:0:0:0:
320,192,98893,1,0,0:0:0:0:
192,192,98893,1,0,0:0:0:0:
64,192,98893,1,0,0:0:0:0:
320,192,98989,1,0,0:0:0:0:
448,192,98989,1,0,0:0:0:0:
320,192,99085,1,0,0:0:0:0:
448,192,99085,1,0,0:0:0:0:
192,192,99181,1,0,0:0:0:0:
448,192,99181,1,0,0:0:0:0:
64,192,99181,128,0,99469:0:0:0:0:
320,192,99277,1,0,0:0:0:0:
448,192,99373,1,0,0:0:0:0:
192,192,99373,1,0,0:0:0:0:
192,192,99469,1,0,0:0:0:0:
320,192,99565,1,0,0:0:0:0:
448,192,99565,1,0,0:0:0:0:
64,192,99565,1,0,0:0:0:0:
192,192,99661,1,0,0:0:0:0:
320,192,99757,1,0,0:0:0:0:
448,192,99757,1,0,0:0:0:0:
64,192,99789,1,0,0:0:0:0:
320,192,99821,1,0,0:0:0:0:
64,192,99885,1,0,0:0:0:0:
192,192,99885,1,0,0:0:0:0:
192,192,99949,1,0,0:0:0:0:
448,192,99949,1,0,0:0:0:0:
448,192,100045,1,0,0:0:0:0:
320,192,100141,1,0,0:0:0:0:
192,192,100141,1,0,0:0:0:0:
64,192,100141,1,0,0:0:0:0:
192,192,100237,1,0,0:0:0:0:
448,192,100237,1,0,0:0:0:0:
320,192,100333,1,0,0:0:0:0:
448,192,100333,1,0,0:0:0:0:
192,192,100365,1,0,0:0:0:0:
64,192,100397,1,0,0:0:0:0:
448,192,100429,1,0,0:0:0:0:
320,192,100461,1,0,0:0:0:0:
192,192,100493,1,0,0:0:0:0:
64,192,100525,1,0,0:0:0:0:
448,192,100557,1,0,0:0:0:0:
192,192,100589,1,0,0:0:0:0:
320,192,100640,1,0,0:0:0:0:
448,192,100693,1,0,0:0:0:0:
64,192,100717,1,0,0:0:0:0:
192,192,100717,1,0,0:0:0:0:
320,192,100759,1,0,0:0:0:0:
448,192,100802,1,0,0:0:0:0:
320,192,100845,1,0,0:0:0:0:
192,192,100887,1,0,0:0:0:0:
64,192,100930,1,0,0:0:0:0:
448,192,100973,1,0,0:0:0:0:
192,192,101015,1,0,0:0:0:0:
320,192,101015,1,0,0:0:0:0:
64,192,101058,1,0,0:0:0:0:
320,192,101101,1,0,0:0:0:0:
448,192,101101,1,0,0:0:0:0:
192,192,101143,1,0,0:0:0:0:
448,192,101186,1,0,0:0:0:0:
64,192,101229,1,0,0:0:0:0:
192,192,101271,1,0,0:0:0:0:
320,192,101314,1,0,0:0:0:0:
448,192,101357,1,0,0:0:0:0:
320,192,101399,1,0,0:0:0:0:
192,192,101442,1,0,0:0:0:0:
64,192,101485,1,0,0:0:0:0:
448,192,101485,1,0,0:0:0:0:
192,192,101527,1,0,0:0:0:0:
320,192,101570,1,0,0:0:0:0:
64,192,101613,1,0,0:0:0:0:
192,192,101655,1,0,0:0:0:0:
320,192,101698,1,0,0:0:0:0:
448,192,101698,1,0,0:0:0:0:
64,192,101741,1,0,0:0:0:0:
448,192,101783,1,0,0:0:0:0:
320,192,101826,1,0,0:0:0:0:
192,192,101869,1,0,0:0:0:0:
64,192,101869,1,0,0:0:0:0:
192,192,101972,128,0,102179:0:0:0:0:
320,192,101972,128,0,102179:0:0:0:0:
448,192,101972,128,0,102179:0:0:0:0:
192,192,102283,1,0,0:0:0:0:
64,192,102283,1,0,0:0:0:0:
448,192,102315,1,0,0:0:0:0:
320,192,102347,1,0,0:0:0:0:
192,192,102379,1,0,0:0:0:0:
448,192,102412,1,0,0:0:0:0:
64,192,102444,1,0,0:0:0:0:
192,192,102476,1,0,0:0:0:0:
320,192,102508,1,0,0:0:0:0:
64,192,102541,1,0,0:0:0:0:
448,192,102573,1,0,0:0:0:0:
320,192,102605,1,0,0:0:0:0:
192,192,102637,1,0,0:0:0:0:
64,192,102670,1,0,0:0:0:0:
448,192,102713,1,0,0:0:0:0:
192,192,102756,1,0,0:0:0:0:
448,192,102799,1,0,0:0:0:0:
320,192,102842,1,0,0:0:0:0:
64,192,102885,1,0,0:0:0:0:
192,192,102928,1,0,0:0:0:0:
320,192,102960,1,0,0:0:0:0:
448,192,102960,1,0,0:0:0:0:
192,192,103057,1,0,0:0:0:0:
64,192,103057,1,0,0:0:0:0:
192,192,103153,1,0,0:0:0:0:
64,192,103153,1,0,0:0:0:0:
320,192,103153,1,0,0:0:0:0:
320,192,103250,1,0,0:0:0:0:
192,192,103250,1,0,0:0:0:0:
448,192,103250,1,0,0:0:0:0:
320,192,103347,1,0,0:0:0:0:
448,192,103347,1,0,0:0:0:0:
448,192,103444,1,0,0:0:0:0:
320,192,103444,1,0,0:0:0:0:
192,192,103444,1,0,0:0:0:0:
64,192,103444,1,0,0:0:0:0:
192,192,103541,1,0,0:0:0:0:
64,192,103541,1,0,0:0:0:0:
320,192,103541,1,0,0:0:0:0:
192,192,103637,1,0,0:0:0:0:
320,192,103734,1,0,0:0:0:0:
448,192,103734,1,0,0:0:0:0:
64,192,103745,1,0,0:0:0:0:
192,192,103788,1,0,0:0:0:0:
320,192,103831,1,0,0:0:0:0:
448,192,103831,1,0,0:0:0:0:
64,192,103875,1,0,0:0:0:0:
448,192,103918,1,0,0:0:0:0:
320,192,103960,1,0,0:0:0:0:
192,192,104003,1,0,0:0:0:0:
448,192,104047,1,0,0:0:0:0:
64,192,104047,1,0,0:0:0:0:
192,192,104089,1,0,0:0:0:0:
320,192,104132,1,0,0:0:0:0:
448,192,104175,1,0,0:0:0:0:
192,192,104218,1,0,0:0:0:0:
64,192,104218,1,0,0:0:0:0:
320,192,104262,1,0,0:0:0:0:
64,192,104304,1,0,0:0:0:0:
448,192,104347,1,0,0:0:0:0:
320,192,104391,1,0,0:0:0:0:
192,192,104434,1,0,0:0:0:0:
320,192,104476,1,0,0:0:0:0:
448,192,104476,1,0,0:0:0:0:
64,192,104519,1,0,0:0:0:0:
192,192,104563,1,0,0:0:0:0:
320,192,104605,1,0,0:0:0:0:
448,192,104605,1,0,0:0:0:0:
192,192,104648,1,0,0:0:0:0:
64,192,104691,1,0,0:0:0:0:
448,192,104734,1,0,0:0:0:0:
320,192,104778,1,0,0:0:0:0:
64,192,104821,1,0,0:0:0:0:
192,192,104863,1,0,0:0:0:0:
320,192,104907,1,0,0:0:0:0:
448,192,104950,1,0,0:0:0:0:
64,192,104950,1,0,0:0:0:0:
320,192,104992,1,0,0:0:0:0:
192,192,105035,1,0,0:0:0:0:
448,192,105079,1,0,0:0:0:0:
64,192,105121,1,0,0:0:0:0:
192,192,105165,1,0,0:0:0:0:
320,192,105207,1,0,0:0:0:0:
448,192,105250,1,0,0:0:0:0:
64,192,105250,1,0,0:0:0:0:
320,192,105379,1,0,0:0:0:0:
192,192,105379,1,0,0:0:0:0:
64,192,105412,1,0,0:0:0:0:
448,192,105444,1,0,0:0:0:0:
320,192,105476,1,0,0:0:0:0:
192,192,105508,1,0,0:0:0:0:
448,192,105541,1,0,0:0:0:0:
64,192,105573,1,0,0:0:0:0:
192,192,105605,1,0,0:0:0:0:
320,192,105637,1,0,0:0:0:0:
448,192,105670,1,0,0:0:0:0:
64,192,105702,1,0,0:0:0:0:
320,192,105734,1,0,0:0:0:0:
192,192,105766,1,0,0:0:0:0:
448,192,105810,1,0,0:0:0:0:
64,192,105853,1,0,0:0:0:0:
192,192,105895,1,0,0:0:0:0:
448,192,105939,1,0,0:0:0:0:
320,192,105982,1,0,0:0:0:0:
192,192,106024,1,0,0:0:0:0:
448,192,106057,1,0,0:0:0:0:
64,192,106057,1,0,0:0:0:0:
192,192,106154,1,0,0:0:0:0:
320,192,106154,1,0,0:0:0:0:
320,192,106250,1,0,0:0:0:0:
448,192,106250,1,0,0:0:0:0:
64,192,106250,1,0,0:0:0:0:
320,192,106346,1,0,0:0:0:0:
448,192,106346,1,0,0:0:0:0:
64,192,106346,1,0,0:0:0:0:
192,192,106442,1,0,0:0:0:0:
64,192,106442,1,0,0:0:0:0:
192,192,106538,1,0,0:0:0:0:
320,192,106538,1,0,0:0:0:0:
448,192,106538,1,0,0:0:0:0:
64,192,106538,1,0,0:0:0:0:
320,192,106634,1,0,0:0:0:0:
448,192,106634,1,0,0:0:0:0:
192,192,106634,1,0,0:0:0:0:
320,192,106730,1,0,0:0:0:0:
64,192,106826,1,0,0:0:0:0:
192,192,106858,1,0,0:0:0:0:
320,192,106890,1,0,0:0:0:0:
64,192,106922,1,0,0:0:0:0:
448,192,106954,1,0,0:0:0:0:
320,192,106986,1,0,0:0:0:0:
192,192,107018,1,0,0:0:0:0:
64,192,107050,1,0,0:0:0:0:
320,192,107092,1,0,0:0:0:0:
448,192,107135,1,0,0:0:0:0:
64,192,107178,1,0,0:0:0:0:
192,192,107220,1,0,0:0:0:0:
320,192,107263,1,0,0:0:0:0:
64,192,107306,1,0,0:0:0:0:
448,192,107306,1,0,0:0:0:0:
320,192,107348,1,0,0:0:0:0:
192,192,107391,1,0,0:0:0:0:
320,192,107434,1,0,0:0:0:0:
64,192,107476,1,0,0:0:0:0:
192,192,107519,1,0,0:0:0:0:
448,192,107562,1,0,0:0:0:0:
320,192,107604,1,0,0:0:0:0:
192,192,107647,1,0,0:0:0:0:
64,192,107690,1,0,0:0:0:0:
448,192,107690,1,0,0:0:0:0:
320,192,107738,1,0,0:0:0:0:
192,192,107786,1,0,0:0:0:0:
64,192,107834,1,0,0:0:0:0:
192,192,107882,1,0,0:0:0:0:
320,192,107930,1,0,0:0:0:0:
448,192,107978,1,0,0:0:0:0:
320,192,108026,1,0,0:0:0:0:
192,192,108074,1,0,0:0:0:0:
64,192,108074,1,0,0:0:0:0:
64,192,108170,1,0,0:0:0:0:
192,192,108170,1,0,0:0:0:0:
448,192,108170,1,0,0:0:0:0:
192,192,108266,1,0,0:0:0:0:
320,192,108266,1,0,0:0:0:0:
320,192,108362,1,0,0:0:0:0:
192,192,108362,1,0,0:0:0:0:
448,192,108458,128,0,108650:0:0:0:0:
320,192,108458,1,0,0:0:0:0:
64,192,108458,128,0,108650:0:0:0:0:
192,192,108554,1,0,0:0:0:0:
320,192,108650,1,0,0:0:0:0:
320,192,108746,1,0,0:0:0:0:
448,192,108746,1,0,0:0:0:0:
64,192,108778,1,0,0:0:0:0:
192,192,108810,1,0,0:0:0:0:
320,192,108842,1,0,0:0:0:0:
64,192,108874,1,0,0:0:0:0:
448,192,108907,1,0,0:0:0:0:
320,192,108940,1,0,0:0:0:0:
192,192,108973,1,0,0:0:0:0:
64,192,109016,1,0,0:0:0:0:
192,192,109060,1,0,0:0:0:0:
320,192,109104,1,0,0:0:0:0:
448,192,109137,1,0,0:0:0:0:
64,192,109137,1,0,0:0:0:0:
448,192,109235,1,0,0:0:0:0:
320,192,109235,1,0,0:0:0:0:
192,192,109331,1,0,0:0:0:0:
64,192,109331,1,0,0:0:0:0:
320,192,109331,1,0,0:0:0:0:
192,192,109427,1,0,0:0:0:0:
64,192,109427,1,0,0:0:0:0:
448,192,109427,1,0,0:0:0:0:
192,192,109523,1,0,0:0:0:0:
64,192,109523,1,0,0:0:0:0:
320,192,109619,1,0,0:0:0:0:
192,192,109619,1,0,0:0:0:0:
64,192,109619,1,0,0:0:0:0:
448,192,109619,1,0,0:0:0:0:
192,192,109715,1,0,0:0:0:0:
320,192,109715,1,0,0:0:0:0:
448,192,109715,1,0,0:0:0:0:
320,192,109811,1,0,0:0:0:0:
448,192,109907,1,0,0:0:0:0:
64,192,109907,1,0,0:0:0:0:
192,192,110003,1,0,0:0:0:0:
64,192,110003,1,0,0:0:0:0:
320,192,110046,1,0,0:0:0:0:
448,192,110088,1,0,0:0:0:0:
320,192,110131,1,0,0:0:0:0:
64,192,110131,1,0,0:0:0:0:
192,192,110174,1,0,0:0:0:0:
64,192,110216,1,0,0:0:0:0:
448,192,110259,1,0,0:0:0:0:
320,192,110302,1,0,0:0:0:0:
192,192,110344,1,0,0:0:0:0:
64,192,110387,1,0,0:0:0:0:
448,192,110387,1,0,0:0:0:0:
320,192,110430,1,0,0:0:0:0:
192,192,110472,1,0,0:0:0:0:
320,192,110515,1,0,0:0:0:0:
448,192,110558,1,0,0:0:0:0:
64,192,110600,1,0,0:0:0:0:
192,192,110643,1,0,0:0:0:0:
320,192,110643,1,0,0:0:0:0:
448,192,110686,1,0,0:0:0:0:
64,192,110728,1,0,0:0:0:0:
192,192,110771,1,0,0:0:0:0:
320,192,110771,1,0,0:0:0:0:
448,192,110814,1,0,0:0:0:0:
64,192,110856,1,0,0:0:0:0:
192,192,110899,1,0,0:0:0:0:
320,192,110942,1,0,0:0:0:0:
192,192,110984,1,0,0:0:0:0:
64,192,111027,1,0,0:0:0:0:
448,192,111070,1,0,0:0:0:0:
320,192,111070,1,0,0:0:0:0:
192,192,111112,1,0,0:0:0:0:
64,192,111155,1,0,0:0:0:0:
448,192,111155,1,0,0:0:0:0:
320,192,111198,1,0,0:0:0:0:
192,192,111240,1,0,0:0:0:0:
448,192,111283,1,0,0:0:0:0:
320,192,111326,1,0,0:0:0:0:
64,192,111368,1,0,0:0:0:0:
192,192,111443,1,0,0:0:0:0:
448,192,111454,1,0,0:0:0:0:
320,192,111539,1,0,0:0:0:0:
192,192,111539,1,0,0:0:0:0:
64,192,111539,1,0,0:0:0:0:
320,192,111635,1,0,0:0:0:0:
64,192,111635,1,0,0:0:0:0:
448,192,111635,1,0,0:0:0:0:
192,192,111731,1,0,0:0:0:0:
448,192,111731,1,0,0:0:0:0:
192,192,111827,1,0,0:0:0:0:
448,192,111827,1,0,0:0:0:0:
192,192,111923,1,0,0:0:0:0:
320,192,111923,1,0,0:0:0:0:
448,192,111923,1,0,0:0:0:0:
64,192,112008,1,0,0:0:0:0:
192,192,112051,1,0,0:0:0:0:
320,192,112094,1,0,0:0:0:0:
64,192,112136,1,0,0:0:0:0:
192,192,112179,1,0,0:0:0:0:
320,192,112222,1,0,0:0:0:0:
448,192,112264,1,0,0:0:0:0:
192,192,112307,1,0,0:0:0:0:
64,192,112307,1,0,0:0:0:0:
320,192,112355,1,0,0:0:0:0:
320,192,112451,1,0,0:0:0:0:
320,192,112547,1,0,0:0:0:0:
192,192,112595,1,0,0:0:0:0:
64,192,112595,1,0,0:0:0:0:
192,192,112691,1,0,0:0:0:0:
320,192,112691,1,0,0:0:0:0:
448,192,112691,1,0,0:0:0:0:
320,192,112787,1,0,0:0:0:0:
448,192,112787,1,0,0:0:0:0:
192,192,112787,1,0,0:0:0:0:
320,192,112883,1,0,0:0:0:0:
192,192,112979,1,0,0:0:0:0:
448,192,112979,1,0,0:0:0:0:
64,192,113075,128,0,113363:0:0:0:0:
320,192,113075,1,0,0:0:0:0:
320,192,113171,1,0,0:0:0:0:
192,192,113267,1,0,0:0:0:0:
448,192,113363,128,0,113651:0:0:0:0:
192,192,113363,1,0,0:0:0:0:
320,192,113459,1,0,0:0:0:0:
320,192,113555,1,0,0:0:0:0:
64,192,113651,128,0,114035:0:0:0:0:
192,192,113651,1,0,0:0:0:0:
192,192,113747,1,0,0:0:0:0:
320,192,113843,1,0,0:0:0:0:
320,192,113939,1,0,0:0:0:0:
192,192,114035,1,0,0:0:0:0:
448,192,114035,1,0,0:0:0:0:
320,192,114227,1,0,0:0:0:0:
448,192,114227,1,0,0:0:0:0:
192,192,114227,1,0,0:0:0:0:
320,192,114323,1,0,0:0:0:0:
448,192,114323,1,0,0:0:0:0:
192,192,114323,1,0,0:0:0:0:
448,192,114515,1,0,0:0:0:0:
192,192,114515,1,0,0:0:0:0:
320,192,114611,128,0,114899:0:0:0:0:
64,192,114611,1,0,0:0:0:0:
64,192,114707,1,0,0:0:0:0:
448,192,114803,1,0,0:0:0:0:
192,192,114899,128,0,115187:0:0:0:0:
448,192,114899,1,0,0:0:0:0:
64,192,114995,1,0,0:0:0:0:
64,192,115091,1,0,0:0:0:0:
320,192,115187,128,0,115571:0:0:0:0:
448,192,115187,1,0,0:0:0:0:
448,192,115283,1,0,0:0:0:0:
64,192,115379,1,0,0:0:0:0:
64,192,115475,1,0,0:0:0:0:
192,192,115571,1,0,0:0:0:0:
448,192,115571,1,0,0:0:0:0:
320,192,115763,1,0,0:0:0:0:
192,192,115763,1,0,0:0:0:0:
64,192,115763,1,0,0:0:0:0:
64,192,115859,1,0,0:0:0:0:
192,192,115859,1,0,0:0:0:0:
320,192,115859,1,0,0:0:0:0:
192,192,116051,1,0,0:0:0:0:
320,192,116051,1,0,0:0:0:0:
448,192,116051,1,0,0:0:0:0:
64,192,116147,1,0,0:0:0:0:
192,192,116243,1,0,0:0:0:0:
320,192,116339,1,0,0:0:0:0:
448,192,116339,1,0,0:0:0:0:
192,192,116435,1,0,0:0:0:0:
64,192,116435,1,0,0:0:0:0:
448,192,116446,1,0,0:0:0:0:
320,192,116488,1,0,0:0:0:0:
192,192,116531,1,0,0:0:0:0:
448,192,116574,1,0,0:0:0:0:
64,192,116616,1,0,0:0:0:0:
192,192,116659,1,0,0:0:0:0:
320,192,116659,1,0,0:0:0:0:
448,192,116702,1,0,0:0:0:0:
64,192,116744,1,0,0:0:0:0:
320,192,116787,1,0,0:0:0:0:
192,192,116830,1,0,0:0:0:0:
64,192,116872,1,0,0:0:0:0:
448,192,116915,1,0,0:0:0:0:
320,192,116915,1,0,0:0:0:0:
320,192,116992,1,0,0:0:0:0:
448,192,116992,1,0,0:0:0:0:
448,192,117083,1,0,0:0:0:0:
64,192,117107,1,0,0:0:0:0:
64,192,117203,1,0,0:0:0:0:
192,192,117203,1,0,0:0:0:0:
448,192,117299,1,0,0:0:0:0:
320,192,117299,1,0,0:0:0:0:
64,192,117347,1,0,0:0:0:0:
192,192,117395,1,0,0:0:0:0:
320,192,117395,1,0,0:0:0:0:
448,192,117443,1,0,0:0:0:0:
192,192,117491,1,0,0:0:0:0:
448,192,117587,1,0,0:0:0:0:
64,192,117587,1,0,0:0:0:0:
192,192,117628,1,0,0:0:0:0:
320,192,117683,1,0,0:0:0:0:
64,192,117726,1,0,0:0:0:0:
448,192,117768,1,0,0:0:0:0:
320,192,117811,1,0,0:0:0:0:
192,192,117811,1,0,0:0:0:0:
64,192,117854,1,0,0:0:0:0:
448,192,117896,1,0,0:0:0:0:
320,192,117939,1,0,0:0:0:0:
64,192,117982,1,0,0:0:0:0:
192,192,118024,1,0,0:0:0:0:
448,192,118067,1,0,0:0:0:0:
320,192,118067,1,0,0:0:0:0:
64,192,118115,1,0,0:0:0:0:
448,192,118163,1,0,0:0:0:0:
320,192,118211,1,0,0:0:0:0:
192,192,118259,1,0,0:0:0:0:
64,192,118259,1,0,0:0:0:0:
448,192,118307,1,0,0:0:0:0:
192,192,118355,1,0,0:0:0:0:
64,192,118451,1,0,0:0:0:0:
320,192,118451,1,0,0:0:0:0:
448,192,118451,1,0,0:0:0:0:
320,192,118547,1,0,0:0:0:0:
448,192,118547,1,0,0:0:0:0:
320,192,118643,1,0,0:0:0:0:
64,192,118643,1,0,0:0:0:0:
192,192,118739,1,0,0:0:0:0:
448,192,118739,1,0,0:0:0:0:
192,192,118835,1,0,0:0:0:0:
320,192,118835,1,0,0:0:0:0:
64,192,118835,1,0,0:0:0:0:
64,192,118931,1,0,0:0:0:0:
192,192,118931,1,0,0:0:0:0:
320,192,119027,1,0,0:0:0:0:
320,192,119123,1,0,0:0:0:0:
448,192,119123,1,0,0:0:0:0:
64,192,119123,1,0,0:0:0:0:
192,192,119219,1,0,0:0:0:0:
64,192,119219,1,0,0:0:0:0:
448,192,119315,1,0,0:0:0:0:
320,192,119315,1,0,0:0:0:0:
448,192,119411,1,0,0:0:0:0:
192,192,119411,1,0,0:0:0:0:
64,192,119507,1,0,0:0:0:0:
320,192,119507,1,0,0:0:0:0:
192,192,119560,1,0,0:0:0:0:
448,192,119603,1,0,0:0:0:0:
320,192,119646,1,0,0:0:0:0:
64,192,119688,1,0,0:0:0:0:
192,192,119731,1,0,0:0:0:0:
320,192,119731,1,0,0:0:0:0:
448,192,119774,1,0,0:0:0:0:
64,192,119816,1,0,0:0:0:0:
192,192,119859,1,0,0:0:0:0:
448,192,119902,1,0,0:0:0:0:
320,192,119944,1,0,0:0:0:0:
192,192,119987,1,0,0:0:0:0:
64,192,119987,1,0,0:0:0:0:
192,192,120064,1,0,0:0:0:0:
64,192,120064,1,0,0:0:0:0:
64,192,120155,1,0,0:0:0:0:
448,192,120179,1,0,0:0:0:0:
320,192,120179,1,0,0:0:0:0:
448,192,120275,1,0,0:0:0:0:
320,192,120275,1,0,0:0:0:0:
192,192,120371,1,0,0:0:0:0:
64,192,120371,1,0,0:0:0:0:
320,192,120419,1,0,0:0:0:0:
448,192,120467,1,0,0:0:0:0:
64,192,120467,1,0,0:0:0:0:
192,192,120515,1,0,0:0:0:0:
320,192,120563,1,0,0:0:0:0:
64,192,120659,1,0,0:0:0:0:
192,192,120659,1,0,0:0:0:0:
448,192,120712,1,0,0:0:0:0:
320,192,120755,1,0,0:0:0:0:
192,192,120798,1,0,0:0:0:0:
64,192,120840,1,0,0:0:0:0:
320,192,120883,1,0,0:0:0:0:
448,192,120883,1,0,0:0:0:0:
192,192,120926,1,0,0:0:0:0:
320,192,120968,1,0,0:0:0:0:
64,192,121011,1,0,0:0:0:0:
448,192,121054,1,0,0:0:0:0:
320,192,121096,1,0,0:0:0:0:
192,192,121139,1,0,0:0:0:0:
64,192,121139,1,0,0:0:0:0:
192,192,121235,1,0,0:0:0:0:
448,192,121249,1,0,0:0:0:0:
320,192,121331,1,0,0:0:0:0:
64,192,121331,1,0,0:0:0:0:
64,192,121427,1,0,0:0:0:0:
192,192,121427,1,0,0:0:0:0:
64,192,121523,1,0,0:0:0:0:
320,192,121523,1,0,0:0:0:0:
448,192,121523,1,0,0:0:0:0:
192,192,121619,1,0,0:0:0:0:
448,192,121619,1,0,0:0:0:0:
320,192,121715,1,0,0:0:0:0:
64,192,121715,1,0,0:0:0:0:
320,192,121811,1,0,0:0:0:0:
192,192,121907,1,0,0:0:0:0:
64,192,121907,1,0,0:0:0:0:
448,192,121907,1,0,0:0:0:0:
192,192,122003,1,0,0:0:0:0:
448,192,122003,1,0,0:0:0:0:
320,192,122099,1,0,0:0:0:0:
192,192,122195,1,0,0:0:0:0:
64,192,122195,1,0,0:0:0:0:
448,192,122291,1,0,0:0:0:0:
320,192,122387,1,0,0:0:0:0:
192,192,122387,1,0,0:0:0:0:
192,192,122483,1,0,0:0:0:0:
64,192,122483,1,0,0:0:0:0:
320,192,122579,1,0,0:0:0:0:
448,192,122579,1,0,0:0:0:0:
64,192,122590,1,0,0:0:0:0:
192,192,122632,1,0,0:0:0:0:
448,192,122675,1,0,0:0:0:0:
64,192,122718,1,0,0:0:0:0:
320,192,122760,1,0,0:0:0:0:
192,192,122803,1,0,0:0:0:0:
448,192,122846,1,0,0:0:0:0:
64,192,122846,1,0,0:0:0:0:
192,192,122888,1,0,0:0:0:0:
320,192,122931,1,0,0:0:0:0:
448,192,122974,1,0,0:0:0:0:
64,192,123016,1,0,0:0:0:0:
192,192,123059,1,0,0:0:0:0:
320,192,123059,1,0,0:0:0:0:
320,192,123136,1,0,0:0:0:0:
192,192,123136,1,0,0:0:0:0:
192,192,123227,1,0,0:0:0:0:
448,192,123251,1,0,0:0:0:0:
320,192,123347,1,0,0:0:0:0:
448,192,123347,1,0,0:0:0:0:
192,192,123443,1,0,0:0:0:0:
64,192,123443,1,0,0:0:0:0:
448,192,123491,1,0,0:0:0:0:
64,192,123539,1,0,0:0:0:0:
320,192,123539,1,0,0:0:0:0:
192,192,123587,1,0,0:0:0:0:
320,192,123635,1,0,0:0:0:0:
192,192,123731,1,0,0:0:0:0:
64,192,123731,1,0,0:0:0:0:
448,192,123742,1,0,0:0:0:0:
320,192,123784,1,0,0:0:0:0:
64,192,123827,1,0,0:0:0:0:
448,192,123870,1,0,0:0:0:0:
192,192,123912,1,0,0:0:0:0:
320,192,123955,1,0,0:0:0:0:
448,192,123955,1,0,0:0:0:0:
64,192,123998,1,0,0:0:0:0:
192,192,124040,1,0,0:0:0:0:
320,192,124083,1,0,0:0:0:0:
64,192,124126,1,0,0:0:0:0:
448,192,124168,1,0,0:0:0:0:
192,192,124211,1,0,0:0:0:0:
320,192,124211,1,0,0:0:0:0:
64,192,124259,1,0,0:0:0:0:
448,192,124307,1,0,0:0:0:0:
192,192,124355,1,0,0:0:0:0:
448,192,124403,1,0,0:0:0:0:
320,192,124403,1,0,0:0:0:0:
64,192,124499,1,0,0:0:0:0:
320,192,124499,1,0,0:0:0:0:
192,192,124595,1,0,0:0:0:0:
64,192,124595,1,0,0:0:0:0:
448,192,124595,1,0,0:0:0:0:
192,192,124691,1,0,0:0:0:0:
64,192,124691,1,0,0:0:0:0:
448,192,124787,1,0,0:0:0:0:
320,192,124835,1,0,0:0:0:0:
64,192,124883,1,0,0:0:0:0:
192,192,124931,1,0,0:0:0:0:
320,192,124979,1,0,0:0:0:0:
448,192,124979,1,0,0:0:0:0:
64,192,124979,1,0,0:0:0:0:
192,192,125075,1,0,0:0:0:0:
320,192,125075,1,0,0:0:0:0:
448,192,125075,1,0,0:0:0:0:
192,192,125171,1,0,0:0:0:0:
64,192,125171,1,0,0:0:0:0:
192,192,125267,1,0,0:0:0:0:
64,192,125267,1,0,0:0:0:0:
320,192,125363,1,0,0:0:0:0:
448,192,125363,1,0,0:0:0:0:
64,192,125395,1,0,0:0:0:0:
192,192,125427,1,0,0:0:0:0:
320,192,125459,1,0,0:0:0:0:
448,192,125491,1,0,0:0:0:0:
320,192,125523,1,0,0:0:0:0:
192,192,125555,1,0,0:0:0:0:
448,192,125587,1,0,0:0:0:0:
64,192,125619,1,0,0:0:0:0:
192,192,125651,1,0,0:0:0:0:
320,192,125699,1,0,0:0:0:0:
448,192,125747,1,0,0:0:0:0:
64,192,125747,1,0,0:0:0:0:
192,192,125843,1,0,0:0:0:0:
320,192,125875,1,0,0:0:0:0:
64,192,125918,1,0,0:0:0:0:
448,192,125960,1,0,0:0:0:0:
320,192,126003,1,0,0:0:0:0:
192,192,126046,1,0,0:0:0:0:
64,192,126046,1,0,0:0:0:0:
448,192,126083,1,0,0:0:0:0:
320,192,126107,1,0,0:0:0:0:
192,192,126131,1,0,0:0:0:0:
64,192,126131,1,0,0:0:0:0:
64,192,126216,1,0,0:0:0:0:
192,192,126216,1,0,0:0:0:0:
320,192,126259,1,0,0:0:0:0:
448,192,126302,1,0,0:0:0:0:
320,192,126387,1,0,0:0:0:0:
192,192,126419,1,0,0:0:0:0:
64,192,126419,1,0,0:0:0:0:
448,192,126451,1,0,0:0:0:0:
320,192,126483,1,0,0:0:0:0:
192,192,126515,1,0,0:0:0:0:
64,192,126547,1,0,0:0:0:0:
448,192,126579,1,0,0:0:0:0:
192,192,126611,1,0,0:0:0:0:
320,192,126659,1,0,0:0:0:0:
64,192,126707,1,0,0:0:0:0:
448,192,126755,1,0,0:0:0:0:
320,192,126803,1,0,0:0:0:0:
192,192,126851,1,0,0:0:0:0:
64,192,126899,1,0,0:0:0:0:
448,192,126899,1,0,0:0:0:0:
192,192,126931,1,0,0:0:0:0:
320,192,126963,1,0,0:0:0:0:
448,192,126995,1,0,0:0:0:0:
192,192,127027,1,0,0:0:0:0:
64,192,127059,1,0,0:0:0:0:
448,192,127091,1,0,0:0:0:0:
320,192,127123,1,0,0:0:0:0:
192,192,127155,1,0,0:0:0:0:
448,192,127219,1,0,0:0:0:0:
64,192,127283,1,0,0:0:0:0:
192,192,127283,1,0,0:0:0:0:
448,192,127379,1,0,0:0:0:0:
192,192,127379,1,0,0:0:0:0:
320,192,127411,1,0,0:0:0:0:
64,192,127454,1,0,0:0:0:0:
320,192,127496,1,0,0:0:0:0:
192,192,127539,1,0,0:0:0:0:
448,192,127582,1,0,0:0:0:0:
64,192,127582,1,0,0:0:0:0:
448,192,127667,1,0,0:0:0:0:
64,192,127667,1,0,0:0:0:0:
448,192,127752,1,0,0:0:0:0:
64,192,127752,1,0,0:0:0:0:
192,192,127795,1,0,0:0:0:0:
320,192,127838,1,0,0:0:0:0:
64,192,127880,1,0,0:0:0:0:
448,192,127923,1,0,0:0:0:0:
320,192,127987,1,0,0:0:0:0:
64,192,128051,1,0,0:0:0:0:
192,192,128051,1,0,0:0:0:0:
192,192,128147,1,0,0:0:0:0:
320,192,128147,1,0,0:0:0:0:
448,192,128147,1,0,0:0:0:0:
320,192,128243,1,0,0:0:0:0:
448,192,128243,1,0,0:0:0:0:
192,192,128243,1,0,0:0:0:0:
192,192,128339,1,0,0:0:0:0:
320,192,128339,1,0,0:0:0:0:
448,192,128339,1,0,0:0:0:0:
192,192,128435,1,0,0:0:0:0:
64,192,128435,1,0,0:0:0:0:
320,192,128467,1,0,0:0:0:0:
64,192,128531,1,0,0:0:0:0:
448,192,128531,1,0,0:0:0:0:
192,192,128595,1,0,0:0:0:0:
448,192,128627,1,0,0:0:0:0:
320,192,128659,1,0,0:0:0:0:
192,192,128691,1,0,0:0:0:0:
64,192,128723,1,0,0:0:0:0:
320,192,128819,1,0,0:0:0:0:
448,192,128819,1,0,0:0:0:0:
64,192,128871,1,0,0:0:0:0:
192,192,128924,1,0,0:0:0:0:
320,192,128976,1,0,0:0:0:0:
448,192,128976,1,0,0:0:0:0:
64,192,129029,1,0,0:0:0:0:
320,192,129082,1,0,0:0:0:0:
192,192,129134,1,0,0:0:0:0:
64,192,129134,1,0,0:0:0:0:
448,192,129169,1,0,0:0:0:0:
320,192,129204,1,0,0:0:0:0:
192,192,129240,1,0,0:0:0:0:
64,192,129272,1,0,0:0:0:0:
448,192,129304,1,0,0:0:0:0:
192,192,129336,1,0,0:0:0:0:
320,192,129369,1,0,0:0:0:0:
64,192,129433,1,0,0:0:0:0:
320,192,129461,1,0,0:0:0:0:
192,192,129530,1,0,0:0:0:0:
448,192,129530,1,0,0:0:0:0:
320,192,129627,1,0,0:0:0:0:
192,192,129627,1,0,0:0:0:0:
64,192,129627,1,0,0:0:0:0:
192,192,129723,1,0,0:0:0:0:
448,192,129723,1,0,0:0:0:0:
320,192,129820,1,0,0:0:0:0:
64,192,129820,1,0,0:0:0:0:
64,192,129917,1,0,0:0:0:0:
320,192,129917,1,0,0:0:0:0:
320,192,130014,1,0,0:0:0:0:
448,192,130014,1,0,0:0:0:0:
192,192,130057,1,0,0:0:0:0:
64,192,130100,1,0,0:0:0:0:
192,192,130143,1,0,0:0:0:0:
320,192,130186,1,0,0:0:0:0:
448,192,130229,1,0,0:0:0:0:
64,192,130272,1,0,0:0:0:0:
320,192,130315,1,0,0:0:0:0:
192,192,130358,1,0,0:0:0:0:
64,192,130401,1,0,0:0:0:0:
448,192,130401,1,0,0:0:0:0:
320,192,130443,1,0,0:0:0:0:
448,192,130485,1,0,0:0:0:0:
320,192,130527,1,0,0:0:0:0:
192,192,130568,1,0,0:0:0:0:
448,192,130610,1,0,0:0:0:0:
64,192,130652,1,0,0:0:0:0:
320,192,130652,1,0,0:0:0:0:
192,192,130693,1,0,0:0:0:0:
64,192,130735,1,0,0:0:0:0:
192,192,130777,1,0,0:0:0:0:
320,192,130818,1,0,0:0:0:0:
448,192,130859,1,0,0:0:0:0:
448,192,130964,1,0,0:0:0:0:
64,192,130964,1,0,0:0:0:0:
320,192,131058,1,0,0:0:0:0:
64,192,131151,1,0,0:0:0:0:
192,192,131151,1,0,0:0:0:0:
320,192,131151,1,0,0:0:0:0:
64,192,131245,1,0,0:0:0:0:
192,192,131245,1,0,0:0:0:0:
448,192,131339,1,0,0:0:0:0:
320,192,131387,1,0,0:0:0:0:
64,192,131434,1,0,0:0:0:0:
192,192,131481,1,0,0:0:0:0:
448,192,131530,1,0,0:0:0:0:
320,192,131530,1,0,0:0:0:0:
64,192,131562,1,0,0:0:0:0:
192,192,131595,1,0,0:0:0:0:
320,192,131627,1,0,0:0:0:0:
448,192,131660,1,0,0:0:0:0:
320,192,131692,1,0,0:0:0:0:
192,192,131725,1,0,0:0:0:0:
64,192,131757,1,0,0:0:0:0:
448,192,131790,1,0,0:0:0:0:
192,192,131833,1,0,0:0:0:0:
320,192,131876,1,0,0:0:0:0:
64,192,131920,1,0,0:0:0:0:
448,192,131920,1,0,0:0:0:0:
64,192,132007,1,0,0:0:0:0:
320,192,132050,1,0,0:0:0:0:
192,192,132093,1,0,0:0:0:0:
448,192,132136,1,0,0:0:0:0:
320,192,132180,1,0,0:0:0:0:
192,192,132223,1,0,0:0:0:0:
64,192,132267,1,0,0:0:0:0:
448,192,132310,1,0,0:0:0:0:
320,192,132310,1,0,0:0:0:0:
192,192,132353,1,0,0:0:0:0:
64,192,132397,1,0,0:0:0:0:
448,192,132408,1,0,0:0:0:0:
320,192,132505,1,0,0:0:0:0:
192,192,132505,1,0,0:0:0:0:
320,192,132603,1,0,0:0:0:0:
448,192,132700,1,0,0:0:0:0:
192,192,132700,1,0,0:0:0:0:
64,192,132700,1,0,0:0:0:0:
192,192,132796,1,0,0:0:0:0:
64,192,132796,1,0,0:0:0:0:
448,192,132796,1,0,0:0:0:0:
320,192,132893,1,0,0:0:0:0:
64,192,132893,1,0,0:0:0:0:
192,192,132990,1,0,0:0:0:0:
320,192,133087,1,0,0:0:0:0:
448,192,133087,1,0,0:0:0:0:
64,192,133119,1,0,0:0:0:0:
192,192,133151,1,0,0:0:0:0:
320,192,133183,1,0,0:0:0:0:
64,192,133216,1,0,0:0:0:0:
448,192,133248,1,0,0:0:0:0:
320,192,133280,1,0,0:0:0:0:
192,192,133312,1,0,0:0:0:0:
64,192,133345,1,0,0:0:0:0:
448,192,133388,1,0,0:0:0:0:
192,192,133431,1,0,0:0:0:0:
448,192,133474,1,0,0:0:0:0:
320,192,133474,1,0,0:0:0:0:
64,192,133517,1,0,0:0:0:0:
192,192,133560,1,0,0:0:0:0:
448,192,133603,1,0,0:0:0:0:
320,192,133667,1,0,0:0:0:0:
64,192,133667,1,0,0:0:0:0:
320,192,133764,1,0,0:0:0:0:
192,192,133764,1,0,0:0:0:0:
192,192,133861,1,0,0:0:0:0:
64,192,133861,1,0,0:0:0:0:
448,192,133893,1,0,0:0:0:0:
64,192,133947,1,0,0:0:0:0:
192,192,133990,1,0,0:0:0:0:
320,192,133990,1,0,0:0:0:0:
448,192,134054,1,0,0:0:0:0:
192,192,134151,1,0,0:0:0:0:
320,192,134248,1,0,0:0:0:0:
448,192,134248,1,0,0:0:0:0:
64,192,134248,1,0,0:0:0:0:
64,192,134345,1,0,0:0:0:0:
448,192,134345,1,0,0:0:0:0:
320,192,134345,1,0,0:0:0:0:
320,192,134441,1,0,0:0:0:0:
192,192,134538,1,0,0:0:0:0:
64,192,134538,1,0,0:0:0:0:
320,192,134635,1,0,0:0:0:0:
448,192,134635,1,0,0:0:0:0:
192,192,134679,1,0,0:0:0:0:
64,192,134721,1,0,0:0:0:0:
192,192,134764,1,0,0:0:0:0:
448,192,134807,1,0,0:0:0:0:
320,192,134851,1,0,0:0:0:0:
192,192,134893,1,0,0:0:0:0:
448,192,134936,1,0,0:0:0:0:
320,192,134979,1,0,0:0:0:0:
448,192,135022,1,0,0:0:0:0:
64,192,135022,1,0,0:0:0:0:
192,192,135065,1,0,0:0:0:0:
320,192,135108,1,0,0:0:0:0:
64,192,135151,1,0,0:0:0:0:
192,192,135195,1,0,0:0:0:0:
448,192,135238,1,0,0:0:0:0:
64,192,135280,1,0,0:0:0:0:
192,192,135323,1,0,0:0:0:0:
320,192,135409,1,0,0:0:0:0:
448,192,135409,1,0,0:0:0:0:
64,192,135506,1,0,0:0:0:0:
448,192,135506,1,0,0:0:0:0:
192,192,135506,1,0,0:0:0:0:
192,192,135603,1,0,0:0:0:0:
320,192,135700,1,0,0:0:0:0:
448,192,135700,1,0,0:0:0:0:
320,192,135796,1,0,0:0:0:0:
192,192,135796,1,0,0:0:0:0:
64,192,135796,1,0,0:0:0:0:
448,192,135796,128,0,135990:0:0:0:0:
64,192,135893,1,0,0:0:0:0:
192,192,135893,1,0,0:0:0:0:
64,192,135990,1,0,0:0:0:0:
320,192,135990,1,0,0:0:0:0:
192,192,136087,1,0,0:0:0:0:
64,192,136087,1,0,0:0:0:0:
320,192,136183,1,0,0:0:0:0:
448,192,136183,1,0,0:0:0:0:
64,192,136227,1,0,0:0:0:0:
192,192,136270,1,0,0:0:0:0:
320,192,136312,1,0,0:0:0:0:
64,192,136355,1,0,0:0:0:0:
448,192,136399,1,0,0:0:0:0:
320,192,136441,1,0,0:0:0:0:
192,192,136485,1,0,0:0:0:0:
64,192,136527,1,0,0:0:0:0:
320,192,136570,1,0,0:0:0:0:
448,192,136570,1,0,0:0:0:0:
192,192,136614,1,0,0:0:0:0:
448,192,136657,1,0,0:0:0:0:
64,192,136700,1,0,0:0:0:0:
192,192,136743,1,0,0:0:0:0:
320,192,136786,1,0,0:0:0:0:
448,192,136829,1,0,0:0:0:0:
192,192,136872,1,0,0:0:0:0:
320,192,136915,1,0,0:0:0:0:
64,192,136958,1,0,0:0:0:0:
448,192,136958,1,0,0:0:0:0:
320,192,137001,1,0,0:0:0:0:
192,192,137044,1,0,0:0:0:0:
64,192,137087,1,0,0:0:0:0:
448,192,137130,1,0,0:0:0:0:
320,192,137173,1,0,0:0:0:0:
192,192,137216,1,0,0:0:0:0:
448,192,137259,1,0,0:0:0:0:
64,192,137302,1,0,0:0:0:0:
192,192,137345,1,0,0:0:0:0:
320,192,137345,1,0,0:0:0:0:
448,192,137388,1,0,0:0:0:0:
64,192,137431,1,0,0:0:0:0:
192,192,137474,1,0,0:0:0:0:
320,192,137516,1,0,0:0:0:0:
64,192,137559,1,0,0:0:0:0:
448,192,137602,1,0,0:0:0:0:
320,192,137644,1,0,0:0:0:0:
192,192,137687,1,0,0:0:0:0:
448,192,137730,1,0,0:0:0:0:
64,192,137730,1,0,0:0:0:0:
192,192,137772,1,0,0:0:0:0:
320,192,137815,1,0,0:0:0:0:
448,192,137858,1,0,0:0:0:0:
64,192,137900,1,0,0:0:0:0:
320,192,137943,1,0,0:0:0:0:
192,192,137986,1,0,0:0:0:0:
64,192,138028,1,0,0:0:0:0:
448,192,138071,1,0,0:0:0:0:
320,192,138114,1,0,0:0:0:0:
192,192,138114,1,0,0:0:0:0:
64,192,138156,1,0,0:0:0:0:
448,192,138199,1,0,0:0:0:0:
192,192,138242,1,0,0:0:0:0:
320,192,138284,1,0,0:0:0:0:
448,192,138327,1,0,0:0:0:0:
64,192,138370,1,0,0:0:0:0:
192,192,138412,1,0,0:0:0:0:
448,192,138455,1,0,0:0:0:0:
320,192,138498,1,0,0:0:0:0:
192,192,138540,1,0,0:0:0:0:
448,192,138583,1,0,0:0:0:0:
64,192,138594,1,0,0:0:0:0:
192,192,138642,1,0,0:0:0:0:
320,192,138690,1,0,0:0:0:0:
448,192,138690,1,0,0:0:0:0:
64,192,138771,1,0,0:0:0:0:
448,192,138771,1,0,0:0:0:0:
192,192,138850,1,0,0:0:0:0:
320,192,138850,1,0,0:0:0:0:
320,192,138946,128,0,139010:0:0:0:0:
448,192,138946,128,0,139010:0:0:0:0:
64,192,138946,128,0,139010:0:0:0:0:
64,192,139122,128,0,139194:0:0:0:0:
320,192,139122,128,0,139194:0:0:0:0:
192,192,139122,128,0,139194:0:0:0:0:
64,192,139614,1,0,0:0:0:0:
448,192,139614,1,0,0:0:0:0:
192,192,139664,1,0,0:0:0:0:
320,192,139715,1,0,0:0:0:0:
448,192,139766,1,0,0:0:0:0:
320,192,139817,1,0,0:0:0:0:
192,192,139868,1,0,0:0:0:0:
320,192,139919,1,0,0:0:0:0:
192,192,139969,1,0,0:0:0:0:
64,192,140020,1,0,0:0:0:0:
192,192,140071,1,0,0:0:0:0:
320,192,140122,1,0,0:0:0:0:
192,192,140173,1,0,0:0:0:0:
64,192,140224,1,0,0:0:0:0:
192,192,140275,1,0,0:0:0:0:
320,192,140325,1,0,0:0:0:0:
448,192,140376,1,0,0:0:0:0:
320,192,140427,1,0,0:0:0:0:
192,192,140473,1,0,0:0:0:0:
320,192,140520,1,0,0:0:0:0:
448,192,140567,1,0,0:0:0:0:
320,192,140614,1,0,0:0:0:0:
192,192,140661,1,0,0:0:0:0:
64,192,140708,1,0,0:0:0:0:
192,192,140755,1,0,0:0:0:0:
64,192,140802,1,0,0:0:0:0:
448,192,140802,1,0,0:0:0:0:
320,192,140802,1,0,0:0:0:0:
192,192,140866,1,0,0:0:0:0:
320,192,140930,1,0,0:0:0:0:
192,192,140994,1,0,0:0:0:0:
64,192,140994,1,0,0:0:0:0:
448,192,140994,1,0,0:0:0:0:
320,192,141042,1,0,0:0:0:0:
192,192,141090,1,0,0:0:0:0:
448,192,141138,1,0,0:0:0:0:
64,192,141186,1,0,0:0:0:0:
192,192,141234,1,0,0:0:0:0:
320,192,141282,1,0,0:0:0:0:
448,192,141282,1,0,0:0:0:0:
64,192,141282,1,0,0:0:0:0:
192,192,141330,1,0,0:0:0:0:
320,192,141378,1,0,0:0:0:0:
64,192,141426,1,0,0:0:0:0:
448,192,141474,1,0,0:0:0:0:
320,192,141522,1,0,0:0:0:0:
192,192,141570,1,0,0:0:0:0:
448,192,141570,1,0,0:0:0:0:
64,192,141570,128,0,141762:0:0:0:0:
320,192,141666,1,0,0:0:0:0:
448,192,141762,128,0,141954:0:0:0:0:
320,192,141762,1,0,0:0:0:0:
192,192,141762,1,0,0:0:0:0:
64,192,141858,1,0,0:0:0:0:
64,192,141954,1,0,0:0:0:0:
320,192,141954,1,0,0:0:0:0:
192,192,141954,1,0,0:0:0:0:
64,192,142050,1,0,0:0:0:0:
192,192,142050,1,0,0:0:0:0:
320,192,142050,1,0,0:0:0:0:
448,192,142146,1,0,0:0:0:0:
320,192,142146,1,0,0:0:0:0:
192,192,142227,1,0,0:0:0:0:
64,192,142227,1,0,0:0:0:0:
448,192,142227,1,0,0:0:0:0:
192,192,142338,1,0,0:0:0:0:
320,192,142434,1,0,0:0:0:0:
448,192,142434,1,0,0:0:0:0:
64,192,142434,1,0,0:0:0:0:
192,192,142530,1,0,0:0:0:0:
448,192,142530,1,0,0:0:0:0:
192,192,142626,1,0,0:0:0:0:
448,192,142626,1,0,0:0:0:0:
64,192,142722,1,0,0:0:0:0:
192,192,142722,1,0,0:0:0:0:
320,192,142722,1,0,0:0:0:0:
192,192,142815,1,0,0:0:0:0:
320,192,142815,1,0,0:0:0:0:
64,192,142908,1,0,0:0:0:0:
448,192,142908,128,0,143094:0:0:0:0:
320,192,143001,128,0,143094:0:0:0:0:
192,192,143094,1,0,0:0:0:0:
64,192,143094,1,0,0:0:0:0:
448,192,143187,1,0,0:0:0:0:
64,192,143187,1,0,0:0:0:0:
192,192,143280,1,0,0:0:0:0:
320,192,143280,1,0,0:0:0:0:
64,192,143342,1,0,0:0:0:0:
192,192,143404,1,0,0:0:0:0:
320,192,143466,1,0,0:0:0:0:
448,192,143466,1,0,0:0:0:0:
64,192,143466,1,0,0:0:0:0:
448,192,143563,1,0,0:0:0:0:
192,192,143612,1,0,0:0:0:0:
320,192,143612,1,0,0:0:0:0:
64,192,143758,1,0,0:0:0:0:
448,192,143758,1,0,0:0:0:0:
192,192,143807,1,0,0:0:0:0:
320,192,143856,1,0,0:0:0:0:
64,192,143905,1,0,0:0:0:0:
192,192,143953,1,0,0:0:0:0:
320,192,144002,1,0,0:0:0:0:
64,192,144051,1,0,0:0:0:0:
448,192,144051,1,0,0:0:0:0:
448,192,144148,1,0,0:0:0:0:
64,192,144148,1,0,0:0:0:0:
192,192,144247,1,0,0:0:0:0:
320,192,144247,1,0,0:0:0:0:
64,192,144247,1,0,0:0:0:0:
448,192,144343,1,0,0:0:0:0:
320,192,144343,1,0,0:0:0:0:
64,192,144439,1,0,0:0:0:0:
192,192,144439,1,0,0:0:0:0:
192,192,144535,1,0,0:0:0:0:
64,192,144631,1,0,0:0:0:0:
448,192,144631,1,0,0:0:0:0:
320,192,144631,1,0,0:0:0:0:
320,192,144727,1,0,0:0:0:0:
192,192,144727,1,0,0:0:0:0:
448,192,144823,1,0,0:0:0:0:
64,192,144823,1,0,0:0:0:0:
320,192,144871,1,0,0:0:0:0:
192,192,144919,1,0,0:0:0:0:
64,192,144967,1,0,0:0:0:0:
448,192,145015,1,0,0:0:0:0:
320,192,145015,1,0,0:0:0:0:
64,192,145111,1,0,0:0:0:0:
192,192,145111,1,0,0:0:0:0:
448,192,145159,1,0,0:0:0:0:
192,192,145207,1,0,0:0:0:0:
320,192,145255,1,0,0:0:0:0:
64,192,145303,1,0,0:0:0:0:
448,192,145303,1,0,0:0:0:0:
192,192,145367,1,0,0:0:0:0:
448,192,145399,1,0,0:0:0:0:
64,192,145431,1,0,0:0:0:0:
448,192,145495,1,0,0:0:0:0:
64,192,145527,1,0,0:0:0:0:
448,192,145591,1,0,0:0:0:0:
192,192,145591,1,0,0:0:0:0:
320,192,145687,1,0,0:0:0:0:
192,192,145687,1,0,0:0:0:0:
448,192,145783,1,0,0:0:0:0:
320,192,145783,1,0,0:0:0:0:
64,192,145783,1,0,0:0:0:0:
192,192,145847,1,0,0:0:0:0:
448,192,145879,1,0,0:0:0:0:
64,192,145911,1,0,0:0:0:0:
192,192,145975,1,0,0:0:0:0:
448,192,145975,1,0,0:0:0:0:
320,192,146071,1,0,0:0:0:0:
192,192,146071,1,0,0:0:0:0:
320,192,146167,1,0,0:0:0:0:
64,192,146167,1,0,0:0:0:0:
448,192,146167,1,0,0:0:0:0:
64,192,146263,1,0,0:0:0:0:
192,192,146263,1,0,0:0:0:0:
448,192,146359,1,0,0:0:0:0:
320,192,146455,1,0,0:0:0:0:
64,192,146455,1,0,0:0:0:0:
448,192,146551,1,0,0:0:0:0:
64,192,146551,1,0,0:0:0:0:
192,192,146551,1,0,0:0:0:0:
320,192,146647,1,0,0:0:0:0:
448,192,146647,1,0,0:0:0:0:
64,192,146647,1,0,0:0:0:0:
320,192,146743,1,0,0:0:0:0:
192,192,146839,1,0,0:0:0:0:
64,192,146839,1,0,0:0:0:0:
448,192,146935,1,0,0:0:0:0:
192,192,146935,1,0,0:0:0:0:
448,192,147031,1,0,0:0:0:0:
192,192,147031,1,0,0:0:0:0:
320,192,147127,1,0,0:0:0:0:
192,192,147127,1,0,0:0:0:0:
64,192,147127,1,0,0:0:0:0:
320,192,147223,1,0,0:0:0:0:
192,192,147319,1,0,0:0:0:0:
448,192,147319,1,0,0:0:0:0:
64,192,147319,1,0,0:0:0:0:
448,192,147415,1,0,0:0:0:0:
192,192,147415,1,0,0:0:0:0:
192,192,147511,1,0,0:0:0:0:
64,192,147511,1,0,0:0:0:0:
320,192,147511,1,0,0:0:0:0:
320,192,147607,1,0,0:0:0:0:
448,192,147607,1,0,0:0:0:0:
64,192,147703,1,0,0:0:0:0:
192,192,147703,1,0,0:0:0:0:
448,192,147799,1,0,0:0:0:0:
320,192,147799,1,0,0:0:0:0:
64,192,147799,1,0,0:0:0:0:
320,192,147895,1,0,0:0:0:0:
448,192,147991,1,0,0:0:0:0:
64,192,147991,1,0,0:0:0:0:
192,192,147991,1,0,0:0:0:0:
192,192,148087,1,0,0:0:0:0:
320,192,148087,1,0,0:0:0:0:
320,192,148179,1,0,0:0:0:0:
64,192,148179,1,0,0:0:0:0:
448,192,148179,1,0,0:0:0:0:
192,192,148240,1,0,0:0:0:0:
192,192,148363,1,0,0:0:0:0:
448,192,148363,1,0,0:0:0:0:
64,192,148363,1,0,0:0:0:0:
64,192,148456,1,0,0:0:0:0:
448,192,148456,1,0,0:0:0:0:
448,192,148548,1,0,0:0:0:0:
64,192,148548,1,0,0:0:0:0:
320,192,148640,1,0,0:0:0:0:
192,192,148640,1,0,0:0:0:0:
192,192,148733,1,0,0:0:0:0:
448,192,148825,1,0,0:0:0:0:
64,192,148825,1,0,0:0:0:0:
320,192,148825,1,0,0:0:0:0:
192,192,148919,1,0,0:0:0:0:
64,192,149013,1,0,0:0:0:0:
448,192,149013,1,0,0:0:0:0:
320,192,149061,1,0,0:0:0:0:
192,192,149061,1,0,0:0:0:0:
192,192,149203,1,0,0:0:0:0:
320,192,149203,1,0,0:0:0:0:
448,192,149251,1,0,0:0:0:0:
64,192,149251,1,0,0:0:0:0:
64,192,149373,128,0,149471:0:0:0:0:
448,192,149373,128,0,149471:0:0:0:0:
320,192,149398,128,0,149520:0:0:0:0:
192,192,149398,128,0,149520:0:0:0:0:
64,192,149593,1,0,0:0:0:0:
320,192,149593,1,0,0:0:0:0:
192,192,149593,1,0,0:0:0:0:
448,192,149689,1,0,0:0:0:0:
192,192,149689,1,0,0:0:0:0:
448,192,149785,1,0,0:0:0:0:
320,192,149881,1,0,0:0:0:0:
192,192,149881,1,0,0:0:0:0:
64,192,149881,1,0,0:0:0:0:
192,192,149977,1,0,0:0:0:0:
64,192,150073,1,0,0:0:0:0:
320,192,150073,1,0,0:0:0:0:
448,192,150073,1,0,0:0:0:0:
192,192,150169,1,0,0:0:0:0:
320,192,150169,1,0,0:0:0:0:
192,192,150265,1,0,0:0:0:0:
320,192,150265,1,0,0:0:0:0:
64,192,150361,1,0,0:0:0:0:
448,192,150361,1,0,0:0:0:0:
320,192,150361,1,0,0:0:0:0:
192,192,150457,1,0,0:0:0:0:
64,192,150457,1,0,0:0:0:0:
448,192,150553,1,0,0:0:0:0:
320,192,150553,1,0,0:0:0:0:
320,192,150649,1,0,0:0:0:0:
448,192,150745,1,0,0:0:0:0:
64,192,150745,1,0,0:0:0:0:
192,192,150745,1,0,0:0:0:0:
320,192,150841,1,0,0:0:0:0:
192,192,150841,1,0,0:0:0:0:
448,192,150937,128,0,151033:0:0:0:0:
64,192,150937,1,0,0:0:0:0:
320,192,151033,1,0,0:0:0:0:
192,192,151033,128,0,151129:0:0:0:0:
448,192,151129,1,0,0:0:0:0:
320,192,151129,1,0,0:0:0:0:
64,192,151129,1,0,0:0:0:0:
192,192,151225,1,0,0:0:0:0:
64,192,151225,1,0,0:0:0:0:
448,192,151321,1,0,0:0:0:0:
192,192,151321,1,0,0:0:0:0:
448,192,151417,1,0,0:0:0:0:
64,192,151417,1,0,0:0:0:0:
320,192,151417,1,0,0:0:0:0:
320,192,151513,1,0,0:0:0:0:
64,192,151609,1,0,0:0:0:0:
320,192,151609,1,0,0:0:0:0:
192,192,151705,1,0,0:0:0:0:
448,192,151705,1,0,0:0:0:0:
448,192,151801,1,0,0:0:0:0:
192,192,151801,1,0,0:0:0:0:
64,192,151897,1,0,0:0:0:0:
192,192,151897,1,0,0:0:0:0:
320,192,151897,1,0,0:0:0:0:
64,192,151992,1,0,0:0:0:0:
320,192,151992,1,0,0:0:0:0:
448,192,152087,1,0,0:0:0:0:
192,192,152087,1,0,0:0:0:0:
192,192,152182,1,0,0:0:0:0:
448,192,152182,1,0,0:0:0:0:
64,192,152279,1,0,0:0:0:0:
192,192,152279,1,0,0:0:0:0:
320,192,152279,1,0,0:0:0:0:
64,192,152373,1,0,0:0:0:0:
320,192,152373,1,0,0:0:0:0:
448,192,152467,1,0,0:0:0:0:
192,192,152467,1,0,0:0:0:0:
192,192,152562,1,0,0:0:0:0:
448,192,152562,1,0,0:0:0:0:
192,192,152656,1,0,0:0:0:0:
64,192,152656,1,0,0:0:0:0:
320,192,152656,1,0,0:0:0:0:
320,192,152751,1,0,0:0:0:0:
64,192,152751,1,0,0:0:0:0:
192,192,152845,1,0,0:0:0:0:
64,192,152940,1,0,0:0:0:0:
320,192,152940,1,0,0:0:0:0:
448,192,152940,1,0,0:0:0:0:
192,192,152987,1,0,0:0:0:0:
448,192,153034,1,0,0:0:0:0:
320,192,153082,1,0,0:0:0:0:
64,192,153129,1,0,0:0:0:0:
192,192,153129,1,0,0:0:0:0:
448,192,153176,1,0,0:0:0:0:
64,192,153223,1,0,0:0:0:0:
192,192,153271,1,0,0:0:0:0:
320,192,153318,1,0,0:0:0:0:
448,192,153365,1,0,0:0:0:0:
64,192,153412,1,0,0:0:0:0:
192,192,153412,1,0,0:0:0:0:
448,192,153460,1,0,0:0:0:0:
320,192,153507,1,0,0:0:0:0:
64,192,153507,1,0,0:0:0:0:
320,192,153601,1,0,0:0:0:0:
192,192,153601,1,0,0:0:0:0:
448,192,153696,1,0,0:0:0:0:
64,192,153696,1,0,0:0:0:0:
192,192,153696,1,0,0:0:0:0:
448,192,153790,1,0,0:0:0:0:
320,192,153790,1,0,0:0:0:0:
64,192,153886,1,0,0:0:0:0:
448,192,153886,1,0,0:0:0:0:
320,192,153886,1,0,0:0:0:0:
192,192,153983,1,0,0:0:0:0:
64,192,153983,128,0,154128:0:0:0:0:
448,192,154031,128,0,154128:0:0:0:0:
320,192,154080,128,0,154128:0:0:0:0:
192,192,154177,1,0,0:0:0:0:
64,192,154177,1,0,0:0:0:0:
448,192,154177,1,0,0:0:0:0:
320,192,154273,1,0,0:0:0:0:
320,192,154370,1,0,0:0:0:0:
448,192,154370,1,0,0:0:0:0:
64,192,154370,1,0,0:0:0:0:
320,192,154467,1,0,0:0:0:0:
192,192,154467,1,0,0:0:0:0:
192,192,154564,1,0,0:0:0:0:
64,192,154564,1,0,0:0:0:0:
448,192,154564,1,0,0:0:0:0:
320,192,154612,1,0,0:0:0:0:
64,192,154660,1,0,0:0:0:0:
320,192,154709,1,0,0:0:0:0:
192,192,154757,1,0,0:0:0:0:
448,192,154757,1,0,0:0:0:0:
320,192,154854,1,0,0:0:0:0:
192,192,154854,1,0,0:0:0:0:
192,192,154951,1,0,0:0:0:0:
64,192,154951,1,0,0:0:0:0:
448,192,154951,1,0,0:0:0:0:
320,192,154999,1,0,0:0:0:0:
64,192,155048,1,0,0:0:0:0:
320,192,155096,1,0,0:0:0:0:
448,192,155144,1,0,0:0:0:0:
192,192,155144,1,0,0:0:0:0:
64,192,155241,1,0,0:0:0:0:
320,192,155241,1,0,0:0:0:0:
192,192,155290,1,0,0:0:0:0:
320,192,155338,1,0,0:0:0:0:
448,192,155339,1,0,0:0:0:0:
192,192,155385,1,0,0:0:0:0:
64,192,155432,1,0,0:0:0:0:
192,192,155479,1,0,0:0:0:0:
320,192,155526,1,0,0:0:0:0:
448,192,155573,1,0,0:0:0:0:
320,192,155620,1,0,0:0:0:0:
192,192,155667,1,0,0:0:0:0:
64,192,155714,1,0,0:0:0:0:
448,192,155714,1,0,0:0:0:0:
192,192,155760,1,0,0:0:0:0:
448,192,155807,1,0,0:0:0:0:
320,192,155854,1,0,0:0:0:0:
64,192,155901,1,0,0:0:0:0:
192,192,155901,1,0,0:0:0:0:
448,192,155995,1,0,0:0:0:0:
64,192,155995,1,0,0:0:0:0:
320,192,155995,1,0,0:0:0:0:
320,192,156089,1,0,0:0:0:0:
192,192,156182,1,0,0:0:0:0:
64,192,156182,1,0,0:0:0:0:
448,192,156276,1,0,0:0:0:0:
192,192,156276,1,0,0:0:0:0:
192,192,156370,1,0,0:0:0:0:
448,192,156370,1,0,0:0:0:0:
320,192,156464,1,0,0:0:0:0:
448,192,156464,1,0,0:0:0:0:
64,192,156464,1,0,0:0:0:0:
192,192,156557,1,0,0:0:0:0:
320,192,156651,1,0,0:0:0:0:
64,192,156651,1,0,0:0:0:0:
320,192,156745,1,0,0:0:0:0:
192,192,156839,1,0,0:0:0:0:
64,192,156839,1,0,0:0:0:0:
320,192,156935,1,0,0:0:0:0:
64,192,156935,1,0,0:0:0:0:
448,192,156935,1,0,0:0:0:0:
320,192,157032,1,0,0:0:0:0:
64,192,157129,1,0,0:0:0:0:
448,192,157129,1,0,0:0:0:0:
192,192,157129,1,0,0:0:0:0:
320,192,157226,1,0,0:0:0:0:
192,192,157226,1,0,0:0:0:0:
64,192,157322,1,0,0:0:0:0:
448,192,157322,1,0,0:0:0:0:
320,192,157322,1,0,0:0:0:0:
64,192,157419,1,0,0:0:0:0:
192,192,157419,1,0,0:0:0:0:
192,192,157516,1,0,0:0:0:0:
320,192,157516,1,0,0:0:0:0:
448,192,157516,1,0,0:0:0:0:
320,192,157613,1,0,0:0:0:0:
448,192,157709,1,0,0:0:0:0:
64,192,157709,1,0,0:0:0:0:
192,192,157758,1,0,0:0:0:0:
320,192,157806,1,0,0:0:0:0:
64,192,157806,1,0,0:0:0:0:
192,192,157855,1,0,0:0:0:0:
320,192,157903,1,0,0:0:0:0:
192,192,157951,1,0,0:0:0:0:
448,192,158000,1,0,0:0:0:0:
64,192,158000,1,0,0:0:0:0:
448,192,158097,1,0,0:0:0:0:
320,192,158097,1,0,0:0:0:0:
64,192,158145,1,0,0:0:0:0:
320,192,158193,1,0,0:0:0:0:
192,192,158193,1,0,0:0:0:0:
448,192,158290,1,0,0:0:0:0:
320,192,158290,1,0,0:0:0:0:
64,192,158339,1,0,0:0:0:0:
320,192,158387,1,0,0:0:0:0:
192,192,158387,1,0,0:0:0:0:
64,192,158484,1,0,0:0:0:0:
192,192,158484,1,0,0:0:0:0:
192,192,158580,1,0,0:0:0:0:
448,192,158629,1,0,0:0:0:0:
64,192,158677,1,0,0:0:0:0:
320,192,158677,1,0,0:0:0:0:
64,192,158774,1,0,0:0:0:0:
448,192,158774,1,0,0:0:0:0:
320,192,158774,1,0,0:0:0:0:
192,192,158869,1,0,0:0:0:0:
448,192,158869,1,0,0:0:0:0:
320,192,158964,1,0,0:0:0:0:
64,192,158964,1,0,0:0:0:0:
192,192,159059,1,0,0:0:0:0:
320,192,159059,1,0,0:0:0:0:
192,192,159155,1,0,0:0:0:0:
448,192,159155,1,0,0:0:0:0:
64,192,159155,1,0,0:0:0:0:
448,192,159249,1,0,0:0:0:0:
192,192,159343,1,0,0:0:0:0:
64,192,159343,1,0,0:0:0:0:
320,192,159343,1,0,0:0:0:0:
320,192,159438,1,0,0:0:0:0:
448,192,159532,1,0,0:0:0:0:
192,192,159532,1,0,0:0:0:0:
64,192,159532,1,0,0:0:0:0:
64,192,159627,1,0,0:0:0:0:
320,192,159721,1,0,0:0:0:0:
448,192,159721,1,0,0:0:0:0:
192,192,159721,1,0,0:0:0:0:
64,192,159816,1,0,0:0:0:0:
320,192,159816,1,0,0:0:0:0:
448,192,159816,1,0,0:0:0:0:
192,192,159910,1,0,0:0:0:0:
320,192,159910,1,0,0:0:0:0:
64,192,160005,1,0,0:0:0:0:
448,192,160005,1,0,0:0:0:0:
192,192,160005,1,0,0:0:0:0:
64,192,160099,1,0,0:0:0:0:
320,192,160194,1,0,0:0:0:0:
192,192,160194,1,0,0:0:0:0:
448,192,160194,1,0,0:0:0:0:
320,192,160288,1,0,0:0:0:0:
64,192,160288,1,0,0:0:0:0:
448,192,160383,1,0,0:0:0:0:
192,192,160383,1,0,0:0:0:0:
64,192,160383,1,0,0:0:0:0:
192,192,160477,1,0,0:0:0:0:
448,192,160572,1,0,0:0:0:0:
320,192,160572,1,0,0:0:0:0:
64,192,160619,1,0,0:0:0:0:
192,192,160666,1,0,0:0:0:0:
448,192,160714,1,0,0:0:0:0:
64,192,160761,1,0,0:0:0:0:
320,192,160761,1,0,0:0:0:0:
192,192,160808,1,0,0:0:0:0:
448,192,160855,1,0,0:0:0:0:
64,192,160855,1,0,0:0:0:0:
192,192,160903,1,0,0:0:0:0:
320,192,160950,1,0,0:0:0:0:
64,192,160997,1,0,0:0:0:0:
192,192,161044,1,0,0:0:0:0:
448,192,161044,1,0,0:0:0:0:
320,192,161044,1,0,0:0:0:0:
192,192,161139,1,0,0:0:0:0:
448,192,161139,1,0,0:0:0:0:
320,192,161233,1,0,0:0:0:0:
64,192,161233,1,0,0:0:0:0:
320,192,161328,1,0,0:0:0:0:
192,192,161328,1,0,0:0:0:0:
64,192,161423,1,0,0:0:0:0:
448,192,161423,1,0,0:0:0:0:
64,192,161524,1,0,0:0:0:0:
192,192,161524,1,0,0:0:0:0:
448,192,161558,1,0,0:0:0:0:
320,192,161603,1,0,0:0:0:0:
192,192,161626,1,0,0:0:0:0:
64,192,161648,1,0,0:0:0:0:
448,192,161677,1,0,0:0:0:0:
320,192,161728,1,0,0:0:0:0:
192,192,161778,1,0,0:0:0:0:
320,192,161830,1,0,0:0:0:0:
448,192,161830,1,0,0:0:0:0:
192,192,161877,1,0,0:0:0:0:
64,192,161925,1,0,0:0:0:0:
448,192,161972,1,0,0:0:0:0:
320,192,162020,1,0,0:0:0:0:
192,192,162020,1,0,0:0:0:0:
64,192,162115,1,0,0:0:0:0:
448,192,162115,1,0,0:0:0:0:
192,192,162163,1,0,0:0:0:0:
320,192,162210,1,0,0:0:0:0:
64,192,162258,1,0,0:0:0:0:
448,192,162306,1,0,0:0:0:0:
320,192,162306,1,0,0:0:0:0:
192,192,162353,1,0,0:0:0:0:
64,192,162401,1,0,0:0:0:0:
192,192,162449,1,0,0:0:0:0:
448,192,162496,1,0,0:0:0:0:
320,192,162496,1,0,0:0:0:0:
192,192,162544,1,0,0:0:0:0:
64,192,162591,1,0,0:0:0:0:
448,192,162591,1,0,0:0:0:0:
320,192,162639,1,0,0:0:0:0:
448,192,162687,1,0,0:0:0:0:
64,192,162734,1,0,0:0:0:0:
320,192,162782,1,0,0:0:0:0:
192,192,162782,1,0,0:0:0:0:
192,192,162877,1,0,0:0:0:0:
64,192,162877,1,0,0:0:0:0:
448,192,162925,1,0,0:0:0:0:
320,192,162972,1,0,0:0:0:0:
192,192,163020,1,0,0:0:0:0:
64,192,163068,1,0,0:0:0:0:
320,192,163115,1,0,0:0:0:0:
448,192,163163,1,0,0:0:0:0:
64,192,163163,1,0,0:0:0:0:
320,192,163210,1,0,0:0:0:0:
64,192,163258,1,0,0:0:0:0:
192,192,163306,1,0,0:0:0:0:
320,192,163353,1,0,0:0:0:0:
448,192,163353,1,0,0:0:0:0:
64,192,163449,1,0,0:0:0:0:
448,192,163449,1,0,0:0:0:0:
192,192,163496,1,0,0:0:0:0:
320,192,163544,1,0,0:0:0:0:
64,192,163639,1,0,0:0:0:0:
192,192,163639,1,0,0:0:0:0:
448,192,163687,1,0,0:0:0:0:
192,192,163734,1,0,0:0:0:0:
320,192,163734,1,0,0:0:0:0:
448,192,163782,1,0,0:0:0:0:
64,192,163829,1,0,0:0:0:0:
320,192,163877,1,0,0:0:0:0:
64,192,163925,1,0,0:0:0:0:
192,192,163925,1,0,0:0:0:0:
448,192,163972,1,0,0:0:0:0:
192,192,164020,1,0,0:0:0:0:
320,192,164068,1,0,0:0:0:0:
64,192,164115,1,0,0:0:0:0:
448,192,164115,1,0,0:0:0:0:
192,192,164163,1,0,0:0:0:0:
64,192,164210,1,0,0:0:0:0:
320,192,164210,1,0,0:0:0:0:
192,192,164306,1,0,0:0:0:0:
448,192,164306,1,0,0:0:0:0:
448,192,164401,1,0,0:0:0:0:
64,192,164433,1,0,0:0:0:0:
192,192,164464,1,0,0:0:0:0:
320,192,164496,1,0,0:0:0:0:
448,192,164528,1,0,0:0:0:0:
192,192,164591,1,0,0:0:0:0:
448,192,164687,1,0,0:0:0:0:
64,192,164687,1,0,0:0:0:0:
192,192,164782,1,0,0:0:0:0:
320,192,164782,1,0,0:0:0:0:
448,192,164877,1,0,0:0:0:0:
64,192,164877,1,0,0:0:0:0:
192,192,164877,1,0,0:0:0:0:
64,192,164972,1,0,0:0:0:0:
320,192,164972,1,0,0:0:0:0:
320,192,165068,1,0,0:0:0:0:
64,192,165163,1,0,0:0:0:0:
192,192,165163,1,0,0:0:0:0:
448,192,165210,1,0,0:0:0:0:
320,192,165258,1,0,0:0:0:0:
448,192,165306,1,0,0:0:0:0:
64,192,165353,1,0,0:0:0:0:
192,192,165401,1,0,0:0:0:0:
448,192,165449,1,0,0:0:0:0:
320,192,165449,1,0,0:0:0:0:
192,192,165496,1,0,0:0:0:0:
320,192,165544,1,0,0:0:0:0:
192,192,165591,1,0,0:0:0:0:
64,192,165639,1,0,0:0:0:0:
448,192,165639,1,0,0:0:0:0:
320,192,165686,1,0,0:0:0:0:
192,192,165733,1,0,0:0:0:0:
320,192,165780,1,0,0:0:0:0:
448,192,165827,1,0,0:0:0:0:
64,192,165827,1,0,0:0:0:0:
192,192,165875,1,0,0:0:0:0:
64,192,165922,1,0,0:0:0:0:
448,192,165922,1,0,0:0:0:0:
320,192,166016,1,0,0:0:0:0:
192,192,166016,1,0,0:0:0:0:
448,192,166111,1,0,0:0:0:0:
320,192,166111,1,0,0:0:0:0:
192,192,166205,1,0,0:0:0:0:
448,192,166205,1,0,0:0:0:0:
64,192,166253,1,0,0:0:0:0:
320,192,166300,1,0,0:0:0:0:
192,192,166347,1,0,0:0:0:0:
64,192,166394,1,0,0:0:0:0:
320,192,166394,1,0,0:0:0:0:
448,192,166394,1,0,0:0:0:0:
64,192,166489,1,0,0:0:0:0:
448,192,166489,1,0,0:0:0:0:
320,192,166489,1,0,0:0:0:0:
192,192,166560,1,0,0:0:0:0:
320,192,166583,1,0,0:0:0:0:
64,192,166678,1,0,0:0:0:0:
192,192,166678,1,0,0:0:0:0:
448,192,166709,1,0,0:0:0:0:
320,192,166741,1,0,0:0:0:0:
192,192,166772,1,0,0:0:0:0:
448,192,166814,1,0,0:0:0:0:
64,192,166856,1,0,0:0:0:0:
192,192,166898,1,0,0:0:0:0:
320,192,166940,1,0,0:0:0:0:
448,192,166982,1,0,0:0:0:0:
320,192,167024,1,0,0:0:0:0:
192,192,167066,1,0,0:0:0:0:
64,192,167108,1,0,0:0:0:0:
448,192,167150,1,0,0:0:0:0:
320,192,167150,1,0,0:0:0:0:
192,192,167198,1,0,0:0:0:0:
64,192,167245,1,0,0:0:0:0:
448,192,167292,1,0,0:0:0:0:
192,192,167339,1,0,0:0:0:0:
320,192,167339,1,0,0:0:0:0:
64,192,167387,1,0,0:0:0:0:
320,192,167434,1,0,0:0:0:0:
448,192,167434,1,0,0:0:0:0:
192,192,167481,1,0,0:0:0:0:
320,192,167528,1,0,0:0:0:0:
64,192,167576,1,0,0:0:0:0:
448,192,167623,1,0,0:0:0:0:
320,192,167670,1,0,0:0:0:0:
64,192,167717,1,0,0:0:0:0:
192,192,167717,1,0,0:0:0:0:
192,192,167812,1,0,0:0:0:0:
64,192,167906,1,0,0:0:0:0:
448,192,167906,1,0,0:0:0:0:
320,192,167906,1,0,0:0:0:0:
64,192,168003,1,0,0:0:0:0:
192,192,168003,1,0,0:0:0:0:
320,192,168052,1,0,0:0:0:0:
448,192,168100,1,0,0:0:0:0:
64,192,168197,1,0,0:0:0:0:
192,192,168197,1,0,0:0:0:0:
320,192,168229,1,0,0:0:0:0:
448,192,168261,1,0,0:0:0:0:
64,192,168294,1,0,0:0:0:0:
320,192,168336,1,0,0:0:0:0:
192,192,168379,1,0,0:0:0:0:
64,192,168423,1,0,0:0:0:0:
448,192,168465,1,0,0:0:0:0:
192,192,168508,1,0,0:0:0:0:
320,192,168552,1,0,0:0:0:0:
448,192,168595,1,0,0:0:0:0:
320,192,168637,1,0,0:0:0:0:
64,192,168681,1,0,0:0:0:0:
192,192,168681,1,0,0:0:0:0:
448,192,168729,1,0,0:0:0:0:
320,192,168777,1,0,0:0:0:0:
192,192,168826,1,0,0:0:0:0:
448,192,168874,1,0,0:0:0:0:
64,192,168874,1,0,0:0:0:0:
320,192,168923,1,0,0:0:0:0:
64,192,168971,1,0,0:0:0:0:
192,192,168971,1,0,0:0:0:0:
320,192,169019,1,0,0:0:0:0:
448,192,169068,1,0,0:0:0:0:
320,192,169115,1,0,0:0:0:0:
64,192,169162,1,0,0:0:0:0:
192,192,169209,1,0,0:0:0:0:
448,192,169256,1,0,0:0:0:0:
64,192,169256,1,0,0:0:0:0:
192,192,169304,1,0,0:0:0:0:
320,192,169351,1,0,0:0:0:0:
448,192,169398,1,0,0:0:0:0:
64,192,169445,1,0,0:0:0:0:
192,192,169445,1,0,0:0:0:0:
192,192,169540,1,0,0:0:0:0:
448,192,169540,1,0,0:0:0:0:
64,192,169634,1,0,0:0:0:0:
320,192,169634,1,0,0:0:0:0:
448,192,169729,1,0,0:0:0:0:
320,192,169729,1,0,0:0:0:0:
64,192,169760,1,0,0:0:0:0:
192,192,169792,1,0,0:0:0:0:
320,192,169823,1,0,0:0:0:0:
64,192,169866,1,0,0:0:0:0:
448,192,169907,1,0,0:0:0:0:
320,192,169949,1,0,0:0:0:0:
192,192,169991,1,0,0:0:0:0:
64,192,170034,1,0,0:0:0:0:
192,192,170075,1,0,0:0:0:0:
320,192,170118,1,0,0:0:0:0:
448,192,170159,1,0,0:0:0:0:
64,192,170201,1,0,0:0:0:0:
192,192,170201,1,0,0:0:0:0:
320,192,170249,1,0,0:0:0:0:
448,192,170296,1,0,0:0:0:0:
64,192,170343,1,0,0:0:0:0:
320,192,170390,1,0,0:0:0:0:
192,192,170390,1,0,0:0:0:0:
448,192,170438,1,0,0:0:0:0:
192,192,170485,1,0,0:0:0:0:
64,192,170485,1,0,0:0:0:0:
320,192,170532,1,0,0:0:0:0:
192,192,170579,1,0,0:0:0:0:
448,192,170627,1,0,0:0:0:0:
64,192,170674,1,0,0:0:0:0:
192,192,170721,1,0,0:0:0:0:
448,192,170768,1,0,0:0:0:0:
320,192,170768,1,0,0:0:0:0:
64,192,170816,1,0,0:0:0:0:
320,192,170863,1,0,0:0:0:0:
192,192,170910,1,0,0:0:0:0:
64,192,170958,1,0,0:0:0:0:
448,192,170958,1,0,0:0:0:0:
192,192,171005,1,0,0:0:0:0:
448,192,171053,1,0,0:0:0:0:
64,192,171100,1,0,0:0:0:0:
320,192,171148,1,0,0:0:0:0:
64,192,171196,1,0,0:0:0:0:
448,192,171243,1,0,0:0:0:0:
320,192,171275,1,0,0:0:0:0:
192,192,171307,1,0,0:0:0:0:
64,192,171338,1,0,0:0:0:0:
448,192,171386,1,0,0:0:0:0:
192,192,171434,1,0,0:0:0:0:
320,192,171434,1,0,0:0:0:0:
64,192,171481,1,0,0:0:0:0:
448,192,171529,1,0,0:0:0:0:
320,192,171577,1,0,0:0:0:0:
192,192,171624,1,0,0:0:0:0:
64,192,171624,1,0,0:0:0:0:
64,192,171719,1,0,0:0:0:0:
448,192,171719,1,0,0:0:0:0:
320,192,171719,1,0,0:0:0:0:
448,192,171815,1,0,0:0:0:0:
192,192,171815,1,0,0:0:0:0:
192,192,171910,1,0,0:0:0:0:
64,192,172005,1,0,0:0:0:0:
192,192,172005,1,0,0:0:0:0:
448,192,172053,1,0,0:0:0:0:
64,192,172100,1,0,0:0:0:0:
320,192,172100,1,0,0:0:0:0:
320,192,172196,1,0,0:0:0:0:
448,192,172291,1,0,0:0:0:0:
320,192,172291,1,0,0:0:0:0:
64,192,172338,1,0,0:0:0:0:
448,192,172386,1,0,0:0:0:0:
192,192,172386,1,0,0:0:0:0:
64,192,172481,1,0,0:0:0:0:
320,192,172481,1,0,0:0:0:0:
192,192,172481,1,0,0:0:0:0:
448,192,172577,1,0,0:0:0:0:
192,192,172577,1,0,0:0:0:0:
320,192,172672,1,0,0:0:0:0:
64,192,172672,1,0,0:0:0:0:
320,192,172767,1,0,0:0:0:0:
192,192,172767,1,0,0:0:0:0:
448,192,172767,128,0,172957:0:0:0:0:
320,192,172862,1,0,0:0:0:0:
64,192,172862,1,0,0:0:0:0:
192,192,172957,1,0,0:0:0:0:
64,192,172957,1,0,0:0:0:0:
320,192,173005,1,0,0:0:0:0:
192,192,173053,1,0,0:0:0:0:
448,192,173053,1,0,0:0:0:0:
320,192,173100,1,0,0:0:0:0:
64,192,173148,1,0,0:0:0:0:
192,192,173196,1,0,0:0:0:0:
320,192,173243,1,0,0:0:0:0:
448,192,173243,1,0,0:0:0:0:
192,192,173291,1,0,0:0:0:0:
64,192,173338,1,0,0:0:0:0:
448,192,173386,1,0,0:0:0:0:
320,192,173434,1,0,0:0:0:0:
192,192,173434,1,0,0:0:0:0:
448,192,173481,1,0,0:0:0:0:
320,192,173529,1,0,0:0:0:0:
448,192,173577,1,0,0:0:0:0:
192,192,173624,1,0,0:0:0:0:
64,192,173624,1,0,0:0:0:0:
320,192,173672,1,0,0:0:0:0:
448,192,173719,1,0,0:0:0:0:
192,192,173719,1,0,0:0:0:0:
64,192,173767,1,0,0:0:0:0:
320,192,173815,1,0,0:0:0:0:
448,192,173815,1,0,0:0:0:0:
192,192,173862,1,0,0:0:0:0:
320,192,173910,1,0,0:0:0:0:
448,192,173957,1,0,0:0:0:0:
64,192,174005,1,0,0:0:0:0:
192,192,174005,1,0,0:0:0:0:
320,192,174053,1,0,0:0:0:0:
192,192,174101,1,0,0:0:0:0:
448,192,174101,1,0,0:0:0:0:
64,192,174149,1,0,0:0:0:0:
448,192,174197,1,0,0:0:0:0:
320,192,174197,1,0,0:0:0:0:
64,192,174245,1,0,0:0:0:0:
320,192,174293,1,0,0:0:0:0:
192,192,174293,1,0,0:0:0:0:
192,192,174389,1,0,0:0:0:0:
448,192,174485,1,0,0:0:0:0:
320,192,174485,1,0,0:0:0:0:
64,192,174533,1,0,0:0:0:0:
320,192,174581,1,0,0:0:0:0:
192,192,174581,1,0,0:0:0:0:
448,192,174629,1,0,0:0:0:0:
320,192,174677,1,0,0:0:0:0:
192,192,174725,1,0,0:0:0:0:
64,192,174773,1,0,0:0:0:0:
448,192,174773,1,0,0:0:0:0:
320,192,174821,1,0,0:0:0:0:
64,192,174869,1,0,0:0:0:0:
192,192,174917,1,0,0:0:0:0:
320,192,174965,1,0,0:0:0:0:
64,192,174965,1,0,0:0:0:0:
192,192,175013,1,0,0:0:0:0:
448,192,175061,1,0,0:0:0:0:
64,192,175109,1,0,0:0:0:0:
448,192,175157,1,0,0:0:0:0:
320,192,175205,1,0,0:0:0:0:
64,192,175253,1,0,0:0:0:0:
448,192,175253,1,0,0:0:0:0:
320,192,175301,1,0,0:0:0:0:
192,192,175349,1,0,0:0:0:0:
448,192,175397,1,0,0:0:0:0:
192,192,175445,1,0,0:0:0:0:
64,192,175493,1,0,0:0:0:0:
448,192,175541,1,0,0:0:0:0:
192,192,175541,1,0,0:0:0:0:
64,192,175589,1,0,0:0:0:0:
320,192,175637,1,0,0:0:0:0:
192,192,175685,1,0,0:0:0:0:
320,192,175733,1,0,0:0:0:0:
448,192,175781,1,0,0:0:0:0:
320,192,175829,1,0,0:0:0:0:
192,192,175829,1,0,0:0:0:0:
64,192,175829,1,0,0:0:0:0:
448,192,175877,1,0,0:0:0:0:
64,192,175925,1,0,0:0:0:0:
192,192,176021,1,0,0:0:0:0:
448,192,176021,1,0,0:0:0:0:
320,192,176117,1,0,0:0:0:0:
64,192,176117,1,0,0:0:0:0:
64,192,176213,1,0,0:0:0:0:
320,192,176213,1,0,0:0:0:0:
64,192,176309,1,0,0:0:0:0:
192,192,176309,1,0,0:0:0:0:
448,192,176309,1,0,0:0:0:0:
192,192,176404,1,0,0:0:0:0:
448,192,176404,1,0,0:0:0:0:
320,192,176499,1,0,0:0:0:0:
64,192,176499,1,0,0:0:0:0:
448,192,176594,1,0,0:0:0:0:
192,192,176594,1,0,0:0:0:0:
64,192,176689,1,0,0:0:0:0:
448,192,176689,1,0,0:0:0:0:
192,192,176689,1,0,0:0:0:0:
192,192,176785,1,0,0:0:0:0:
448,192,176785,1,0,0:0:0:0:
320,192,176880,1,0,0:0:0:0:
64,192,176880,1,0,0:0:0:0:
192,192,176975,1,0,0:0:0:0:
448,192,176975,1,0,0:0:0:0:
320,192,177071,1,0,0:0:0:0:
64,192,177071,1,0,0:0:0:0:
192,192,177071,1,0,0:0:0:0:
320,192,177164,1,0,0:0:0:0:
448,192,177164,1,0,0:0:0:0:
192,192,177258,1,0,0:0:0:0:
64,192,177258,1,0,0:0:0:0:
448,192,177352,1,0,0:0:0:0:
320,192,177352,1,0,0:0:0:0:
192,192,177352,1,0,0:0:0:0:
64,192,177446,1,0,0:0:0:0:
192,192,177487,1,0,0:0:0:0:
320,192,177529,1,0,0:0:0:0:
448,192,177571,1,0,0:0:0:0:
64,192,177602,1,0,0:0:0:0:
192,192,177633,1,0,0:0:0:0:
320,192,177664,1,0,0:0:0:0:
448,192,177696,1,0,0:0:0:0:
64,192,177727,1,0,0:0:0:0:
192,192,177758,1,0,0:0:0:0:
64,192,177821,1,0,0:0:0:0:
448,192,177821,1,0,0:0:0:0:
320,192,177821,1,0,0:0:0:0:
448,192,177914,1,0,0:0:0:0:
320,192,178008,1,0,0:0:0:0:
64,192,178008,1,0,0:0:0:0:
192,192,178008,1,0,0:0:0:0:
64,192,178102,1,0,0:0:0:0:
320,192,178102,1,0,0:0:0:0:
448,192,178196,1,0,0:0:0:0:
192,192,178196,1,0,0:0:0:0:
320,192,178289,1,0,0:0:0:0:
64,192,178289,1,0,0:0:0:0:
64,192,178383,1,0,0:0:0:0:
320,192,178383,1,0,0:0:0:0:
448,192,178477,1,0,0:0:0:0:
192,192,178477,1,0,0:0:0:0:
448,192,178571,1,0,0:0:0:0:
192,192,178571,1,0,0:0:0:0:
448,192,178667,1,0,0:0:0:0:
192,192,178667,1,0,0:0:0:0:
64,192,178763,1,0,0:0:0:0:
320,192,178763,1,0,0:0:0:0:
320,192,178859,1,0,0:0:0:0:
448,192,178859,1,0,0:0:0:0:
192,192,178859,1,0,0:0:0:0:
192,192,178955,1,0,0:0:0:0:
64,192,179051,1,0,0:0:0:0:
448,192,179051,1,0,0:0:0:0:
320,192,179051,1,0,0:0:0:0:
448,192,179147,1,0,0:0:0:0:
192,192,179147,1,0,0:0:0:0:
448,192,179243,1,0,0:0:0:0:
192,192,179243,1,0,0:0:0:0:
320,192,179339,1,0,0:0:0:0:
64,192,179339,1,0,0:0:0:0:
192,192,179339,1,0,0:0:0:0:
320,192,179435,1,0,0:0:0:0:
64,192,179435,1,0,0:0:0:0:
448,192,179531,1,0,0:0:0:0:
192,192,179531,1,0,0:0:0:0:
448,192,179627,1,0,0:0:0:0:
192,192,179627,1,0,0:0:0:0:
192,192,179723,1,0,0:0:0:0:
64,192,179723,1,0,0:0:0:0:
64,192,179819,1,0,0:0:0:0:
448,192,179819,1,0,0:0:0:0:
320,192,179819,1,0,0:0:0:0:
448,192,179915,1,0,0:0:0:0:
192,192,179915,1,0,0:0:0:0:
448,192,180011,1,0,0:0:0:0:
192,192,180011,1,0,0:0:0:0:
320,192,180107,1,0,0:0:0:0:
64,192,180107,1,0,0:0:0:0:
192,192,180107,1,0,0:0:0:0:
64,192,180202,1,0,0:0:0:0:
320,192,180202,1,0,0:0:0:0:
448,192,180297,1,0,0:0:0:0:
192,192,180297,1,0,0:0:0:0:
192,192,180392,1,0,0:0:0:0:
448,192,180392,1,0,0:0:0:0:
192,192,180487,1,0,0:0:0:0:
64,192,180487,1,0,0:0:0:0:
448,192,180583,1,0,0:0:0:0:
320,192,180583,1,0,0:0:0:0:
64,192,180583,1,0,0:0:0:0:
448,192,180678,1,0,0:0:0:0:
192,192,180678,1,0,0:0:0:0:
448,192,180773,1,0,0:0:0:0:
192,192,180773,1,0,0:0:0:0:
320,192,180868,1,0,0:0:0:0:
64,192,180868,1,0,0:0:0:0:
192,192,180868,1,0,0:0:0:0:
64,192,180964,1,0,0:0:0:0:
320,192,180964,1,0,0:0:0:0:
448,192,181059,1,0,0:0:0:0:
192,192,181059,1,0,0:0:0:0:
192,192,181154,1,0,0:0:0:0:
448,192,181154,1,0,0:0:0:0:
64,192,181249,1,0,0:0:0:0:
192,192,181249,1,0,0:0:0:0:
64,192,181345,1,0,0:0:0:0:
448,192,181345,1,0,0:0:0:0:
320,192,181345,1,0,0:0:0:0:
448,192,181440,1,0,0:0:0:0:
192,192,181440,1,0,0:0:0:0:
192,192,181535,1,0,0:0:0:0:
448,192,181535,1,0,0:0:0:0:
320,192,181630,1,0,0:0:0:0:
64,192,181630,1,0,0:0:0:0:
192,192,181630,1,0,0:0:0:0:
320,192,181726,1,0,0:0:0:0:
64,192,181726,1,0,0:0:0:0:
448,192,181821,1,0,0:0:0:0:
192,192,181821,1,0,0:0:0:0:
448,192,181916,1,0,0:0:0:0:
192,192,181916,1,0,0:0:0:0:
64,192,182011,1,0,0:0:0:0:
192,192,182011,1,0,0:0:0:0:
64,192,182106,1,0,0:0:0:0:
448,192,182106,1,0,0:0:0:0:
320,192,182106,1,0,0:0:0:0:
448,192,182202,1,0,0:0:0:0:
192,192,182202,1,0,0:0:0:0:
448,192,182297,1,0,0:0:0:0:
192,192,182297,1,0,0:0:0:0:
320,192,182392,1,0,0:0:0:0:
64,192,182392,1,0,0:0:0:0:
192,192,182392,1,0,0:0:0:0:
320,192,182487,1,0,0:0:0:0:
64,192,182487,1,0,0:0:0:0:
448,192,182583,1,0,0:0:0:0:
192,192,182583,1,0,0:0:0:0:
192,192,182678,1,0,0:0:0:0:
448,192,182678,1,0,0:0:0:0:
64,192,182773,1,0,0:0:0:0:
192,192,182773,1,0,0:0:0:0:
320,192,182773,1,0,0:0:0:0:
64,192,182868,1,0,0:0:0:0:
320,192,182868,1,0,0:0:0:0:
192,192,182964,1,0,0:0:0:0:
320,192,182964,1,0,0:0:0:0:
64,192,183059,1,0,0:0:0:0:
192,192,183059,1,0,0:0:0:0:
64,192,183155,1,0,0:0:0:0:
320,192,183155,1,0,0:0:0:0:
448,192,183155,1,0,0:0:0:0:
64,192,183251,1,0,0:0:0:0:
448,192,183251,1,0,0:0:0:0:
192,192,183347,1,0,0:0:0:0:
320,192,183347,1,0,0:0:0:0:
192,192,183443,1,0,0:0:0:0:
320,192,183443,1,0,0:0:0:0:
448,192,183443,1,0,0:0:0:0:
64,192,183539,1,0,0:0:0:0:
192,192,183635,1,0,0:0:0:0:
320,192,183635,1,0,0:0:0:0:
448,192,183635,1,0,0:0:0:0:
448,192,183731,1,0,0:0:0:0:
64,192,183731,1,0,0:0:0:0:
320,192,183827,1,0,0:0:0:0:
192,192,183827,1,0,0:0:0:0:
192,192,183923,128,0,184019:0:0:0:0:
64,192,183923,128,0,184019:0:0:0:0:
448,192,183923,1,0,0:0:0:0:
448,192,184019,1,0,0:0:0:0:
192,192,184115,128,0,184211:0:0:0:0:
64,192,184115,128,0,184211:0:0:0:0:
448,192,184115,1,0,0:0:0:0:
448,192,184211,1,0,0:0:0:0:
448,192,184307,1,0,0:0:0:0:
64,192,184307,1,0,0:0:0:0:
192,192,184307,1,0,0:0:0:0:
192,192,184391,1,0,0:0:0:0:
64,192,184391,1,0,0:0:0:0:
448,192,184477,1,0,0:0:0:0:
320,192,184477,1,0,0:0:0:0:
192,192,184477,1,0,0:0:0:0:
64,192,184595,1,0,0:0:0:0:
320,192,184595,1,0,0:0:0:0:
320,192,184691,1,0,0:0:0:0:
448,192,184691,1,0,0:0:0:0:
192,192,184691,1,0,0:0:0:0:
192,192,184785,1,0,0:0:0:0:
64,192,184785,1,0,0:0:0:0:
320,192,184879,1,0,0:0:0:0:
448,192,184879,1,0,0:0:0:0:
320,192,184974,128,0,185068:0:0:0:0:
448,192,184974,128,0,185068:0:0:0:0:
64,192,184974,128,0,185068:0:0:0:0:
192,192,184974,128,0,185068:0:0:0:0:
64,192,185163,1,0,0:0:0:0:
448,192,185163,1,0,0:0:0:0:
192,192,185210,1,0,0:0:0:0:
320,192,185257,1,0,0:0:0:0:
192,192,185305,1,0,0:0:0:0:
64,192,185352,1,0,0:0:0:0:
192,192,185399,1,0,0:0:0:0:
448,192,185446,1,0,0:0:0:0:
320,192,185446,1,0,0:0:0:0:
64,192,185494,1,0,0:0:0:0:
448,192,185541,1,0,0:0:0:0:
320,192,185541,1,0,0:0:0:0:
192,192,185588,1,0,0:0:0:0:
448,192,185635,1,0,0:0:0:0:
64,192,185667,1,0,0:0:0:0:
192,192,185698,1,0,0:0:0:0:
320,192,185730,1,0,0:0:0:0:
448,192,185761,1,0,0:0:0:0:
64,192,185824,1,0,0:0:0:0:
192,192,185824,1,0,0:0:0:0:
320,192,185872,1,0,0:0:0:0:
64,192,185919,1,0,0:0:0:0:
192,192,185919,1,0,0:0:0:0:
320,192,185966,1,0,0:0:0:0:
64,192,186013,1,0,0:0:0:0:
448,192,186045,1,0,0:0:0:0:
320,192,186076,1,0,0:0:0:0:
192,192,186108,1,0,0:0:0:0:
64,192,186139,1,0,0:0:0:0:
320,192,186202,1,0,0:0:0:0:
448,192,186202,1,0,0:0:0:0:
192,192,186244,1,0,0:0:0:0:
448,192,186286,1,0,0:0:0:0:
64,192,186328,1,0,0:0:0:0:
192,192,186360,1,0,0:0:0:0:
320,192,186391,1,0,0:0:0:0:
64,192,186423,1,0,0:0:0:0:
448,192,186454,1,0,0:0:0:0:
320,192,186486,1,0,0:0:0:0:
192,192,186517,1,0,0:0:0:0:
64,192,186549,1,0,0:0:0:0:
448,192,186580,1,0,0:0:0:0:
320,192,186580,1,0,0:0:0:0:
192,192,186628,1,0,0:0:0:0:
448,192,186675,1,0,0:0:0:0:
64,192,186706,1,0,0:0:0:0:
320,192,186738,1,0,0:0:0:0:
192,192,186769,1,0,0:0:0:0:
448,192,186832,1,0,0:0:0:0:
64,192,186864,1,0,0:0:0:0:
192,192,186895,1,0,0:0:0:0:
320,192,186927,1,0,0:0:0:0:
64,192,186958,1,0,0:0:0:0:
448,192,186958,1,0,0:0:0:0:
320,192,187005,1,0,0:0:0:0:
192,192,187053,1,0,0:0:0:0:
448,192,187084,1,0,0:0:0:0:
64,192,187116,1,0,0:0:0:0:
320,192,187147,1,0,0:0:0:0:
192,192,187171,1,0,0:0:0:0:
448,192,187210,1,0,0:0:0:0:
64,192,187242,1,0,0:0:0:0:
192,192,187273,1,0,0:0:0:0:
448,192,187336,1,0,0:0:0:0:
320,192,187336,1,0,0:0:0:0:
192,192,187383,1,0,0:0:0:0:
448,192,187431,1,0,0:0:0:0:
64,192,187462,1,0,0:0:0:0:
192,192,187494,1,0,0:0:0:0:
320,192,187525,1,0,0:0:0:0:
448,192,187557,1,0,0:0:0:0:
64,192,187588,1,0,0:0:0:0:
320,192,187651,1,0,0:0:0:0:
64,192,187714,1,0,0:0:0:0:
192,192,187714,1,0,0:0:0:0:
448,192,187763,1,0,0:0:0:0:
192,192,187811,1,0,0:0:0:0:
320,192,187843,1,0,0:0:0:0:
64,192,187875,1,0,0:0:0:0:
448,192,187939,1,0,0:0:0:0:
320,192,187971,1,0,0:0:0:0:
64,192,188003,1,0,0:0:0:0:
192,192,188003,1,0,0:0:0:0:
320,192,188099,1,0,0:0:0:0:
64,192,188195,1,0,0:0:0:0:
448,192,188195,1,0,0:0:0:0:
192,192,188243,1,0,0:0:0:0:
448,192,188291,1,0,0:0:0:0:
64,192,188291,1,0,0:0:0:0:
320,192,188339,1,0,0:0:0:0:
192,192,188387,1,0,0:0:0:0:
448,192,188387,1,0,0:0:0:0:
320,192,188435,1,0,0:0:0:0:
64,192,188483,1,0,0:0:0:0:
192,192,188483,1,0,0:0:0:0:
448,192,188530,1,0,0:0:0:0:
64,192,188577,1,0,0:0:0:0:
320,192,188671,1,0,0:0:0:0:
448,192,188671,1,0,0:0:0:0:
64,192,188719,1,0,0:0:0:0:
192,192,188766,1,0,0:0:0:0:
448,192,188813,1,0,0:0:0:0:
192,192,188860,1,0,0:0:0:0:
320,192,188860,1,0,0:0:0:0:
64,192,188908,1,0,0:0:0:0:
320,192,188955,1,0,0:0:0:0:
192,192,189049,1,0,0:0:0:0:
448,192,189049,1,0,0:0:0:0:
64,192,189049,1,0,0:0:0:0:
320,192,189144,1,0,0:0:0:0:
64,192,189144,1,0,0:0:0:0:
192,192,189168,1,0,0:0:0:0:
64,192,189238,1,0,0:0:0:0:
448,192,189238,1,0,0:0:0:0:
320,192,189238,1,0,0:0:0:0:
192,192,189333,1,0,0:0:0:0:
448,192,189333,1,0,0:0:0:0:
320,192,189357,1,0,0:0:0:0:
192,192,189427,1,0,0:0:0:0:
448,192,189522,128,0,189616:0:0:0:0:
320,192,189522,128,0,189616:0:0:0:0:
64,192,189522,1,0,0:0:0:0:
192,192,189616,1,0,0:0:0:0:
64,192,189711,1,0,0:0:0:0:
448,192,189711,1,0,0:0:0:0:
320,192,189805,1,0,0:0:0:0:
192,192,189805,1,0,0:0:0:0:
192,192,189900,1,0,0:0:0:0:
320,192,189900,1,0,0:0:0:0:
448,192,189994,1,0,0:0:0:0:
64,192,189994,1,0,0:0:0:0:
192,192,189994,1,0,0:0:0:0:
64,192,190089,1,0,0:0:0:0:
448,192,190089,1,0,0:0:0:0:
320,192,190183,1,0,0:0:0:0:
448,192,190183,1,0,0:0:0:0:
320,192,190278,1,0,0:0:0:0:
192,192,190278,1,0,0:0:0:0:
192,192,190372,1,0,0:0:0:0:
64,192,190372,1,0,0:0:0:0:
192,192,190467,1,0,0:0:0:0:
64,192,190467,1,0,0:0:0:0:
192,192,190561,1,0,0:0:0:0:
448,192,190561,1,0,0:0:0:0:
320,192,190561,1,0,0:0:0:0:
448,192,190656,1,0,0:0:0:0:
320,192,190656,1,0,0:0:0:0:
64,192,190750,1,0,0:0:0:0:
448,192,190750,1,0,0:0:0:0:
320,192,190750,1,0,0:0:0:0:
192,192,190750,1,0,0:0:0:0:
320,192,190845,1,0,0:0:0:0:
448,192,190940,1,0,0:0:0:0:
64,192,190940,1,0,0:0:0:0:
192,192,190940,1,0,0:0:0:0:
64,192,191035,1,0,0:0:0:0:
320,192,191035,1,0,0:0:0:0:
192,192,191035,1,0,0:0:0:0:
448,192,191083,1,0,0:0:0:0:
320,192,191130,1,0,0:0:0:0:
192,192,191178,1,0,0:0:0:0:
448,192,191226,1,0,0:0:0:0:
64,192,191273,1,0,0:0:0:0:
320,192,191321,1,0,0:0:0:0:
192,192,191321,1,0,0:0:0:0:
192,192,191416,1,0,0:0:0:0:
64,192,191416,1,0,0:0:0:0:
64,192,191511,1,0,0:0:0:0:
320,192,191511,1,0,0:0:0:0:
448,192,191511,1,0,0:0:0:0:
192,192,191607,1,0,0:0:0:0:
320,192,191607,1,0,0:0:0:0:
448,192,191654,1,0,0:0:0:0:
320,192,191702,1,0,0:0:0:0:
192,192,191749,1,0,0:0:0:0:
64,192,191797,1,0,0:0:0:0:
448,192,191845,1,0,0:0:0:0:
64,192,191892,1,0,0:0:0:0:
448,192,191940,1,0,0:0:0:0:
64,192,191988,1,0,0:0:0:0:
448,192,192035,1,0,0:0:0:0:
64,192,192083,1,0,0:0:0:0:
448,192,192130,1,0,0:0:0:0:
64,192,192178,1,0,0:0:0:0:
192,192,192226,1,0,0:0:0:0:
448,192,192273,1,0,0:0:0:0:
320,192,192273,1,0,0:0:0:0:
64,192,192370,1,0,0:0:0:0:
320,192,192370,1,0,0:0:0:0:
192,192,192466,1,0,0:0:0:0:
64,192,192562,1,0,0:0:0:0:
448,192,192562,1,0,0:0:0:0:
320,192,192610,1,0,0:0:0:0:
192,192,192658,1,0,0:0:0:0:
448,192,192706,1,0,0:0:0:0:
64,192,192754,1,0,0:0:0:0:
192,192,192754,1,0,0:0:0:0:
448,192,192802,1,0,0:0:0:0:
64,192,192850,1,0,0:0:0:0:
320,192,192850,1,0,0:0:0:0:
320,192,192946,1,0,0:0:0:0:
448,192,193042,1,0,0:0:0:0:
192,192,193042,1,0,0:0:0:0:
64,192,193042,1,0,0:0:0:0:
320,192,193138,1,0,0:0:0:0:
192,192,193234,1,0,0:0:0:0:
64,192,193234,1,0,0:0:0:0:
448,192,193234,1,0,0:0:0:0:
448,192,193330,1,0,0:0:0:0:
320,192,193330,1,0,0:0:0:0:
192,192,193330,1,0,0:0:0:0:
64,192,193426,1,0,0:0:0:0:
320,192,193426,1,0,0:0:0:0:
64,192,193522,1,0,0:0:0:0:
192,192,193522,1,0,0:0:0:0:
448,192,193522,1,0,0:0:0:0:
192,192,193618,1,0,0:0:0:0:
320,192,193618,1,0,0:0:0:0:
320,192,193714,1,0,0:0:0:0:
64,192,193810,1,0,0:0:0:0:
192,192,193810,1,0,0:0:0:0:
448,192,193810,1,0,0:0:0:0:
192,192,193906,1,0,0:0:0:0:
448,192,193906,1,0,0:0:0:0:
448,192,194002,1,0,0:0:0:0:
320,192,194002,1,0,0:0:0:0:
448,192,194098,1,0,0:0:0:0:
320,192,194098,1,0,0:0:0:0:
192,192,194194,1,0,0:0:0:0:
64,192,194194,1,0,0:0:0:0:
448,192,194194,1,0,0:0:0:0:
320,192,194288,1,0,0:0:0:0:
64,192,194288,1,0,0:0:0:0:
192,192,194382,1,0,0:0:0:0:
64,192,194382,1,0,0:0:0:0:
64,192,194477,1,0,0:0:0:0:
192,192,194477,1,0,0:0:0:0:
64,192,194571,1,0,0:0:0:0:
192,192,194571,1,0,0:0:0:0:
192,192,194666,1,0,0:0:0:0:
64,192,194666,1,0,0:0:0:0:
320,192,194760,1,0,0:0:0:0:
64,192,194760,1,0,0:0:0:0:
448,192,194760,1,0,0:0:0:0:
192,192,194855,1,0,0:0:0:0:
448,192,194855,1,0,0:0:0:0:
448,192,194949,1,0,0:0:0:0:
320,192,194949,1,0,0:0:0:0:
192,192,195044,1,0,0:0:0:0:
64,192,195044,1,0,0:0:0:0:
448,192,195044,1,0,0:0:0:0:
320,192,195138,1,0,0:0:0:0:
64,192,195138,1,0,0:0:0:0:
192,192,195233,1,0,0:0:0:0:
64,192,195233,1,0,0:0:0:0:
320,192,195328,1,0,0:0:0:0:
448,192,195328,1,0,0:0:0:0:
64,192,195328,1,0,0:0:0:0:
192,192,195423,1,0,0:0:0:0:
448,192,195423,1,0,0:0:0:0:
448,192,195518,1,0,0:0:0:0:
320,192,195518,1,0,0:0:0:0:
320,192,195613,1,0,0:0:0:0:
64,192,195613,1,0,0:0:0:0:
192,192,195613,1,0,0:0:0:0:
192,192,195708,1,0,0:0:0:0:
64,192,195804,1,0,0:0:0:0:
448,192,195804,1,0,0:0:0:0:
320,192,195804,1,0,0:0:0:0:
192,192,195899,1,0,0:0:0:0:
448,192,195899,1,0,0:0:0:0:
320,192,195994,1,0,0:0:0:0:
64,192,196089,1,0,0:0:0:0:
448,192,196089,1,0,0:0:0:0:
320,192,196089,1,0,0:0:0:0:
192,192,196089,1,0,0:0:0:0:
192,192,196185,1,0,0:0:0:0:
320,192,196280,1,0,0:0:0:0:
64,192,196280,1,0,0:0:0:0:
448,192,196280,1,0,0:0:0:0:
448,192,196375,1,0,0:0:0:0:
192,192,196375,1,0,0:0:0:0:
64,192,196375,1,0,0:0:0:0:
320,192,196470,1,0,0:0:0:0:
448,192,196566,128,0,196756:0:0:0:0:
64,192,196566,1,0,0:0:0:0:
192,192,196566,1,0,0:0:0:0:
64,192,196661,1,0,0:0:0:0:
192,192,196661,1,0,0:0:0:0:
64,192,196756,1,0,0:0:0:0:
192,192,196756,1,0,0:0:0:0:
320,192,196851,1,0,0:0:0:0:
448,192,196851,1,0,0:0:0:0:
192,192,196851,1,0,0:0:0:0:
64,192,196851,1,0,0:0:0:0:
320,192,196947,1,0,0:0:0:0:
192,192,197042,1,0,0:0:0:0:
320,192,197042,1,0,0:0:0:0:
64,192,197137,128,0,197327:0:0:0:0:
448,192,197137,1,0,0:0:0:0:
192,192,197137,1,0,0:0:0:0:
320,192,197232,1,0,0:0:0:0:
320,192,197327,1,0,0:0:0:0:
448,192,197327,1,0,0:0:0:0:
192,192,197375,1,0,0:0:0:0:
64,192,197423,1,0,0:0:0:0:
448,192,197423,1,0,0:0:0:0:
192,192,197470,1,0,0:0:0:0:
320,192,197518,1,0,0:0:0:0:
448,192,197566,1,0,0:0:0:0:
64,192,197613,1,0,0:0:0:0:
192,192,197613,1,0,0:0:0:0:
320,192,197677,1,0,0:0:0:0:
192,192,197708,1,0,0:0:0:0:
64,192,197740,1,0,0:0:0:0:
448,192,197804,1,0,0:0:0:0:
192,192,197835,1,0,0:0:0:0:
448,192,197899,1,0,0:0:0:0:
320,192,197947,1,0,0:0:0:0:
64,192,197995,1,0,0:0:0:0:
192,192,197995,1,0,0:0:0:0:
448,192,198055,1,0,0:0:0:0:
192,192,198085,1,0,0:0:0:0:
320,192,198116,1,0,0:0:0:0:
448,192,198146,1,0,0:0:0:0:
64,192,198176,1,0,0:0:0:0:
320,192,198237,1,0,0:0:0:0:
64,192,198267,1,0,0:0:0:0:
192,192,198298,1,0,0:0:0:0:
448,192,198358,1,0,0:0:0:0:
320,192,198358,1,0,0:0:0:0:
64,192,198421,1,0,0:0:0:0:
320,192,198453,1,0,0:0:0:0:
192,192,198453,1,0,0:0:0:0:
192,192,198548,1,0,0:0:0:0:
64,192,198643,1,0,0:0:0:0:
448,192,198643,1,0,0:0:0:0:
64,192,198738,1,0,0:0:0:0:
448,192,198738,1,0,0:0:0:0:
64,192,198834,1,0,0:0:0:0:
448,192,198834,1,0,0:0:0:0:
320,192,198881,1,0,0:0:0:0:
192,192,198929,1,0,0:0:0:0:
320,192,198977,1,0,0:0:0:0:
64,192,199024,1,0,0:0:0:0:
448,192,199024,1,0,0:0:0:0:
448,192,199119,1,0,0:0:0:0:
64,192,199119,1,0,0:0:0:0:
448,192,199215,1,0,0:0:0:0:
64,192,199215,1,0,0:0:0:0:
192,192,199262,1,0,0:0:0:0:
320,192,199310,1,0,0:0:0:0:
192,192,199357,1,0,0:0:0:0:
448,192,199405,1,0,0:0:0:0:
64,192,199405,1,0,0:0:0:0:
64,192,199500,1,0,0:0:0:0:
448,192,199500,1,0,0:0:0:0:
64,192,199596,1,0,0:0:0:0:
448,192,199596,1,0,0:0:0:0:
320,192,199643,1,0,0:0:0:0:
192,192,199691,1,0,0:0:0:0:
320,192,199738,1,0,0:0:0:0:
64,192,199786,1,0,0:0:0:0:
448,192,199786,1,0,0:0:0:0:
192,192,199881,1,0,0:0:0:0:
320,192,199881,1,0,0:0:0:0:
64,192,199881,1,0,0:0:0:0:
192,192,199977,1,0,0:0:0:0:
448,192,199977,1,0,0:0:0:0:
64,192,200072,1,0,0:0:0:0:
448,192,200167,128,0,200357:0:0:0:0:
320,192,200167,1,0,0:0:0:0:
192,192,200167,1,0,0:0:0:0:
192,192,200262,1,0,0:0:0:0:
320,192,200357,1,0,0:0:0:0:
64,192,200357,1,0,0:0:0:0:
320,192,200453,1,0,0:0:0:0:
64,192,200453,1,0,0:0:0:0:
64,192,200548,1,0,0:0:0:0:
192,192,200548,1,0,0:0:0:0:
192,192,200643,1,0,0:0:0:0:
320,192,200643,1,0,0:0:0:0:
448,192,200643,1,0,0:0:0:0:
448,192,200738,1,0,0:0:0:0:
64,192,200834,1,0,0:0:0:0:
192,192,200834,1,0,0:0:0:0:
320,192,200834,1,0,0:0:0:0:
64,192,200929,1,0,0:0:0:0:
448,192,201024,1,0,0:0:0:0:
320,192,201024,1,0,0:0:0:0:
192,192,201024,1,0,0:0:0:0:
448,192,201119,1,0,0:0:0:0:
320,192,201119,1,0,0:0:0:0:
192,192,201119,1,0,0:0:0:0:
64,192,201215,1,0,0:0:0:0:
192,192,201215,1,0,0:0:0:0:
448,192,201310,1,0,0:0:0:0:
320,192,201310,1,0,0:0:0:0:
192,192,201310,1,0,0:0:0:0:
64,192,201405,1,0,0:0:0:0:
448,192,201405,1,0,0:0:0:0:
320,192,201405,1,0,0:0:0:0:
192,192,201500,1,0,0:0:0:0:
64,192,201596,1,0,0:0:0:0:
448,192,201596,1,0,0:0:0:0:
320,192,201596,1,0,0:0:0:0:
192,192,201691,128,0,201786:0:0:0:0:
64,192,201691,128,0,201881:0:0:0:0:
448,192,201691,1,0,0:0:0:0:
320,192,201786,1,0,0:0:0:0:
448,192,201881,1,0,0:0:0:0:
192,192,201881,1,0,0:0:0:0:
192,192,201977,1,0,0:0:0:0:
64,192,201977,1,0,0:0:0:0:
320,192,201977,1,0,0:0:0:0:
320,192,202072,1,0,0:0:0:0:
64,192,202072,1,0,0:0:0:0:
320,192,202167,1,0,0:0:0:0:
448,192,202167,1,0,0:0:0:0:
192,192,202167,1,0,0:0:0:0:
192,192,202262,5,0,0:0:0:0:
448,192,202262,1,0,0:0:0:0:
192,192,202357,1,0,0:0:0:0:
64,192,202357,1,0,0:0:0:0:
320,192,202357,1,0,0:0:0:0:
320,192,202453,1,0,0:0:0:0:
64,192,202453,1,0,0:0:0:0:
320,192,202548,1,0,0:0:0:0:
448,192,202548,1,0,0:0:0:0:
192,192,202548,1,0,0:0:0:0:
192,192,202643,1,0,0:0:0:0:
448,192,202643,1,0,0:0:0:0:
192,192,202738,1,0,0:0:0:0:
64,192,202738,1,0,0:0:0:0:
320,192,202738,1,0,0:0:0:0:
320,192,202834,1,0,0:0:0:0:
64,192,202834,1,0,0:0:0:0:
320,192,202929,1,0,0:0:0:0:
448,192,202929,1,0,0:0:0:0:
192,192,202929,1,0,0:0:0:0:
192,192,203024,1,0,0:0:0:0:
64,192,203024,1,0,0:0:0:0:
448,192,203024,1,0,0:0:0:0:
320,192,203119,1,0,0:0:0:0:
448,192,203215,5,0,0:0:0:0:
192,192,203215,1,0,0:0:0:0:
64,192,203262,1,0,0:0:0:0:
192,192,203310,1,0,0:0:0:0:
320,192,203357,1,0,0:0:0:0:
448,192,203405,1,0,0:0:0:0:
192,192,203453,1,0,0:0:0:0:
448,192,203500,1,0,0:0:0:0:
192,192,203548,1,0,0:0:0:0:
448,192,203596,1,0,0:0:0:0:
192,192,203643,1,0,0:0:0:0:
320,192,203691,1,0,0:0:0:0:
448,192,203691,1,0,0:0:0:0:
64,192,203739,1,0,0:0:0:0:
448,192,203787,1,0,0:0:0:0:
64,192,203835,1,0,0:0:0:0:
448,192,203883,1,0,0:0:0:0:
64,192,203931,1,0,0:0:0:0:
448,192,203979,1,0,0:0:0:0:
320,192,204027,1,0,0:0:0:0:
192,192,204075,1,0,0:0:0:0:
64,192,204123,1,0,0:0:0:0:
320,192,204171,1,0,0:0:0:0:
64,192,204219,1,0,0:0:0:0:
320,192,204267,1,0,0:0:0:0:
64,192,204315,1,0,0:0:0:0:
192,192,204363,1,0,0:0:0:0:
320,192,204411,1,0,0:0:0:0:
64,192,204459,1,0,0:0:0:0:
448,192,204459,1,0,0:0:0:0:
192,192,204507,1,0,0:0:0:0:
448,192,204555,1,0,0:0:0:0:
192,192,204603,1,0,0:0:0:0:
448,192,204651,1,0,0:0:0:0:
192,192,204699,1,0,0:0:0:0:
64,192,204747,1,0,0:0:0:0:
320,192,204747,1,0,0:0:0:0:
448,192,204795,1,0,0:0:0:0:
320,192,204843,1,0,0:0:0:0:
192,192,204891,1,0,0:0:0:0:
64,192,204939,1,0,0:0:0:0:
320,192,204987,1,0,0:0:0:0:
64,192,205035,1,0,0:0:0:0:
320,192,205083,1,0,0:0:0:0:
64,192,205131,1,0,0:0:0:0:
320,192,205179,1,0,0:0:0:0:
192,192,205227,1,0,0:0:0:0:
64,192,205227,1,0,0:0:0:0:
448,192,205275,1,0,0:0:0:0:
64,192,205323,1,0,0:0:0:0:
448,192,205371,1,0,0:0:0:0:
64,192,205419,1,0,0:0:0:0:
448,192,205467,1,0,0:0:0:0:
64,192,205515,1,0,0:0:0:0:
192,192,205563,1,0,0:0:0:0:
320,192,205611,1,0,0:0:0:0:
448,192,205659,1,0,0:0:0:0:
192,192,205707,1,0,0:0:0:0:
448,192,205755,1,0,0:0:0:0:
192,192,205803,1,0,0:0:0:0:
448,192,205851,1,0,0:0:0:0:
320,192,205899,1,0,0:0:0:0:
192,192,205947,1,0,0:0:0:0:
448,192,205995,1,0,0:0:0:0:
64,192,205995,1,0,0:0:0:0:
320,192,206043,1,0,0:0:0:0:
64,192,206091,1,0,0:0:0:0:
320,192,206139,1,0,0:0:0:0:
64,192,206187,1,0,0:0:0:0:
320,192,206235,1,0,0:0:0:0:
448,192,206283,1,0,0:0:0:0:
192,192,206283,1,0,0:0:0:0:
64,192,206331,1,0,0:0:0:0:
192,192,206379,1,0,0:0:0:0:
320,192,206427,1,0,0:0:0:0:
448,192,206475,1,0,0:0:0:0:
64,192,206523,1,0,0:0:0:0:
448,192,206571,1,0,0:0:0:0:
64,192,206619,1,0,0:0:0:0:
448,192,206667,1,0,0:0:0:0:
64,192,206715,1,0,0:0:0:0:
320,192,206763,1,0,0:0:0:0:
448,192,206763,1,0,0:0:0:0:
192,192,206811,1,0,0:0:0:0:
448,192,206859,1,0,0:0:0:0:
192,192,206907,1,0,0:0:0:0:
448,192,206955,1,0,0:0:0:0:
192,192,207003,1,0,0:0:0:0:
448,192,207051,1,0,0:0:0:0:
320,192,207099,1,0,0:0:0:0:
192,192,207147,1,0,0:0:0:0:
64,192,207195,1,0,0:0:0:0:
320,192,207243,1,0,0:0:0:0:
64,192,207291,1,0,0:0:0:0:
320,192,207339,1,0,0:0:0:0:
64,192,207387,1,0,0:0:0:0:
192,192,207435,1,0,0:0:0:0:
320,192,207483,1,0,0:0:0:0:
192,192,207531,1,0,0:0:0:0:
448,192,207531,1,0,0:0:0:0:
64,192,207579,1,0,0:0:0:0:
448,192,207627,1,0,0:0:0:0:
64,192,207675,1,0,0:0:0:0:
448,192,207723,1,0,0:0:0:0:
64,192,207771,1,0,0:0:0:0:
320,192,207819,1,0,0:0:0:0:
192,192,207819,1,0,0:0:0:0:
448,192,207867,1,0,0:0:0:0:
320,192,207915,1,0,0:0:0:0:
192,192,207963,1,0,0:0:0:0:
64,192,208011,1,0,0:0:0:0:
448,192,208059,1,0,0:0:0:0:
192,192,208107,1,0,0:0:0:0:
320,192,208155,1,0,0:0:0:0:
448,192,208203,1,0,0:0:0:0:
64,192,208251,1,0,0:0:0:0:
448,192,208299,1,0,0:0:0:0:
320,192,208299,1,0,0:0:0:0:
192,192,208347,1,0,0:0:0:0:
64,192,208395,1,0,0:0:0:0:
448,192,208443,1,0,0:0:0:0:
320,192,208491,1,0,0:0:0:0:
64,192,208539,1,0,0:0:0:0:
192,192,208587,1,0,0:0:0:0:
448,192,208635,1,0,0:0:0:0:
64,192,208683,1,0,0:0:0:0:
320,192,208726,1,0,0:0:0:0:
192,192,208768,1,0,0:0:0:0:
448,192,208811,1,0,0:0:0:0:
320,192,208854,1,0,0:0:0:0:
64,192,208896,1,0,0:0:0:0:
448,192,208939,1,0,0:0:0:0:
192,192,208982,1,0,0:0:0:0:
320,192,209024,1,0,0:0:0:0:
64,192,209067,1,0,0:0:0:0:
192,192,209109,1,0,0:0:0:0:
320,192,209151,1,0,0:0:0:0:
448,192,209193,1,0,0:0:0:0:
64,192,209225,1,0,0:0:0:0:
192,192,209257,1,0,0:0:0:0:
320,192,209289,1,0,0:0:0:0:
448,192,209320,1,0,0:0:0:0:
192,192,209352,1,0,0:0:0:0:
64,192,209352,1,0,0:0:0:0:
320,192,209400,1,0,0:0:0:0:
448,192,209447,1,0,0:0:0:0:
64,192,209495,1,0,0:0:0:0:
320,192,209543,1,0,0:0:0:0:
192,192,209590,1,0,0:0:0:0:
64,192,209638,1,0,0:0:0:0:
448,192,209686,1,0,0:0:0:0:
192,192,209733,1,0,0:0:0:0:
320,192,209781,1,0,0:0:0:0:
64,192,209828,1,0,0:0:0:0:
448,192,209828,1,0,0:0:0:0:
192,192,209876,1,0,0:0:0:0:
320,192,209924,1,0,0:0:0:0:
448,192,209971,1,0,0:0:0:0:
64,192,210019,1,0,0:0:0:0:
320,192,210066,1,0,0:0:0:0:
448,192,210114,1,0,0:0:0:0:
64,192,210162,1,0,0:0:0:0:
320,192,210209,1,0,0:0:0:0:
192,192,210252,1,0,0:0:0:0:
64,192,210295,1,0,0:0:0:0:
448,192,210336,1,0,0:0:0:0:
320,192,210379,1,0,0:0:0:0:
192,192,210422,1,0,0:0:0:0:
448,192,210463,1,0,0:0:0:0:
64,192,210506,1,0,0:0:0:0:
192,192,210548,1,0,0:0:0:0:
448,192,210590,1,0,0:0:0:0:
320,192,210633,1,0,0:0:0:0:
192,192,210675,1,0,0:0:0:0:
64,192,210717,1,0,0:0:0:0:
448,192,210749,1,0,0:0:0:0:
320,192,210781,1,0,0:0:0:0:
192,192,210813,1,0,0:0:0:0:
64,192,210844,1,0,0:0:0:0:
448,192,210876,1,0,0:0:0:0:
320,192,210876,1,0,0:0:0:0:
192,192,210924,1,0,0:0:0:0:
448,192,210971,1,0,0:0:0:0:
64,192,211019,1,0,0:0:0:0:
192,192,211081,1,0,0:0:0:0:
448,192,211135,1,0,0:0:0:0:
320,192,211190,1,0,0:0:0:0:
448,192,211244,1,0,0:0:0:0:
64,192,211299,1,0,0:0:0:0:
320,192,211352,1,0,0:0:0:0:
192,192,211352,1,0,0:0:0:0:
64,192,211407,1,0,0:0:0:0:
448,192,211462,1,0,0:0:0:0:
320,192,211516,1,0,0:0:0:0:
64,192,211571,1,0,0:0:0:0:
320,192,211625,1,0,0:0:0:0:
192,192,211679,1,0,0:0:0:0:
448,192,211733,1,0,0:0:0:0:
64,192,211788,1,0,0:0:0:0:
320,192,211843,1,0,0:0:0:0:
448,192,211897,1,0,0:0:0:0:
64,192,211924,1,0,0:0:0:0:
192,192,211955,1,0,0:0:0:0:
320,192,211987,1,0,0:0:0:0:
448,192,212019,1,0,0:0:0:0:
64,192,212114,1,0,0:0:0:0:
192,192,212114,1,0,0:0:0:0:
320,192,212162,1,0,0:0:0:0:
64,192,212209,1,0,0:0:0:0:
320,192,212257,1,0,0:0:0:0:
64,192,212305,1,0,0:0:0:0:
192,192,212352,1,0,0:0:0:0:
448,192,212400,1,0,0:0:0:0:
64,192,212400,1,0,0:0:0:0:
320,192,212447,1,0,0:0:0:0:
192,192,212495,1,0,0:0:0:0:
448,192,212543,1,0,0:0:0:0:
320,192,212590,1,0,0:0:0:0:
64,192,212638,1,0,0:0:0:0:
448,192,212686,1,0,0:0:0:0:
192,192,212733,1,0,0:0:0:0:
64,192,212781,1,0,0:0:0:0:
448,192,212828,1,0,0:0:0:0:
320,192,212876,1,0,0:0:0:0:
192,192,212876,1,0,0:0:0:0:
64,192,212924,1,0,0:0:0:0:
448,192,212971,1,0,0:0:0:0:
192,192,213019,1,0,0:0:0:0:
320,192,213066,1,0,0:0:0:0:
64,192,213114,1,0,0:0:0:0:
448,192,213162,1,0,0:0:0:0:
320,192,213209,1,0,0:0:0:0:
192,192,213257,1,0,0:0:0:0:
448,192,213305,1,0,0:0:0:0:
320,192,213352,1,0,0:0:0:0:
64,192,213400,1,0,0:0:0:0:
192,192,213447,1,0,0:0:0:0:
320,192,213495,1,0,0:0:0:0:
64,192,213543,1,0,0:0:0:0:
192,192,213590,1,0,0:0:0:0:
448,192,213638,1,0,0:0:0:0:
320,192,213638,1,0,0:0:0:0:
64,192,213693,1,0,0:0:0:0:
192,192,213733,1,0,0:0:0:0:
448,192,213747,1,0,0:0:0:0:
320,192,213802,1,0,0:0:0:0:
448,192,213856,1,0,0:0:0:0:
64,192,213924,1,0,0:0:0:0:
192,192,213924,1,0,0:0:0:0:
320,192,214019,1,0,0:0:0:0:
64,192,214114,1,0,0:0:0:0:
192,192,214114,1,0,0:0:0:0:
192,192,214209,1,0,0:0:0:0:
448,192,214209,1,0,0:0:0:0:
320,192,214257,1,0,0:0:0:0:
64,192,214305,1,0,0:0:0:0:
192,192,214352,1,0,0:0:0:0:
64,192,214400,1,0,0:0:0:0:
448,192,214400,1,0,0:0:0:0:
320,192,214400,1,0,0:0:0:0:
192,192,214495,1,0,0:0:0:0:
448,192,214495,1,0,0:0:0:0:
64,192,214590,1,0,0:0:0:0:
320,192,214590,1,0,0:0:0:0:
448,192,214686,1,0,0:0:0:0:
64,192,214686,1,0,0:0:0:0:
192,192,214686,1,0,0:0:0:0:
448,192,214781,1,0,0:0:0:0:
320,192,214781,1,0,0:0:0:0:
192,192,214876,1,0,0:0:0:0:
64,192,214876,1,0,0:0:0:0:
320,192,214971,1,0,0:0:0:0:
192,192,214971,1,0,0:0:0:0:
64,192,215066,1,0,0:0:0:0:
192,192,215066,1,0,0:0:0:0:
448,192,215162,1,0,0:0:0:0:
320,192,215162,1,0,0:0:0:0:
320,192,215257,1,0,0:0:0:0:
64,192,215257,1,0,0:0:0:0:
320,192,215352,1,0,0:0:0:0:
448,192,215352,1,0,0:0:0:0:
192,192,215447,1,0,0:0:0:0:
448,192,215447,1,0,0:0:0:0:
320,192,215543,1,0,0:0:0:0:
64,192,215543,1,0,0:0:0:0:
448,192,215543,1,0,0:0:0:0:
64,192,215638,1,0,0:0:0:0:
192,192,215686,1,0,0:0:0:0:
448,192,215733,1,0,0:0:0:0:
320,192,215733,1,0,0:0:0:0:
64,192,215781,1,0,0:0:0:0:
448,192,215828,1,0,0:0:0:0:
320,192,215876,1,0,0:0:0:0:
192,192,215925,1,0,0:0:0:0:
64,192,215925,1,0,0:0:0:0:
448,192,215977,1,0,0:0:0:0:
192,192,216029,1,0,0:0:0:0:
320,192,216081,1,0,0:0:0:0:
64,192,216133,1,0,0:0:0:0:
448,192,216133,1,0,0:0:0:0:
320,192,216185,1,0,0:0:0:0:
192,192,216238,1,0,0:0:0:0:
64,192,216290,1,0,0:0:0:0:
320,192,216342,1,0,0:0:0:0:
448,192,216342,1,0,0:0:0:0:
192,192,216389,1,0,0:0:0:0:
448,192,216436,1,0,0:0:0:0:
64,192,216483,1,0,0:0:0:0:
320,192,216530,1,0,0:0:0:0:
192,192,216530,1,0,0:0:0:0:
448,192,216578,1,0,0:0:0:0:
192,192,216625,1,0,0:0:0:0:
448,192,216720,1,0,0:0:0:0:
320,192,216720,1,0,0:0:0:0:
64,192,216720,1,0,0:0:0:0:
448,192,216816,1,0,0:0:0:0:
192,192,216816,1,0,0:0:0:0:
192,192,216912,1,0,0:0:0:0:
320,192,216912,1,0,0:0:0:0:
64,192,217008,1,0,0:0:0:0:
320,192,217008,1,0,0:0:0:0:
64,192,217104,1,0,0:0:0:0:
192,192,217104,1,0,0:0:0:0:
448,192,217168,1,0,0:0:0:0:
320,192,217200,1,0,0:0:0:0:
192,192,217232,1,0,0:0:0:0:
448,192,217264,1,0,0:0:0:0:
64,192,217296,1,0,0:0:0:0:
192,192,217328,1,0,0:0:0:0:
320,192,217360,1,0,0:0:0:0:
64,192,217424,1,0,0:0:0:0:
448,192,217456,1,0,0:0:0:0:
320,192,217488,1,0,0:0:0:0:
192,192,217488,1,0,0:0:0:0:
64,192,217552,1,0,0:0:0:0:
448,192,217584,1,0,0:0:0:0:
320,192,217616,1,0,0:0:0:0:
192,192,217648,1,0,0:0:0:0:
448,192,217680,1,0,0:0:0:0:
64,192,217744,1,0,0:0:0:0:
192,192,217776,1,0,0:0:0:0:
320,192,217808,1,0,0:0:0:0:
448,192,217840,1,0,0:0:0:0:
64,192,217872,1,0,0:0:0:0:
192,192,217915,1,0,0:0:0:0:
64,192,217957,1,0,0:0:0:0:
448,192,218000,1,0,0:0:0:0:
320,192,218043,1,0,0:0:0:0:
192,192,218085,1,0,0:0:0:0:
64,192,218128,1,0,0:0:0:0:
320,192,218171,1,0,0:0:0:0:
448,192,218213,1,0,0:0:0:0:
64,192,218256,1,0,0:0:0:0:
320,192,218256,1,0,0:0:0:0:
192,192,218304,1,0,0:0:0:0:
448,192,218352,1,0,0:0:0:0:
192,192,218384,1,0,0:0:0:0:
64,192,218448,1,0,0:0:0:0:
192,192,218480,1,0,0:0:0:0:
320,192,218512,1,0,0:0:0:0:
448,192,218544,1,0,0:0:0:0:
64,192,218576,1,0,0:0:0:0:
192,192,218608,1,0,0:0:0:0:
448,192,218640,1,0,0:0:0:0:
320,192,218640,1,0,0:0:0:0:
64,192,218832,1,0,0:0:0:0:
448,192,218832,1,0,0:0:0:0:
448,192,219024,1,0,0:0:0:0:
64,192,219024,1,0,0:0:0:0:
192,192,219074,1,0,0:0:0:0:
320,192,219125,1,0,0:0:0:0:
448,192,219176,1,0,0:0:0:0:
64,192,219227,1,0,0:0:0:0:
192,192,219227,1,0,0:0:0:0:
320,192,219278,1,0,0:0:0:0:
448,192,219329,1,0,0:0:0:0:
320,192,219379,1,0,0:0:0:0:
64,192,219431,1,0,0:0:0:0:
192,192,219431,1,0,0:0:0:0:
448,192,219483,1,0,0:0:0:0:
320,192,219536,1,0,0:0:0:0:
192,192,219588,1,0,0:0:0:0:
448,192,219641,1,0,0:0:0:0:
320,192,219641,1,0,0:0:0:0:
64,192,219694,1,0,0:0:0:0:
192,192,219746,1,0,0:0:0:0:
320,192,219799,1,0,0:0:0:0:
64,192,219852,1,0,0:0:0:0:
448,192,219852,1,0,0:0:0:0:
192,192,219900,1,0,0:0:0:0:
320,192,219948,1,0,0:0:0:0:
448,192,219997,128,0,220432:0:0:0:0:
192,192,220174,1,0,0:0:0:0:
64,192,220174,1,0,0:0:0:0:
64,192,220432,1,0,0:0:0:0:
448,192,220529,1,0,0:0:0:0:
192,192,220529,1,0,0:0:0:0:
320,192,220577,1,0,0:0:0:0:
64,192,220626,1,0,0:0:0:0:
192,192,220626,1,0,0:0:0:0:
448,192,220658,1,0,0:0:0:0:
320,192,220690,1,0,0:0:0:0:
192,192,220722,1,0,0:0:0:0:
448,192,220755,1,0,0:0:0:0:
64,192,220798,1,0,0:0:0:0:
192,192,220841,1,0,0:0:0:0:
320,192,220884,1,0,0:0:0:0:
448,192,220927,1,0,0:0:0:0:
64,192,220970,1,0,0:0:0:0:
320,192,221013,1,0,0:0:0:0:
192,192,221056,1,0,0:0:0:0:
64,192,221099,1,0,0:0:0:0:
448,192,221142,1,0,0:0:0:0:
192,192,221185,1,0,0:0:0:0:
448,192,221228,1,0,0:0:0:0:
320,192,221271,1,0,0:0:0:0:
64,192,221314,1,0,0:0:0:0:
192,192,221357,1,0,0:0:0:0:
320,192,221400,1,0,0:0:0:0:
448,192,221443,1,0,0:0:0:0:
64,192,221498,1,0,0:0:0:0:
192,192,221547,1,0,0:0:0:0:
448,192,221596,1,0,0:0:0:0:
64,192,221596,1,0,0:0:0:0:
320,192,221645,1,0,0:0:0:0:
448,192,221695,1,0,0:0:0:0:
320,192,221744,1,0,0:0:0:0:
64,192,221750,1,0,0:0:0:0:
192,192,221793,1,0,0:0:0:0:
64,192,221837,1,0,0:0:0:0:
448,192,221881,1,0,0:0:0:0:
192,192,221924,1,0,0:0:0:0:
64,192,221968,1,0,0:0:0:0:
448,192,222012,1,0,0:0:0:0:
192,192,222055,1,0,0:0:0:0:
320,192,222088,1,0,0:0:0:0:
448,192,222137,1,0,0:0:0:0:
64,192,222186,1,0,0:0:0:0:
320,192,222186,1,0,0:0:0:0:
192,192,222236,1,0,0:0:0:0:
64,192,222285,1,0,0:0:0:0:
192,192,222334,1,0,0:0:0:0:
448,192,222334,1,0,0:0:0:0:
320,192,222383,1,0,0:0:0:0:
192,192,222449,1,0,0:0:0:0:
448,192,222493,1,0,0:0:0:0:
320,192,222536,1,0,0:0:0:0:
192,192,222580,1,0,0:0:0:0:
448,192,222645,1,0,0:0:0:0:
320,192,222711,1,0,0:0:0:0:
192,192,222777,1,0,0:0:0:0:
448,192,222826,1,0,0:0:0:0:
64,192,222842,1,0,0:0:0:0:
192,192,222908,1,0,0:0:0:0:
448,192,222973,1,0,0:0:0:0:
320,192,222973,1,0,0:0:0:0:
64,192,223022,1,0,0:0:0:0:
192,192,223072,1,0,0:0:0:0:
320,192,223104,1,0,0:0:0:0:
448,192,223137,1,0,0:0:0:0:
64,192,223170,1,0,0:0:0:0:
320,192,223203,1,0,0:0:0:0:
192,192,223236,1,0,0:0:0:0:
448,192,223279,1,0,0:0:0:0:
64,192,223318,1,0,0:0:0:0:
192,192,223367,1,0,0:0:0:0:
448,192,223411,1,0,0:0:0:0:
320,192,223455,1,0,0:0:0:0:
448,192,223498,1,0,0:0:0:0:
192,192,223542,1,0,0:0:0:0:
448,192,223586,1,0,0:0:0:0:
320,192,223629,1,0,0:0:0:0:
64,192,223673,1,0,0:0:0:0:
192,192,223717,1,0,0:0:0:0:
320,192,223760,1,0,0:0:0:0:
192,192,223804,1,0,0:0:0:0:
64,192,223848,1,0,0:0:0:0:
448,192,223891,1,0,0:0:0:0:
320,192,223935,1,0,0:0:0:0:
448,192,223979,1,0,0:0:0:0:
64,192,223990,1,0,0:0:0:0:
192,192,224022,1,0,0:0:0:0:
320,192,224088,1,0,0:0:0:0:
448,192,224154,1,0,0:0:0:0:
64,192,224154,1,0,0:0:0:0:
192,192,224198,1,0,0:0:0:0:
64,192,224241,1,0,0:0:0:0:
320,192,224285,1,0,0:0:0:0:
192,192,224329,1,0,0:0:0:0:
64,192,224372,1,0,0:0:0:0:
448,192,224383,1,0,0:0:0:0:
192,192,224449,1,0,0:0:0:0:
320,192,224481,1,0,0:0:0:0:
448,192,224514,1,0,0:0:0:0:
64,192,224547,1,0,0:0:0:0:
320,192,224590,1,0,0:0:0:0:
192,192,224632,1,0,0:0:0:0:
448,192,224675,1,0,0:0:0:0:
64,192,224718,1,0,0:0:0:0:
320,192,224760,1,0,0:0:0:0:
448,192,224803,1,0,0:0:0:0:
320,192,224846,1,0,0:0:0:0:
192,192,224888,1,0,0:0:0:0:
448,192,224931,1,0,0:0:0:0:
64,192,224974,1,0,0:0:0:0:
320,192,225016,1,0,0:0:0:0:
192,192,225059,1,0,0:0:0:0:
64,192,225102,1,0,0:0:0:0:
192,192,225144,1,0,0:0:0:0:
320,192,225187,1,0,0:0:0:0:
448,192,225230,1,0,0:0:0:0:
64,192,225272,1,0,0:0:0:0:
192,192,225315,1,0,0:0:0:0:
448,192,225358,1,0,0:0:0:0:
320,192,225400,1,0,0:0:0:0:
448,192,225443,1,0,0:0:0:0:
192,192,225486,1,0,0:0:0:0:
320,192,225571,1,0,0:0:0:0:
192,192,225635,1,0,0:0:0:0:
448,192,225699,1,0,0:0:0:0:
64,192,225699,1,0,0:0:0:0:
192,192,225747,1,0,0:0:0:0:
320,192,225795,1,0,0:0:0:0:
448,192,225843,1,0,0:0:0:0:
64,192,225891,1,0,0:0:0:0:
320,192,225891,1,0,0:0:0:0:
192,192,225939,1,0,0:0:0:0:
64,192,225987,1,0,0:0:0:0:
192,192,226035,1,0,0:0:0:0:
448,192,226083,1,0,0:0:0:0:
320,192,226130,1,0,0:0:0:0:
192,192,226177,1,0,0:0:0:0:
448,192,226224,1,0,0:0:0:0:
320,192,226271,1,0,0:0:0:0:
448,192,226319,1,0,0:0:0:0:
64,192,226366,1,0,0:0:0:0:
192,192,226413,1,0,0:0:0:0:
320,192,226460,1,0,0:0:0:0:
64,192,226508,1,0,0:0:0:0:
192,192,226555,1,0,0:0:0:0:
320,192,226602,1,0,0:0:0:0:
448,192,226649,1,0,0:0:0:0:
192,192,226697,1,0,0:0:0:0:
64,192,226744,1,0,0:0:0:0:
192,192,226791,1,0,0:0:0:0:
448,192,226838,1,0,0:0:0:0:
320,192,226886,1,0,0:0:0:0:
64,192,226933,1,0,0:0:0:0:
448,192,226980,1,0,0:0:0:0:
192,192,227027,1,0,0:0:0:0:
320,192,227075,1,0,0:0:0:0:
448,192,227122,1,0,0:0:0:0:
320,192,227169,1,0,0:0:0:0:
192,192,227216,1,0,0:0:0:0:
64,192,227264,1,0,0:0:0:0:
320,192,227311,1,0,0:0:0:0:
64,192,227358,1,0,0:0:0:0:
448,192,227405,1,0,0:0:0:0:
192,192,227453,1,0,0:0:0:0:
320,192,227500,1,0,0:0:0:0:
448,192,227547,1,0,0:0:0:0:
64,192,227595,1,0,0:0:0:0:
320,192,227643,1,0,0:0:0:0:
192,192,227691,1,0,0:0:0:0:
320,192,227739,1,0,0:0:0:0:
64,192,227787,1,0,0:0:0:0:
448,192,227835,1,0,0:0:0:0:
320,192,227883,1,0,0:0:0:0:
64,192,227931,1,0,0:0:0:0:
192,192,227979,1,0,0:0:0:0:
448,192,228027,1,0,0:0:0:0:
320,192,228075,1,0,0:0:0:0:
64,192,228123,1,0,0:0:0:0:
192,192,228171,1,0,0:0:0:0:
448,192,228219,1,0,0:0:0:0:
320,192,228267,1,0,0:0:0:0:
64,192,228315,1,0,0:0:0:0:
192,192,228363,1,0,0:0:0:0:
448,192,228411,1,0,0:0:0:0:
320,192,228459,1,0,0:0:0:0:
64,192,228507,1,0,0:0:0:0:
192,192,228555,1,0,0:0:0:0:
448,192,228603,1,0,0:0:0:0:
320,192,228651,1,0,0:0:0:0:
64,192,228699,1,0,0:0:0:0:
192,192,228747,1,0,0:0:0:0:
448,192,228795,1,0,0:0:0:0:
320,192,228843,1,0,0:0:0:0:
64,192,228891,1,0,0:0:0:0:
320,192,228939,1,0,0:0:0:0:
192,192,228987,1,0,0:0:0:0:
64,192,229035,1,0,0:0:0:0:
320,192,229131,1,0,0:0:0:0:
448,192,229131,1,0,0:0:0:0:
64,192,229131,1,0,0:0:0:0:
192,192,229233,1,0,0:0:0:0:
448,192,229233,1,0,0:0:0:0:
320,192,229284,1,0,0:0:0:0:
192,192,229336,1,0,0:0:0:0:
64,192,229336,128,0,229848:0:0:0:0:
64,192,229951,1,0,0:0:0:0:
448,192,229951,1,0,0:0:0:0:
192,192,230002,1,0,0:0:0:0:
320,192,230054,1,0,0:0:0:0:
64,192,230105,1,0,0:0:0:0:
448,192,230105,128,0,230361:0:0:0:0:
