osu file format v14

[General]
AudioFilename: Tatsuro Yamashita - Daydream115.mp3
AudioLeadIn: 0
PreviewTime: 135704
Countdown: 0
SampleSet: None
StackLeniency: 0.7
Mode: 3
LetterboxInBreaks: 0
SpecialStyle: 0
WidescreenStoryboard: 1

[Editor]
Bookmarks: 7092,20503,30625,37670,47381,54165,67546,80921,111179,122909,126144,136266,141320,151755,154612,220887,232527,239812,250172
DistanceSpacing: 0.8
BeatDivisor: 4
GridSize: 32
TimelineZoom: 1.8

[Metadata]
Title:Daydream
TitleUnicode:Daydream
Artist:Tatsuro Yamashita
ArtistUnicode:Tatsuro Yamashita
Creator:Ska
Version:1.15
Source:
Tags:tech dump stream jack
BeatmapID:3632459
BeatmapSetID:1774067

[Difficulty]
HPDrainRate:8.4
CircleSize:4
OverallDifficulty:8.4
ApproachRate:5
SliderMultiplier:1.4
SliderTickRate:1

[Events]
//Background and Video events
0,0,"b.jpg",0,0
//Break Periods
//Storyboard Layer 0 (Background)
//Storyboard Layer 1 (Fail)
//Storyboard Layer 2 (Pass)
//Storyboard Layer 3 (Foreground)
//Storyboard Layer 4 (Overlay)
//Storyboard Sound Samples

[TimingPoints]
392,401.337793043478,4,1,0,0,1,0
392,-103.9999999,4,1,0,0,0,0
793,410.818213043478,4,1,0,0,1,0
793,-101.6,4,1,0,0,0,0
1614,424.178154782609,4,1,0,0,1,0
1614,-98.40000001,4,1,0,0,0,0
2463,417.391304347826,4,1,0,0,1,0
2463,-100,4,1,0,0,0,0
3715,424.178154782609,4,1,0,0,1,0
3715,-98.40000001,4,1,0,0,0,0
4564,420.757363478261,4,1,0,0,1,0
4564,-99.19999995,4,1,0,0,0,0
4985,424.178154782609,4,1,0,0,1,0
4985,-98.40000001,4,1,0,0,0,0
6257,417.391304347826,4,1,0,0,1,0
6257,-100,4,1,0,0,0,0
7092,438.436244347826,4,1,0,0,1,0
7092,-95.19999994,4,1,0,0,0,0
7530,417.391304347826,4,1,0,0,1,0
7530,-100,4,1,0,0,0,0
8782,420.757363478261,4,1,0,0,1,0
8782,-99.19999995,4,1,0,0,0,0
12990,417.391304347826,4,1,0,0,1,0
12990,-100,4,1,0,0,0,0
32190,427.655025217391,4,1,0,0,1,0
32190,-97.59999994,4,1,0,0,0,0
33045,424.178154782609,4,1,0,0,1,0
33045,-98.40000001,4,1,0,0,0,0
35166,417.391304347826,4,1,0,0,1,0
35166,-100,4,1,0,0,0,0
46853,427.655025217391,4,1,0,0,1,0
46853,-97.59999994,4,1,0,0,0,0
47280,404.44893826087,4,1,0,0,1,0
47280,-103.2,4,1,0,0,0,0
51730,424.178154782609,4,1,0,0,1,0
51730,-98.40000001,4,1,0,0,0,0
52153,417.391304347826,4,1,0,0,1,0
52153,-100,4,1,0,0,0,0
53823,341.005967826087,4,1,0,0,1,0
53823,-122.3999999,4,1,0,0,0,0
54165,442.151805217391,4,1,0,0,1,0
54165,-94.40000005,4,1,0,0,0,0
54607,414.078674782609,4,1,0,0,1,0
54607,-100.8,4,1,0,0,0,0
55434,427.655025217391,4,1,0,0,1,0
55434,-97.59999994,4,1,0,0,0,0
57146,401.337793043478,4,1,0,0,1,0
57146,-103.9999999,4,1,0,0,0,0
57547,438.436244347826,4,1,0,0,1,0
57547,-95.19999994,4,1,0,0,0,0
57985,424.178154782609,4,1,0,0,1,0
57985,-98.40000001,4,1,0,0,0,0
59258,417.391304347826,4,1,0,0,1,0
59258,-100,4,1,0,0,0,0
60510,424.178154782609,4,1,0,0,1,0
60510,-98.40000001,4,1,0,0,0,0
60934,420.757363478261,4,1,0,0,1,0
60934,-99.19999995,4,1,0,0,0,0
65141,417.391304347826,4,1,0,0,1,0
65141,-100,4,1,0,0,0,0
67228,424.178154782609,4,1,0,0,1,0
67228,-98.40000001,4,1,0,0,0,0
68925,414.078674782609,4,1,0,0,1,0
68925,-100.8,4,1,0,0,0,0
70581,420.757363478261,4,1,0,0,1,0
70581,-99.19999995,4,1,0,0,0,0
73106,410.818213043478,4,1,0,0,1,0
73106,-101.6,4,1,0,0,0,0
74339,417.391304347826,4,1,0,0,1,0
74339,-100,4,1,0,0,0,0
76008,414.078674782609,4,1,0,0,1,0
76008,-100.8,4,1,0,0,0,0
77250,417.391304347826,4,1,0,0,1,0
77250,-100,4,1,0,0,0,0
78502,420.757363478261,4,1,0,0,1,0
78502,-99.19999995,4,1,0,0,0,0
85234,410.818213043478,4,1,0,0,1,0
85234,-101.6,4,1,0,0,0,0
86467,417.391304347826,4,1,0,0,1,0
86467,-100,4,1,0,0,0,0
87720,420.757363478261,4,1,0,0,1,0
87720,-99.19999995,4,1,0,0,0,0
88981,417.391304347826,4,1,0,0,1,0
88981,-100,4,1,0,0,0,0
105677,449.775112173913,4,1,0,0,1,0
105677,-92.80000006,4,1,0,0,0,0
106127,427.655025217391,4,1,0,0,1,0
106127,-97.59999994,4,1,0,0,0,0
106554,417.391304347826,4,1,0,0,1,0
106554,-100,4,1,0,0,0,0
110728,449.775112173913,4,1,0,0,1,0
110728,-92.80000006,4,1,0,0,0,0
111179,420.757363478261,4,1,0,0,1,0
111179,-99.19999995,4,1,0,0,0,0
115386,417.391304347826,4,1,0,0,1,0
115386,-100,4,1,0,0,0,0
118307,427.655025217391,4,1,0,0,1,0
118307,-97.59999994,4,1,0,0,0,0
118735,417.391304347826,4,1,0,0,1,0
118735,-100,4,1,0,0,0,0
140022,457.665903478261,4,1,0,0,1,0
140022,-91.20000008,4,1,0,0,0,0
140480,420.757363478261,4,1,0,0,1,0
140480,-99.19999995,4,1,0,0,0,0
141742,407.608695652174,4,1,0,0,1,0
141742,-102.4,4,1,0,0,0,0
142557,410.818213043478,4,1,0,0,1,0
142557,-101.6,4,1,0,0,0,0
142968,424.178154782609,4,1,0,0,1,0
142968,-98.40000001,4,1,0,0,0,0
144240,420.757363478261,4,1,0,0,1,0
144240,-99.19999995,4,1,0,0,0,0
149290,417.391304347826,4,1,0,0,1,0
149290,-100,4,1,0,0,0,0
151377,378.071833913043,4,1,0,0,1,0
151377,-110.3999999,4,1,0,0,0,0
151755,442.151805217391,4,1,0,0,1,0
151755,-94.40000005,4,1,0,0,0,0
152639,407.608695652174,4,1,0,0,1,0
152639,-102.4,4,1,0,0,0,0
153047,417.391304347826,4,1,0,0,1,0
153047,-100,4,1,0,0,0,0
155133,404.44893826087,4,1,0,0,1,0
155133,-103.2,4,1,0,0,0,0
155942,424.178154782609,4,1,0,0,1,0
155942,-98.40000001,4,1,0,0,0,0
156791,417.391304347826,4,1,0,0,1,0
156791,-100,4,1,0,0,0,0
160965,401.337793043478,4,1,0,0,1,0
160965,-103.9999999,4,1,0,0,0,0
161767,410.818213043478,4,1,0,0,1,0
161767,-101.6,4,1,0,0,0,0
162179,424.178154782609,4,1,0,0,1,0
162179,-98.40000001,4,1,0,0,0,0
162602,417.391304347826,4,1,0,0,1,0
162602,-100,4,1,0,0,0,0
165107,414.078674782609,4,1,0,0,1,0
165107,-100.8,4,1,0,0,0,0
165521,410.818213043478,4,1,0,0,1,0
165521,-101.6,4,1,0,0,0,0
167164,420.757363478261,4,1,0,0,1,0
167164,-99.19999995,4,1,0,0,0,0
168847,407.608695652174,4,1,0,0,1,0
168847,-102.4,4,1,0,0,0,0
170478,420.757363478261,4,1,0,0,1,0
170478,-99.19999995,4,1,0,0,0,0
172581,414.078674782609,4,1,0,0,1,0
172581,-100.8,4,1,0,0,0,0
172995,410.818213043478,4,1,0,0,1,0
172995,-101.6,4,1,0,0,0,0
175460,442.151805217391,4,1,0,0,1,0
175460,-94.40000005,4,1,0,0,0,0
175903,414.078674782609,4,1,0,0,1,0
175903,-100.8,4,1,0,0,0,0
180043,410.818213043478,4,1,0,0,1,0
180043,-101.6,4,1,0,0,0,0
182508,420.757363478261,4,1,0,0,1,0
182508,-99.19999995,4,1,0,0,0,0
183771,410.818213043478,4,1,0,0,1,0
183771,-101.6,4,1,0,0,0,0
185825,414.078674782609,4,1,0,0,1,0
185825,-100.8,4,1,0,0,0,0
189137,417.391304347826,4,1,0,0,1,0
189137,-100,4,1,0,0,0,0
191641,414.078674782609,4,1,0,0,1,0
191641,-100.8,4,1,0,0,0,0
192470,407.608695652174,4,1,0,0,1,0
192470,-102.4,4,1,0,0,0,0
194100,417.391304347826,4,1,0,0,1,0
194100,-100,4,1,0,0,0,0
195770,414.078674782609,4,1,0,0,1,0
195770,-100.8,4,1,0,0,0,0
199082,417.391304347826,4,1,0,0,1,0
199082,-100,4,1,0,0,0,0
200752,410.818213043478,4,1,0,0,1,0
200752,-101.6,4,1,0,0,0,0
204039,417.391304347826,4,1,0,0,1,0
204039,-100,4,1,0,0,0,0
204873,410.818213043478,4,1,0,0,1,0
204873,-101.6,4,1,0,0,0,0
207338,414.078674782609,4,1,0,0,1,0
207338,-100.8,4,1,0,0,0,0
208994,417.391304347826,4,1,0,0,1,0
208994,-100,4,1,0,0,0,0
211081,410.818213043478,4,1,0,0,1,0
211081,-101.6,4,1,0,0,0,0
212314,414.078674782609,4,1,0,0,1,0
212314,-100.8,4,1,0,0,0,0
215213,395.256917391304,4,1,0,0,1,0
215213,-105.5999999,4,1,0,0,0,0
215607,414.078674782609,4,1,0,0,1,0
215607,-100.8,4,1,0,0,0,0
221405,417.391304347826,4,1,0,0,1,0
221405,-100,4,1,0,0,0,0
227248,414.078674782609,4,1,0,0,1,0
227248,-100.8,4,1,0,0,0,0
234702,453.6862,4,1,0,0,1,0
234702,-92.00000008,4,1,0,0,0,0
235155,410.818213043478,4,1,0,0,1,0
235155,-101.6,4,1,0,0,0,0
235567,417.391304347826,4,1,0,0,1,0
235567,-100,4,1,0,0,0,0
238071,442.151805217391,4,1,0,0,1,0
238071,-94.40000005,4,1,0,0,0,0
238513,457.665903478261,4,1,0,0,1,0
238513,-91.20000008,4,1,0,0,0,0
238971,420.757363478261,4,1,0,0,1,0
238971,-99.19999995,4,1,0,0,0,0
240653,427.655025217391,4,1,0,0,1,0
240653,-97.59999994,4,1,0,0,0,0
244074,417.391304347826,4,1,0,0,1,0
244074,-100,4,1,0,0,0,0
245744,410.818213043478,4,1,0,0,1,0
245744,-101.6,4,1,0,0,0,0
247387,417.391304347826,4,1,0,0,1,0
247387,-100,4,1,0,0,0,0
249057,445.930880869565,4,1,0,0,1,0
249057,-93.59999997,4,1,0,0,0,0

[HitObjects]
448,192,392,5,0,0:0:0:0:
64,192,392,1,0,0:0:0:0:
192,192,492,1,0,0:0:0:0:
320,192,592,1,0,0:0:0:0:
64,192,592,1,0,0:0:0:0:
320,192,693,1,0,0:0:0:0:
192,192,793,1,0,0:0:0:0:
448,192,793,1,0,0:0:0:0:
192,192,895,1,0,0:0:0:0:
448,192,998,1,0,0:0:0:0:
64,192,1101,1,0,0:0:0:0:
448,192,1101,1,0,0:0:0:0:
320,192,1203,1,0,0:0:0:0:
192,192,1306,1,0,0:0:0:0:
192,192,1409,1,0,0:0:0:0:
448,192,1409,1,0,0:0:0:0:
448,192,1511,1,0,0:0:0:0:
320,192,1614,1,0,0:0:0:0:
64,192,1614,1,0,0:0:0:0:
192,192,1720,1,0,0:0:0:0:
192,192,1826,1,0,0:0:0:0:
320,192,1826,1,0,0:0:0:0:
192,192,1932,1,0,0:0:0:0:
448,192,2038,1,0,0:0:0:0:
64,192,2038,1,0,0:0:0:0:
320,192,2144,1,0,0:0:0:0:
192,192,2250,1,0,0:0:0:0:
448,192,2250,1,0,0:0:0:0:
192,192,2356,1,0,0:0:0:0:
320,192,2463,1,0,0:0:0:0:
64,192,2463,1,0,0:0:0:0:
320,192,2567,1,0,0:0:0:0:
64,192,2671,1,0,0:0:0:0:
448,192,2776,1,0,0:0:0:0:
64,192,2776,1,0,0:0:0:0:
192,192,2880,1,0,0:0:0:0:
320,192,2984,1,0,0:0:0:0:
320,192,3089,1,0,0:0:0:0:
64,192,3089,1,0,0:0:0:0:
64,192,3193,1,0,0:0:0:0:
448,192,3297,1,0,0:0:0:0:
192,192,3297,1,0,0:0:0:0:
320,192,3402,1,0,0:0:0:0:
320,192,3506,1,0,0:0:0:0:
192,192,3506,1,0,0:0:0:0:
320,192,3610,1,0,0:0:0:0:
448,192,3715,1,0,0:0:0:0:
64,192,3715,1,0,0:0:0:0:
192,192,3821,1,0,0:0:0:0:
64,192,3927,1,0,0:0:0:0:
320,192,3927,1,0,0:0:0:0:
320,192,4033,1,0,0:0:0:0:
192,192,4139,1,0,0:0:0:0:
448,192,4139,1,0,0:0:0:0:
192,192,4245,1,0,0:0:0:0:
448,192,4351,1,0,0:0:0:0:
64,192,4457,1,0,0:0:0:0:
448,192,4457,1,0,0:0:0:0:
320,192,4563,1,0,0:0:0:0:
192,192,4669,1,0,0:0:0:0:
192,192,4774,1,0,0:0:0:0:
448,192,4774,1,0,0:0:0:0:
448,192,4879,1,0,0:0:0:0:
64,192,4985,1,0,0:0:0:0:
320,192,4985,1,0,0:0:0:0:
192,192,5091,1,0,0:0:0:0:
192,192,5197,1,0,0:0:0:0:
320,192,5197,1,0,0:0:0:0:
192,192,5303,1,0,0:0:0:0:
448,192,5409,1,0,0:0:0:0:
64,192,5409,1,0,0:0:0:0:
320,192,5515,1,0,0:0:0:0:
448,192,5621,1,0,0:0:0:0:
64,192,5621,1,0,0:0:0:0:
320,192,5727,1,0,0:0:0:0:
192,192,5727,1,0,0:0:0:0:
320,192,5833,1,0,0:0:0:0:
192,192,5833,1,0,0:0:0:0:
448,192,5939,1,0,0:0:0:0:
192,192,5939,1,0,0:0:0:0:
64,192,6045,1,0,0:0:0:0:
320,192,6045,1,0,0:0:0:0:
320,192,6151,1,0,0:0:0:0:
448,192,6257,1,0,0:0:0:0:
64,192,6257,1,0,0:0:0:0:
192,192,6257,1,0,0:0:0:0:
320,192,6361,1,0,0:0:0:0:
448,192,6361,1,0,0:0:0:0:
320,192,6465,1,0,0:0:0:0:
448,192,6465,1,0,0:0:0:0:
192,192,6570,1,0,0:0:0:0:
64,192,6570,1,0,0:0:0:0:
448,192,6604,1,0,0:0:0:0:
320,192,6639,1,0,0:0:0:0:
192,192,6674,1,0,0:0:0:0:
64,192,6674,1,0,0:0:0:0:
448,192,6709,1,0,0:0:0:0:
320,192,6743,1,0,0:0:0:0:
64,192,6778,1,0,0:0:0:0:
192,192,6778,1,0,0:0:0:0:
448,192,6813,1,0,0:0:0:0:
320,192,6848,1,0,0:0:0:0:
64,192,6883,1,0,0:0:0:0:
448,192,6917,1,0,0:0:0:0:
320,192,6952,1,0,0:0:0:0:
192,192,6987,1,0,0:0:0:0:
64,192,7022,1,0,0:0:0:0:
320,192,7092,128,0,7201:0:0:0:0:
448,192,7092,128,0,7311:0:0:0:0:
192,192,7201,1,0,0:0:0:0:
64,192,7311,1,0,0:0:0:0:
192,192,7366,1,0,0:0:0:0:
320,192,7420,1,0,0:0:0:0:
192,192,7475,1,0,0:0:0:0:
320,192,7530,1,0,0:0:0:0:
448,192,7582,1,0,0:0:0:0:
192,192,7634,1,0,0:0:0:0:
64,192,7634,1,0,0:0:0:0:
448,192,7703,1,0,0:0:0:0:
320,192,7773,1,0,0:0:0:0:
64,192,7843,1,0,0:0:0:0:
192,192,7843,1,0,0:0:0:0:
192,192,7947,1,0,0:0:0:0:
64,192,7947,1,0,0:0:0:0:
320,192,8051,1,0,0:0:0:0:
448,192,8051,1,0,0:0:0:0:
64,192,8121,1,0,0:0:0:0:
192,192,8190,1,0,0:0:0:0:
448,192,8260,1,0,0:0:0:0:
320,192,8260,1,0,0:0:0:0:
320,192,8364,1,0,0:0:0:0:
64,192,8364,1,0,0:0:0:0:
192,192,8469,1,0,0:0:0:0:
64,192,8469,1,0,0:0:0:0:
448,192,8469,1,0,0:0:0:0:
320,192,8573,1,0,0:0:0:0:
448,192,8573,1,0,0:0:0:0:
64,192,8643,1,0,0:0:0:0:
320,192,8712,1,0,0:0:0:0:
448,192,8782,1,0,0:0:0:0:
192,192,8782,1,0,0:0:0:0:
64,192,8852,1,0,0:0:0:0:
192,192,8922,1,0,0:0:0:0:
320,192,8992,1,0,0:0:0:0:
448,192,8992,1,0,0:0:0:0:
64,192,9097,1,0,0:0:0:0:
320,192,9097,1,0,0:0:0:0:
192,192,9202,1,0,0:0:0:0:
448,192,9202,1,0,0:0:0:0:
64,192,9307,1,0,0:0:0:0:
192,192,9307,1,0,0:0:0:0:
320,192,9307,1,0,0:0:0:0:
320,192,9413,1,0,0:0:0:0:
448,192,9413,1,0,0:0:0:0:
64,192,9518,1,0,0:0:0:0:
448,192,9518,1,0,0:0:0:0:
192,192,9623,1,0,0:0:0:0:
64,192,9623,1,0,0:0:0:0:
320,192,9728,1,0,0:0:0:0:
448,192,9728,1,0,0:0:0:0:
320,192,9833,1,0,0:0:0:0:
64,192,9833,128,0,9939:0:0:0:0:
448,192,9939,1,0,0:0:0:0:
192,192,9939,128,0,10044:0:0:0:0:
448,192,10044,1,0,0:0:0:0:
320,192,10044,1,0,0:0:0:0:
448,192,10149,1,0,0:0:0:0:
192,192,10149,128,0,10254:0:0:0:0:
320,192,10149,1,0,0:0:0:0:
64,192,10254,128,0,10359:0:0:0:0:
448,192,10254,1,0,0:0:0:0:
320,192,10359,1,0,0:0:0:0:
192,192,10465,1,0,0:0:0:0:
64,192,10465,1,0,0:0:0:0:
320,192,10570,1,0,0:0:0:0:
448,192,10675,1,0,0:0:0:0:
64,192,10675,1,0,0:0:0:0:
320,192,10728,1,0,0:0:0:0:
192,192,10780,1,0,0:0:0:0:
320,192,10833,1,0,0:0:0:0:
192,192,10885,1,0,0:0:0:0:
64,192,10938,1,0,0:0:0:0:
320,192,10990,1,0,0:0:0:0:
448,192,10990,1,0,0:0:0:0:
64,192,11061,1,0,0:0:0:0:
192,192,11131,1,0,0:0:0:0:
320,192,11201,1,0,0:0:0:0:
448,192,11201,1,0,0:0:0:0:
320,192,11306,1,0,0:0:0:0:
64,192,11306,1,0,0:0:0:0:
192,192,11411,1,0,0:0:0:0:
64,192,11411,1,0,0:0:0:0:
448,192,11481,1,0,0:0:0:0:
192,192,11516,1,0,0:0:0:0:
64,192,11622,1,0,0:0:0:0:
320,192,11622,1,0,0:0:0:0:
320,192,11727,1,0,0:0:0:0:
448,192,11727,1,0,0:0:0:0:
448,192,11832,1,0,0:0:0:0:
64,192,11832,1,0,0:0:0:0:
192,192,11832,1,0,0:0:0:0:
64,192,11937,1,0,0:0:0:0:
320,192,11937,1,0,0:0:0:0:
192,192,12007,1,0,0:0:0:0:
320,192,12077,1,0,0:0:0:0:
64,192,12148,1,0,0:0:0:0:
448,192,12148,1,0,0:0:0:0:
320,192,12218,1,0,0:0:0:0:
192,192,12288,1,0,0:0:0:0:
448,192,12358,1,0,0:0:0:0:
64,192,12358,1,0,0:0:0:0:
64,192,12463,1,0,0:0:0:0:
448,192,12463,1,0,0:0:0:0:
192,192,12568,1,0,0:0:0:0:
320,192,12568,1,0,0:0:0:0:
192,192,12674,1,0,0:0:0:0:
320,192,12674,1,0,0:0:0:0:
448,192,12674,1,0,0:0:0:0:
192,192,12779,1,0,0:0:0:0:
64,192,12779,1,0,0:0:0:0:
320,192,12884,1,0,0:0:0:0:
448,192,12884,1,0,0:0:0:0:
320,192,12990,1,0,0:0:0:0:
448,192,12990,1,0,0:0:0:0:
192,192,13094,1,0,0:0:0:0:
64,192,13094,1,0,0:0:0:0:
192,192,13198,1,0,0:0:0:0:
448,192,13198,128,0,13303:0:0:0:0:
320,192,13198,128,0,13303:0:0:0:0:
64,192,13303,1,0,0:0:0:0:
192,192,13407,1,0,0:0:0:0:
64,192,13407,1,0,0:0:0:0:
448,192,13407,128,0,13511:0:0:0:0:
320,192,13407,128,0,13511:0:0:0:0:
64,192,13511,1,0,0:0:0:0:
192,192,13511,1,0,0:0:0:0:
448,192,13616,128,0,13720:0:0:0:0:
64,192,13616,1,0,0:0:0:0:
320,192,13616,128,0,13720:0:0:0:0:
192,192,13720,1,0,0:0:0:0:
320,192,13824,1,0,0:0:0:0:
448,192,13824,1,0,0:0:0:0:
192,192,13929,1,0,0:0:0:0:
64,192,14033,1,0,0:0:0:0:
448,192,14033,1,0,0:0:0:0:
320,192,14085,1,0,0:0:0:0:
192,192,14137,1,0,0:0:0:0:
320,192,14190,1,0,0:0:0:0:
448,192,14242,1,0,0:0:0:0:
64,192,14294,1,0,0:0:0:0:
192,192,14346,1,0,0:0:0:0:
320,192,14346,1,0,0:0:0:0:
64,192,14416,1,0,0:0:0:0:
192,192,14485,1,0,0:0:0:0:
320,192,14555,1,0,0:0:0:0:
448,192,14555,1,0,0:0:0:0:
320,192,14659,1,0,0:0:0:0:
448,192,14659,1,0,0:0:0:0:
64,192,14763,1,0,0:0:0:0:
192,192,14763,1,0,0:0:0:0:
320,192,14833,1,0,0:0:0:0:
192,192,14903,1,0,0:0:0:0:
64,192,14972,1,0,0:0:0:0:
448,192,14972,1,0,0:0:0:0:
320,192,15076,1,0,0:0:0:0:
448,192,15076,1,0,0:0:0:0:
192,192,15181,1,0,0:0:0:0:
64,192,15181,1,0,0:0:0:0:
320,192,15181,1,0,0:0:0:0:
64,192,15285,1,0,0:0:0:0:
448,192,15285,1,0,0:0:0:0:
192,192,15355,1,0,0:0:0:0:
320,192,15424,1,0,0:0:0:0:
64,192,15494,1,0,0:0:0:0:
448,192,15494,1,0,0:0:0:0:
320,192,15563,1,0,0:0:0:0:
64,192,15633,1,0,0:0:0:0:
192,192,15703,1,0,0:0:0:0:
448,192,15703,1,0,0:0:0:0:
448,192,15807,1,0,0:0:0:0:
192,192,15807,1,0,0:0:0:0:
320,192,15911,1,0,0:0:0:0:
64,192,15911,1,0,0:0:0:0:
320,192,16016,1,0,0:0:0:0:
448,192,16016,1,0,0:0:0:0:
192,192,16016,1,0,0:0:0:0:
320,192,16120,1,0,0:0:0:0:
448,192,16120,1,0,0:0:0:0:
192,192,16224,1,0,0:0:0:0:
64,192,16224,1,0,0:0:0:0:
64,192,16329,1,0,0:0:0:0:
192,192,16329,1,0,0:0:0:0:
320,192,16433,1,0,0:0:0:0:
448,192,16433,1,0,0:0:0:0:
320,192,16537,1,0,0:0:0:0:
64,192,16537,128,0,16642:0:0:0:0:
448,192,16642,1,0,0:0:0:0:
192,192,16642,128,0,16746:0:0:0:0:
320,192,16746,1,0,0:0:0:0:
448,192,16746,1,0,0:0:0:0:
192,192,16850,128,0,16955:0:0:0:0:
320,192,16850,1,0,0:0:0:0:
448,192,16850,1,0,0:0:0:0:
64,192,16955,128,0,17059:0:0:0:0:
448,192,16955,1,0,0:0:0:0:
320,192,17059,1,0,0:0:0:0:
192,192,17163,1,0,0:0:0:0:
64,192,17163,1,0,0:0:0:0:
320,192,17268,1,0,0:0:0:0:
448,192,17372,1,0,0:0:0:0:
64,192,17372,1,0,0:0:0:0:
192,192,17424,1,0,0:0:0:0:
320,192,17476,1,0,0:0:0:0:
192,192,17529,1,0,0:0:0:0:
64,192,17581,1,0,0:0:0:0:
448,192,17633,1,0,0:0:0:0:
320,192,17685,1,0,0:0:0:0:
192,192,17685,1,0,0:0:0:0:
448,192,17755,1,0,0:0:0:0:
320,192,17824,1,0,0:0:0:0:
192,192,17894,1,0,0:0:0:0:
64,192,17894,1,0,0:0:0:0:
192,192,17998,1,0,0:0:0:0:
64,192,17998,1,0,0:0:0:0:
320,192,18103,1,0,0:0:0:0:
448,192,18103,1,0,0:0:0:0:
192,192,18172,1,0,0:0:0:0:
320,192,18242,1,0,0:0:0:0:
448,192,18311,1,0,0:0:0:0:
64,192,18311,1,0,0:0:0:0:
64,192,18416,1,0,0:0:0:0:
192,192,18416,1,0,0:0:0:0:
448,192,18520,1,0,0:0:0:0:
192,192,18520,1,0,0:0:0:0:
320,192,18520,1,0,0:0:0:0:
448,192,18624,1,0,0:0:0:0:
320,192,18624,1,0,0:0:0:0:
192,192,18624,1,0,0:0:0:0:
320,192,18937,1,0,0:0:0:0:
64,192,18937,128,0,19250:0:0:0:0:
320,192,19042,1,0,0:0:0:0:
192,192,19146,1,0,0:0:0:0:
192,192,19250,1,0,0:0:0:0:
448,192,19250,128,0,19563:0:0:0:0:
320,192,19355,1,0,0:0:0:0:
320,192,19459,1,0,0:0:0:0:
192,192,19563,1,0,0:0:0:0:
64,192,19563,128,0,19981:0:0:0:0:
192,192,19668,1,0,0:0:0:0:
320,192,19772,1,0,0:0:0:0:
320,192,19876,1,0,0:0:0:0:
192,192,19981,1,0,0:0:0:0:
448,192,19981,1,0,0:0:0:0:
192,192,20190,1,0,0:0:0:0:
64,192,20190,1,0,0:0:0:0:
320,192,20190,1,0,0:0:0:0:
192,192,20294,1,0,0:0:0:0:
64,192,20294,1,0,0:0:0:0:
320,192,20294,1,0,0:0:0:0:
448,192,20503,1,0,0:0:0:0:
320,192,20503,1,0,0:0:0:0:
320,192,20607,1,0,0:0:0:0:
448,192,20711,1,0,0:0:0:0:
192,192,20711,1,0,0:0:0:0:
192,192,20816,1,0,0:0:0:0:
64,192,20816,1,0,0:0:0:0:
320,192,20920,1,0,0:0:0:0:
448,192,20920,1,0,0:0:0:0:
64,192,20967,1,0,0:0:0:0:
320,192,21013,1,0,0:0:0:0:
192,192,21059,1,0,0:0:0:0:
64,192,21106,1,0,0:0:0:0:
448,192,21106,1,0,0:0:0:0:
192,192,21152,1,0,0:0:0:0:
320,192,21198,1,0,0:0:0:0:
448,192,21245,1,0,0:0:0:0:
64,192,21268,1,0,0:0:0:0:
192,192,21303,1,0,0:0:0:0:
448,192,21337,1,0,0:0:0:0:
320,192,21384,1,0,0:0:0:0:
192,192,21442,1,0,0:0:0:0:
64,192,21442,1,0,0:0:0:0:
64,192,21520,1,0,0:0:0:0:
192,192,21520,1,0,0:0:0:0:
64,192,21624,1,0,0:0:0:0:
320,192,21650,1,0,0:0:0:0:
320,192,21755,1,0,0:0:0:0:
192,192,21755,1,0,0:0:0:0:
64,192,21859,1,0,0:0:0:0:
448,192,21859,1,0,0:0:0:0:
320,192,21911,1,0,0:0:0:0:
64,192,21963,1,0,0:0:0:0:
192,192,22016,1,0,0:0:0:0:
320,192,22068,1,0,0:0:0:0:
448,192,22120,1,0,0:0:0:0:
192,192,22172,1,0,0:0:0:0:
64,192,22172,1,0,0:0:0:0:
448,192,22219,1,0,0:0:0:0:
192,192,22265,1,0,0:0:0:0:
320,192,22311,1,0,0:0:0:0:
64,192,22358,1,0,0:0:0:0:
448,192,22404,1,0,0:0:0:0:
320,192,22450,1,0,0:0:0:0:
192,192,22497,1,0,0:0:0:0:
448,192,22543,1,0,0:0:0:0:
64,192,22590,1,0,0:0:0:0:
192,192,22642,1,0,0:0:0:0:
320,192,22694,1,0,0:0:0:0:
448,192,22694,1,0,0:0:0:0:
192,192,22746,1,0,0:0:0:0:
320,192,22798,1,0,0:0:0:0:
448,192,22850,1,0,0:0:0:0:
64,192,22903,1,0,0:0:0:0:
320,192,22955,1,0,0:0:0:0:
64,192,23007,1,0,0:0:0:0:
192,192,23059,1,0,0:0:0:0:
448,192,23111,1,0,0:0:0:0:
320,192,23111,1,0,0:0:0:0:
64,192,23111,1,0,0:0:0:0:
320,192,23216,1,0,0:0:0:0:
448,192,23216,1,0,0:0:0:0:
192,192,23320,1,0,0:0:0:0:
320,192,23320,1,0,0:0:0:0:
192,192,23424,1,0,0:0:0:0:
320,192,23529,1,0,0:0:0:0:
448,192,23529,1,0,0:0:0:0:
64,192,23529,1,0,0:0:0:0:
192,192,23633,1,0,0:0:0:0:
320,192,23633,1,0,0:0:0:0:
320,192,23737,1,0,0:0:0:0:
448,192,23737,1,0,0:0:0:0:
192,192,23842,1,0,0:0:0:0:
64,192,23842,1,0,0:0:0:0:
448,192,23946,1,0,0:0:0:0:
320,192,24050,1,0,0:0:0:0:
64,192,24050,1,0,0:0:0:0:
320,192,24155,1,0,0:0:0:0:
448,192,24155,1,0,0:0:0:0:
64,192,24259,1,0,0:0:0:0:
192,192,24259,1,0,0:0:0:0:
448,192,24306,1,0,0:0:0:0:
64,192,24352,1,0,0:0:0:0:
320,192,24398,1,0,0:0:0:0:
192,192,24445,1,0,0:0:0:0:
448,192,24491,1,0,0:0:0:0:
320,192,24491,1,0,0:0:0:0:
64,192,24537,1,0,0:0:0:0:
192,192,24584,1,0,0:0:0:0:
320,192,24630,1,0,0:0:0:0:
64,192,24676,1,0,0:0:0:0:
192,192,24723,1,0,0:0:0:0:
320,192,24781,1,0,0:0:0:0:
448,192,24781,1,0,0:0:0:0:
320,192,24859,1,0,0:0:0:0:
448,192,24859,1,0,0:0:0:0:
448,192,24963,1,0,0:0:0:0:
192,192,24990,1,0,0:0:0:0:
320,192,25094,1,0,0:0:0:0:
192,192,25094,1,0,0:0:0:0:
64,192,25198,1,0,0:0:0:0:
448,192,25198,1,0,0:0:0:0:
192,192,25250,1,0,0:0:0:0:
448,192,25303,1,0,0:0:0:0:
64,192,25355,1,0,0:0:0:0:
320,192,25407,1,0,0:0:0:0:
192,192,25407,1,0,0:0:0:0:
64,192,25511,1,0,0:0:0:0:
448,192,25511,1,0,0:0:0:0:
320,192,25558,1,0,0:0:0:0:
192,192,25604,1,0,0:0:0:0:
448,192,25650,1,0,0:0:0:0:
320,192,25650,1,0,0:0:0:0:
64,192,25697,1,0,0:0:0:0:
192,192,25743,1,0,0:0:0:0:
320,192,25789,1,0,0:0:0:0:
64,192,25836,1,0,0:0:0:0:
448,192,25882,1,0,0:0:0:0:
320,192,25929,1,0,0:0:0:0:
192,192,25981,1,0,0:0:0:0:
64,192,26033,1,0,0:0:0:0:
448,192,26033,1,0,0:0:0:0:
64,192,26137,1,0,0:0:0:0:
448,192,26137,1,0,0:0:0:0:
320,192,26242,1,0,0:0:0:0:
192,192,26242,1,0,0:0:0:0:
320,192,26346,1,0,0:0:0:0:
192,192,26346,1,0,0:0:0:0:
192,192,26450,1,0,0:0:0:0:
64,192,26450,1,0,0:0:0:0:
192,192,26555,1,0,0:0:0:0:
64,192,26555,1,0,0:0:0:0:
320,192,26659,1,0,0:0:0:0:
320,192,26763,1,0,0:0:0:0:
192,192,26763,1,0,0:0:0:0:
192,192,26868,1,0,0:0:0:0:
64,192,26868,1,0,0:0:0:0:
448,192,26868,1,0,0:0:0:0:
64,192,26972,1,0,0:0:0:0:
320,192,26972,1,0,0:0:0:0:
192,192,27076,1,0,0:0:0:0:
320,192,27181,1,0,0:0:0:0:
448,192,27181,1,0,0:0:0:0:
448,192,27285,1,0,0:0:0:0:
64,192,27285,1,0,0:0:0:0:
320,192,27355,1,0,0:0:0:0:
64,192,27389,1,0,0:0:0:0:
448,192,27424,1,0,0:0:0:0:
320,192,27494,1,0,0:0:0:0:
192,192,27494,1,0,0:0:0:0:
192,192,27598,1,0,0:0:0:0:
64,192,27598,1,0,0:0:0:0:
448,192,27645,1,0,0:0:0:0:
320,192,27691,1,0,0:0:0:0:
192,192,27737,1,0,0:0:0:0:
64,192,27737,1,0,0:0:0:0:
320,192,27784,1,0,0:0:0:0:
192,192,27830,1,0,0:0:0:0:
448,192,27876,1,0,0:0:0:0:
64,192,27923,1,0,0:0:0:0:
320,192,27923,1,0,0:0:0:0:
192,192,27969,1,0,0:0:0:0:
448,192,28016,1,0,0:0:0:0:
320,192,28062,1,0,0:0:0:0:
64,192,28120,1,0,0:0:0:0:
192,192,28120,1,0,0:0:0:0:
192,192,28198,1,0,0:0:0:0:
64,192,28198,1,0,0:0:0:0:
64,192,28303,1,0,0:0:0:0:
320,192,28329,1,0,0:0:0:0:
320,192,28433,1,0,0:0:0:0:
192,192,28433,1,0,0:0:0:0:
64,192,28537,1,0,0:0:0:0:
448,192,28537,1,0,0:0:0:0:
192,192,28589,1,0,0:0:0:0:
448,192,28642,1,0,0:0:0:0:
320,192,28694,1,0,0:0:0:0:
192,192,28746,1,0,0:0:0:0:
64,192,28746,1,0,0:0:0:0:
320,192,28850,1,0,0:0:0:0:
448,192,28850,1,0,0:0:0:0:
192,192,28897,1,0,0:0:0:0:
64,192,28943,1,0,0:0:0:0:
192,192,28989,1,0,0:0:0:0:
448,192,28989,1,0,0:0:0:0:
320,192,29036,1,0,0:0:0:0:
448,192,29082,1,0,0:0:0:0:
320,192,29129,1,0,0:0:0:0:
64,192,29175,1,0,0:0:0:0:
192,192,29221,1,0,0:0:0:0:
448,192,29268,1,0,0:0:0:0:
320,192,29320,1,0,0:0:0:0:
64,192,29372,1,0,0:0:0:0:
192,192,29372,1,0,0:0:0:0:
320,192,29424,1,0,0:0:0:0:
192,192,29476,1,0,0:0:0:0:
64,192,29529,1,0,0:0:0:0:
448,192,29581,1,0,0:0:0:0:
320,192,29581,1,0,0:0:0:0:
192,192,29633,1,0,0:0:0:0:
448,192,29685,1,0,0:0:0:0:
320,192,29737,1,0,0:0:0:0:
64,192,29789,1,0,0:0:0:0:
192,192,29789,1,0,0:0:0:0:
64,192,29894,1,0,0:0:0:0:
448,192,29894,1,0,0:0:0:0:
320,192,29998,128,0,30155:0:0:0:0:
64,192,29998,1,0,0:0:0:0:
192,192,30103,1,0,0:0:0:0:
320,192,30207,1,0,0:0:0:0:
448,192,30207,1,0,0:0:0:0:
64,192,30207,1,0,0:0:0:0:
320,192,30311,1,0,0:0:0:0:
448,192,30311,1,0,0:0:0:0:
64,192,30311,1,0,0:0:0:0:
320,192,30416,1,0,0:0:0:0:
192,192,30520,1,0,0:0:0:0:
192,192,30624,1,0,0:0:0:0:
64,192,30624,1,0,0:0:0:0:
320,192,30659,1,0,0:0:0:0:
448,192,30694,1,0,0:0:0:0:
320,192,30729,1,0,0:0:0:0:
192,192,30763,1,0,0:0:0:0:
64,192,30798,1,0,0:0:0:0:
448,192,30833,1,0,0:0:0:0:
192,192,30868,1,0,0:0:0:0:
320,192,30903,1,0,0:0:0:0:
448,192,30937,1,0,0:0:0:0:
64,192,30989,1,0,0:0:0:0:
320,192,31042,1,0,0:0:0:0:
192,192,31042,1,0,0:0:0:0:
64,192,31123,1,0,0:0:0:0:
448,192,31169,1,0,0:0:0:0:
320,192,31169,1,0,0:0:0:0:
192,192,31198,1,0,0:0:0:0:
448,192,31262,1,0,0:0:0:0:
320,192,31308,1,0,0:0:0:0:
192,192,31355,1,0,0:0:0:0:
64,192,31355,1,0,0:0:0:0:
64,192,31447,1,0,0:0:0:0:
192,192,31447,1,0,0:0:0:0:
192,192,31540,1,0,0:0:0:0:
64,192,31540,1,0,0:0:0:0:
320,192,31587,1,0,0:0:0:0:
448,192,31633,1,0,0:0:0:0:
320,192,31720,1,0,0:0:0:0:
192,192,31772,1,0,0:0:0:0:
64,192,31772,1,0,0:0:0:0:
448,192,31807,1,0,0:0:0:0:
320,192,31842,1,0,0:0:0:0:
64,192,31876,1,0,0:0:0:0:
448,192,31911,1,0,0:0:0:0:
192,192,31946,1,0,0:0:0:0:
64,192,32004,1,0,0:0:0:0:
192,192,32050,1,0,0:0:0:0:
320,192,32097,1,0,0:0:0:0:
448,192,32143,1,0,0:0:0:0:
64,192,32190,1,0,0:0:0:0:
320,192,32243,1,0,0:0:0:0:
192,192,32296,1,0,0:0:0:0:
64,192,32296,1,0,0:0:0:0:
448,192,32332,1,0,0:0:0:0:
320,192,32368,1,0,0:0:0:0:
192,192,32403,1,0,0:0:0:0:
448,192,32439,1,0,0:0:0:0:
64,192,32475,1,0,0:0:0:0:
192,192,32510,1,0,0:0:0:0:
448,192,32546,1,0,0:0:0:0:
320,192,32582,1,0,0:0:0:0:
64,192,32617,1,0,0:0:0:0:
192,192,32671,1,0,0:0:0:0:
320,192,32724,1,0,0:0:0:0:
448,192,32724,1,0,0:0:0:0:
64,192,32807,1,0,0:0:0:0:
320,192,32855,1,0,0:0:0:0:
448,192,32855,1,0,0:0:0:0:
192,192,32902,1,0,0:0:0:0:
64,192,32950,1,0,0:0:0:0:
192,192,32997,1,0,0:0:0:0:
320,192,33045,1,0,0:0:0:0:
448,192,33045,1,0,0:0:0:0:
320,192,33139,1,0,0:0:0:0:
448,192,33139,1,0,0:0:0:0:
320,192,33233,1,0,0:0:0:0:
448,192,33233,1,0,0:0:0:0:
192,192,33280,1,0,0:0:0:0:
64,192,33327,1,0,0:0:0:0:
192,192,33416,1,0,0:0:0:0:
320,192,33469,1,0,0:0:0:0:
448,192,33469,1,0,0:0:0:0:
64,192,33516,1,0,0:0:0:0:
192,192,33563,1,0,0:0:0:0:
320,192,33610,1,0,0:0:0:0:
64,192,33657,1,0,0:0:0:0:
448,192,33657,1,0,0:0:0:0:
320,192,33704,1,0,0:0:0:0:
192,192,33751,1,0,0:0:0:0:
64,192,33799,1,0,0:0:0:0:
448,192,33822,1,0,0:0:0:0:
320,192,33893,1,0,0:0:0:0:
192,192,33946,1,0,0:0:0:0:
320,192,33999,1,0,0:0:0:0:
448,192,33999,1,0,0:0:0:0:
64,192,34034,1,0,0:0:0:0:
192,192,34070,1,0,0:0:0:0:
320,192,34105,1,0,0:0:0:0:
448,192,34140,1,0,0:0:0:0:
64,192,34176,1,0,0:0:0:0:
320,192,34211,1,0,0:0:0:0:
192,192,34246,1,0,0:0:0:0:
64,192,34282,1,0,0:0:0:0:
192,192,34317,1,0,0:0:0:0:
320,192,34370,1,0,0:0:0:0:
448,192,34423,1,0,0:0:0:0:
64,192,34423,1,0,0:0:0:0:
192,192,34553,1,0,0:0:0:0:
320,192,34553,1,0,0:0:0:0:
448,192,34600,1,0,0:0:0:0:
320,192,34647,1,0,0:0:0:0:
192,192,34694,1,0,0:0:0:0:
64,192,34741,1,0,0:0:0:0:
448,192,34741,1,0,0:0:0:0:
64,192,34835,1,0,0:0:0:0:
448,192,34835,1,0,0:0:0:0:
448,192,34930,1,0,0:0:0:0:
64,192,34930,1,0,0:0:0:0:
192,192,34977,1,0,0:0:0:0:
320,192,35059,1,0,0:0:0:0:
448,192,35059,1,0,0:0:0:0:
192,192,35166,1,0,0:0:0:0:
64,192,35166,1,0,0:0:0:0:
448,192,35218,1,0,0:0:0:0:
192,192,35270,1,0,0:0:0:0:
64,192,35322,1,0,0:0:0:0:
320,192,35374,1,0,0:0:0:0:
448,192,35374,1,0,0:0:0:0:
192,192,35426,1,0,0:0:0:0:
448,192,35479,1,0,0:0:0:0:
320,192,35531,1,0,0:0:0:0:
192,192,35583,1,0,0:0:0:0:
64,192,35583,1,0,0:0:0:0:
448,192,35635,1,0,0:0:0:0:
64,192,35687,1,0,0:0:0:0:
192,192,35722,1,0,0:0:0:0:
320,192,35757,1,0,0:0:0:0:
448,192,35792,1,0,0:0:0:0:
64,192,35826,1,0,0:0:0:0:
320,192,35861,1,0,0:0:0:0:
192,192,35907,1,0,0:0:0:0:
448,192,35953,1,0,0:0:0:0:
64,192,36000,1,0,0:0:0:0:
192,192,36047,1,0,0:0:0:0:
320,192,36093,1,0,0:0:0:0:
448,192,36093,1,0,0:0:0:0:
64,192,36139,1,0,0:0:0:0:
320,192,36186,1,0,0:0:0:0:
192,192,36232,1,0,0:0:0:0:
448,192,36279,1,0,0:0:0:0:
192,192,36325,1,0,0:0:0:0:
320,192,36371,1,0,0:0:0:0:
64,192,36418,1,0,0:0:0:0:
448,192,36464,1,0,0:0:0:0:
64,192,36510,1,0,0:0:0:0:
192,192,36557,1,0,0:0:0:0:
320,192,36603,1,0,0:0:0:0:
448,192,36649,1,0,0:0:0:0:
192,192,36731,1,0,0:0:0:0:
64,192,36731,1,0,0:0:0:0:
320,192,36783,1,0,0:0:0:0:
192,192,36835,1,0,0:0:0:0:
320,192,36939,1,0,0:0:0:0:
448,192,36939,1,0,0:0:0:0:
64,192,36939,1,0,0:0:0:0:
192,192,37044,128,0,37148:0:0:0:0:
320,192,37044,128,0,37148:0:0:0:0:
448,192,37044,128,0,37148:0:0:0:0:
192,192,37252,128,0,37357:0:0:0:0:
64,192,37252,128,0,37357:0:0:0:0:
320,192,37252,128,0,37357:0:0:0:0:
192,192,37461,1,0,0:0:0:0:
192,192,37566,1,0,0:0:0:0:
320,192,37670,1,0,0:0:0:0:
448,192,37670,1,0,0:0:0:0:
64,192,37716,1,0,0:0:0:0:
320,192,37762,1,0,0:0:0:0:
192,192,37809,1,0,0:0:0:0:
448,192,37855,1,0,0:0:0:0:
64,192,37855,1,0,0:0:0:0:
320,192,37901,1,0,0:0:0:0:
64,192,37948,1,0,0:0:0:0:
192,192,37994,1,0,0:0:0:0:
448,192,38040,1,0,0:0:0:0:
320,192,38087,1,0,0:0:0:0:
192,192,38133,1,0,0:0:0:0:
64,192,38192,1,0,0:0:0:0:
448,192,38192,1,0,0:0:0:0:
448,192,38270,1,0,0:0:0:0:
64,192,38270,1,0,0:0:0:0:
448,192,38374,1,0,0:0:0:0:
192,192,38400,1,0,0:0:0:0:
192,192,38505,1,0,0:0:0:0:
320,192,38505,1,0,0:0:0:0:
448,192,38609,1,0,0:0:0:0:
64,192,38609,1,0,0:0:0:0:
320,192,38661,1,0,0:0:0:0:
64,192,38713,1,0,0:0:0:0:
192,192,38766,1,0,0:0:0:0:
448,192,38818,1,0,0:0:0:0:
320,192,38818,1,0,0:0:0:0:
192,192,38922,1,0,0:0:0:0:
64,192,38922,1,0,0:0:0:0:
320,192,38968,1,0,0:0:0:0:
448,192,39014,1,0,0:0:0:0:
320,192,39061,1,0,0:0:0:0:
64,192,39061,1,0,0:0:0:0:
192,192,39107,1,0,0:0:0:0:
64,192,39153,1,0,0:0:0:0:
448,192,39200,1,0,0:0:0:0:
192,192,39247,1,0,0:0:0:0:
320,192,39293,1,0,0:0:0:0:
448,192,39339,1,0,0:0:0:0:
64,192,39392,1,0,0:0:0:0:
192,192,39444,1,0,0:0:0:0:
320,192,39444,1,0,0:0:0:0:
64,192,39496,1,0,0:0:0:0:
448,192,39548,1,0,0:0:0:0:
320,192,39600,1,0,0:0:0:0:
192,192,39652,1,0,0:0:0:0:
64,192,39705,1,0,0:0:0:0:
448,192,39757,1,0,0:0:0:0:
320,192,39757,1,0,0:0:0:0:
448,192,39861,1,0,0:0:0:0:
320,192,39861,1,0,0:0:0:0:
192,192,39861,1,0,0:0:0:0:
320,192,39966,1,0,0:0:0:0:
448,192,39966,1,0,0:0:0:0:
192,192,39966,1,0,0:0:0:0:
192,192,40070,1,0,0:0:0:0:
64,192,40070,1,0,0:0:0:0:
192,192,40174,1,0,0:0:0:0:
320,192,40279,1,0,0:0:0:0:
448,192,40279,1,0,0:0:0:0:
64,192,40279,1,0,0:0:0:0:
320,192,40383,1,0,0:0:0:0:
192,192,40383,1,0,0:0:0:0:
192,192,40487,1,0,0:0:0:0:
320,192,40592,1,0,0:0:0:0:
448,192,40592,1,0,0:0:0:0:
320,192,40696,1,0,0:0:0:0:
64,192,40800,1,0,0:0:0:0:
448,192,40800,1,0,0:0:0:0:
192,192,40905,1,0,0:0:0:0:
64,192,40905,1,0,0:0:0:0:
320,192,41009,1,0,0:0:0:0:
448,192,41009,1,0,0:0:0:0:
64,192,41055,1,0,0:0:0:0:
448,192,41101,1,0,0:0:0:0:
320,192,41148,1,0,0:0:0:0:
64,192,41194,1,0,0:0:0:0:
192,192,41194,1,0,0:0:0:0:
448,192,41240,1,0,0:0:0:0:
192,192,41287,1,0,0:0:0:0:
320,192,41333,1,0,0:0:0:0:
64,192,41380,1,0,0:0:0:0:
192,192,41426,1,0,0:0:0:0:
320,192,41473,1,0,0:0:0:0:
448,192,41531,1,0,0:0:0:0:
64,192,41531,1,0,0:0:0:0:
448,192,41609,1,0,0:0:0:0:
64,192,41609,1,0,0:0:0:0:
64,192,41713,1,0,0:0:0:0:
192,192,41739,1,0,0:0:0:0:
320,192,41844,1,0,0:0:0:0:
448,192,41844,1,0,0:0:0:0:
320,192,41948,1,0,0:0:0:0:
192,192,41948,1,0,0:0:0:0:
64,192,42000,1,0,0:0:0:0:
192,192,42052,1,0,0:0:0:0:
320,192,42105,1,0,0:0:0:0:
64,192,42157,1,0,0:0:0:0:
448,192,42157,1,0,0:0:0:0:
320,192,42261,1,0,0:0:0:0:
448,192,42261,1,0,0:0:0:0:
64,192,42307,1,0,0:0:0:0:
192,192,42353,1,0,0:0:0:0:
448,192,42353,1,0,0:0:0:0:
320,192,42400,1,0,0:0:0:0:
64,192,42447,1,0,0:0:0:0:
448,192,42493,1,0,0:0:0:0:
320,192,42539,1,0,0:0:0:0:
192,192,42586,1,0,0:0:0:0:
320,192,42632,1,0,0:0:0:0:
192,192,42679,1,0,0:0:0:0:
64,192,42731,1,0,0:0:0:0:
320,192,42783,1,0,0:0:0:0:
448,192,42783,1,0,0:0:0:0:
192,192,42835,1,0,0:0:0:0:
448,192,42887,1,0,0:0:0:0:
64,192,42939,1,0,0:0:0:0:
320,192,42957,1,0,0:0:0:0:
192,192,42992,1,0,0:0:0:0:
448,192,43044,1,0,0:0:0:0:
320,192,43096,1,0,0:0:0:0:
192,192,43148,1,0,0:0:0:0:
448,192,43200,1,0,0:0:0:0:
64,192,43200,1,0,0:0:0:0:
64,192,43305,1,0,0:0:0:0:
448,192,43305,1,0,0:0:0:0:
320,192,43409,1,0,0:0:0:0:
192,192,43409,1,0,0:0:0:0:
192,192,43513,1,0,0:0:0:0:
320,192,43618,1,0,0:0:0:0:
448,192,43618,1,0,0:0:0:0:
64,192,43618,1,0,0:0:0:0:
320,192,43722,1,0,0:0:0:0:
448,192,43722,1,0,0:0:0:0:
192,192,43722,1,0,0:0:0:0:
320,192,43826,1,0,0:0:0:0:
448,192,43931,1,0,0:0:0:0:
64,192,43931,1,0,0:0:0:0:
192,192,43931,1,0,0:0:0:0:
192,192,44035,1,0,0:0:0:0:
320,192,44139,1,0,0:0:0:0:
64,192,44139,1,0,0:0:0:0:
320,192,44244,1,0,0:0:0:0:
448,192,44244,1,0,0:0:0:0:
192,192,44348,1,0,0:0:0:0:
64,192,44348,1,0,0:0:0:0:
448,192,44394,1,0,0:0:0:0:
64,192,44440,1,0,0:0:0:0:
320,192,44487,1,0,0:0:0:0:
192,192,44533,1,0,0:0:0:0:
448,192,44580,1,0,0:0:0:0:
320,192,44580,1,0,0:0:0:0:
64,192,44626,1,0,0:0:0:0:
192,192,44673,1,0,0:0:0:0:
320,192,44719,1,0,0:0:0:0:
448,192,44766,1,0,0:0:0:0:
64,192,44818,1,0,0:0:0:0:
192,192,44870,1,0,0:0:0:0:
320,192,44870,1,0,0:0:0:0:
192,192,44948,1,0,0:0:0:0:
320,192,44948,1,0,0:0:0:0:
192,192,45052,1,0,0:0:0:0:
64,192,45079,1,0,0:0:0:0:
320,192,45183,1,0,0:0:0:0:
448,192,45183,1,0,0:0:0:0:
448,192,45287,1,0,0:0:0:0:
64,192,45287,1,0,0:0:0:0:
320,192,45339,1,0,0:0:0:0:
64,192,45392,1,0,0:0:0:0:
192,192,45444,1,0,0:0:0:0:
448,192,45496,1,0,0:0:0:0:
320,192,45496,1,0,0:0:0:0:
192,192,45600,1,0,0:0:0:0:
64,192,45600,1,0,0:0:0:0:
448,192,45647,1,0,0:0:0:0:
320,192,45693,1,0,0:0:0:0:
192,192,45739,1,0,0:0:0:0:
64,192,45786,1,0,0:0:0:0:
448,192,45832,1,0,0:0:0:0:
320,192,45832,1,0,0:0:0:0:
192,192,45879,1,0,0:0:0:0:
448,192,45925,1,0,0:0:0:0:
64,192,45971,1,0,0:0:0:0:
192,192,46018,1,0,0:0:0:0:
448,192,46070,1,0,0:0:0:0:
64,192,46122,1,0,0:0:0:0:
320,192,46122,1,0,0:0:0:0:
192,192,46174,1,0,0:0:0:0:
448,192,46226,1,0,0:0:0:0:
320,192,46279,1,0,0:0:0:0:
192,192,46331,1,0,0:0:0:0:
64,192,46331,1,0,0:0:0:0:
448,192,46383,1,0,0:0:0:0:
192,192,46435,1,0,0:0:0:0:
64,192,46487,1,0,0:0:0:0:
448,192,46539,1,0,0:0:0:0:
320,192,46539,1,0,0:0:0:0:
320,192,46644,1,0,0:0:0:0:
448,192,46644,1,0,0:0:0:0:
320,192,46748,1,0,0:0:0:0:
192,192,46748,128,0,46906:0:0:0:0:
448,192,46853,1,0,0:0:0:0:
320,192,46959,1,0,0:0:0:0:
192,192,46959,1,0,0:0:0:0:
64,192,46959,1,0,0:0:0:0:
320,192,47066,1,0,0:0:0:0:
192,192,47066,1,0,0:0:0:0:
64,192,47066,1,0,0:0:0:0:
320,192,47173,1,0,0:0:0:0:
448,192,47173,1,0,0:0:0:0:
320,192,47280,1,0,0:0:0:0:
448,192,47280,1,0,0:0:0:0:
192,192,47381,1,0,0:0:0:0:
64,192,47381,1,0,0:0:0:0:
448,192,47414,1,0,0:0:0:0:
320,192,47448,1,0,0:0:0:0:
192,192,47482,1,0,0:0:0:0:
64,192,47515,1,0,0:0:0:0:
192,192,47549,1,0,0:0:0:0:
320,192,47583,1,0,0:0:0:0:
64,192,47617,1,0,0:0:0:0:
448,192,47650,1,0,0:0:0:0:
320,192,47684,1,0,0:0:0:0:
192,192,47735,1,0,0:0:0:0:
64,192,47785,1,0,0:0:0:0:
448,192,47785,1,0,0:0:0:0:
448,192,47886,1,0,0:0:0:0:
320,192,47909,1,0,0:0:0:0:
192,192,47954,1,0,0:0:0:0:
64,192,47999,1,0,0:0:0:0:
192,192,48044,1,0,0:0:0:0:
448,192,48088,1,0,0:0:0:0:
320,192,48088,1,0,0:0:0:0:
64,192,48139,1,0,0:0:0:0:
192,192,48164,1,0,0:0:0:0:
320,192,48179,1,0,0:0:0:0:
448,192,48179,1,0,0:0:0:0:
320,192,48268,1,0,0:0:0:0:
448,192,48268,1,0,0:0:0:0:
192,192,48313,1,0,0:0:0:0:
64,192,48358,1,0,0:0:0:0:
192,192,48442,1,0,0:0:0:0:
320,192,48493,1,0,0:0:0:0:
448,192,48493,1,0,0:0:0:0:
64,192,48527,1,0,0:0:0:0:
192,192,48560,1,0,0:0:0:0:
448,192,48594,1,0,0:0:0:0:
320,192,48628,1,0,0:0:0:0:
192,192,48661,1,0,0:0:0:0:
448,192,48718,1,0,0:0:0:0:
64,192,48762,1,0,0:0:0:0:
192,192,48796,1,0,0:0:0:0:
320,192,48847,1,0,0:0:0:0:
192,192,48897,1,0,0:0:0:0:
320,192,48943,1,0,0:0:0:0:
448,192,48987,1,0,0:0:0:0:
64,192,49032,1,0,0:0:0:0:
192,192,49100,1,0,0:0:0:0:
320,192,49100,1,0,0:0:0:0:
448,192,49133,1,0,0:0:0:0:
64,192,49167,1,0,0:0:0:0:
192,192,49201,1,0,0:0:0:0:
320,192,49234,1,0,0:0:0:0:
64,192,49268,1,0,0:0:0:0:
448,192,49302,1,0,0:0:0:0:
320,192,49335,1,0,0:0:0:0:
192,192,49369,1,0,0:0:0:0:
64,192,49403,1,0,0:0:0:0:
192,192,49453,1,0,0:0:0:0:
320,192,49504,1,0,0:0:0:0:
448,192,49504,1,0,0:0:0:0:
448,192,49617,1,0,0:0:0:0:
64,192,49617,1,0,0:0:0:0:
192,192,49662,1,0,0:0:0:0:
320,192,49706,1,0,0:0:0:0:
448,192,49752,1,0,0:0:0:0:
320,192,49797,1,0,0:0:0:0:
192,192,49841,1,0,0:0:0:0:
64,192,49841,1,0,0:0:0:0:
192,192,49932,1,0,0:0:0:0:
64,192,49932,1,0,0:0:0:0:
192,192,50021,1,0,0:0:0:0:
64,192,50021,1,0,0:0:0:0:
448,192,50077,1,0,0:0:0:0:
320,192,50111,1,0,0:0:0:0:
192,192,50161,1,0,0:0:0:0:
64,192,50212,1,0,0:0:0:0:
192,192,50279,1,0,0:0:0:0:
448,192,50313,1,0,0:0:0:0:
320,192,50313,1,0,0:0:0:0:
320,192,50414,1,0,0:0:0:0:
448,192,50465,1,0,0:0:0:0:
64,192,50515,1,0,0:0:0:0:
192,192,50515,1,0,0:0:0:0:
320,192,50566,1,0,0:0:0:0:
64,192,50616,1,0,0:0:0:0:
192,192,50667,1,0,0:0:0:0:
320,192,50717,1,0,0:0:0:0:
448,192,50717,1,0,0:0:0:0:
64,192,50751,1,0,0:0:0:0:
448,192,50785,1,0,0:0:0:0:
192,192,50818,1,0,0:0:0:0:
320,192,50852,1,0,0:0:0:0:
448,192,50920,1,0,0:0:0:0:
192,192,50970,1,0,0:0:0:0:
64,192,50970,1,0,0:0:0:0:
320,192,50987,1,0,0:0:0:0:
192,192,51046,1,0,0:0:0:0:
320,192,51172,1,0,0:0:0:0:
448,192,51172,1,0,0:0:0:0:
64,192,51172,1,0,0:0:0:0:
448,192,51257,1,0,0:0:0:0:
192,192,51324,1,0,0:0:0:0:
64,192,51324,1,0,0:0:0:0:
320,192,51375,1,0,0:0:0:0:
192,192,51425,1,0,0:0:0:0:
448,192,51526,1,0,0:0:0:0:
64,192,51526,1,0,0:0:0:0:
192,192,51560,1,0,0:0:0:0:
320,192,51594,1,0,0:0:0:0:
448,192,51627,1,0,0:0:0:0:
64,192,51661,1,0,0:0:0:0:
320,192,51695,1,0,0:0:0:0:
192,192,51728,1,0,0:0:0:0:
448,192,51783,1,0,0:0:0:0:
192,192,51836,1,0,0:0:0:0:
64,192,51871,1,0,0:0:0:0:
320,192,51942,1,0,0:0:0:0:
448,192,51942,1,0,0:0:0:0:
192,192,51942,1,0,0:0:0:0:
64,192,52048,1,0,0:0:0:0:
320,192,52048,1,0,0:0:0:0:
320,192,52153,1,0,0:0:0:0:
448,192,52153,1,0,0:0:0:0:
320,192,52257,1,0,0:0:0:0:
448,192,52257,1,0,0:0:0:0:
320,192,52361,1,0,0:0:0:0:
448,192,52361,1,0,0:0:0:0:
192,192,52466,1,0,0:0:0:0:
64,192,52466,1,0,0:0:0:0:
448,192,52524,1,0,0:0:0:0:
320,192,52570,1,0,0:0:0:0:
192,192,52617,1,0,0:0:0:0:
64,192,52617,1,0,0:0:0:0:
448,192,52663,1,0,0:0:0:0:
64,192,52709,1,0,0:0:0:0:
192,192,52756,1,0,0:0:0:0:
320,192,52802,1,0,0:0:0:0:
448,192,52848,1,0,0:0:0:0:
320,192,52895,1,0,0:0:0:0:
64,192,52895,1,0,0:0:0:0:
192,192,52941,1,0,0:0:0:0:
64,192,52987,1,0,0:0:0:0:
448,192,53034,1,0,0:0:0:0:
192,192,53080,1,0,0:0:0:0:
320,192,53126,1,0,0:0:0:0:
192,192,53196,1,0,0:0:0:0:
64,192,53196,1,0,0:0:0:0:
448,192,53248,1,0,0:0:0:0:
64,192,53313,1,0,0:0:0:0:
192,192,53359,1,0,0:0:0:0:
320,192,53405,1,0,0:0:0:0:
448,192,53452,1,0,0:0:0:0:
192,192,53509,1,0,0:0:0:0:
64,192,53509,1,0,0:0:0:0:
320,192,53561,1,0,0:0:0:0:
192,192,53613,1,0,0:0:0:0:
64,192,53718,1,0,0:0:0:0:
448,192,53718,1,0,0:0:0:0:
320,192,53718,1,0,0:0:0:0:
192,192,53823,128,0,54036:0:0:0:0:
320,192,53823,128,0,54036:0:0:0:0:
320,192,54078,1,0,0:0:0:0:
448,192,54078,1,0,0:0:0:0:
192,192,54165,1,0,0:0:0:0:
64,192,54165,1,0,0:0:0:0:
448,192,54201,1,0,0:0:0:0:
320,192,54238,1,0,0:0:0:0:
192,192,54275,1,0,0:0:0:0:
64,192,54312,1,0,0:0:0:0:
448,192,54349,1,0,0:0:0:0:
320,192,54386,1,0,0:0:0:0:
192,192,54422,1,0,0:0:0:0:
64,192,54459,1,0,0:0:0:0:
320,192,54496,1,0,0:0:0:0:
448,192,54533,1,0,0:0:0:0:
64,192,54570,1,0,0:0:0:0:
192,192,54607,1,0,0:0:0:0:
448,192,54652,1,0,0:0:0:0:
192,192,54698,1,0,0:0:0:0:
320,192,54745,1,0,0:0:0:0:
64,192,54790,1,0,0:0:0:0:
448,192,54836,1,0,0:0:0:0:
320,192,54883,1,0,0:0:0:0:
64,192,54917,1,0,0:0:0:0:
192,192,54917,1,0,0:0:0:0:
448,192,55021,1,0,0:0:0:0:
320,192,55021,1,0,0:0:0:0:
192,192,55124,1,0,0:0:0:0:
320,192,55124,1,0,0:0:0:0:
448,192,55124,1,0,0:0:0:0:
192,192,55228,1,0,0:0:0:0:
64,192,55228,1,0,0:0:0:0:
320,192,55228,1,0,0:0:0:0:
192,192,55331,1,0,0:0:0:0:
64,192,55331,1,0,0:0:0:0:
64,192,55434,1,0,0:0:0:0:
448,192,55434,1,0,0:0:0:0:
192,192,55434,1,0,0:0:0:0:
320,192,55434,1,0,0:0:0:0:
320,192,55540,1,0,0:0:0:0:
448,192,55540,1,0,0:0:0:0:
192,192,55540,1,0,0:0:0:0:
320,192,55647,1,0,0:0:0:0:
192,192,55754,1,0,0:0:0:0:
64,192,55754,1,0,0:0:0:0:
448,192,55767,1,0,0:0:0:0:
320,192,55814,1,0,0:0:0:0:
192,192,55861,1,0,0:0:0:0:
64,192,55909,1,0,0:0:0:0:
448,192,55909,1,0,0:0:0:0:
192,192,55957,1,0,0:0:0:0:
320,192,55995,1,0,0:0:0:0:
448,192,56052,1,0,0:0:0:0:
320,192,56100,1,0,0:0:0:0:
192,192,56146,1,0,0:0:0:0:
64,192,56146,1,0,0:0:0:0:
448,192,56194,1,0,0:0:0:0:
64,192,56241,1,0,0:0:0:0:
192,192,56289,1,0,0:0:0:0:
448,192,56337,1,0,0:0:0:0:
320,192,56384,1,0,0:0:0:0:
192,192,56431,1,0,0:0:0:0:
64,192,56431,1,0,0:0:0:0:
448,192,56480,1,0,0:0:0:0:
192,192,56527,1,0,0:0:0:0:
320,192,56556,1,0,0:0:0:0:
64,192,56622,1,0,0:0:0:0:
448,192,56636,1,0,0:0:0:0:
320,192,56669,1,0,0:0:0:0:
64,192,56716,1,0,0:0:0:0:
192,192,56716,1,0,0:0:0:0:
448,192,56765,1,0,0:0:0:0:
320,192,56812,1,0,0:0:0:0:
192,192,56859,1,0,0:0:0:0:
448,192,56907,1,0,0:0:0:0:
64,192,56954,1,0,0:0:0:0:
192,192,57002,1,0,0:0:0:0:
320,192,57049,1,0,0:0:0:0:
448,192,57049,1,0,0:0:0:0:
64,192,57097,1,0,0:0:0:0:
320,192,57144,1,0,0:0:0:0:
448,192,57144,1,0,0:0:0:0:
192,192,57196,1,0,0:0:0:0:
448,192,57260,1,0,0:0:0:0:
64,192,57279,1,0,0:0:0:0:
320,192,57346,1,0,0:0:0:0:
192,192,57447,1,0,0:0:0:0:
64,192,57447,1,0,0:0:0:0:
320,192,57547,1,0,0:0:0:0:
448,192,57547,1,0,0:0:0:0:
64,192,57583,1,0,0:0:0:0:
192,192,57620,1,0,0:0:0:0:
320,192,57656,1,0,0:0:0:0:
448,192,57693,1,0,0:0:0:0:
192,192,57729,1,0,0:0:0:0:
320,192,57766,1,0,0:0:0:0:
64,192,57802,1,0,0:0:0:0:
448,192,57839,1,0,0:0:0:0:
320,192,57875,1,0,0:0:0:0:
192,192,57912,1,0,0:0:0:0:
64,192,57948,1,0,0:0:0:0:
448,192,57985,1,0,0:0:0:0:
192,192,58032,1,0,0:0:0:0:
320,192,58079,1,0,0:0:0:0:
192,192,58126,1,0,0:0:0:0:
448,192,58173,1,0,0:0:0:0:
64,192,58220,1,0,0:0:0:0:
192,192,58267,1,0,0:0:0:0:
320,192,58303,1,0,0:0:0:0:
448,192,58303,1,0,0:0:0:0:
192,192,58409,1,0,0:0:0:0:
64,192,58409,1,0,0:0:0:0:
192,192,58515,1,0,0:0:0:0:
64,192,58515,1,0,0:0:0:0:
320,192,58515,1,0,0:0:0:0:
320,192,58621,1,0,0:0:0:0:
448,192,58621,1,0,0:0:0:0:
192,192,58621,1,0,0:0:0:0:
320,192,58727,1,0,0:0:0:0:
448,192,58727,1,0,0:0:0:0:
192,192,58833,1,0,0:0:0:0:
64,192,58833,1,0,0:0:0:0:
320,192,58833,1,0,0:0:0:0:
448,192,58833,1,0,0:0:0:0:
192,192,58939,1,0,0:0:0:0:
64,192,58939,1,0,0:0:0:0:
320,192,58939,1,0,0:0:0:0:
192,192,59045,1,0,0:0:0:0:
448,192,59151,1,0,0:0:0:0:
192,192,59204,1,0,0:0:0:0:
448,192,59257,1,0,0:0:0:0:
320,192,59257,1,0,0:0:0:0:
64,192,59310,1,0,0:0:0:0:
320,192,59362,1,0,0:0:0:0:
64,192,59414,1,0,0:0:0:0:
192,192,59466,1,0,0:0:0:0:
448,192,59466,1,0,0:0:0:0:
320,192,59518,1,0,0:0:0:0:
192,192,59571,1,0,0:0:0:0:
320,192,59623,1,0,0:0:0:0:
448,192,59675,1,0,0:0:0:0:
64,192,59675,1,0,0:0:0:0:
192,192,59727,1,0,0:0:0:0:
320,192,59779,1,0,0:0:0:0:
192,192,59831,1,0,0:0:0:0:
448,192,59884,1,0,0:0:0:0:
64,192,59884,1,0,0:0:0:0:
64,192,59988,1,0,0:0:0:0:
448,192,59988,1,0,0:0:0:0:
64,192,60092,1,0,0:0:0:0:
192,192,60092,1,0,0:0:0:0:
448,192,60092,1,0,0:0:0:0:
320,192,60092,1,0,0:0:0:0:
320,192,60197,1,0,0:0:0:0:
192,192,60197,1,0,0:0:0:0:
192,192,60301,1,0,0:0:0:0:
320,192,60301,1,0,0:0:0:0:
320,192,60405,1,0,0:0:0:0:
64,192,60405,1,0,0:0:0:0:
448,192,60510,1,0,0:0:0:0:
192,192,60510,1,0,0:0:0:0:
64,192,60510,1,0,0:0:0:0:
448,192,60616,128,0,60828:0:0:0:0:
320,192,60616,128,0,60828:0:0:0:0:
192,192,60722,1,0,0:0:0:0:
192,192,60828,1,0,0:0:0:0:
320,192,60934,1,0,0:0:0:0:
448,192,60934,1,0,0:0:0:0:
64,192,60969,1,0,0:0:0:0:
192,192,61004,1,0,0:0:0:0:
320,192,61039,1,0,0:0:0:0:
448,192,61074,1,0,0:0:0:0:
320,192,61109,1,0,0:0:0:0:
192,192,61144,1,0,0:0:0:0:
64,192,61179,1,0,0:0:0:0:
448,192,61214,1,0,0:0:0:0:
192,192,61249,1,0,0:0:0:0:
320,192,61284,1,0,0:0:0:0:
64,192,61319,1,0,0:0:0:0:
448,192,61354,1,0,0:0:0:0:
192,192,61401,1,0,0:0:0:0:
320,192,61448,1,0,0:0:0:0:
448,192,61495,1,0,0:0:0:0:
320,192,61541,1,0,0:0:0:0:
192,192,61588,1,0,0:0:0:0:
64,192,61635,1,0,0:0:0:0:
448,192,61670,1,0,0:0:0:0:
320,192,61670,1,0,0:0:0:0:
192,192,61775,1,0,0:0:0:0:
64,192,61775,1,0,0:0:0:0:
192,192,61880,1,0,0:0:0:0:
64,192,61880,1,0,0:0:0:0:
448,192,61880,1,0,0:0:0:0:
320,192,61985,1,0,0:0:0:0:
448,192,61985,1,0,0:0:0:0:
64,192,61985,1,0,0:0:0:0:
320,192,62091,1,0,0:0:0:0:
448,192,62091,1,0,0:0:0:0:
192,192,62196,1,0,0:0:0:0:
64,192,62196,1,0,0:0:0:0:
448,192,62196,1,0,0:0:0:0:
320,192,62196,1,0,0:0:0:0:
192,192,62301,1,0,0:0:0:0:
64,192,62301,1,0,0:0:0:0:
320,192,62301,1,0,0:0:0:0:
192,192,62406,1,0,0:0:0:0:
320,192,62511,1,0,0:0:0:0:
448,192,62617,1,0,0:0:0:0:
64,192,62617,1,0,0:0:0:0:
192,192,62664,1,0,0:0:0:0:
320,192,62711,1,0,0:0:0:0:
448,192,62757,1,0,0:0:0:0:
64,192,62757,1,0,0:0:0:0:
320,192,62804,1,0,0:0:0:0:
192,192,62851,1,0,0:0:0:0:
64,192,62897,1,0,0:0:0:0:
448,192,62944,1,0,0:0:0:0:
320,192,62991,1,0,0:0:0:0:
192,192,63037,1,0,0:0:0:0:
64,192,63037,1,0,0:0:0:0:
448,192,63085,1,0,0:0:0:0:
64,192,63131,1,0,0:0:0:0:
192,192,63178,1,0,0:0:0:0:
320,192,63225,1,0,0:0:0:0:
448,192,63272,1,0,0:0:0:0:
320,192,63318,1,0,0:0:0:0:
64,192,63318,1,0,0:0:0:0:
192,192,63365,1,0,0:0:0:0:
64,192,63412,1,0,0:0:0:0:
448,192,63458,1,0,0:0:0:0:
192,192,63505,1,0,0:0:0:0:
320,192,63552,1,0,0:0:0:0:
448,192,63552,1,0,0:0:0:0:
64,192,63598,1,0,0:0:0:0:
320,192,63646,1,0,0:0:0:0:
192,192,63693,1,0,0:0:0:0:
448,192,63739,1,0,0:0:0:0:
64,192,63786,1,0,0:0:0:0:
192,192,63833,1,0,0:0:0:0:
320,192,63879,1,0,0:0:0:0:
448,192,63879,1,0,0:0:0:0:
64,192,63926,1,0,0:0:0:0:
192,192,63973,1,0,0:0:0:0:
320,192,64019,1,0,0:0:0:0:
64,192,64019,1,0,0:0:0:0:
448,192,64067,1,0,0:0:0:0:
320,192,64113,1,0,0:0:0:0:
192,192,64159,1,0,0:0:0:0:
448,192,64207,1,0,0:0:0:0:
320,192,64253,1,0,0:0:0:0:
192,192,64300,1,0,0:0:0:0:
64,192,64300,1,0,0:0:0:0:
64,192,64370,1,0,0:0:0:0:
192,192,64370,1,0,0:0:0:0:
320,192,64440,1,0,0:0:0:0:
448,192,64440,1,0,0:0:0:0:
64,192,64510,1,0,0:0:0:0:
320,192,64533,1,0,0:0:0:0:
448,192,64533,1,0,0:0:0:0:
192,192,64580,1,0,0:0:0:0:
64,192,64720,1,0,0:0:0:0:
192,192,64720,1,0,0:0:0:0:
320,192,64720,1,0,0:0:0:0:
320,192,64826,1,0,0:0:0:0:
192,192,64861,1,0,0:0:0:0:
448,192,64931,1,0,0:0:0:0:
320,192,64931,1,0,0:0:0:0:
64,192,64966,1,0,0:0:0:0:
192,192,65001,1,0,0:0:0:0:
320,192,65036,1,0,0:0:0:0:
448,192,65036,1,0,0:0:0:0:
192,192,65141,1,0,0:0:0:0:
64,192,65141,1,0,0:0:0:0:
64,192,65245,1,0,0:0:0:0:
448,192,65245,1,0,0:0:0:0:
320,192,65280,1,0,0:0:0:0:
448,192,65349,1,0,0:0:0:0:
192,192,65454,1,0,0:0:0:0:
64,192,65454,1,0,0:0:0:0:
320,192,65558,1,0,0:0:0:0:
448,192,65558,1,0,0:0:0:0:
64,192,65558,1,0,0:0:0:0:
320,192,65662,1,0,0:0:0:0:
448,192,65662,1,0,0:0:0:0:
64,192,65662,1,0,0:0:0:0:
320,192,65767,1,0,0:0:0:0:
192,192,65871,1,0,0:0:0:0:
320,192,65975,128,0,66288:0:0:0:0:
448,192,65975,1,0,0:0:0:0:
448,192,66080,1,0,0:0:0:0:
64,192,66184,1,0,0:0:0:0:
192,192,66288,128,0,66601:0:0:0:0:
64,192,66288,1,0,0:0:0:0:
448,192,66393,1,0,0:0:0:0:
448,192,66497,1,0,0:0:0:0:
320,192,66601,128,0,67019:0:0:0:0:
64,192,66601,1,0,0:0:0:0:
64,192,66706,1,0,0:0:0:0:
448,192,66810,1,0,0:0:0:0:
448,192,66914,1,0,0:0:0:0:
64,192,67019,1,0,0:0:0:0:
192,192,67019,1,0,0:0:0:0:
192,192,67228,1,0,0:0:0:0:
320,192,67228,1,0,0:0:0:0:
448,192,67228,1,0,0:0:0:0:
192,192,67334,1,0,0:0:0:0:
320,192,67334,1,0,0:0:0:0:
448,192,67334,1,0,0:0:0:0:
192,192,67546,1,0,0:0:0:0:
64,192,67546,1,0,0:0:0:0:
192,192,67652,1,0,0:0:0:0:
320,192,67758,1,0,0:0:0:0:
64,192,67758,1,0,0:0:0:0:
320,192,67864,1,0,0:0:0:0:
448,192,67864,1,0,0:0:0:0:
192,192,67970,1,0,0:0:0:0:
64,192,67970,1,0,0:0:0:0:
448,192,67982,1,0,0:0:0:0:
320,192,68029,1,0,0:0:0:0:
64,192,68076,1,0,0:0:0:0:
448,192,68123,1,0,0:0:0:0:
320,192,68171,1,0,0:0:0:0:
192,192,68171,1,0,0:0:0:0:
64,192,68217,1,0,0:0:0:0:
192,192,68265,1,0,0:0:0:0:
320,192,68312,1,0,0:0:0:0:
448,192,68359,1,0,0:0:0:0:
64,192,68407,1,0,0:0:0:0:
192,192,68453,1,0,0:0:0:0:
320,192,68500,1,0,0:0:0:0:
448,192,68500,1,0,0:0:0:0:
320,192,68580,1,0,0:0:0:0:
448,192,68580,1,0,0:0:0:0:
64,192,68712,1,0,0:0:0:0:
320,192,68712,1,0,0:0:0:0:
192,192,68818,1,0,0:0:0:0:
64,192,68818,1,0,0:0:0:0:
448,192,68925,1,0,0:0:0:0:
320,192,68925,1,0,0:0:0:0:
64,192,68976,1,0,0:0:0:0:
192,192,69028,1,0,0:0:0:0:
320,192,69028,1,0,0:0:0:0:
448,192,69080,1,0,0:0:0:0:
192,192,69132,1,0,0:0:0:0:
64,192,69235,1,0,0:0:0:0:
448,192,69235,1,0,0:0:0:0:
192,192,69287,1,0,0:0:0:0:
320,192,69339,1,0,0:0:0:0:
448,192,69385,1,0,0:0:0:0:
192,192,69431,1,0,0:0:0:0:
64,192,69431,1,0,0:0:0:0:
320,192,69477,1,0,0:0:0:0:
192,192,69522,1,0,0:0:0:0:
64,192,69568,1,0,0:0:0:0:
448,192,69615,1,0,0:0:0:0:
320,192,69660,1,0,0:0:0:0:
64,192,69707,1,0,0:0:0:0:
192,192,69753,1,0,0:0:0:0:
448,192,69753,1,0,0:0:0:0:
320,192,69804,1,0,0:0:0:0:
192,192,69856,1,0,0:0:0:0:
320,192,69908,1,0,0:0:0:0:
64,192,69960,1,0,0:0:0:0:
448,192,70011,1,0,0:0:0:0:
64,192,70063,1,0,0:0:0:0:
192,192,70115,1,0,0:0:0:0:
448,192,70167,1,0,0:0:0:0:
320,192,70167,1,0,0:0:0:0:
64,192,70167,1,0,0:0:0:0:
320,192,70270,1,0,0:0:0:0:
448,192,70270,1,0,0:0:0:0:
192,192,70374,1,0,0:0:0:0:
320,192,70374,1,0,0:0:0:0:
192,192,70477,1,0,0:0:0:0:
448,192,70477,1,0,0:0:0:0:
320,192,70581,1,0,0:0:0:0:
64,192,70581,1,0,0:0:0:0:
448,192,70581,1,0,0:0:0:0:
192,192,70686,1,0,0:0:0:0:
64,192,70686,1,0,0:0:0:0:
320,192,70791,1,0,0:0:0:0:
320,192,70896,1,0,0:0:0:0:
448,192,70896,1,0,0:0:0:0:
64,192,70896,1,0,0:0:0:0:
64,192,71001,1,0,0:0:0:0:
192,192,71001,1,0,0:0:0:0:
448,192,71106,1,0,0:0:0:0:
320,192,71106,1,0,0:0:0:0:
320,192,71212,1,0,0:0:0:0:
64,192,71212,1,0,0:0:0:0:
192,192,71317,1,0,0:0:0:0:
64,192,71317,1,0,0:0:0:0:
448,192,71329,1,0,0:0:0:0:
320,192,71375,1,0,0:0:0:0:
192,192,71422,1,0,0:0:0:0:
448,192,71469,1,0,0:0:0:0:
64,192,71516,1,0,0:0:0:0:
192,192,71562,1,0,0:0:0:0:
320,192,71562,1,0,0:0:0:0:
448,192,71609,1,0,0:0:0:0:
64,192,71656,1,0,0:0:0:0:
192,192,71703,1,0,0:0:0:0:
448,192,71750,1,0,0:0:0:0:
320,192,71796,1,0,0:0:0:0:
192,192,71843,1,0,0:0:0:0:
64,192,71843,1,0,0:0:0:0:
64,192,71922,1,0,0:0:0:0:
192,192,71922,1,0,0:0:0:0:
64,192,72027,1,0,0:0:0:0:
448,192,72053,1,0,0:0:0:0:
448,192,72158,1,0,0:0:0:0:
192,192,72158,1,0,0:0:0:0:
192,192,72264,1,0,0:0:0:0:
64,192,72264,1,0,0:0:0:0:
448,192,72316,1,0,0:0:0:0:
320,192,72369,1,0,0:0:0:0:
64,192,72369,1,0,0:0:0:0:
192,192,72421,1,0,0:0:0:0:
320,192,72474,1,0,0:0:0:0:
192,192,72579,1,0,0:0:0:0:
64,192,72579,1,0,0:0:0:0:
320,192,72632,1,0,0:0:0:0:
448,192,72684,1,0,0:0:0:0:
64,192,72732,1,0,0:0:0:0:
320,192,72778,1,0,0:0:0:0:
192,192,72825,1,0,0:0:0:0:
448,192,72825,1,0,0:0:0:0:
64,192,72872,1,0,0:0:0:0:
192,192,72919,1,0,0:0:0:0:
320,192,72965,1,0,0:0:0:0:
64,192,73012,1,0,0:0:0:0:
448,192,73059,1,0,0:0:0:0:
320,192,73106,1,0,0:0:0:0:
192,192,73106,1,0,0:0:0:0:
64,192,73157,1,0,0:0:0:0:
320,192,73208,1,0,0:0:0:0:
448,192,73260,1,0,0:0:0:0:
64,192,73311,1,0,0:0:0:0:
320,192,73345,1,0,0:0:0:0:
64,192,73414,1,0,0:0:0:0:
448,192,73448,1,0,0:0:0:0:
320,192,73482,1,0,0:0:0:0:
192,192,73516,1,0,0:0:0:0:
64,192,73516,1,0,0:0:0:0:
192,192,73619,1,0,0:0:0:0:
448,192,73619,1,0,0:0:0:0:
320,192,73722,1,0,0:0:0:0:
64,192,73722,1,0,0:0:0:0:
320,192,73824,1,0,0:0:0:0:
192,192,73927,1,0,0:0:0:0:
64,192,73927,1,0,0:0:0:0:
448,192,73927,1,0,0:0:0:0:
192,192,74030,1,0,0:0:0:0:
448,192,74030,1,0,0:0:0:0:
320,192,74133,1,0,0:0:0:0:
192,192,74235,1,0,0:0:0:0:
64,192,74235,1,0,0:0:0:0:
448,192,74339,1,0,0:0:0:0:
192,192,74443,1,0,0:0:0:0:
320,192,74443,1,0,0:0:0:0:
192,192,74547,1,0,0:0:0:0:
64,192,74547,1,0,0:0:0:0:
320,192,74652,1,0,0:0:0:0:
448,192,74652,1,0,0:0:0:0:
64,192,74663,1,0,0:0:0:0:
192,192,74709,1,0,0:0:0:0:
448,192,74756,1,0,0:0:0:0:
64,192,74802,1,0,0:0:0:0:
320,192,74848,1,0,0:0:0:0:
192,192,74895,1,0,0:0:0:0:
64,192,74941,1,0,0:0:0:0:
448,192,74941,1,0,0:0:0:0:
192,192,74987,1,0,0:0:0:0:
320,192,75034,1,0,0:0:0:0:
448,192,75080,1,0,0:0:0:0:
64,192,75127,1,0,0:0:0:0:
192,192,75173,1,0,0:0:0:0:
320,192,75173,1,0,0:0:0:0:
320,192,75252,1,0,0:0:0:0:
192,192,75252,1,0,0:0:0:0:
192,192,75356,1,0,0:0:0:0:
448,192,75382,1,0,0:0:0:0:
448,192,75486,1,0,0:0:0:0:
320,192,75486,1,0,0:0:0:0:
192,192,75591,1,0,0:0:0:0:
64,192,75591,1,0,0:0:0:0:
320,192,75625,1,0,0:0:0:0:
64,192,75660,1,0,0:0:0:0:
192,192,75695,1,0,0:0:0:0:
448,192,75730,1,0,0:0:0:0:
320,192,75765,1,0,0:0:0:0:
64,192,75799,1,0,0:0:0:0:
320,192,75904,1,0,0:0:0:0:
448,192,75904,1,0,0:0:0:0:
192,192,75956,1,0,0:0:0:0:
448,192,76008,1,0,0:0:0:0:
64,192,76053,1,0,0:0:0:0:
192,192,76100,1,0,0:0:0:0:
320,192,76146,1,0,0:0:0:0:
448,192,76146,1,0,0:0:0:0:
64,192,76192,1,0,0:0:0:0:
320,192,76238,1,0,0:0:0:0:
192,192,76284,1,0,0:0:0:0:
64,192,76330,1,0,0:0:0:0:
448,192,76376,1,0,0:0:0:0:
192,192,76422,1,0,0:0:0:0:
320,192,76422,1,0,0:0:0:0:
64,192,76473,1,0,0:0:0:0:
448,192,76525,1,0,0:0:0:0:
192,192,76577,1,0,0:0:0:0:
448,192,76629,1,0,0:0:0:0:
320,192,76680,1,0,0:0:0:0:
64,192,76732,1,0,0:0:0:0:
192,192,76732,1,0,0:0:0:0:
64,192,76836,1,0,0:0:0:0:
192,192,76836,1,0,0:0:0:0:
448,192,76928,1,0,0:0:0:0:
64,192,76939,1,0,0:0:0:0:
192,192,76939,1,0,0:0:0:0:
320,192,76974,1,0,0:0:0:0:
320,192,77066,1,0,0:0:0:0:
192,192,77146,1,0,0:0:0:0:
448,192,77146,1,0,0:0:0:0:
192,192,77250,1,0,0:0:0:0:
320,192,77250,1,0,0:0:0:0:
64,192,77250,1,0,0:0:0:0:
320,192,77354,1,0,0:0:0:0:
448,192,77354,1,0,0:0:0:0:
64,192,77458,1,0,0:0:0:0:
448,192,77458,1,0,0:0:0:0:
192,192,77563,1,0,0:0:0:0:
64,192,77563,1,0,0:0:0:0:
448,192,77667,1,0,0:0:0:0:
320,192,77771,1,0,0:0:0:0:
64,192,77771,1,0,0:0:0:0:
192,192,77876,1,0,0:0:0:0:
320,192,77876,1,0,0:0:0:0:
448,192,77980,1,0,0:0:0:0:
64,192,77980,1,0,0:0:0:0:
192,192,78032,1,0,0:0:0:0:
320,192,78084,1,0,0:0:0:0:
64,192,78131,1,0,0:0:0:0:
448,192,78177,1,0,0:0:0:0:
320,192,78223,1,0,0:0:0:0:
192,192,78223,1,0,0:0:0:0:
448,192,78270,1,0,0:0:0:0:
64,192,78316,1,0,0:0:0:0:
192,192,78363,1,0,0:0:0:0:
448,192,78409,1,0,0:0:0:0:
320,192,78455,1,0,0:0:0:0:
192,192,78502,1,0,0:0:0:0:
64,192,78502,1,0,0:0:0:0:
64,192,78580,1,0,0:0:0:0:
448,192,78580,1,0,0:0:0:0:
64,192,78686,1,0,0:0:0:0:
448,192,78712,1,0,0:0:0:0:
320,192,78817,1,0,0:0:0:0:
192,192,78817,1,0,0:0:0:0:
320,192,78922,1,0,0:0:0:0:
448,192,78922,1,0,0:0:0:0:
64,192,78922,1,0,0:0:0:0:
192,192,79027,1,0,0:0:0:0:
64,192,79027,1,0,0:0:0:0:
192,192,79133,1,0,0:0:0:0:
320,192,79238,1,0,0:0:0:0:
448,192,79238,1,0,0:0:0:0:
192,192,79343,1,0,0:0:0:0:
64,192,79343,1,0,0:0:0:0:
320,192,79343,1,0,0:0:0:0:
64,192,79448,1,0,0:0:0:0:
192,192,79448,1,0,0:0:0:0:
320,192,79448,1,0,0:0:0:0:
192,192,79553,1,0,0:0:0:0:
320,192,79606,1,0,0:0:0:0:
320,192,79711,1,0,0:0:0:0:
448,192,79790,1,0,0:0:0:0:
320,192,79816,1,0,0:0:0:0:
192,192,79869,1,0,0:0:0:0:
192,192,79974,1,0,0:0:0:0:
64,192,80053,1,0,0:0:0:0:
192,192,80079,1,0,0:0:0:0:
320,192,80132,1,0,0:0:0:0:
64,192,80185,1,0,0:0:0:0:
448,192,80211,1,0,0:0:0:0:
320,192,80263,1,0,0:0:0:0:
192,192,80316,1,0,0:0:0:0:
64,192,80369,1,0,0:0:0:0:
320,192,80395,1,0,0:0:0:0:
448,192,80395,1,0,0:0:0:0:
192,192,80605,1,0,0:0:0:0:
64,192,80605,1,0,0:0:0:0:
448,192,80658,1,0,0:0:0:0:
192,192,80710,1,0,0:0:0:0:
64,192,80710,1,0,0:0:0:0:
448,192,80763,1,0,0:0:0:0:
320,192,80816,1,0,0:0:0:0:
192,192,80868,1,0,0:0:0:0:
64,192,80921,1,0,0:0:0:0:
448,192,80921,1,0,0:0:0:0:
320,192,80921,1,0,0:0:0:0:
192,192,80973,1,0,0:0:0:0:
64,192,81026,1,0,0:0:0:0:
448,192,81061,1,0,0:0:0:0:
320,192,81096,1,0,0:0:0:0:
192,192,81131,1,0,0:0:0:0:
64,192,81166,1,0,0:0:0:0:
448,192,81213,1,0,0:0:0:0:
192,192,81260,1,0,0:0:0:0:
320,192,81307,1,0,0:0:0:0:
448,192,81353,1,0,0:0:0:0:
64,192,81400,1,0,0:0:0:0:
192,192,81447,1,0,0:0:0:0:
320,192,81447,1,0,0:0:0:0:
448,192,81493,1,0,0:0:0:0:
64,192,81540,1,0,0:0:0:0:
192,192,81587,1,0,0:0:0:0:
320,192,81634,1,0,0:0:0:0:
64,192,81680,1,0,0:0:0:0:
192,192,81727,1,0,0:0:0:0:
448,192,81774,1,0,0:0:0:0:
320,192,81821,1,0,0:0:0:0:
64,192,81868,1,0,0:0:0:0:
448,192,81914,1,0,0:0:0:0:
320,192,81961,1,0,0:0:0:0:
192,192,82008,1,0,0:0:0:0:
64,192,82055,1,0,0:0:0:0:
448,192,82101,1,0,0:0:0:0:
192,192,82148,1,0,0:0:0:0:
320,192,82195,1,0,0:0:0:0:
64,192,82242,1,0,0:0:0:0:
192,192,82288,1,0,0:0:0:0:
320,192,82288,1,0,0:0:0:0:
448,192,82335,1,0,0:0:0:0:
64,192,82382,1,0,0:0:0:0:
192,192,82429,1,0,0:0:0:0:
448,192,82475,1,0,0:0:0:0:
320,192,82522,1,0,0:0:0:0:
192,192,82569,1,0,0:0:0:0:
64,192,82616,1,0,0:0:0:0:
448,192,82662,1,0,0:0:0:0:
320,192,82709,1,0,0:0:0:0:
64,192,82756,1,0,0:0:0:0:
320,192,82803,1,0,0:0:0:0:
192,192,82849,1,0,0:0:0:0:
448,192,82896,1,0,0:0:0:0:
64,192,82943,1,0,0:0:0:0:
192,192,82990,1,0,0:0:0:0:
320,192,83037,1,0,0:0:0:0:
448,192,83083,1,0,0:0:0:0:
64,192,83130,1,0,0:0:0:0:
192,192,83130,1,0,0:0:0:0:
320,192,83177,1,0,0:0:0:0:
64,192,83224,1,0,0:0:0:0:
448,192,83270,1,0,0:0:0:0:
320,192,83317,1,0,0:0:0:0:
192,192,83364,1,0,0:0:0:0:
448,192,83410,1,0,0:0:0:0:
64,192,83457,1,0,0:0:0:0:
192,192,83504,1,0,0:0:0:0:
320,192,83551,1,0,0:0:0:0:
64,192,83598,1,0,0:0:0:0:
192,192,83644,1,0,0:0:0:0:
448,192,83691,1,0,0:0:0:0:
320,192,83738,1,0,0:0:0:0:
64,192,83785,1,0,0:0:0:0:
448,192,83831,1,0,0:0:0:0:
192,192,83878,1,0,0:0:0:0:
320,192,83925,1,0,0:0:0:0:
448,192,83971,1,0,0:0:0:0:
64,192,83971,1,0,0:0:0:0:
192,192,84019,1,0,0:0:0:0:
320,192,84065,1,0,0:0:0:0:
64,192,84112,1,0,0:0:0:0:
448,192,84159,1,0,0:0:0:0:
320,192,84206,1,0,0:0:0:0:
448,192,84287,128,0,84497:0:0:0:0:
192,192,84287,1,0,0:0:0:0:
64,192,84287,1,0,0:0:0:0:
320,192,84392,1,0,0:0:0:0:
192,192,84392,1,0,0:0:0:0:
64,192,84497,1,0,0:0:0:0:
192,192,84550,1,0,0:0:0:0:
320,192,84550,1,0,0:0:0:0:
448,192,84602,1,0,0:0:0:0:
192,192,84655,1,0,0:0:0:0:
64,192,84708,1,0,0:0:0:0:
320,192,84708,1,0,0:0:0:0:
192,192,84813,1,0,0:0:0:0:
64,192,84813,1,0,0:0:0:0:
448,192,84813,1,0,0:0:0:0:
320,192,84813,1,0,0:0:0:0:
448,192,84918,1,0,0:0:0:0:
192,192,84918,1,0,0:0:0:0:
64,192,85023,1,0,0:0:0:0:
320,192,85023,1,0,0:0:0:0:
320,192,85128,1,0,0:0:0:0:
192,192,85234,1,0,0:0:0:0:
64,192,85234,1,0,0:0:0:0:
448,192,85285,1,0,0:0:0:0:
320,192,85336,1,0,0:0:0:0:
192,192,85336,1,0,0:0:0:0:
64,192,85388,1,0,0:0:0:0:
448,192,85439,1,0,0:0:0:0:
320,192,85439,1,0,0:0:0:0:
192,192,85542,1,0,0:0:0:0:
64,192,85542,1,0,0:0:0:0:
320,192,85644,1,0,0:0:0:0:
448,192,85644,1,0,0:0:0:0:
64,192,85644,1,0,0:0:0:0:
192,192,85644,1,0,0:0:0:0:
320,192,85747,1,0,0:0:0:0:
448,192,85747,1,0,0:0:0:0:
192,192,85747,1,0,0:0:0:0:
320,192,85850,1,0,0:0:0:0:
448,192,85850,1,0,0:0:0:0:
192,192,85952,1,0,0:0:0:0:
64,192,85952,1,0,0:0:0:0:
320,192,86004,1,0,0:0:0:0:
448,192,86055,1,0,0:0:0:0:
64,192,86055,1,0,0:0:0:0:
192,192,86106,1,0,0:0:0:0:
320,192,86158,1,0,0:0:0:0:
448,192,86158,1,0,0:0:0:0:
192,192,86209,1,0,0:0:0:0:
64,192,86261,1,0,0:0:0:0:
320,192,86363,1,0,0:0:0:0:
448,192,86363,1,0,0:0:0:0:
192,192,86397,1,0,0:0:0:0:
64,192,86432,1,0,0:0:0:0:
320,192,86467,1,0,0:0:0:0:
448,192,86467,1,0,0:0:0:0:
192,192,86501,1,0,0:0:0:0:
64,192,86536,1,0,0:0:0:0:
448,192,86571,1,0,0:0:0:0:
320,192,86606,1,0,0:0:0:0:
64,192,86653,1,0,0:0:0:0:
192,192,86699,1,0,0:0:0:0:
320,192,86745,1,0,0:0:0:0:
448,192,86792,1,0,0:0:0:0:
64,192,86838,1,0,0:0:0:0:
192,192,86884,1,0,0:0:0:0:
320,192,86884,1,0,0:0:0:0:
448,192,86936,1,0,0:0:0:0:
64,192,86988,1,0,0:0:0:0:
192,192,86988,1,0,0:0:0:0:
320,192,87093,1,0,0:0:0:0:
448,192,87093,1,0,0:0:0:0:
192,192,87197,1,0,0:0:0:0:
64,192,87197,1,0,0:0:0:0:
320,192,87301,1,0,0:0:0:0:
448,192,87301,1,0,0:0:0:0:
64,192,87301,1,0,0:0:0:0:
320,192,87406,1,0,0:0:0:0:
64,192,87510,1,0,0:0:0:0:
192,192,87545,1,0,0:0:0:0:
320,192,87580,1,0,0:0:0:0:
64,192,87614,1,0,0:0:0:0:
192,192,87649,1,0,0:0:0:0:
448,192,87684,1,0,0:0:0:0:
320,192,87720,1,0,0:0:0:0:
192,192,87766,1,0,0:0:0:0:
64,192,87813,1,0,0:0:0:0:
448,192,87860,1,0,0:0:0:0:
320,192,87907,1,0,0:0:0:0:
64,192,87953,1,0,0:0:0:0:
192,192,88000,1,0,0:0:0:0:
320,192,88047,1,0,0:0:0:0:
192,192,88093,1,0,0:0:0:0:
320,192,88140,1,0,0:0:0:0:
448,192,88140,1,0,0:0:0:0:
64,192,88187,1,0,0:0:0:0:
448,192,88233,1,0,0:0:0:0:
192,192,88281,1,0,0:0:0:0:
320,192,88327,1,0,0:0:0:0:
448,192,88373,1,0,0:0:0:0:
64,192,88421,1,0,0:0:0:0:
192,192,88467,1,0,0:0:0:0:
320,192,88467,1,0,0:0:0:0:
64,192,88561,128,0,88771:0:0:0:0:
192,192,88561,128,0,88771:0:0:0:0:
320,192,88614,1,0,0:0:0:0:
448,192,88614,1,0,0:0:0:0:
448,192,88719,1,0,0:0:0:0:
320,192,88719,1,0,0:0:0:0:
320,192,88824,1,0,0:0:0:0:
448,192,88824,1,0,0:0:0:0:
192,192,88877,1,0,0:0:0:0:
64,192,88877,1,0,0:0:0:0:
192,192,88981,1,0,0:0:0:0:
64,192,88981,1,0,0:0:0:0:
320,192,88981,1,0,0:0:0:0:
448,192,88981,1,0,0:0:0:0:
192,192,89085,1,0,0:0:0:0:
448,192,89085,1,0,0:0:0:0:
320,192,89189,1,0,0:0:0:0:
192,192,89294,1,0,0:0:0:0:
64,192,89294,1,0,0:0:0:0:
448,192,89294,1,0,0:0:0:0:
320,192,89398,1,0,0:0:0:0:
448,192,89398,1,0,0:0:0:0:
320,192,89502,1,0,0:0:0:0:
192,192,89607,1,0,0:0:0:0:
64,192,89607,1,0,0:0:0:0:
448,192,89711,1,0,0:0:0:0:
320,192,89711,1,0,0:0:0:0:
64,192,89769,1,0,0:0:0:0:
192,192,89815,1,0,0:0:0:0:
320,192,89815,1,0,0:0:0:0:
448,192,89862,1,0,0:0:0:0:
64,192,89908,1,0,0:0:0:0:
192,192,89954,1,0,0:0:0:0:
448,192,90001,1,0,0:0:0:0:
320,192,90047,1,0,0:0:0:0:
64,192,90094,1,0,0:0:0:0:
192,192,90140,1,0,0:0:0:0:
320,192,90187,1,0,0:0:0:0:
448,192,90233,1,0,0:0:0:0:
64,192,90233,1,0,0:0:0:0:
320,192,90280,1,0,0:0:0:0:
192,192,90326,1,0,0:0:0:0:
448,192,90372,1,0,0:0:0:0:
64,192,90419,1,0,0:0:0:0:
192,192,90465,1,0,0:0:0:0:
320,192,90511,1,0,0:0:0:0:
64,192,90558,1,0,0:0:0:0:
448,192,90604,1,0,0:0:0:0:
320,192,90650,1,0,0:0:0:0:
192,192,90650,1,0,0:0:0:0:
64,192,90697,1,0,0:0:0:0:
448,192,90743,1,0,0:0:0:0:
320,192,90789,1,0,0:0:0:0:
64,192,90836,1,0,0:0:0:0:
192,192,90882,1,0,0:0:0:0:
320,192,90928,1,0,0:0:0:0:
448,192,90975,1,0,0:0:0:0:
320,192,91021,1,0,0:0:0:0:
192,192,91067,1,0,0:0:0:0:
64,192,91067,1,0,0:0:0:0:
448,192,91114,1,0,0:0:0:0:
320,192,91160,1,0,0:0:0:0:
64,192,91187,1,0,0:0:0:0:
192,192,91247,1,0,0:0:0:0:
320,192,91307,1,0,0:0:0:0:
448,192,91307,1,0,0:0:0:0:
64,192,91366,1,0,0:0:0:0:
448,192,91381,1,0,0:0:0:0:
64,192,91485,1,0,0:0:0:0:
320,192,91485,1,0,0:0:0:0:
192,192,91485,1,0,0:0:0:0:
192,192,91589,1,0,0:0:0:0:
320,192,91589,1,0,0:0:0:0:
192,192,91694,1,0,0:0:0:0:
448,192,91694,1,0,0:0:0:0:
64,192,91694,1,0,0:0:0:0:
448,192,91798,1,0,0:0:0:0:
192,192,91902,1,0,0:0:0:0:
320,192,91902,1,0,0:0:0:0:
64,192,91902,1,0,0:0:0:0:
320,192,92007,1,0,0:0:0:0:
192,192,92007,1,0,0:0:0:0:
64,192,92007,1,0,0:0:0:0:
320,192,92111,1,0,0:0:0:0:
448,192,92111,1,0,0:0:0:0:
192,192,92215,1,0,0:0:0:0:
64,192,92215,1,0,0:0:0:0:
320,192,92320,1,0,0:0:0:0:
448,192,92320,1,0,0:0:0:0:
64,192,92320,1,0,0:0:0:0:
192,192,92424,1,0,0:0:0:0:
448,192,92424,1,0,0:0:0:0:
320,192,92424,1,0,0:0:0:0:
320,192,92528,1,0,0:0:0:0:
64,192,92528,1,0,0:0:0:0:
192,192,92581,1,0,0:0:0:0:
448,192,92633,1,0,0:0:0:0:
320,192,92685,1,0,0:0:0:0:
192,192,92737,1,0,0:0:0:0:
64,192,92737,1,0,0:0:0:0:
448,192,92784,1,0,0:0:0:0:
192,192,92841,1,0,0:0:0:0:
64,192,92876,1,0,0:0:0:0:
320,192,92946,1,0,0:0:0:0:
448,192,92946,1,0,0:0:0:0:
64,192,93015,1,0,0:0:0:0:
192,192,93050,1,0,0:0:0:0:
320,192,93085,1,0,0:0:0:0:
448,192,93120,1,0,0:0:0:0:
64,192,93154,1,0,0:0:0:0:
192,192,93189,1,0,0:0:0:0:
320,192,93224,1,0,0:0:0:0:
448,192,93259,1,0,0:0:0:0:
64,192,93294,1,0,0:0:0:0:
192,192,93328,1,0,0:0:0:0:
448,192,93363,1,0,0:0:0:0:
320,192,93363,1,0,0:0:0:0:
320,192,93467,1,0,0:0:0:0:
64,192,93467,1,0,0:0:0:0:
192,192,93572,1,0,0:0:0:0:
448,192,93572,1,0,0:0:0:0:
64,192,93572,1,0,0:0:0:0:
64,192,93676,1,0,0:0:0:0:
192,192,93676,1,0,0:0:0:0:
448,192,93676,1,0,0:0:0:0:
320,192,93781,1,0,0:0:0:0:
448,192,93781,1,0,0:0:0:0:
192,192,93885,1,0,0:0:0:0:
320,192,93989,1,0,0:0:0:0:
448,192,93989,1,0,0:0:0:0:
64,192,93989,1,0,0:0:0:0:
192,192,94094,128,0,94198:0:0:0:0:
448,192,94094,128,0,94198:0:0:0:0:
320,192,94094,128,0,94198:0:0:0:0:
64,192,94198,1,0,0:0:0:0:
320,192,94302,1,0,0:0:0:0:
64,192,94302,128,0,94407:0:0:0:0:
192,192,94302,128,0,94407:0:0:0:0:
320,192,94407,1,0,0:0:0:0:
448,192,94407,1,0,0:0:0:0:
64,192,94485,1,0,0:0:0:0:
192,192,94511,1,0,0:0:0:0:
320,192,94537,1,0,0:0:0:0:
448,192,94563,1,0,0:0:0:0:
64,192,94615,1,0,0:0:0:0:
64,192,94720,1,0,0:0:0:0:
320,192,94746,1,0,0:0:0:0:
192,192,94824,1,0,0:0:0:0:
320,192,94824,1,0,0:0:0:0:
448,192,94824,1,0,0:0:0:0:
64,192,94928,1,0,0:0:0:0:
64,192,95033,128,0,95137:0:0:0:0:
320,192,95033,128,0,95137:0:0:0:0:
192,192,95033,128,0,95137:0:0:0:0:
448,192,95137,1,0,0:0:0:0:
192,192,95241,1,0,0:0:0:0:
320,192,95241,128,0,95346:0:0:0:0:
448,192,95241,128,0,95346:0:0:0:0:
192,192,95346,1,0,0:0:0:0:
64,192,95346,1,0,0:0:0:0:
448,192,95424,1,0,0:0:0:0:
320,192,95450,1,0,0:0:0:0:
192,192,95476,1,0,0:0:0:0:
64,192,95502,1,0,0:0:0:0:
448,192,95554,1,0,0:0:0:0:
448,192,95659,1,0,0:0:0:0:
192,192,95659,1,0,0:0:0:0:
320,192,95659,1,0,0:0:0:0:
448,192,95763,1,0,0:0:0:0:
192,192,95763,1,0,0:0:0:0:
320,192,95763,1,0,0:0:0:0:
448,192,95867,1,0,0:0:0:0:
320,192,95867,1,0,0:0:0:0:
192,192,95867,1,0,0:0:0:0:
192,192,95972,1,0,0:0:0:0:
64,192,95972,1,0,0:0:0:0:
320,192,96076,1,0,0:0:0:0:
64,192,96181,1,0,0:0:0:0:
192,192,96181,1,0,0:0:0:0:
448,192,96181,1,0,0:0:0:0:
320,192,96285,1,0,0:0:0:0:
64,192,96389,1,0,0:0:0:0:
192,192,96389,1,0,0:0:0:0:
64,192,96494,1,0,0:0:0:0:
192,192,96494,1,0,0:0:0:0:
448,192,96494,1,0,0:0:0:0:
320,192,96494,1,0,0:0:0:0:
320,192,96598,1,0,0:0:0:0:
192,192,96598,1,0,0:0:0:0:
448,192,96598,1,0,0:0:0:0:
320,192,96702,1,0,0:0:0:0:
192,192,96807,1,0,0:0:0:0:
64,192,96807,1,0,0:0:0:0:
320,192,96911,1,0,0:0:0:0:
448,192,96911,1,0,0:0:0:0:
64,192,96911,1,0,0:0:0:0:
192,192,96911,1,0,0:0:0:0:
448,192,97015,1,0,0:0:0:0:
192,192,97120,1,0,0:0:0:0:
320,192,97120,1,0,0:0:0:0:
64,192,97120,1,0,0:0:0:0:
320,192,97224,1,0,0:0:0:0:
192,192,97224,1,0,0:0:0:0:
192,192,97328,1,0,0:0:0:0:
64,192,97328,1,0,0:0:0:0:
448,192,97328,1,0,0:0:0:0:
320,192,97328,1,0,0:0:0:0:
448,192,97433,1,0,0:0:0:0:
320,192,97433,1,0,0:0:0:0:
192,192,97467,1,0,0:0:0:0:
64,192,97502,1,0,0:0:0:0:
448,192,97537,1,0,0:0:0:0:
320,192,97572,1,0,0:0:0:0:
192,192,97641,1,0,0:0:0:0:
64,192,97641,1,0,0:0:0:0:
64,192,97746,1,0,0:0:0:0:
320,192,97746,1,0,0:0:0:0:
192,192,97798,1,0,0:0:0:0:
448,192,97850,1,0,0:0:0:0:
320,192,97902,1,0,0:0:0:0:
192,192,97954,1,0,0:0:0:0:
64,192,97954,1,0,0:0:0:0:
448,192,98007,1,0,0:0:0:0:
64,192,98059,1,0,0:0:0:0:
192,192,98111,1,0,0:0:0:0:
320,192,98163,1,0,0:0:0:0:
448,192,98163,1,0,0:0:0:0:
64,192,98163,1,0,0:0:0:0:
320,192,98267,1,0,0:0:0:0:
192,192,98372,1,0,0:0:0:0:
64,192,98372,1,0,0:0:0:0:
448,192,98372,1,0,0:0:0:0:
192,192,98476,1,0,0:0:0:0:
448,192,98581,1,0,0:0:0:0:
320,192,98581,1,0,0:0:0:0:
64,192,98615,1,0,0:0:0:0:
192,192,98650,1,0,0:0:0:0:
448,192,98685,1,0,0:0:0:0:
64,192,98720,1,0,0:0:0:0:
192,192,98754,1,0,0:0:0:0:
320,192,98789,1,0,0:0:0:0:
448,192,98789,1,0,0:0:0:0:
320,192,98894,1,0,0:0:0:0:
64,192,98894,1,0,0:0:0:0:
192,192,98998,1,0,0:0:0:0:
64,192,98998,1,0,0:0:0:0:
448,192,99050,1,0,0:0:0:0:
64,192,99102,1,0,0:0:0:0:
320,192,99102,1,0,0:0:0:0:
320,192,99207,1,0,0:0:0:0:
448,192,99207,1,0,0:0:0:0:
64,192,99259,1,0,0:0:0:0:
192,192,99311,1,0,0:0:0:0:
448,192,99311,128,0,99467:0:0:0:0:
320,192,99311,128,0,99467:0:0:0:0:
192,192,99415,1,0,0:0:0:0:
448,192,99520,1,0,0:0:0:0:
192,192,99520,128,0,99728:0:0:0:0:
64,192,99520,128,0,99728:0:0:0:0:
448,192,99624,1,0,0:0:0:0:
448,192,99728,1,0,0:0:0:0:
192,192,99833,1,0,0:0:0:0:
64,192,99833,1,0,0:0:0:0:
320,192,99833,1,0,0:0:0:0:
448,192,99937,1,0,0:0:0:0:
192,192,99937,1,0,0:0:0:0:
320,192,99972,1,0,0:0:0:0:
448,192,100041,1,0,0:0:0:0:
64,192,100041,1,0,0:0:0:0:
192,192,100076,1,0,0:0:0:0:
64,192,100146,1,0,0:0:0:0:
320,192,100146,1,0,0:0:0:0:
448,192,100181,1,0,0:0:0:0:
320,192,100250,1,0,0:0:0:0:
192,192,100250,1,0,0:0:0:0:
64,192,100285,1,0,0:0:0:0:
320,192,100354,1,0,0:0:0:0:
448,192,100354,1,0,0:0:0:0:
192,192,100389,1,0,0:0:0:0:
448,192,100459,1,0,0:0:0:0:
64,192,100459,1,0,0:0:0:0:
192,192,100563,1,0,0:0:0:0:
320,192,100563,1,0,0:0:0:0:
192,192,100667,1,0,0:0:0:0:
64,192,100667,1,0,0:0:0:0:
448,192,100667,1,0,0:0:0:0:
320,192,100772,1,0,0:0:0:0:
64,192,100772,1,0,0:0:0:0:
192,192,100847,1,0,0:0:0:0:
448,192,100847,1,0,0:0:0:0:
320,192,100907,1,0,0:0:0:0:
192,192,100981,1,0,0:0:0:0:
64,192,100981,1,0,0:0:0:0:
448,192,101033,1,0,0:0:0:0:
320,192,101059,1,0,0:0:0:0:
192,192,101085,1,0,0:0:0:0:
448,192,101145,1,0,0:0:0:0:
64,192,101178,1,0,0:0:0:0:
192,192,101224,1,0,0:0:0:0:
320,192,101294,1,0,0:0:0:0:
448,192,101294,1,0,0:0:0:0:
64,192,101363,1,0,0:0:0:0:
320,192,101363,1,0,0:0:0:0:
192,192,101502,1,0,0:0:0:0:
64,192,101502,1,0,0:0:0:0:
448,192,101537,1,0,0:0:0:0:
320,192,101572,1,0,0:0:0:0:
192,192,101607,1,0,0:0:0:0:
64,192,101676,1,0,0:0:0:0:
320,192,101711,1,0,0:0:0:0:
448,192,101746,1,0,0:0:0:0:
64,192,101781,1,0,0:0:0:0:
192,192,101815,1,0,0:0:0:0:
320,192,101850,1,0,0:0:0:0:
448,192,101885,1,0,0:0:0:0:
64,192,101920,1,0,0:0:0:0:
320,192,101954,1,0,0:0:0:0:
192,192,101989,1,0,0:0:0:0:
448,192,102024,1,0,0:0:0:0:
64,192,102076,1,0,0:0:0:0:
320,192,102128,1,0,0:0:0:0:
192,192,102128,1,0,0:0:0:0:
64,192,102198,1,0,0:0:0:0:
448,192,102233,1,0,0:0:0:0:
320,192,102267,1,0,0:0:0:0:
192,192,102337,1,0,0:0:0:0:
64,192,102337,1,0,0:0:0:0:
448,192,102337,1,0,0:0:0:0:
320,192,102441,1,0,0:0:0:0:
192,192,102441,1,0,0:0:0:0:
448,192,102546,1,0,0:0:0:0:
320,192,102546,1,0,0:0:0:0:
192,192,102546,1,0,0:0:0:0:
320,192,102650,1,0,0:0:0:0:
448,192,102650,1,0,0:0:0:0:
192,192,102650,1,0,0:0:0:0:
192,192,102754,1,0,0:0:0:0:
64,192,102754,1,0,0:0:0:0:
320,192,102859,1,0,0:0:0:0:
64,192,102894,1,0,0:0:0:0:
192,192,102928,1,0,0:0:0:0:
448,192,102963,1,0,0:0:0:0:
320,192,102963,1,0,0:0:0:0:
448,192,103067,1,0,0:0:0:0:
320,192,103120,1,0,0:0:0:0:
192,192,103172,1,0,0:0:0:0:
64,192,103172,1,0,0:0:0:0:
448,192,103207,1,0,0:0:0:0:
320,192,103241,1,0,0:0:0:0:
192,192,103276,1,0,0:0:0:0:
64,192,103311,1,0,0:0:0:0:
448,192,103346,1,0,0:0:0:0:
320,192,103381,1,0,0:0:0:0:
192,192,103415,1,0,0:0:0:0:
64,192,103450,1,0,0:0:0:0:
448,192,103485,1,0,0:0:0:0:
320,192,103485,1,0,0:0:0:0:
192,192,103589,1,0,0:0:0:0:
64,192,103589,1,0,0:0:0:0:
192,192,103694,1,0,0:0:0:0:
320,192,103694,1,0,0:0:0:0:
448,192,103694,1,0,0:0:0:0:
320,192,103798,1,0,0:0:0:0:
64,192,103798,1,0,0:0:0:0:
192,192,103902,1,0,0:0:0:0:
448,192,103902,1,0,0:0:0:0:
320,192,104007,1,0,0:0:0:0:
192,192,104007,1,0,0:0:0:0:
64,192,104007,128,0,104215:0:0:0:0:
320,192,104111,1,0,0:0:0:0:
320,192,104215,1,0,0:0:0:0:
192,192,104215,1,0,0:0:0:0:
448,192,104215,128,0,104320:0:0:0:0:
192,192,104320,1,0,0:0:0:0:
448,192,104424,1,0,0:0:0:0:
320,192,104424,1,0,0:0:0:0:
64,192,104459,1,0,0:0:0:0:
192,192,104494,1,0,0:0:0:0:
320,192,104528,1,0,0:0:0:0:
64,192,104563,1,0,0:0:0:0:
448,192,104598,1,0,0:0:0:0:
320,192,104633,1,0,0:0:0:0:
192,192,104667,1,0,0:0:0:0:
64,192,104702,1,0,0:0:0:0:
448,192,104737,1,0,0:0:0:0:
192,192,104795,1,0,0:0:0:0:
320,192,104841,1,0,0:0:0:0:
448,192,104841,1,0,0:0:0:0:
64,192,104946,1,0,0:0:0:0:
448,192,104981,1,0,0:0:0:0:
320,192,105015,1,0,0:0:0:0:
192,192,105050,1,0,0:0:0:0:
448,192,105085,1,0,0:0:0:0:
64,192,105120,1,0,0:0:0:0:
192,192,105154,1,0,0:0:0:0:
320,192,105189,1,0,0:0:0:0:
448,192,105224,1,0,0:0:0:0:
64,192,105259,1,0,0:0:0:0:
320,192,105306,1,0,0:0:0:0:
192,192,105363,1,0,0:0:0:0:
448,192,105398,1,0,0:0:0:0:
64,192,105445,1,0,0:0:0:0:
192,192,105467,1,0,0:0:0:0:
320,192,105467,1,0,0:0:0:0:
320,192,105572,1,0,0:0:0:0:
448,192,105572,1,0,0:0:0:0:
192,192,105677,1,0,0:0:0:0:
64,192,105677,1,0,0:0:0:0:
448,192,105727,1,0,0:0:0:0:
320,192,105776,1,0,0:0:0:0:
64,192,105826,1,0,0:0:0:0:
448,192,105876,1,0,0:0:0:0:
320,192,105901,1,0,0:0:0:0:
192,192,105901,1,0,0:0:0:0:
64,192,105976,1,0,0:0:0:0:
448,192,106014,1,0,0:0:0:0:
192,192,106014,1,0,0:0:0:0:
320,192,106089,1,0,0:0:0:0:
448,192,106127,1,0,0:0:0:0:
64,192,106127,1,0,0:0:0:0:
192,192,106180,1,0,0:0:0:0:
320,192,106233,1,0,0:0:0:0:
64,192,106269,1,0,0:0:0:0:
448,192,106316,1,0,0:0:0:0:
320,192,106364,1,0,0:0:0:0:
192,192,106412,1,0,0:0:0:0:
64,192,106459,1,0,0:0:0:0:
448,192,106507,1,0,0:0:0:0:
320,192,106554,1,0,0:0:0:0:
192,192,106554,1,0,0:0:0:0:
64,192,106554,1,0,0:0:0:0:
192,192,106658,1,0,0:0:0:0:
448,192,106658,1,0,0:0:0:0:
64,192,106762,1,0,0:0:0:0:
320,192,106762,1,0,0:0:0:0:
320,192,106867,1,0,0:0:0:0:
192,192,106867,1,0,0:0:0:0:
64,192,106867,1,0,0:0:0:0:
192,192,106971,1,0,0:0:0:0:
448,192,106971,1,0,0:0:0:0:
192,192,107075,1,0,0:0:0:0:
448,192,107075,1,0,0:0:0:0:
320,192,107180,1,0,0:0:0:0:
64,192,107180,1,0,0:0:0:0:
192,192,107284,1,0,0:0:0:0:
448,192,107284,1,0,0:0:0:0:
320,192,107388,1,0,0:0:0:0:
192,192,107388,1,0,0:0:0:0:
64,192,107388,1,0,0:0:0:0:
320,192,107493,1,0,0:0:0:0:
192,192,107493,1,0,0:0:0:0:
64,192,107493,1,0,0:0:0:0:
320,192,107597,1,0,0:0:0:0:
448,192,107597,1,0,0:0:0:0:
320,192,107701,1,0,0:0:0:0:
448,192,107701,1,0,0:0:0:0:
192,192,107806,1,0,0:0:0:0:
448,192,107806,1,0,0:0:0:0:
64,192,107806,128,0,108119:0:0:0:0:
320,192,107910,1,0,0:0:0:0:
448,192,108014,1,0,0:0:0:0:
192,192,108014,1,0,0:0:0:0:
192,192,108119,1,0,0:0:0:0:
320,192,108223,1,0,0:0:0:0:
448,192,108223,1,0,0:0:0:0:
64,192,108223,1,0,0:0:0:0:
192,192,108327,1,0,0:0:0:0:
320,192,108432,1,0,0:0:0:0:
448,192,108432,1,0,0:0:0:0:
64,192,108467,1,0,0:0:0:0:
320,192,108501,1,0,0:0:0:0:
64,192,108571,1,0,0:0:0:0:
192,192,108571,1,0,0:0:0:0:
192,192,108640,1,0,0:0:0:0:
448,192,108640,1,0,0:0:0:0:
448,192,108745,1,0,0:0:0:0:
320,192,108849,1,0,0:0:0:0:
192,192,108849,1,0,0:0:0:0:
64,192,108849,1,0,0:0:0:0:
192,192,108954,1,0,0:0:0:0:
448,192,108954,1,0,0:0:0:0:
320,192,109058,1,0,0:0:0:0:
448,192,109058,1,0,0:0:0:0:
192,192,109093,1,0,0:0:0:0:
64,192,109127,1,0,0:0:0:0:
448,192,109162,1,0,0:0:0:0:
320,192,109197,1,0,0:0:0:0:
192,192,109232,1,0,0:0:0:0:
64,192,109267,1,0,0:0:0:0:
448,192,109301,1,0,0:0:0:0:
192,192,109336,1,0,0:0:0:0:
320,192,109393,1,0,0:0:0:0:
448,192,109449,1,0,0:0:0:0:
64,192,109475,1,0,0:0:0:0:
192,192,109475,1,0,0:0:0:0:
320,192,109522,1,0,0:0:0:0:
448,192,109568,1,0,0:0:0:0:
320,192,109614,1,0,0:0:0:0:
192,192,109661,1,0,0:0:0:0:
64,192,109707,1,0,0:0:0:0:
448,192,109754,1,0,0:0:0:0:
192,192,109800,1,0,0:0:0:0:
320,192,109800,1,0,0:0:0:0:
64,192,109847,1,0,0:0:0:0:
320,192,109893,1,0,0:0:0:0:
448,192,109893,1,0,0:0:0:0:
192,192,109940,1,0,0:0:0:0:
448,192,109986,1,0,0:0:0:0:
64,192,110032,1,0,0:0:0:0:
192,192,110079,1,0,0:0:0:0:
320,192,110125,1,0,0:0:0:0:
448,192,110171,1,0,0:0:0:0:
320,192,110218,1,0,0:0:0:0:
192,192,110264,1,0,0:0:0:0:
64,192,110310,1,0,0:0:0:0:
448,192,110310,1,0,0:0:0:0:
192,192,110357,1,0,0:0:0:0:
320,192,110403,1,0,0:0:0:0:
64,192,110449,1,0,0:0:0:0:
192,192,110496,1,0,0:0:0:0:
320,192,110542,1,0,0:0:0:0:
448,192,110542,1,0,0:0:0:0:
64,192,110588,1,0,0:0:0:0:
448,192,110635,1,0,0:0:0:0:
320,192,110681,1,0,0:0:0:0:
192,192,110728,1,0,0:0:0:0:
64,192,110728,1,0,0:0:0:0:
192,192,110840,128,0,111065:0:0:0:0:
320,192,110840,128,0,111065:0:0:0:0:
448,192,110840,128,0,111065:0:0:0:0:
192,192,111179,1,0,0:0:0:0:
64,192,111179,1,0,0:0:0:0:
448,192,111214,1,0,0:0:0:0:
320,192,111249,1,0,0:0:0:0:
192,192,111284,1,0,0:0:0:0:
448,192,111319,1,0,0:0:0:0:
64,192,111354,1,0,0:0:0:0:
192,192,111389,1,0,0:0:0:0:
320,192,111424,1,0,0:0:0:0:
64,192,111459,1,0,0:0:0:0:
448,192,111494,1,0,0:0:0:0:
320,192,111529,1,0,0:0:0:0:
192,192,111564,1,0,0:0:0:0:
64,192,111599,1,0,0:0:0:0:
448,192,111646,1,0,0:0:0:0:
192,192,111693,1,0,0:0:0:0:
448,192,111740,1,0,0:0:0:0:
320,192,111786,1,0,0:0:0:0:
64,192,111833,1,0,0:0:0:0:
192,192,111880,1,0,0:0:0:0:
320,192,111915,1,0,0:0:0:0:
448,192,111915,1,0,0:0:0:0:
192,192,112020,1,0,0:0:0:0:
64,192,112020,1,0,0:0:0:0:
192,192,112125,1,0,0:0:0:0:
64,192,112125,1,0,0:0:0:0:
320,192,112125,1,0,0:0:0:0:
320,192,112230,1,0,0:0:0:0:
192,192,112230,1,0,0:0:0:0:
448,192,112230,1,0,0:0:0:0:
320,192,112336,1,0,0:0:0:0:
448,192,112336,1,0,0:0:0:0:
448,192,112441,1,0,0:0:0:0:
320,192,112441,1,0,0:0:0:0:
192,192,112441,1,0,0:0:0:0:
64,192,112441,1,0,0:0:0:0:
192,192,112546,1,0,0:0:0:0:
64,192,112546,1,0,0:0:0:0:
320,192,112546,1,0,0:0:0:0:
192,192,112651,1,0,0:0:0:0:
320,192,112756,1,0,0:0:0:0:
448,192,112756,1,0,0:0:0:0:
64,192,112767,1,0,0:0:0:0:
192,192,112814,1,0,0:0:0:0:
320,192,112862,1,0,0:0:0:0:
448,192,112862,1,0,0:0:0:0:
64,192,112908,1,0,0:0:0:0:
448,192,112955,1,0,0:0:0:0:
320,192,113002,1,0,0:0:0:0:
192,192,113048,1,0,0:0:0:0:
448,192,113095,1,0,0:0:0:0:
64,192,113095,1,0,0:0:0:0:
192,192,113142,1,0,0:0:0:0:
320,192,113188,1,0,0:0:0:0:
448,192,113235,1,0,0:0:0:0:
192,192,113282,1,0,0:0:0:0:
64,192,113282,1,0,0:0:0:0:
320,192,113329,1,0,0:0:0:0:
64,192,113375,1,0,0:0:0:0:
448,192,113423,1,0,0:0:0:0:
320,192,113469,1,0,0:0:0:0:
192,192,113516,1,0,0:0:0:0:
320,192,113563,1,0,0:0:0:0:
448,192,113563,1,0,0:0:0:0:
64,192,113609,1,0,0:0:0:0:
192,192,113656,1,0,0:0:0:0:
320,192,113703,1,0,0:0:0:0:
448,192,113703,1,0,0:0:0:0:
192,192,113749,1,0,0:0:0:0:
64,192,113796,1,0,0:0:0:0:
448,192,113843,1,0,0:0:0:0:
320,192,113890,1,0,0:0:0:0:
64,192,113937,1,0,0:0:0:0:
192,192,113984,1,0,0:0:0:0:
320,192,114030,1,0,0:0:0:0:
448,192,114077,1,0,0:0:0:0:
64,192,114077,1,0,0:0:0:0:
320,192,114124,1,0,0:0:0:0:
192,192,114170,1,0,0:0:0:0:
448,192,114217,1,0,0:0:0:0:
64,192,114264,1,0,0:0:0:0:
192,192,114311,1,0,0:0:0:0:
320,192,114357,1,0,0:0:0:0:
448,192,114404,1,0,0:0:0:0:
64,192,114404,1,0,0:0:0:0:
320,192,114545,1,0,0:0:0:0:
192,192,114545,1,0,0:0:0:0:
64,192,114580,1,0,0:0:0:0:
448,192,114615,1,0,0:0:0:0:
320,192,114650,1,0,0:0:0:0:
192,192,114685,1,0,0:0:0:0:
448,192,114720,1,0,0:0:0:0:
64,192,114755,1,0,0:0:0:0:
192,192,114790,1,0,0:0:0:0:
320,192,114825,1,0,0:0:0:0:
448,192,114860,1,0,0:0:0:0:
64,192,114895,1,0,0:0:0:0:
320,192,114930,1,0,0:0:0:0:
192,192,114965,1,0,0:0:0:0:
448,192,115012,1,0,0:0:0:0:
64,192,115059,1,0,0:0:0:0:
192,192,115106,1,0,0:0:0:0:
448,192,115152,1,0,0:0:0:0:
320,192,115199,1,0,0:0:0:0:
192,192,115246,1,0,0:0:0:0:
448,192,115281,1,0,0:0:0:0:
64,192,115281,1,0,0:0:0:0:
192,192,115386,1,0,0:0:0:0:
320,192,115386,1,0,0:0:0:0:
320,192,115490,1,0,0:0:0:0:
448,192,115490,1,0,0:0:0:0:
64,192,115490,1,0,0:0:0:0:
320,192,115594,1,0,0:0:0:0:
448,192,115594,1,0,0:0:0:0:
64,192,115594,1,0,0:0:0:0:
192,192,115699,1,0,0:0:0:0:
64,192,115699,1,0,0:0:0:0:
192,192,115803,1,0,0:0:0:0:
320,192,115803,1,0,0:0:0:0:
448,192,115803,1,0,0:0:0:0:
64,192,115803,1,0,0:0:0:0:
320,192,115907,1,0,0:0:0:0:
448,192,115907,1,0,0:0:0:0:
192,192,115907,1,0,0:0:0:0:
320,192,116012,1,0,0:0:0:0:
64,192,116116,1,0,0:0:0:0:
192,192,116151,1,0,0:0:0:0:
320,192,116186,1,0,0:0:0:0:
64,192,116220,1,0,0:0:0:0:
448,192,116255,1,0,0:0:0:0:
320,192,116290,1,0,0:0:0:0:
192,192,116325,1,0,0:0:0:0:
64,192,116359,1,0,0:0:0:0:
320,192,116406,1,0,0:0:0:0:
448,192,116452,1,0,0:0:0:0:
64,192,116499,1,0,0:0:0:0:
192,192,116545,1,0,0:0:0:0:
320,192,116591,1,0,0:0:0:0:
64,192,116638,1,0,0:0:0:0:
448,192,116638,1,0,0:0:0:0:
320,192,116684,1,0,0:0:0:0:
192,192,116730,1,0,0:0:0:0:
320,192,116777,1,0,0:0:0:0:
64,192,116823,1,0,0:0:0:0:
192,192,116869,1,0,0:0:0:0:
448,192,116916,1,0,0:0:0:0:
320,192,116962,1,0,0:0:0:0:
192,192,117008,1,0,0:0:0:0:
64,192,117055,1,0,0:0:0:0:
448,192,117055,1,0,0:0:0:0:
320,192,117107,1,0,0:0:0:0:
192,192,117159,1,0,0:0:0:0:
64,192,117212,1,0,0:0:0:0:
192,192,117264,1,0,0:0:0:0:
320,192,117316,1,0,0:0:0:0:
448,192,117368,1,0,0:0:0:0:
320,192,117420,1,0,0:0:0:0:
192,192,117472,1,0,0:0:0:0:
64,192,117472,1,0,0:0:0:0:
64,192,117577,1,0,0:0:0:0:
192,192,117577,1,0,0:0:0:0:
448,192,117577,1,0,0:0:0:0:
192,192,117681,1,0,0:0:0:0:
320,192,117681,1,0,0:0:0:0:
320,192,117786,1,0,0:0:0:0:
192,192,117786,1,0,0:0:0:0:
448,192,117890,128,0,118099:0:0:0:0:
320,192,117890,1,0,0:0:0:0:
64,192,117890,128,0,118099:0:0:0:0:
192,192,117994,1,0,0:0:0:0:
320,192,118099,1,0,0:0:0:0:
320,192,118203,1,0,0:0:0:0:
448,192,118203,1,0,0:0:0:0:
64,192,118238,1,0,0:0:0:0:
192,192,118272,1,0,0:0:0:0:
320,192,118307,1,0,0:0:0:0:
64,192,118342,1,0,0:0:0:0:
448,192,118378,1,0,0:0:0:0:
320,192,118413,1,0,0:0:0:0:
192,192,118449,1,0,0:0:0:0:
64,192,118497,1,0,0:0:0:0:
192,192,118545,1,0,0:0:0:0:
320,192,118592,1,0,0:0:0:0:
448,192,118627,1,0,0:0:0:0:
64,192,118627,1,0,0:0:0:0:
320,192,118734,1,0,0:0:0:0:
448,192,118735,1,0,0:0:0:0:
192,192,118839,1,0,0:0:0:0:
64,192,118839,1,0,0:0:0:0:
320,192,118839,1,0,0:0:0:0:
192,192,118943,1,0,0:0:0:0:
64,192,118943,1,0,0:0:0:0:
448,192,118943,1,0,0:0:0:0:
192,192,119048,1,0,0:0:0:0:
64,192,119048,1,0,0:0:0:0:
320,192,119152,1,0,0:0:0:0:
192,192,119152,1,0,0:0:0:0:
64,192,119152,1,0,0:0:0:0:
448,192,119152,1,0,0:0:0:0:
192,192,119256,1,0,0:0:0:0:
320,192,119256,1,0,0:0:0:0:
448,192,119256,1,0,0:0:0:0:
320,192,119361,1,0,0:0:0:0:
448,192,119465,1,0,0:0:0:0:
64,192,119465,1,0,0:0:0:0:
192,192,119569,1,0,0:0:0:0:
64,192,119569,1,0,0:0:0:0:
320,192,119616,1,0,0:0:0:0:
448,192,119662,1,0,0:0:0:0:
320,192,119708,1,0,0:0:0:0:
64,192,119708,1,0,0:0:0:0:
192,192,119755,1,0,0:0:0:0:
64,192,119801,1,0,0:0:0:0:
448,192,119848,1,0,0:0:0:0:
320,192,119894,1,0,0:0:0:0:
192,192,119940,1,0,0:0:0:0:
64,192,119987,1,0,0:0:0:0:
448,192,119987,1,0,0:0:0:0:
320,192,120033,1,0,0:0:0:0:
192,192,120080,1,0,0:0:0:0:
320,192,120126,1,0,0:0:0:0:
448,192,120173,1,0,0:0:0:0:
64,192,120219,1,0,0:0:0:0:
192,192,120265,1,0,0:0:0:0:
320,192,120265,1,0,0:0:0:0:
448,192,120312,1,0,0:0:0:0:
64,192,120358,1,0,0:0:0:0:
192,192,120404,1,0,0:0:0:0:
320,192,120404,1,0,0:0:0:0:
448,192,120451,1,0,0:0:0:0:
64,192,120497,1,0,0:0:0:0:
192,192,120543,1,0,0:0:0:0:
320,192,120590,1,0,0:0:0:0:
192,192,120636,1,0,0:0:0:0:
64,192,120682,1,0,0:0:0:0:
448,192,120729,1,0,0:0:0:0:
320,192,120729,1,0,0:0:0:0:
192,192,120775,1,0,0:0:0:0:
64,192,120821,1,0,0:0:0:0:
448,192,120821,1,0,0:0:0:0:
320,192,120868,1,0,0:0:0:0:
192,192,120914,1,0,0:0:0:0:
448,192,120961,1,0,0:0:0:0:
320,192,121007,1,0,0:0:0:0:
64,192,121053,1,0,0:0:0:0:
192,192,121135,1,0,0:0:0:0:
448,192,121147,1,0,0:0:0:0:
320,192,121239,1,0,0:0:0:0:
192,192,121239,1,0,0:0:0:0:
64,192,121239,1,0,0:0:0:0:
320,192,121343,1,0,0:0:0:0:
64,192,121343,1,0,0:0:0:0:
448,192,121343,1,0,0:0:0:0:
192,192,121448,1,0,0:0:0:0:
448,192,121448,1,0,0:0:0:0:
192,192,121552,1,0,0:0:0:0:
448,192,121552,1,0,0:0:0:0:
192,192,121656,1,0,0:0:0:0:
320,192,121656,1,0,0:0:0:0:
448,192,121656,1,0,0:0:0:0:
64,192,121749,1,0,0:0:0:0:
192,192,121795,1,0,0:0:0:0:
320,192,121842,1,0,0:0:0:0:
64,192,121888,1,0,0:0:0:0:
192,192,121935,1,0,0:0:0:0:
320,192,121981,1,0,0:0:0:0:
448,192,122027,1,0,0:0:0:0:
192,192,122074,1,0,0:0:0:0:
64,192,122074,1,0,0:0:0:0:
320,192,122126,1,0,0:0:0:0:
320,192,122230,1,0,0:0:0:0:
320,192,122335,1,0,0:0:0:0:
192,192,122387,1,0,0:0:0:0:
64,192,122387,1,0,0:0:0:0:
192,192,122491,1,0,0:0:0:0:
320,192,122491,1,0,0:0:0:0:
448,192,122491,1,0,0:0:0:0:
320,192,122595,1,0,0:0:0:0:
448,192,122595,1,0,0:0:0:0:
192,192,122595,1,0,0:0:0:0:
320,192,122700,1,0,0:0:0:0:
192,192,122804,1,0,0:0:0:0:
448,192,122804,1,0,0:0:0:0:
64,192,122908,128,0,123221:0:0:0:0:
320,192,122908,1,0,0:0:0:0:
320,192,123013,1,0,0:0:0:0:
192,192,123117,1,0,0:0:0:0:
448,192,123221,128,0,123535:0:0:0:0:
192,192,123221,1,0,0:0:0:0:
320,192,123326,1,0,0:0:0:0:
320,192,123430,1,0,0:0:0:0:
64,192,123535,128,0,123952:0:0:0:0:
192,192,123535,1,0,0:0:0:0:
192,192,123639,1,0,0:0:0:0:
320,192,123743,1,0,0:0:0:0:
320,192,123848,1,0,0:0:0:0:
192,192,123952,1,0,0:0:0:0:
448,192,123952,1,0,0:0:0:0:
320,192,124161,1,0,0:0:0:0:
448,192,124161,1,0,0:0:0:0:
192,192,124161,1,0,0:0:0:0:
320,192,124265,1,0,0:0:0:0:
448,192,124265,1,0,0:0:0:0:
192,192,124265,1,0,0:0:0:0:
448,192,124474,1,0,0:0:0:0:
192,192,124474,1,0,0:0:0:0:
320,192,124578,128,0,124891:0:0:0:0:
64,192,124578,1,0,0:0:0:0:
64,192,124682,1,0,0:0:0:0:
448,192,124787,1,0,0:0:0:0:
192,192,124891,128,0,125204:0:0:0:0:
448,192,124891,1,0,0:0:0:0:
64,192,124995,1,0,0:0:0:0:
64,192,125100,1,0,0:0:0:0:
320,192,125204,128,0,125621:0:0:0:0:
448,192,125204,1,0,0:0:0:0:
448,192,125308,1,0,0:0:0:0:
64,192,125413,1,0,0:0:0:0:
64,192,125517,1,0,0:0:0:0:
192,192,125621,1,0,0:0:0:0:
448,192,125621,1,0,0:0:0:0:
320,192,125830,1,0,0:0:0:0:
192,192,125830,1,0,0:0:0:0:
64,192,125830,1,0,0:0:0:0:
64,192,125935,1,0,0:0:0:0:
192,192,125935,1,0,0:0:0:0:
320,192,125935,1,0,0:0:0:0:
192,192,126143,1,0,0:0:0:0:
320,192,126143,1,0,0:0:0:0:
448,192,126143,1,0,0:0:0:0:
64,192,126248,1,0,0:0:0:0:
192,192,126352,1,0,0:0:0:0:
320,192,126456,1,0,0:0:0:0:
448,192,126456,1,0,0:0:0:0:
192,192,126561,1,0,0:0:0:0:
64,192,126561,1,0,0:0:0:0:
448,192,126573,1,0,0:0:0:0:
320,192,126619,1,0,0:0:0:0:
192,192,126665,1,0,0:0:0:0:
448,192,126712,1,0,0:0:0:0:
64,192,126758,1,0,0:0:0:0:
192,192,126804,1,0,0:0:0:0:
320,192,126804,1,0,0:0:0:0:
448,192,126851,1,0,0:0:0:0:
64,192,126897,1,0,0:0:0:0:
320,192,126943,1,0,0:0:0:0:
192,192,126990,1,0,0:0:0:0:
64,192,127036,1,0,0:0:0:0:
448,192,127082,1,0,0:0:0:0:
320,192,127082,1,0,0:0:0:0:
320,192,127167,1,0,0:0:0:0:
448,192,127167,1,0,0:0:0:0:
448,192,127265,1,0,0:0:0:0:
64,192,127291,1,0,0:0:0:0:
64,192,127395,1,0,0:0:0:0:
192,192,127395,1,0,0:0:0:0:
448,192,127500,1,0,0:0:0:0:
320,192,127500,1,0,0:0:0:0:
64,192,127552,1,0,0:0:0:0:
192,192,127604,1,0,0:0:0:0:
320,192,127604,1,0,0:0:0:0:
448,192,127656,1,0,0:0:0:0:
192,192,127708,1,0,0:0:0:0:
448,192,127813,1,0,0:0:0:0:
64,192,127813,1,0,0:0:0:0:
192,192,127858,1,0,0:0:0:0:
320,192,127917,1,0,0:0:0:0:
64,192,127964,1,0,0:0:0:0:
448,192,128010,1,0,0:0:0:0:
320,192,128056,1,0,0:0:0:0:
192,192,128056,1,0,0:0:0:0:
64,192,128103,1,0,0:0:0:0:
448,192,128149,1,0,0:0:0:0:
320,192,128195,1,0,0:0:0:0:
64,192,128242,1,0,0:0:0:0:
192,192,128288,1,0,0:0:0:0:
448,192,128335,1,0,0:0:0:0:
320,192,128335,1,0,0:0:0:0:
64,192,128387,1,0,0:0:0:0:
448,192,128439,1,0,0:0:0:0:
320,192,128491,1,0,0:0:0:0:
192,192,128543,1,0,0:0:0:0:
64,192,128543,1,0,0:0:0:0:
448,192,128595,1,0,0:0:0:0:
192,192,128648,1,0,0:0:0:0:
64,192,128752,1,0,0:0:0:0:
320,192,128752,1,0,0:0:0:0:
448,192,128752,1,0,0:0:0:0:
320,192,128856,1,0,0:0:0:0:
448,192,128856,1,0,0:0:0:0:
320,192,128961,1,0,0:0:0:0:
64,192,128961,1,0,0:0:0:0:
192,192,129065,1,0,0:0:0:0:
448,192,129065,1,0,0:0:0:0:
192,192,129169,1,0,0:0:0:0:
320,192,129169,1,0,0:0:0:0:
64,192,129169,1,0,0:0:0:0:
64,192,129274,1,0,0:0:0:0:
192,192,129274,1,0,0:0:0:0:
320,192,129378,1,0,0:0:0:0:
320,192,129482,1,0,0:0:0:0:
448,192,129482,1,0,0:0:0:0:
64,192,129482,1,0,0:0:0:0:
192,192,129587,1,0,0:0:0:0:
64,192,129587,1,0,0:0:0:0:
448,192,129691,1,0,0:0:0:0:
320,192,129691,1,0,0:0:0:0:
448,192,129795,1,0,0:0:0:0:
192,192,129795,1,0,0:0:0:0:
64,192,129900,1,0,0:0:0:0:
320,192,129900,1,0,0:0:0:0:
192,192,129958,1,0,0:0:0:0:
448,192,130004,1,0,0:0:0:0:
320,192,130051,1,0,0:0:0:0:
64,192,130097,1,0,0:0:0:0:
192,192,130143,1,0,0:0:0:0:
320,192,130143,1,0,0:0:0:0:
448,192,130190,1,0,0:0:0:0:
64,192,130236,1,0,0:0:0:0:
192,192,130282,1,0,0:0:0:0:
448,192,130329,1,0,0:0:0:0:
320,192,130375,1,0,0:0:0:0:
192,192,130421,1,0,0:0:0:0:
64,192,130421,1,0,0:0:0:0:
192,192,130506,1,0,0:0:0:0:
64,192,130506,1,0,0:0:0:0:
64,192,130604,1,0,0:0:0:0:
448,192,130630,1,0,0:0:0:0:
320,192,130630,1,0,0:0:0:0:
448,192,130735,1,0,0:0:0:0:
320,192,130735,1,0,0:0:0:0:
192,192,130839,1,0,0:0:0:0:
64,192,130839,1,0,0:0:0:0:
320,192,130891,1,0,0:0:0:0:
448,192,130943,1,0,0:0:0:0:
64,192,130943,1,0,0:0:0:0:
192,192,130995,1,0,0:0:0:0:
320,192,131048,1,0,0:0:0:0:
64,192,131152,1,0,0:0:0:0:
192,192,131152,1,0,0:0:0:0:
448,192,131210,1,0,0:0:0:0:
320,192,131256,1,0,0:0:0:0:
192,192,131303,1,0,0:0:0:0:
64,192,131349,1,0,0:0:0:0:
320,192,131395,1,0,0:0:0:0:
448,192,131395,1,0,0:0:0:0:
192,192,131442,1,0,0:0:0:0:
320,192,131488,1,0,0:0:0:0:
64,192,131535,1,0,0:0:0:0:
448,192,131581,1,0,0:0:0:0:
320,192,131627,1,0,0:0:0:0:
192,192,131674,1,0,0:0:0:0:
64,192,131674,1,0,0:0:0:0:
192,192,131778,1,0,0:0:0:0:
448,192,131793,1,0,0:0:0:0:
320,192,131882,1,0,0:0:0:0:
64,192,131882,1,0,0:0:0:0:
64,192,131987,1,0,0:0:0:0:
192,192,131987,1,0,0:0:0:0:
64,192,132091,1,0,0:0:0:0:
320,192,132091,1,0,0:0:0:0:
448,192,132091,1,0,0:0:0:0:
192,192,132195,1,0,0:0:0:0:
448,192,132195,1,0,0:0:0:0:
320,192,132300,1,0,0:0:0:0:
64,192,132300,1,0,0:0:0:0:
320,192,132404,1,0,0:0:0:0:
192,192,132508,1,0,0:0:0:0:
64,192,132508,1,0,0:0:0:0:
448,192,132508,1,0,0:0:0:0:
192,192,132613,1,0,0:0:0:0:
448,192,132613,1,0,0:0:0:0:
320,192,132717,1,0,0:0:0:0:
192,192,132821,1,0,0:0:0:0:
64,192,132821,1,0,0:0:0:0:
448,192,132926,1,0,0:0:0:0:
320,192,133030,1,0,0:0:0:0:
192,192,133030,1,0,0:0:0:0:
192,192,133135,1,0,0:0:0:0:
64,192,133135,1,0,0:0:0:0:
320,192,133239,1,0,0:0:0:0:
448,192,133239,1,0,0:0:0:0:
64,192,133251,1,0,0:0:0:0:
192,192,133297,1,0,0:0:0:0:
448,192,133343,1,0,0:0:0:0:
64,192,133390,1,0,0:0:0:0:
320,192,133436,1,0,0:0:0:0:
192,192,133482,1,0,0:0:0:0:
448,192,133529,1,0,0:0:0:0:
64,192,133529,1,0,0:0:0:0:
192,192,133575,1,0,0:0:0:0:
320,192,133621,1,0,0:0:0:0:
448,192,133668,1,0,0:0:0:0:
64,192,133714,1,0,0:0:0:0:
192,192,133761,1,0,0:0:0:0:
320,192,133761,1,0,0:0:0:0:
320,192,133845,1,0,0:0:0:0:
192,192,133845,1,0,0:0:0:0:
192,192,133943,1,0,0:0:0:0:
448,192,133969,1,0,0:0:0:0:
320,192,134074,1,0,0:0:0:0:
448,192,134074,1,0,0:0:0:0:
192,192,134178,1,0,0:0:0:0:
64,192,134178,1,0,0:0:0:0:
448,192,134230,1,0,0:0:0:0:
64,192,134282,1,0,0:0:0:0:
320,192,134282,1,0,0:0:0:0:
192,192,134335,1,0,0:0:0:0:
320,192,134387,1,0,0:0:0:0:
192,192,134491,1,0,0:0:0:0:
64,192,134491,1,0,0:0:0:0:
448,192,134503,1,0,0:0:0:0:
320,192,134549,1,0,0:0:0:0:
64,192,134595,1,0,0:0:0:0:
448,192,134642,1,0,0:0:0:0:
192,192,134688,1,0,0:0:0:0:
320,192,134735,1,0,0:0:0:0:
448,192,134735,1,0,0:0:0:0:
64,192,134781,1,0,0:0:0:0:
192,192,134827,1,0,0:0:0:0:
320,192,134874,1,0,0:0:0:0:
64,192,134920,1,0,0:0:0:0:
448,192,134967,1,0,0:0:0:0:
192,192,135013,1,0,0:0:0:0:
320,192,135013,1,0,0:0:0:0:
64,192,135065,1,0,0:0:0:0:
448,192,135117,1,0,0:0:0:0:
192,192,135169,1,0,0:0:0:0:
448,192,135221,1,0,0:0:0:0:
320,192,135221,1,0,0:0:0:0:
64,192,135326,1,0,0:0:0:0:
320,192,135326,1,0,0:0:0:0:
192,192,135430,1,0,0:0:0:0:
64,192,135430,1,0,0:0:0:0:
448,192,135430,1,0,0:0:0:0:
192,192,135535,1,0,0:0:0:0:
64,192,135535,1,0,0:0:0:0:
448,192,135639,1,0,0:0:0:0:
320,192,135691,1,0,0:0:0:0:
64,192,135743,1,0,0:0:0:0:
192,192,135795,1,0,0:0:0:0:
320,192,135848,1,0,0:0:0:0:
448,192,135848,1,0,0:0:0:0:
64,192,135848,1,0,0:0:0:0:
192,192,135952,1,0,0:0:0:0:
320,192,135952,1,0,0:0:0:0:
448,192,135952,1,0,0:0:0:0:
192,192,136056,1,0,0:0:0:0:
64,192,136056,1,0,0:0:0:0:
192,192,136161,1,0,0:0:0:0:
64,192,136161,1,0,0:0:0:0:
320,192,136265,1,0,0:0:0:0:
448,192,136265,1,0,0:0:0:0:
64,192,136300,1,0,0:0:0:0:
192,192,136335,1,0,0:0:0:0:
320,192,136369,1,0,0:0:0:0:
448,192,136404,1,0,0:0:0:0:
320,192,136439,1,0,0:0:0:0:
192,192,136474,1,0,0:0:0:0:
448,192,136508,1,0,0:0:0:0:
64,192,136543,1,0,0:0:0:0:
192,192,136578,1,0,0:0:0:0:
320,192,136630,1,0,0:0:0:0:
448,192,136682,1,0,0:0:0:0:
64,192,136682,1,0,0:0:0:0:
192,192,136787,1,0,0:0:0:0:
320,192,136821,1,0,0:0:0:0:
64,192,136868,1,0,0:0:0:0:
448,192,136914,1,0,0:0:0:0:
320,192,136961,1,0,0:0:0:0:
192,192,137007,1,0,0:0:0:0:
64,192,137007,1,0,0:0:0:0:
448,192,137048,1,0,0:0:0:0:
320,192,137074,1,0,0:0:0:0:
192,192,137100,1,0,0:0:0:0:
64,192,137100,1,0,0:0:0:0:
64,192,137193,1,0,0:0:0:0:
192,192,137193,1,0,0:0:0:0:
320,192,137239,1,0,0:0:0:0:
448,192,137286,1,0,0:0:0:0:
320,192,137378,1,0,0:0:0:0:
192,192,137413,1,0,0:0:0:0:
64,192,137413,1,0,0:0:0:0:
448,192,137448,1,0,0:0:0:0:
320,192,137482,1,0,0:0:0:0:
192,192,137517,1,0,0:0:0:0:
64,192,137552,1,0,0:0:0:0:
448,192,137587,1,0,0:0:0:0:
192,192,137621,1,0,0:0:0:0:
320,192,137674,1,0,0:0:0:0:
64,192,137726,1,0,0:0:0:0:
448,192,137778,1,0,0:0:0:0:
320,192,137830,1,0,0:0:0:0:
192,192,137882,1,0,0:0:0:0:
64,192,137935,1,0,0:0:0:0:
448,192,137935,1,0,0:0:0:0:
192,192,137969,1,0,0:0:0:0:
320,192,138004,1,0,0:0:0:0:
448,192,138039,1,0,0:0:0:0:
192,192,138074,1,0,0:0:0:0:
64,192,138108,1,0,0:0:0:0:
448,192,138143,1,0,0:0:0:0:
320,192,138178,1,0,0:0:0:0:
192,192,138213,1,0,0:0:0:0:
448,192,138282,1,0,0:0:0:0:
64,192,138352,1,0,0:0:0:0:
192,192,138352,1,0,0:0:0:0:
448,192,138456,1,0,0:0:0:0:
192,192,138456,1,0,0:0:0:0:
320,192,138491,1,0,0:0:0:0:
64,192,138538,1,0,0:0:0:0:
320,192,138584,1,0,0:0:0:0:
192,192,138630,1,0,0:0:0:0:
448,192,138677,1,0,0:0:0:0:
64,192,138677,1,0,0:0:0:0:
448,192,138769,1,0,0:0:0:0:
64,192,138769,1,0,0:0:0:0:
448,192,138862,1,0,0:0:0:0:
64,192,138862,1,0,0:0:0:0:
192,192,138908,1,0,0:0:0:0:
320,192,138955,1,0,0:0:0:0:
64,192,139001,1,0,0:0:0:0:
448,192,139048,1,0,0:0:0:0:
320,192,139117,1,0,0:0:0:0:
64,192,139187,1,0,0:0:0:0:
192,192,139187,1,0,0:0:0:0:
192,192,139291,1,0,0:0:0:0:
320,192,139291,1,0,0:0:0:0:
448,192,139291,1,0,0:0:0:0:
320,192,139395,1,0,0:0:0:0:
448,192,139395,1,0,0:0:0:0:
192,192,139395,1,0,0:0:0:0:
192,192,139500,1,0,0:0:0:0:
320,192,139500,1,0,0:0:0:0:
448,192,139500,1,0,0:0:0:0:
192,192,139604,1,0,0:0:0:0:
64,192,139604,1,0,0:0:0:0:
320,192,139639,1,0,0:0:0:0:
64,192,139708,1,0,0:0:0:0:
448,192,139708,1,0,0:0:0:0:
192,192,139778,1,0,0:0:0:0:
448,192,139813,1,0,0:0:0:0:
320,192,139848,1,0,0:0:0:0:
192,192,139882,1,0,0:0:0:0:
64,192,139917,1,0,0:0:0:0:
320,192,140022,1,0,0:0:0:0:
448,192,140022,1,0,0:0:0:0:
64,192,140079,1,0,0:0:0:0:
192,192,140136,1,0,0:0:0:0:
320,192,140193,1,0,0:0:0:0:
448,192,140193,1,0,0:0:0:0:
64,192,140250,1,0,0:0:0:0:
320,192,140308,1,0,0:0:0:0:
192,192,140365,1,0,0:0:0:0:
64,192,140365,1,0,0:0:0:0:
448,192,140403,1,0,0:0:0:0:
320,192,140441,1,0,0:0:0:0:
192,192,140480,1,0,0:0:0:0:
64,192,140515,1,0,0:0:0:0:
448,192,140550,1,0,0:0:0:0:
192,192,140585,1,0,0:0:0:0:
320,192,140620,1,0,0:0:0:0:
64,192,140690,1,0,0:0:0:0:
320,192,140720,1,0,0:0:0:0:
192,192,140795,1,0,0:0:0:0:
448,192,140795,1,0,0:0:0:0:
320,192,140900,1,0,0:0:0:0:
192,192,140900,1,0,0:0:0:0:
64,192,140900,1,0,0:0:0:0:
192,192,141005,1,0,0:0:0:0:
448,192,141005,1,0,0:0:0:0:
320,192,141111,1,0,0:0:0:0:
64,192,141111,1,0,0:0:0:0:
64,192,141216,1,0,0:0:0:0:
320,192,141216,1,0,0:0:0:0:
320,192,141321,1,0,0:0:0:0:
448,192,141321,1,0,0:0:0:0:
192,192,141367,1,0,0:0:0:0:
64,192,141414,1,0,0:0:0:0:
192,192,141461,1,0,0:0:0:0:
320,192,141507,1,0,0:0:0:0:
448,192,141554,1,0,0:0:0:0:
64,192,141602,1,0,0:0:0:0:
320,192,141648,1,0,0:0:0:0:
192,192,141694,1,0,0:0:0:0:
64,192,141742,1,0,0:0:0:0:
448,192,141742,1,0,0:0:0:0:
320,192,141787,1,0,0:0:0:0:
448,192,141833,1,0,0:0:0:0:
320,192,141877,1,0,0:0:0:0:
192,192,141923,1,0,0:0:0:0:
448,192,141968,1,0,0:0:0:0:
64,192,142013,1,0,0:0:0:0:
320,192,142013,1,0,0:0:0:0:
192,192,142059,1,0,0:0:0:0:
64,192,142104,1,0,0:0:0:0:
192,192,142149,1,0,0:0:0:0:
320,192,142194,1,0,0:0:0:0:
448,192,142240,1,0,0:0:0:0:
448,192,142353,1,0,0:0:0:0:
64,192,142353,1,0,0:0:0:0:
320,192,142455,1,0,0:0:0:0:
64,192,142557,1,0,0:0:0:0:
192,192,142557,1,0,0:0:0:0:
320,192,142557,1,0,0:0:0:0:
64,192,142659,1,0,0:0:0:0:
192,192,142659,1,0,0:0:0:0:
448,192,142762,1,0,0:0:0:0:
320,192,142813,1,0,0:0:0:0:
64,192,142865,1,0,0:0:0:0:
192,192,142916,1,0,0:0:0:0:
448,192,142968,1,0,0:0:0:0:
320,192,142968,1,0,0:0:0:0:
64,192,143003,1,0,0:0:0:0:
192,192,143038,1,0,0:0:0:0:
320,192,143074,1,0,0:0:0:0:
448,192,143109,1,0,0:0:0:0:
320,192,143144,1,0,0:0:0:0:
192,192,143180,1,0,0:0:0:0:
64,192,143215,1,0,0:0:0:0:
448,192,143250,1,0,0:0:0:0:
192,192,143298,1,0,0:0:0:0:
320,192,143345,1,0,0:0:0:0:
64,192,143392,1,0,0:0:0:0:
448,192,143392,1,0,0:0:0:0:
64,192,143487,1,0,0:0:0:0:
320,192,143533,1,0,0:0:0:0:
192,192,143580,1,0,0:0:0:0:
448,192,143627,1,0,0:0:0:0:
320,192,143674,1,0,0:0:0:0:
192,192,143722,1,0,0:0:0:0:
64,192,143769,1,0,0:0:0:0:
448,192,143816,1,0,0:0:0:0:
320,192,143816,1,0,0:0:0:0:
192,192,143863,1,0,0:0:0:0:
64,192,143911,1,0,0:0:0:0:
448,192,143922,1,0,0:0:0:0:
320,192,144028,1,0,0:0:0:0:
192,192,144028,1,0,0:0:0:0:
320,192,144134,1,0,0:0:0:0:
448,192,144240,1,0,0:0:0:0:
192,192,144240,1,0,0:0:0:0:
64,192,144240,1,0,0:0:0:0:
192,192,144345,1,0,0:0:0:0:
64,192,144345,1,0,0:0:0:0:
448,192,144345,1,0,0:0:0:0:
320,192,144450,1,0,0:0:0:0:
64,192,144450,1,0,0:0:0:0:
192,192,144555,1,0,0:0:0:0:
320,192,144660,1,0,0:0:0:0:
448,192,144660,1,0,0:0:0:0:
64,192,144695,1,0,0:0:0:0:
192,192,144730,1,0,0:0:0:0:
320,192,144765,1,0,0:0:0:0:
64,192,144801,1,0,0:0:0:0:
448,192,144836,1,0,0:0:0:0:
320,192,144871,1,0,0:0:0:0:
192,192,144906,1,0,0:0:0:0:
64,192,144941,1,0,0:0:0:0:
448,192,144988,1,0,0:0:0:0:
192,192,145034,1,0,0:0:0:0:
448,192,145081,1,0,0:0:0:0:
320,192,145081,1,0,0:0:0:0:
64,192,145128,1,0,0:0:0:0:
192,192,145175,1,0,0:0:0:0:
448,192,145221,1,0,0:0:0:0:
320,192,145291,1,0,0:0:0:0:
64,192,145291,1,0,0:0:0:0:
320,192,145397,1,0,0:0:0:0:
192,192,145397,1,0,0:0:0:0:
192,192,145502,1,0,0:0:0:0:
64,192,145502,1,0,0:0:0:0:
448,192,145537,1,0,0:0:0:0:
64,192,145596,1,0,0:0:0:0:
192,192,145642,1,0,0:0:0:0:
320,192,145642,1,0,0:0:0:0:
448,192,145712,1,0,0:0:0:0:
192,192,145817,1,0,0:0:0:0:
320,192,145923,1,0,0:0:0:0:
448,192,145923,1,0,0:0:0:0:
64,192,145923,1,0,0:0:0:0:
64,192,146028,1,0,0:0:0:0:
448,192,146028,1,0,0:0:0:0:
320,192,146028,1,0,0:0:0:0:
320,192,146133,1,0,0:0:0:0:
192,192,146238,1,0,0:0:0:0:
64,192,146238,1,0,0:0:0:0:
320,192,146343,1,0,0:0:0:0:
448,192,146343,1,0,0:0:0:0:
192,192,146391,1,0,0:0:0:0:
64,192,146437,1,0,0:0:0:0:
192,192,146484,1,0,0:0:0:0:
448,192,146531,1,0,0:0:0:0:
320,192,146578,1,0,0:0:0:0:
192,192,146624,1,0,0:0:0:0:
448,192,146671,1,0,0:0:0:0:
320,192,146718,1,0,0:0:0:0:
448,192,146764,1,0,0:0:0:0:
64,192,146764,1,0,0:0:0:0:
192,192,146811,1,0,0:0:0:0:
320,192,146858,1,0,0:0:0:0:
64,192,146904,1,0,0:0:0:0:
192,192,146952,1,0,0:0:0:0:
448,192,146999,1,0,0:0:0:0:
64,192,147045,1,0,0:0:0:0:
192,192,147092,1,0,0:0:0:0:
320,192,147185,1,0,0:0:0:0:
448,192,147185,1,0,0:0:0:0:
64,192,147290,1,0,0:0:0:0:
448,192,147290,1,0,0:0:0:0:
192,192,147290,1,0,0:0:0:0:
192,192,147395,1,0,0:0:0:0:
320,192,147500,1,0,0:0:0:0:
448,192,147500,1,0,0:0:0:0:
320,192,147606,1,0,0:0:0:0:
192,192,147606,1,0,0:0:0:0:
64,192,147606,1,0,0:0:0:0:
448,192,147606,128,0,147816:0:0:0:0:
64,192,147711,1,0,0:0:0:0:
192,192,147711,1,0,0:0:0:0:
64,192,147816,1,0,0:0:0:0:
320,192,147816,1,0,0:0:0:0:
192,192,147921,1,0,0:0:0:0:
64,192,147921,1,0,0:0:0:0:
320,192,148026,1,0,0:0:0:0:
448,192,148026,1,0,0:0:0:0:
64,192,148073,1,0,0:0:0:0:
192,192,148120,1,0,0:0:0:0:
320,192,148167,1,0,0:0:0:0:
64,192,148213,1,0,0:0:0:0:
448,192,148260,1,0,0:0:0:0:
320,192,148307,1,0,0:0:0:0:
192,192,148354,1,0,0:0:0:0:
64,192,148400,1,0,0:0:0:0:
320,192,148447,1,0,0:0:0:0:
448,192,148447,1,0,0:0:0:0:
192,192,148494,1,0,0:0:0:0:
448,192,148541,1,0,0:0:0:0:
64,192,148587,1,0,0:0:0:0:
192,192,148634,1,0,0:0:0:0:
320,192,148681,1,0,0:0:0:0:
448,192,148728,1,0,0:0:0:0:
192,192,148775,1,0,0:0:0:0:
320,192,148821,1,0,0:0:0:0:
64,192,148868,1,0,0:0:0:0:
448,192,148868,1,0,0:0:0:0:
320,192,148915,1,0,0:0:0:0:
192,192,148962,1,0,0:0:0:0:
64,192,149008,1,0,0:0:0:0:
448,192,149055,1,0,0:0:0:0:
320,192,149102,1,0,0:0:0:0:
192,192,149148,1,0,0:0:0:0:
448,192,149195,1,0,0:0:0:0:
64,192,149242,1,0,0:0:0:0:
192,192,149289,1,0,0:0:0:0:
320,192,149289,1,0,0:0:0:0:
448,192,149336,1,0,0:0:0:0:
64,192,149382,1,0,0:0:0:0:
192,192,149429,1,0,0:0:0:0:
320,192,149475,1,0,0:0:0:0:
64,192,149521,1,0,0:0:0:0:
448,192,149568,1,0,0:0:0:0:
320,192,149614,1,0,0:0:0:0:
192,192,149660,1,0,0:0:0:0:
448,192,149707,1,0,0:0:0:0:
64,192,149707,1,0,0:0:0:0:
192,192,149753,1,0,0:0:0:0:
320,192,149800,1,0,0:0:0:0:
448,192,149846,1,0,0:0:0:0:
64,192,149893,1,0,0:0:0:0:
320,192,149939,1,0,0:0:0:0:
192,192,149985,1,0,0:0:0:0:
64,192,150032,1,0,0:0:0:0:
448,192,150078,1,0,0:0:0:0:
320,192,150124,1,0,0:0:0:0:
192,192,150124,1,0,0:0:0:0:
64,192,150171,1,0,0:0:0:0:
448,192,150217,1,0,0:0:0:0:
192,192,150263,1,0,0:0:0:0:
320,192,150310,1,0,0:0:0:0:
448,192,150356,1,0,0:0:0:0:
64,192,150403,1,0,0:0:0:0:
192,192,150449,1,0,0:0:0:0:
448,192,150495,1,0,0:0:0:0:
320,192,150542,1,0,0:0:0:0:
192,192,150588,1,0,0:0:0:0:
448,192,150634,1,0,0:0:0:0:
64,192,150646,1,0,0:0:0:0:
192,192,150698,1,0,0:0:0:0:
320,192,150750,1,0,0:0:0:0:
448,192,150750,1,0,0:0:0:0:
64,192,150840,1,0,0:0:0:0:
448,192,150840,1,0,0:0:0:0:
192,192,150924,1,0,0:0:0:0:
320,192,150924,1,0,0:0:0:0:
320,192,151029,128,0,151098:0:0:0:0:
448,192,151029,128,0,151098:0:0:0:0:
64,192,151029,128,0,151098:0:0:0:0:
64,192,151220,128,0,151298:0:0:0:0:
320,192,151220,128,0,151298:0:0:0:0:
192,192,151220,128,0,151298:0:0:0:0:
64,192,151755,1,0,0:0:0:0:
448,192,151755,1,0,0:0:0:0:
192,192,151810,1,0,0:0:0:0:
320,192,151865,1,0,0:0:0:0:
448,192,151920,1,0,0:0:0:0:
320,192,151976,1,0,0:0:0:0:
192,192,152031,1,0,0:0:0:0:
320,192,152086,1,0,0:0:0:0:
192,192,152141,1,0,0:0:0:0:
64,192,152197,1,0,0:0:0:0:
192,192,152252,1,0,0:0:0:0:
320,192,152307,1,0,0:0:0:0:
192,192,152362,1,0,0:0:0:0:
64,192,152418,1,0,0:0:0:0:
192,192,152473,1,0,0:0:0:0:
320,192,152528,1,0,0:0:0:0:
448,192,152584,1,0,0:0:0:0:
320,192,152639,1,0,0:0:0:0:
192,192,152689,1,0,0:0:0:0:
320,192,152740,1,0,0:0:0:0:
448,192,152791,1,0,0:0:0:0:
320,192,152842,1,0,0:0:0:0:
192,192,152893,1,0,0:0:0:0:
64,192,152944,1,0,0:0:0:0:
192,192,152995,1,0,0:0:0:0:
64,192,153046,1,0,0:0:0:0:
448,192,153046,1,0,0:0:0:0:
320,192,153046,1,0,0:0:0:0:
192,192,153116,1,0,0:0:0:0:
320,192,153186,1,0,0:0:0:0:
192,192,153255,1,0,0:0:0:0:
64,192,153255,1,0,0:0:0:0:
448,192,153255,1,0,0:0:0:0:
320,192,153307,1,0,0:0:0:0:
192,192,153360,1,0,0:0:0:0:
448,192,153412,1,0,0:0:0:0:
64,192,153464,1,0,0:0:0:0:
192,192,153516,1,0,0:0:0:0:
320,192,153568,1,0,0:0:0:0:
448,192,153568,1,0,0:0:0:0:
64,192,153568,1,0,0:0:0:0:
192,192,153620,1,0,0:0:0:0:
320,192,153673,1,0,0:0:0:0:
64,192,153725,1,0,0:0:0:0:
448,192,153777,1,0,0:0:0:0:
320,192,153829,1,0,0:0:0:0:
192,192,153881,1,0,0:0:0:0:
448,192,153881,1,0,0:0:0:0:
64,192,153881,128,0,154090:0:0:0:0:
320,192,153986,1,0,0:0:0:0:
448,192,154090,128,0,154299:0:0:0:0:
320,192,154090,1,0,0:0:0:0:
192,192,154090,1,0,0:0:0:0:
64,192,154194,1,0,0:0:0:0:
64,192,154299,1,0,0:0:0:0:
320,192,154299,1,0,0:0:0:0:
192,192,154299,1,0,0:0:0:0:
64,192,154403,1,0,0:0:0:0:
192,192,154403,1,0,0:0:0:0:
320,192,154403,1,0,0:0:0:0:
448,192,154507,1,0,0:0:0:0:
320,192,154507,1,0,0:0:0:0:
192,192,154596,1,0,0:0:0:0:
64,192,154596,1,0,0:0:0:0:
448,192,154596,1,0,0:0:0:0:
192,192,154716,1,0,0:0:0:0:
320,192,154820,1,0,0:0:0:0:
448,192,154820,1,0,0:0:0:0:
64,192,154820,1,0,0:0:0:0:
192,192,154925,1,0,0:0:0:0:
448,192,154925,1,0,0:0:0:0:
192,192,155029,1,0,0:0:0:0:
448,192,155029,1,0,0:0:0:0:
64,192,155133,1,0,0:0:0:0:
192,192,155133,1,0,0:0:0:0:
320,192,155133,1,0,0:0:0:0:
192,192,155234,1,0,0:0:0:0:
320,192,155234,1,0,0:0:0:0:
64,192,155335,1,0,0:0:0:0:
448,192,155335,128,0,155537:0:0:0:0:
320,192,155436,128,0,155537:0:0:0:0:
192,192,155537,1,0,0:0:0:0:
64,192,155537,1,0,0:0:0:0:
448,192,155638,1,0,0:0:0:0:
64,192,155638,1,0,0:0:0:0:
192,192,155739,1,0,0:0:0:0:
320,192,155739,1,0,0:0:0:0:
64,192,155807,1,0,0:0:0:0:
192,192,155874,1,0,0:0:0:0:
320,192,155942,1,0,0:0:0:0:
448,192,155942,1,0,0:0:0:0:
64,192,155942,1,0,0:0:0:0:
448,192,156048,1,0,0:0:0:0:
192,192,156101,1,0,0:0:0:0:
320,192,156101,1,0,0:0:0:0:
64,192,156260,1,0,0:0:0:0:
448,192,156260,1,0,0:0:0:0:
192,192,156313,1,0,0:0:0:0:
320,192,156366,1,0,0:0:0:0:
64,192,156419,1,0,0:0:0:0:
192,192,156472,1,0,0:0:0:0:
320,192,156525,1,0,0:0:0:0:
64,192,156578,1,0,0:0:0:0:
448,192,156578,1,0,0:0:0:0:
448,192,156684,1,0,0:0:0:0:
64,192,156684,1,0,0:0:0:0:
192,192,156791,1,0,0:0:0:0:
320,192,156791,1,0,0:0:0:0:
64,192,156791,1,0,0:0:0:0:
448,192,156895,1,0,0:0:0:0:
320,192,156895,1,0,0:0:0:0:
64,192,156999,1,0,0:0:0:0:
192,192,156999,1,0,0:0:0:0:
192,192,157104,1,0,0:0:0:0:
64,192,157208,1,0,0:0:0:0:
448,192,157208,1,0,0:0:0:0:
320,192,157208,1,0,0:0:0:0:
320,192,157312,1,0,0:0:0:0:
192,192,157312,1,0,0:0:0:0:
448,192,157417,1,0,0:0:0:0:
64,192,157417,1,0,0:0:0:0:
320,192,157469,1,0,0:0:0:0:
192,192,157521,1,0,0:0:0:0:
64,192,157573,1,0,0:0:0:0:
448,192,157625,1,0,0:0:0:0:
320,192,157625,1,0,0:0:0:0:
64,192,157730,1,0,0:0:0:0:
192,192,157730,1,0,0:0:0:0:
448,192,157782,1,0,0:0:0:0:
192,192,157834,1,0,0:0:0:0:
320,192,157886,1,0,0:0:0:0:
64,192,157938,1,0,0:0:0:0:
448,192,157938,1,0,0:0:0:0:
192,192,158008,1,0,0:0:0:0:
448,192,158043,1,0,0:0:0:0:
64,192,158077,1,0,0:0:0:0:
448,192,158147,1,0,0:0:0:0:
64,192,158182,1,0,0:0:0:0:
448,192,158251,1,0,0:0:0:0:
192,192,158251,1,0,0:0:0:0:
320,192,158356,1,0,0:0:0:0:
192,192,158356,1,0,0:0:0:0:
448,192,158460,1,0,0:0:0:0:
320,192,158460,1,0,0:0:0:0:
64,192,158460,1,0,0:0:0:0:
192,192,158530,1,0,0:0:0:0:
448,192,158564,1,0,0:0:0:0:
64,192,158599,1,0,0:0:0:0:
192,192,158669,1,0,0:0:0:0:
448,192,158669,1,0,0:0:0:0:
320,192,158773,1,0,0:0:0:0:
192,192,158773,1,0,0:0:0:0:
320,192,158877,1,0,0:0:0:0:
64,192,158877,1,0,0:0:0:0:
448,192,158877,1,0,0:0:0:0:
64,192,158982,1,0,0:0:0:0:
192,192,158982,1,0,0:0:0:0:
448,192,159086,1,0,0:0:0:0:
320,192,159191,1,0,0:0:0:0:
64,192,159191,1,0,0:0:0:0:
448,192,159295,1,0,0:0:0:0:
64,192,159295,1,0,0:0:0:0:
192,192,159295,1,0,0:0:0:0:
320,192,159399,1,0,0:0:0:0:
448,192,159399,1,0,0:0:0:0:
64,192,159399,1,0,0:0:0:0:
320,192,159504,1,0,0:0:0:0:
192,192,159608,1,0,0:0:0:0:
64,192,159608,1,0,0:0:0:0:
448,192,159712,1,0,0:0:0:0:
192,192,159712,1,0,0:0:0:0:
448,192,159817,1,0,0:0:0:0:
192,192,159817,1,0,0:0:0:0:
320,192,159921,1,0,0:0:0:0:
192,192,159921,1,0,0:0:0:0:
64,192,159921,1,0,0:0:0:0:
320,192,160025,1,0,0:0:0:0:
192,192,160130,1,0,0:0:0:0:
448,192,160130,1,0,0:0:0:0:
64,192,160130,1,0,0:0:0:0:
448,192,160234,1,0,0:0:0:0:
192,192,160234,1,0,0:0:0:0:
192,192,160338,1,0,0:0:0:0:
64,192,160338,1,0,0:0:0:0:
320,192,160338,1,0,0:0:0:0:
320,192,160443,1,0,0:0:0:0:
448,192,160443,1,0,0:0:0:0:
64,192,160547,1,0,0:0:0:0:
192,192,160547,1,0,0:0:0:0:
448,192,160651,1,0,0:0:0:0:
320,192,160651,1,0,0:0:0:0:
64,192,160651,1,0,0:0:0:0:
320,192,160756,1,0,0:0:0:0:
448,192,160860,1,0,0:0:0:0:
64,192,160860,1,0,0:0:0:0:
192,192,160860,1,0,0:0:0:0:
192,192,160965,1,0,0:0:0:0:
320,192,160965,1,0,0:0:0:0:
320,192,161065,1,0,0:0:0:0:
64,192,161065,1,0,0:0:0:0:
448,192,161065,1,0,0:0:0:0:
192,192,161132,1,0,0:0:0:0:
192,192,161266,1,0,0:0:0:0:
448,192,161266,1,0,0:0:0:0:
64,192,161266,1,0,0:0:0:0:
64,192,161366,1,0,0:0:0:0:
448,192,161366,1,0,0:0:0:0:
448,192,161466,1,0,0:0:0:0:
64,192,161466,1,0,0:0:0:0:
320,192,161567,1,0,0:0:0:0:
192,192,161567,1,0,0:0:0:0:
192,192,161667,1,0,0:0:0:0:
448,192,161767,1,0,0:0:0:0:
64,192,161767,1,0,0:0:0:0:
320,192,161767,1,0,0:0:0:0:
192,192,161869,1,0,0:0:0:0:
64,192,161972,1,0,0:0:0:0:
448,192,161972,1,0,0:0:0:0:
320,192,162023,1,0,0:0:0:0:
192,192,162023,1,0,0:0:0:0:
192,192,162179,1,0,0:0:0:0:
320,192,162179,1,0,0:0:0:0:
448,192,162232,1,0,0:0:0:0:
64,192,162232,1,0,0:0:0:0:
64,192,162364,128,0,162470:0:0:0:0:
448,192,162364,128,0,162470:0:0:0:0:
320,192,162391,128,0,162523:0:0:0:0:
192,192,162391,128,0,162523:0:0:0:0:
64,192,162602,1,0,0:0:0:0:
320,192,162602,1,0,0:0:0:0:
192,192,162602,1,0,0:0:0:0:
448,192,162706,1,0,0:0:0:0:
192,192,162706,1,0,0:0:0:0:
448,192,162810,1,0,0:0:0:0:
320,192,162915,1,0,0:0:0:0:
192,192,162915,1,0,0:0:0:0:
64,192,162915,1,0,0:0:0:0:
192,192,163019,1,0,0:0:0:0:
64,192,163123,1,0,0:0:0:0:
320,192,163123,1,0,0:0:0:0:
448,192,163123,1,0,0:0:0:0:
192,192,163228,1,0,0:0:0:0:
320,192,163228,1,0,0:0:0:0:
192,192,163332,1,0,0:0:0:0:
320,192,163332,1,0,0:0:0:0:
64,192,163436,1,0,0:0:0:0:
448,192,163436,1,0,0:0:0:0:
320,192,163436,1,0,0:0:0:0:
192,192,163541,1,0,0:0:0:0:
64,192,163541,1,0,0:0:0:0:
448,192,163645,1,0,0:0:0:0:
320,192,163645,1,0,0:0:0:0:
320,192,163749,1,0,0:0:0:0:
448,192,163854,1,0,0:0:0:0:
64,192,163854,1,0,0:0:0:0:
192,192,163854,1,0,0:0:0:0:
320,192,163958,1,0,0:0:0:0:
192,192,163958,1,0,0:0:0:0:
448,192,164062,128,0,164167:0:0:0:0:
64,192,164062,1,0,0:0:0:0:
320,192,164167,1,0,0:0:0:0:
192,192,164167,128,0,164271:0:0:0:0:
448,192,164271,1,0,0:0:0:0:
320,192,164271,1,0,0:0:0:0:
64,192,164271,1,0,0:0:0:0:
192,192,164375,1,0,0:0:0:0:
64,192,164375,1,0,0:0:0:0:
448,192,164480,1,0,0:0:0:0:
192,192,164480,1,0,0:0:0:0:
448,192,164584,1,0,0:0:0:0:
64,192,164584,1,0,0:0:0:0:
320,192,164584,1,0,0:0:0:0:
320,192,164688,1,0,0:0:0:0:
64,192,164793,1,0,0:0:0:0:
320,192,164793,1,0,0:0:0:0:
192,192,164897,1,0,0:0:0:0:
448,192,164897,1,0,0:0:0:0:
448,192,165002,1,0,0:0:0:0:
192,192,165002,1,0,0:0:0:0:
64,192,165107,1,0,0:0:0:0:
192,192,165107,1,0,0:0:0:0:
320,192,165107,1,0,0:0:0:0:
64,192,165210,1,0,0:0:0:0:
320,192,165210,1,0,0:0:0:0:
448,192,165314,1,0,0:0:0:0:
192,192,165314,1,0,0:0:0:0:
192,192,165417,1,0,0:0:0:0:
448,192,165417,1,0,0:0:0:0:
64,192,165521,1,0,0:0:0:0:
192,192,165521,1,0,0:0:0:0:
320,192,165521,1,0,0:0:0:0:
64,192,165623,1,0,0:0:0:0:
320,192,165623,1,0,0:0:0:0:
448,192,165726,1,0,0:0:0:0:
192,192,165726,1,0,0:0:0:0:
192,192,165829,1,0,0:0:0:0:
448,192,165829,1,0,0:0:0:0:
192,192,165931,1,0,0:0:0:0:
64,192,165931,1,0,0:0:0:0:
320,192,165931,1,0,0:0:0:0:
320,192,166034,1,0,0:0:0:0:
64,192,166034,1,0,0:0:0:0:
192,192,166137,1,0,0:0:0:0:
64,192,166239,1,0,0:0:0:0:
320,192,166239,1,0,0:0:0:0:
448,192,166239,1,0,0:0:0:0:
192,192,166291,1,0,0:0:0:0:
448,192,166342,1,0,0:0:0:0:
320,192,166393,1,0,0:0:0:0:
64,192,166445,1,0,0:0:0:0:
192,192,166445,1,0,0:0:0:0:
448,192,166496,1,0,0:0:0:0:
64,192,166548,1,0,0:0:0:0:
192,192,166599,1,0,0:0:0:0:
320,192,166650,1,0,0:0:0:0:
448,192,166702,1,0,0:0:0:0:
64,192,166753,1,0,0:0:0:0:
192,192,166753,1,0,0:0:0:0:
448,192,166804,1,0,0:0:0:0:
320,192,166856,1,0,0:0:0:0:
64,192,166856,1,0,0:0:0:0:
320,192,166958,1,0,0:0:0:0:
192,192,166958,1,0,0:0:0:0:
448,192,167061,1,0,0:0:0:0:
64,192,167061,1,0,0:0:0:0:
192,192,167061,1,0,0:0:0:0:
448,192,167164,1,0,0:0:0:0:
320,192,167164,1,0,0:0:0:0:
64,192,167269,1,0,0:0:0:0:
448,192,167269,1,0,0:0:0:0:
320,192,167269,1,0,0:0:0:0:
192,192,167374,1,0,0:0:0:0:
64,192,167374,128,0,167532:0:0:0:0:
448,192,167426,128,0,167532:0:0:0:0:
320,192,167479,128,0,167532:0:0:0:0:
192,192,167584,1,0,0:0:0:0:
64,192,167584,1,0,0:0:0:0:
448,192,167584,1,0,0:0:0:0:
320,192,167689,1,0,0:0:0:0:
320,192,167795,1,0,0:0:0:0:
448,192,167795,1,0,0:0:0:0:
64,192,167795,1,0,0:0:0:0:
320,192,167900,1,0,0:0:0:0:
192,192,167900,1,0,0:0:0:0:
192,192,168005,1,0,0:0:0:0:
64,192,168005,1,0,0:0:0:0:
448,192,168005,1,0,0:0:0:0:
320,192,168058,1,0,0:0:0:0:
64,192,168110,1,0,0:0:0:0:
320,192,168163,1,0,0:0:0:0:
192,192,168215,1,0,0:0:0:0:
448,192,168215,1,0,0:0:0:0:
320,192,168321,1,0,0:0:0:0:
192,192,168321,1,0,0:0:0:0:
192,192,168426,1,0,0:0:0:0:
64,192,168426,1,0,0:0:0:0:
448,192,168426,1,0,0:0:0:0:
320,192,168478,1,0,0:0:0:0:
64,192,168531,1,0,0:0:0:0:
320,192,168584,1,0,0:0:0:0:
448,192,168636,1,0,0:0:0:0:
192,192,168636,1,0,0:0:0:0:
64,192,168741,1,0,0:0:0:0:
320,192,168741,1,0,0:0:0:0:
192,192,168794,1,0,0:0:0:0:
448,192,168847,1,0,0:0:0:0:
320,192,168847,1,0,0:0:0:0:
192,192,168897,1,0,0:0:0:0:
64,192,168948,1,0,0:0:0:0:
192,192,168999,1,0,0:0:0:0:
320,192,169050,1,0,0:0:0:0:
448,192,169101,1,0,0:0:0:0:
320,192,169152,1,0,0:0:0:0:
192,192,169203,1,0,0:0:0:0:
64,192,169254,1,0,0:0:0:0:
448,192,169254,1,0,0:0:0:0:
192,192,169305,1,0,0:0:0:0:
448,192,169356,1,0,0:0:0:0:
320,192,169407,1,0,0:0:0:0:
64,192,169458,1,0,0:0:0:0:
192,192,169458,1,0,0:0:0:0:
448,192,169560,1,0,0:0:0:0:
64,192,169560,1,0,0:0:0:0:
320,192,169560,1,0,0:0:0:0:
320,192,169662,1,0,0:0:0:0:
192,192,169764,1,0,0:0:0:0:
64,192,169764,1,0,0:0:0:0:
448,192,169866,1,0,0:0:0:0:
192,192,169866,1,0,0:0:0:0:
192,192,169967,1,0,0:0:0:0:
448,192,169967,1,0,0:0:0:0:
320,192,170069,1,0,0:0:0:0:
448,192,170069,1,0,0:0:0:0:
64,192,170069,1,0,0:0:0:0:
192,192,170171,1,0,0:0:0:0:
320,192,170273,1,0,0:0:0:0:
64,192,170273,1,0,0:0:0:0:
320,192,170375,1,0,0:0:0:0:
192,192,170478,1,0,0:0:0:0:
64,192,170478,1,0,0:0:0:0:
320,192,170583,1,0,0:0:0:0:
64,192,170583,1,0,0:0:0:0:
448,192,170583,1,0,0:0:0:0:
320,192,170688,1,0,0:0:0:0:
64,192,170793,1,0,0:0:0:0:
448,192,170793,1,0,0:0:0:0:
192,192,170793,1,0,0:0:0:0:
320,192,170898,1,0,0:0:0:0:
192,192,170898,1,0,0:0:0:0:
64,192,171003,1,0,0:0:0:0:
448,192,171003,1,0,0:0:0:0:
320,192,171003,1,0,0:0:0:0:
64,192,171109,1,0,0:0:0:0:
192,192,171109,1,0,0:0:0:0:
192,192,171214,1,0,0:0:0:0:
320,192,171214,1,0,0:0:0:0:
448,192,171214,1,0,0:0:0:0:
320,192,171319,1,0,0:0:0:0:
448,192,171424,1,0,0:0:0:0:
64,192,171424,1,0,0:0:0:0:
192,192,171477,1,0,0:0:0:0:
320,192,171529,1,0,0:0:0:0:
64,192,171529,1,0,0:0:0:0:
192,192,171582,1,0,0:0:0:0:
320,192,171635,1,0,0:0:0:0:
192,192,171687,1,0,0:0:0:0:
448,192,171740,1,0,0:0:0:0:
64,192,171740,1,0,0:0:0:0:
448,192,171845,1,0,0:0:0:0:
320,192,171845,1,0,0:0:0:0:
64,192,171898,1,0,0:0:0:0:
320,192,171950,1,0,0:0:0:0:
192,192,171950,1,0,0:0:0:0:
448,192,172055,1,0,0:0:0:0:
320,192,172055,1,0,0:0:0:0:
64,192,172108,1,0,0:0:0:0:
320,192,172161,1,0,0:0:0:0:
192,192,172161,1,0,0:0:0:0:
64,192,172266,1,0,0:0:0:0:
192,192,172266,1,0,0:0:0:0:
192,192,172371,1,0,0:0:0:0:
448,192,172424,1,0,0:0:0:0:
64,192,172476,1,0,0:0:0:0:
320,192,172476,1,0,0:0:0:0:
64,192,172581,1,0,0:0:0:0:
448,192,172581,1,0,0:0:0:0:
320,192,172581,1,0,0:0:0:0:
192,192,172684,1,0,0:0:0:0:
448,192,172684,1,0,0:0:0:0:
320,192,172788,1,0,0:0:0:0:
64,192,172788,1,0,0:0:0:0:
192,192,172891,1,0,0:0:0:0:
320,192,172891,1,0,0:0:0:0:
192,192,172995,1,0,0:0:0:0:
448,192,172995,1,0,0:0:0:0:
64,192,172995,1,0,0:0:0:0:
448,192,173097,1,0,0:0:0:0:
192,192,173200,1,0,0:0:0:0:
64,192,173200,1,0,0:0:0:0:
320,192,173200,1,0,0:0:0:0:
320,192,173303,1,0,0:0:0:0:
448,192,173405,1,0,0:0:0:0:
192,192,173405,1,0,0:0:0:0:
64,192,173405,1,0,0:0:0:0:
64,192,173508,1,0,0:0:0:0:
320,192,173611,1,0,0:0:0:0:
448,192,173611,1,0,0:0:0:0:
192,192,173611,1,0,0:0:0:0:
64,192,173713,1,0,0:0:0:0:
320,192,173713,1,0,0:0:0:0:
448,192,173713,1,0,0:0:0:0:
192,192,173816,1,0,0:0:0:0:
320,192,173816,1,0,0:0:0:0:
64,192,173919,1,0,0:0:0:0:
448,192,173919,1,0,0:0:0:0:
192,192,173919,1,0,0:0:0:0:
64,192,174022,1,0,0:0:0:0:
320,192,174124,1,0,0:0:0:0:
192,192,174124,1,0,0:0:0:0:
448,192,174124,1,0,0:0:0:0:
320,192,174227,1,0,0:0:0:0:
64,192,174227,1,0,0:0:0:0:
448,192,174330,1,0,0:0:0:0:
192,192,174330,1,0,0:0:0:0:
64,192,174330,1,0,0:0:0:0:
192,192,174432,1,0,0:0:0:0:
448,192,174535,1,0,0:0:0:0:
320,192,174535,1,0,0:0:0:0:
64,192,174586,1,0,0:0:0:0:
192,192,174638,1,0,0:0:0:0:
448,192,174689,1,0,0:0:0:0:
64,192,174740,1,0,0:0:0:0:
320,192,174740,1,0,0:0:0:0:
192,192,174792,1,0,0:0:0:0:
448,192,174843,1,0,0:0:0:0:
64,192,174843,1,0,0:0:0:0:
192,192,174895,1,0,0:0:0:0:
320,192,174946,1,0,0:0:0:0:
64,192,174997,1,0,0:0:0:0:
192,192,175049,1,0,0:0:0:0:
448,192,175049,1,0,0:0:0:0:
320,192,175049,1,0,0:0:0:0:
192,192,175151,1,0,0:0:0:0:
448,192,175151,1,0,0:0:0:0:
320,192,175254,1,0,0:0:0:0:
64,192,175254,1,0,0:0:0:0:
320,192,175357,1,0,0:0:0:0:
192,192,175357,1,0,0:0:0:0:
64,192,175460,1,0,0:0:0:0:
448,192,175460,1,0,0:0:0:0:
64,192,175570,1,0,0:0:0:0:
192,192,175570,1,0,0:0:0:0:
448,192,175607,1,0,0:0:0:0:
320,192,175656,1,0,0:0:0:0:
192,192,175681,1,0,0:0:0:0:
64,192,175706,1,0,0:0:0:0:
448,192,175736,1,0,0:0:0:0:
320,192,175791,1,0,0:0:0:0:
192,192,175846,1,0,0:0:0:0:
320,192,175903,1,0,0:0:0:0:
448,192,175903,1,0,0:0:0:0:
192,192,175954,1,0,0:0:0:0:
64,192,176006,1,0,0:0:0:0:
448,192,176058,1,0,0:0:0:0:
320,192,176110,1,0,0:0:0:0:
192,192,176110,1,0,0:0:0:0:
64,192,176213,1,0,0:0:0:0:
448,192,176213,1,0,0:0:0:0:
192,192,176265,1,0,0:0:0:0:
320,192,176317,1,0,0:0:0:0:
64,192,176368,1,0,0:0:0:0:
448,192,176420,1,0,0:0:0:0:
320,192,176420,1,0,0:0:0:0:
192,192,176472,1,0,0:0:0:0:
64,192,176524,1,0,0:0:0:0:
192,192,176575,1,0,0:0:0:0:
448,192,176627,1,0,0:0:0:0:
320,192,176627,1,0,0:0:0:0:
192,192,176679,1,0,0:0:0:0:
64,192,176731,1,0,0:0:0:0:
448,192,176731,1,0,0:0:0:0:
320,192,176782,1,0,0:0:0:0:
448,192,176834,1,0,0:0:0:0:
64,192,176886,1,0,0:0:0:0:
320,192,176938,1,0,0:0:0:0:
192,192,176938,1,0,0:0:0:0:
192,192,177041,1,0,0:0:0:0:
64,192,177041,1,0,0:0:0:0:
448,192,177093,1,0,0:0:0:0:
320,192,177145,1,0,0:0:0:0:
192,192,177196,1,0,0:0:0:0:
64,192,177248,1,0,0:0:0:0:
320,192,177300,1,0,0:0:0:0:
448,192,177352,1,0,0:0:0:0:
64,192,177352,1,0,0:0:0:0:
320,192,177404,1,0,0:0:0:0:
64,192,177455,1,0,0:0:0:0:
192,192,177507,1,0,0:0:0:0:
320,192,177559,1,0,0:0:0:0:
448,192,177559,1,0,0:0:0:0:
64,192,177662,1,0,0:0:0:0:
448,192,177662,1,0,0:0:0:0:
192,192,177714,1,0,0:0:0:0:
320,192,177766,1,0,0:0:0:0:
64,192,177869,1,0,0:0:0:0:
192,192,177869,1,0,0:0:0:0:
448,192,177921,1,0,0:0:0:0:
192,192,177973,1,0,0:0:0:0:
320,192,177973,1,0,0:0:0:0:
448,192,178025,1,0,0:0:0:0:
64,192,178076,1,0,0:0:0:0:
320,192,178128,1,0,0:0:0:0:
64,192,178180,1,0,0:0:0:0:
192,192,178180,1,0,0:0:0:0:
448,192,178232,1,0,0:0:0:0:
192,192,178283,1,0,0:0:0:0:
320,192,178335,1,0,0:0:0:0:
64,192,178387,1,0,0:0:0:0:
448,192,178387,1,0,0:0:0:0:
192,192,178439,1,0,0:0:0:0:
64,192,178490,1,0,0:0:0:0:
320,192,178490,1,0,0:0:0:0:
192,192,178594,1,0,0:0:0:0:
448,192,178594,1,0,0:0:0:0:
448,192,178698,1,0,0:0:0:0:
64,192,178732,1,0,0:0:0:0:
192,192,178767,1,0,0:0:0:0:
320,192,178801,1,0,0:0:0:0:
448,192,178836,1,0,0:0:0:0:
192,192,178905,1,0,0:0:0:0:
448,192,179008,1,0,0:0:0:0:
64,192,179008,1,0,0:0:0:0:
192,192,179112,1,0,0:0:0:0:
320,192,179112,1,0,0:0:0:0:
448,192,179215,1,0,0:0:0:0:
64,192,179215,1,0,0:0:0:0:
192,192,179215,1,0,0:0:0:0:
64,192,179319,1,0,0:0:0:0:
320,192,179319,1,0,0:0:0:0:
320,192,179422,1,0,0:0:0:0:
64,192,179526,1,0,0:0:0:0:
192,192,179526,1,0,0:0:0:0:
448,192,179577,1,0,0:0:0:0:
320,192,179629,1,0,0:0:0:0:
448,192,179681,1,0,0:0:0:0:
64,192,179733,1,0,0:0:0:0:
192,192,179784,1,0,0:0:0:0:
448,192,179836,1,0,0:0:0:0:
320,192,179836,1,0,0:0:0:0:
192,192,179888,1,0,0:0:0:0:
320,192,179940,1,0,0:0:0:0:
192,192,179992,1,0,0:0:0:0:
64,192,180043,1,0,0:0:0:0:
448,192,180043,1,0,0:0:0:0:
320,192,180094,1,0,0:0:0:0:
192,192,180145,1,0,0:0:0:0:
320,192,180197,1,0,0:0:0:0:
448,192,180248,1,0,0:0:0:0:
64,192,180248,1,0,0:0:0:0:
192,192,180299,1,0,0:0:0:0:
64,192,180351,1,0,0:0:0:0:
448,192,180351,1,0,0:0:0:0:
320,192,180453,1,0,0:0:0:0:
192,192,180453,1,0,0:0:0:0:
448,192,180556,1,0,0:0:0:0:
320,192,180556,1,0,0:0:0:0:
192,192,180659,1,0,0:0:0:0:
448,192,180659,1,0,0:0:0:0:
64,192,180710,1,0,0:0:0:0:
320,192,180761,1,0,0:0:0:0:
192,192,180813,1,0,0:0:0:0:
64,192,180864,1,0,0:0:0:0:
320,192,180864,1,0,0:0:0:0:
448,192,180864,1,0,0:0:0:0:
64,192,180967,1,0,0:0:0:0:
448,192,180967,1,0,0:0:0:0:
320,192,180967,1,0,0:0:0:0:
192,192,181044,1,0,0:0:0:0:
320,192,181070,1,0,0:0:0:0:
64,192,181172,1,0,0:0:0:0:
192,192,181172,1,0,0:0:0:0:
448,192,181206,1,0,0:0:0:0:
320,192,181241,1,0,0:0:0:0:
192,192,181275,1,0,0:0:0:0:
448,192,181320,1,0,0:0:0:0:
64,192,181367,1,0,0:0:0:0:
192,192,181412,1,0,0:0:0:0:
320,192,181458,1,0,0:0:0:0:
448,192,181503,1,0,0:0:0:0:
320,192,181549,1,0,0:0:0:0:
192,192,181594,1,0,0:0:0:0:
64,192,181640,1,0,0:0:0:0:
448,192,181686,1,0,0:0:0:0:
320,192,181686,1,0,0:0:0:0:
192,192,181737,1,0,0:0:0:0:
64,192,181788,1,0,0:0:0:0:
448,192,181840,1,0,0:0:0:0:
192,192,181891,1,0,0:0:0:0:
320,192,181891,1,0,0:0:0:0:
64,192,181943,1,0,0:0:0:0:
320,192,181994,1,0,0:0:0:0:
448,192,181994,1,0,0:0:0:0:
192,192,182045,1,0,0:0:0:0:
320,192,182097,1,0,0:0:0:0:
64,192,182148,1,0,0:0:0:0:
448,192,182199,1,0,0:0:0:0:
320,192,182251,1,0,0:0:0:0:
64,192,182302,1,0,0:0:0:0:
192,192,182302,1,0,0:0:0:0:
192,192,182405,1,0,0:0:0:0:
64,192,182507,1,0,0:0:0:0:
448,192,182507,1,0,0:0:0:0:
320,192,182507,1,0,0:0:0:0:
64,192,182613,1,0,0:0:0:0:
192,192,182613,1,0,0:0:0:0:
320,192,182665,1,0,0:0:0:0:
448,192,182718,1,0,0:0:0:0:
64,192,182823,1,0,0:0:0:0:
192,192,182823,1,0,0:0:0:0:
320,192,182858,1,0,0:0:0:0:
448,192,182893,1,0,0:0:0:0:
64,192,182928,1,0,0:0:0:0:
320,192,182975,1,0,0:0:0:0:
192,192,183022,1,0,0:0:0:0:
64,192,183069,1,0,0:0:0:0:
448,192,183115,1,0,0:0:0:0:
192,192,183162,1,0,0:0:0:0:
320,192,183209,1,0,0:0:0:0:
448,192,183256,1,0,0:0:0:0:
320,192,183302,1,0,0:0:0:0:
64,192,183349,1,0,0:0:0:0:
192,192,183349,1,0,0:0:0:0:
448,192,183402,1,0,0:0:0:0:
320,192,183454,1,0,0:0:0:0:
192,192,183507,1,0,0:0:0:0:
448,192,183559,1,0,0:0:0:0:
64,192,183559,1,0,0:0:0:0:
320,192,183612,1,0,0:0:0:0:
64,192,183665,1,0,0:0:0:0:
192,192,183665,1,0,0:0:0:0:
320,192,183717,1,0,0:0:0:0:
448,192,183770,1,0,0:0:0:0:
320,192,183822,1,0,0:0:0:0:
64,192,183873,1,0,0:0:0:0:
192,192,183925,1,0,0:0:0:0:
448,192,183976,1,0,0:0:0:0:
64,192,183976,1,0,0:0:0:0:
192,192,184027,1,0,0:0:0:0:
320,192,184079,1,0,0:0:0:0:
448,192,184130,1,0,0:0:0:0:
64,192,184181,1,0,0:0:0:0:
192,192,184181,1,0,0:0:0:0:
192,192,184284,1,0,0:0:0:0:
448,192,184284,1,0,0:0:0:0:
64,192,184387,1,0,0:0:0:0:
320,192,184387,1,0,0:0:0:0:
448,192,184489,1,0,0:0:0:0:
320,192,184489,1,0,0:0:0:0:
64,192,184524,1,0,0:0:0:0:
192,192,184558,1,0,0:0:0:0:
320,192,184592,1,0,0:0:0:0:
64,192,184638,1,0,0:0:0:0:
448,192,184683,1,0,0:0:0:0:
320,192,184729,1,0,0:0:0:0:
192,192,184774,1,0,0:0:0:0:
64,192,184820,1,0,0:0:0:0:
192,192,184866,1,0,0:0:0:0:
320,192,184912,1,0,0:0:0:0:
448,192,184957,1,0,0:0:0:0:
64,192,185003,1,0,0:0:0:0:
192,192,185003,1,0,0:0:0:0:
320,192,185054,1,0,0:0:0:0:
448,192,185106,1,0,0:0:0:0:
64,192,185157,1,0,0:0:0:0:
320,192,185208,1,0,0:0:0:0:
192,192,185208,1,0,0:0:0:0:
448,192,185260,1,0,0:0:0:0:
192,192,185311,1,0,0:0:0:0:
64,192,185311,1,0,0:0:0:0:
320,192,185362,1,0,0:0:0:0:
192,192,185414,1,0,0:0:0:0:
448,192,185465,1,0,0:0:0:0:
64,192,185516,1,0,0:0:0:0:
192,192,185568,1,0,0:0:0:0:
448,192,185619,1,0,0:0:0:0:
320,192,185619,1,0,0:0:0:0:
64,192,185671,1,0,0:0:0:0:
320,192,185722,1,0,0:0:0:0:
192,192,185773,1,0,0:0:0:0:
64,192,185825,1,0,0:0:0:0:
448,192,185825,1,0,0:0:0:0:
192,192,185876,1,0,0:0:0:0:
448,192,185928,1,0,0:0:0:0:
64,192,185980,1,0,0:0:0:0:
320,192,186032,1,0,0:0:0:0:
64,192,186083,1,0,0:0:0:0:
448,192,186135,1,0,0:0:0:0:
320,192,186170,1,0,0:0:0:0:
192,192,186204,1,0,0:0:0:0:
64,192,186239,1,0,0:0:0:0:
448,192,186290,1,0,0:0:0:0:
192,192,186342,1,0,0:0:0:0:
320,192,186342,1,0,0:0:0:0:
64,192,186394,1,0,0:0:0:0:
448,192,186446,1,0,0:0:0:0:
320,192,186497,1,0,0:0:0:0:
192,192,186549,1,0,0:0:0:0:
64,192,186549,1,0,0:0:0:0:
64,192,186653,1,0,0:0:0:0:
448,192,186653,1,0,0:0:0:0:
320,192,186653,1,0,0:0:0:0:
448,192,186756,1,0,0:0:0:0:
192,192,186756,1,0,0:0:0:0:
192,192,186860,1,0,0:0:0:0:
64,192,186963,1,0,0:0:0:0:
192,192,186963,1,0,0:0:0:0:
448,192,187015,1,0,0:0:0:0:
64,192,187067,1,0,0:0:0:0:
320,192,187067,1,0,0:0:0:0:
320,192,187170,1,0,0:0:0:0:
448,192,187274,1,0,0:0:0:0:
320,192,187274,1,0,0:0:0:0:
64,192,187326,1,0,0:0:0:0:
448,192,187377,1,0,0:0:0:0:
192,192,187377,1,0,0:0:0:0:
64,192,187481,1,0,0:0:0:0:
320,192,187481,1,0,0:0:0:0:
192,192,187481,1,0,0:0:0:0:
448,192,187584,1,0,0:0:0:0:
192,192,187584,1,0,0:0:0:0:
320,192,187688,1,0,0:0:0:0:
64,192,187688,1,0,0:0:0:0:
320,192,187791,1,0,0:0:0:0:
192,192,187791,1,0,0:0:0:0:
448,192,187791,128,0,187998:0:0:0:0:
320,192,187895,1,0,0:0:0:0:
64,192,187895,1,0,0:0:0:0:
192,192,187998,1,0,0:0:0:0:
64,192,187998,1,0,0:0:0:0:
320,192,188050,1,0,0:0:0:0:
192,192,188102,1,0,0:0:0:0:
448,192,188102,1,0,0:0:0:0:
320,192,188154,1,0,0:0:0:0:
64,192,188205,1,0,0:0:0:0:
192,192,188257,1,0,0:0:0:0:
320,192,188309,1,0,0:0:0:0:
448,192,188309,1,0,0:0:0:0:
192,192,188361,1,0,0:0:0:0:
64,192,188412,1,0,0:0:0:0:
448,192,188464,1,0,0:0:0:0:
320,192,188516,1,0,0:0:0:0:
192,192,188516,1,0,0:0:0:0:
448,192,188568,1,0,0:0:0:0:
320,192,188620,1,0,0:0:0:0:
448,192,188671,1,0,0:0:0:0:
192,192,188723,1,0,0:0:0:0:
64,192,188723,1,0,0:0:0:0:
320,192,188775,1,0,0:0:0:0:
448,192,188827,1,0,0:0:0:0:
192,192,188827,1,0,0:0:0:0:
64,192,188878,1,0,0:0:0:0:
320,192,188930,1,0,0:0:0:0:
448,192,188930,1,0,0:0:0:0:
192,192,188982,1,0,0:0:0:0:
320,192,189034,1,0,0:0:0:0:
448,192,189085,1,0,0:0:0:0:
64,192,189137,1,0,0:0:0:0:
192,192,189137,1,0,0:0:0:0:
320,192,189189,1,0,0:0:0:0:
192,192,189241,1,0,0:0:0:0:
448,192,189241,1,0,0:0:0:0:
64,192,189293,1,0,0:0:0:0:
448,192,189345,1,0,0:0:0:0:
320,192,189345,1,0,0:0:0:0:
64,192,189397,1,0,0:0:0:0:
320,192,189450,1,0,0:0:0:0:
192,192,189450,1,0,0:0:0:0:
192,192,189554,1,0,0:0:0:0:
448,192,189658,1,0,0:0:0:0:
320,192,189658,1,0,0:0:0:0:
64,192,189710,1,0,0:0:0:0:
320,192,189763,1,0,0:0:0:0:
192,192,189763,1,0,0:0:0:0:
448,192,189815,1,0,0:0:0:0:
320,192,189867,1,0,0:0:0:0:
192,192,189919,1,0,0:0:0:0:
64,192,189971,1,0,0:0:0:0:
448,192,189971,1,0,0:0:0:0:
320,192,190023,1,0,0:0:0:0:
64,192,190076,1,0,0:0:0:0:
192,192,190128,1,0,0:0:0:0:
320,192,190180,1,0,0:0:0:0:
64,192,190180,1,0,0:0:0:0:
192,192,190232,1,0,0:0:0:0:
448,192,190284,1,0,0:0:0:0:
64,192,190337,1,0,0:0:0:0:
448,192,190389,1,0,0:0:0:0:
320,192,190441,1,0,0:0:0:0:
64,192,190493,1,0,0:0:0:0:
448,192,190493,1,0,0:0:0:0:
320,192,190545,1,0,0:0:0:0:
192,192,190597,1,0,0:0:0:0:
448,192,190650,1,0,0:0:0:0:
192,192,190702,1,0,0:0:0:0:
64,192,190754,1,0,0:0:0:0:
448,192,190806,1,0,0:0:0:0:
192,192,190806,1,0,0:0:0:0:
64,192,190858,1,0,0:0:0:0:
320,192,190910,1,0,0:0:0:0:
192,192,190963,1,0,0:0:0:0:
320,192,191015,1,0,0:0:0:0:
448,192,191067,1,0,0:0:0:0:
320,192,191119,1,0,0:0:0:0:
192,192,191119,1,0,0:0:0:0:
64,192,191119,1,0,0:0:0:0:
448,192,191171,1,0,0:0:0:0:
64,192,191223,1,0,0:0:0:0:
192,192,191328,1,0,0:0:0:0:
448,192,191328,1,0,0:0:0:0:
320,192,191432,1,0,0:0:0:0:
64,192,191432,1,0,0:0:0:0:
64,192,191537,1,0,0:0:0:0:
320,192,191537,1,0,0:0:0:0:
64,192,191641,1,0,0:0:0:0:
192,192,191641,1,0,0:0:0:0:
448,192,191641,1,0,0:0:0:0:
192,192,191744,1,0,0:0:0:0:
448,192,191744,1,0,0:0:0:0:
320,192,191848,1,0,0:0:0:0:
64,192,191848,1,0,0:0:0:0:
448,192,191951,1,0,0:0:0:0:
192,192,191951,1,0,0:0:0:0:
64,192,192055,1,0,0:0:0:0:
448,192,192055,1,0,0:0:0:0:
192,192,192055,1,0,0:0:0:0:
192,192,192158,1,0,0:0:0:0:
448,192,192158,1,0,0:0:0:0:
320,192,192262,1,0,0:0:0:0:
64,192,192262,1,0,0:0:0:0:
192,192,192365,1,0,0:0:0:0:
448,192,192365,1,0,0:0:0:0:
320,192,192470,1,0,0:0:0:0:
64,192,192470,1,0,0:0:0:0:
192,192,192470,1,0,0:0:0:0:
320,192,192571,1,0,0:0:0:0:
448,192,192571,1,0,0:0:0:0:
192,192,192673,1,0,0:0:0:0:
64,192,192673,1,0,0:0:0:0:
448,192,192775,1,0,0:0:0:0:
320,192,192775,1,0,0:0:0:0:
192,192,192775,1,0,0:0:0:0:
64,192,192877,1,0,0:0:0:0:
192,192,192922,1,0,0:0:0:0:
320,192,192967,1,0,0:0:0:0:
448,192,193013,1,0,0:0:0:0:
64,192,193047,1,0,0:0:0:0:
192,192,193081,1,0,0:0:0:0:
320,192,193115,1,0,0:0:0:0:
448,192,193149,1,0,0:0:0:0:
64,192,193183,1,0,0:0:0:0:
192,192,193217,1,0,0:0:0:0:
64,192,193285,1,0,0:0:0:0:
448,192,193285,1,0,0:0:0:0:
320,192,193285,1,0,0:0:0:0:
448,192,193387,1,0,0:0:0:0:
320,192,193489,1,0,0:0:0:0:
64,192,193489,1,0,0:0:0:0:
192,192,193489,1,0,0:0:0:0:
64,192,193590,1,0,0:0:0:0:
320,192,193590,1,0,0:0:0:0:
448,192,193692,1,0,0:0:0:0:
192,192,193692,1,0,0:0:0:0:
320,192,193794,1,0,0:0:0:0:
64,192,193794,1,0,0:0:0:0:
64,192,193896,1,0,0:0:0:0:
320,192,193896,1,0,0:0:0:0:
448,192,193998,1,0,0:0:0:0:
192,192,193998,1,0,0:0:0:0:
448,192,194100,1,0,0:0:0:0:
192,192,194100,1,0,0:0:0:0:
448,192,194204,1,0,0:0:0:0:
192,192,194204,1,0,0:0:0:0:
64,192,194308,1,0,0:0:0:0:
320,192,194308,1,0,0:0:0:0:
320,192,194413,1,0,0:0:0:0:
448,192,194413,1,0,0:0:0:0:
192,192,194413,1,0,0:0:0:0:
192,192,194517,1,0,0:0:0:0:
64,192,194621,1,0,0:0:0:0:
448,192,194621,1,0,0:0:0:0:
320,192,194621,1,0,0:0:0:0:
448,192,194726,1,0,0:0:0:0:
192,192,194726,1,0,0:0:0:0:
448,192,194830,1,0,0:0:0:0:
192,192,194830,1,0,0:0:0:0:
320,192,194934,1,0,0:0:0:0:
64,192,194934,1,0,0:0:0:0:
192,192,194934,1,0,0:0:0:0:
320,192,195039,1,0,0:0:0:0:
64,192,195039,1,0,0:0:0:0:
448,192,195143,1,0,0:0:0:0:
192,192,195143,1,0,0:0:0:0:
448,192,195247,1,0,0:0:0:0:
192,192,195247,1,0,0:0:0:0:
192,192,195352,1,0,0:0:0:0:
64,192,195352,1,0,0:0:0:0:
64,192,195456,1,0,0:0:0:0:
448,192,195456,1,0,0:0:0:0:
320,192,195456,1,0,0:0:0:0:
448,192,195560,1,0,0:0:0:0:
192,192,195560,1,0,0:0:0:0:
448,192,195665,1,0,0:0:0:0:
192,192,195665,1,0,0:0:0:0:
320,192,195770,1,0,0:0:0:0:
64,192,195770,1,0,0:0:0:0:
192,192,195770,1,0,0:0:0:0:
64,192,195873,1,0,0:0:0:0:
320,192,195873,1,0,0:0:0:0:
448,192,195977,1,0,0:0:0:0:
192,192,195977,1,0,0:0:0:0:
192,192,196080,1,0,0:0:0:0:
448,192,196080,1,0,0:0:0:0:
192,192,196184,1,0,0:0:0:0:
64,192,196184,1,0,0:0:0:0:
448,192,196287,1,0,0:0:0:0:
320,192,196287,1,0,0:0:0:0:
64,192,196287,1,0,0:0:0:0:
448,192,196391,1,0,0:0:0:0:
192,192,196391,1,0,0:0:0:0:
448,192,196494,1,0,0:0:0:0:
192,192,196494,1,0,0:0:0:0:
320,192,196598,1,0,0:0:0:0:
64,192,196598,1,0,0:0:0:0:
192,192,196598,1,0,0:0:0:0:
64,192,196701,1,0,0:0:0:0:
320,192,196701,1,0,0:0:0:0:
448,192,196805,1,0,0:0:0:0:
192,192,196805,1,0,0:0:0:0:
192,192,196908,1,0,0:0:0:0:
448,192,196908,1,0,0:0:0:0:
64,192,197012,1,0,0:0:0:0:
192,192,197012,1,0,0:0:0:0:
64,192,197115,1,0,0:0:0:0:
448,192,197115,1,0,0:0:0:0:
320,192,197115,1,0,0:0:0:0:
448,192,197219,1,0,0:0:0:0:
192,192,197219,1,0,0:0:0:0:
192,192,197322,1,0,0:0:0:0:
448,192,197322,1,0,0:0:0:0:
320,192,197426,1,0,0:0:0:0:
64,192,197426,1,0,0:0:0:0:
192,192,197426,1,0,0:0:0:0:
320,192,197529,1,0,0:0:0:0:
64,192,197529,1,0,0:0:0:0:
448,192,197633,1,0,0:0:0:0:
192,192,197633,1,0,0:0:0:0:
448,192,197736,1,0,0:0:0:0:
192,192,197736,1,0,0:0:0:0:
64,192,197840,1,0,0:0:0:0:
192,192,197840,1,0,0:0:0:0:
64,192,197943,1,0,0:0:0:0:
448,192,197943,1,0,0:0:0:0:
320,192,197943,1,0,0:0:0:0:
448,192,198047,1,0,0:0:0:0:
192,192,198047,1,0,0:0:0:0:
448,192,198150,1,0,0:0:0:0:
192,192,198150,1,0,0:0:0:0:
320,192,198254,1,0,0:0:0:0:
64,192,198254,1,0,0:0:0:0:
192,192,198254,1,0,0:0:0:0:
320,192,198357,1,0,0:0:0:0:
64,192,198357,1,0,0:0:0:0:
448,192,198461,1,0,0:0:0:0:
192,192,198461,1,0,0:0:0:0:
192,192,198565,1,0,0:0:0:0:
448,192,198565,1,0,0:0:0:0:
64,192,198668,1,0,0:0:0:0:
192,192,198668,1,0,0:0:0:0:
320,192,198668,1,0,0:0:0:0:
64,192,198772,1,0,0:0:0:0:
320,192,198772,1,0,0:0:0:0:
192,192,198875,1,0,0:0:0:0:
320,192,198875,1,0,0:0:0:0:
64,192,198979,1,0,0:0:0:0:
192,192,198979,1,0,0:0:0:0:
64,192,199082,1,0,0:0:0:0:
320,192,199082,1,0,0:0:0:0:
448,192,199082,1,0,0:0:0:0:
64,192,199186,1,0,0:0:0:0:
448,192,199186,1,0,0:0:0:0:
192,192,199290,1,0,0:0:0:0:
320,192,199290,1,0,0:0:0:0:
192,192,199395,1,0,0:0:0:0:
320,192,199395,1,0,0:0:0:0:
448,192,199395,1,0,0:0:0:0:
64,192,199499,1,0,0:0:0:0:
192,192,199603,1,0,0:0:0:0:
320,192,199603,1,0,0:0:0:0:
448,192,199603,1,0,0:0:0:0:
448,192,199708,1,0,0:0:0:0:
64,192,199708,1,0,0:0:0:0:
320,192,199812,1,0,0:0:0:0:
192,192,199812,1,0,0:0:0:0:
192,192,199916,128,0,200021:0:0:0:0:
64,192,199916,128,0,200021:0:0:0:0:
448,192,199916,1,0,0:0:0:0:
448,192,200021,1,0,0:0:0:0:
192,192,200125,128,0,200229:0:0:0:0:
64,192,200125,128,0,200229:0:0:0:0:
448,192,200125,1,0,0:0:0:0:
448,192,200229,1,0,0:0:0:0:
448,192,200334,1,0,0:0:0:0:
64,192,200334,1,0,0:0:0:0:
192,192,200334,1,0,0:0:0:0:
192,192,200427,1,0,0:0:0:0:
64,192,200427,1,0,0:0:0:0:
448,192,200520,1,0,0:0:0:0:
320,192,200520,1,0,0:0:0:0:
192,192,200520,1,0,0:0:0:0:
64,192,200647,1,0,0:0:0:0:
320,192,200647,1,0,0:0:0:0:
320,192,200752,1,0,0:0:0:0:
448,192,200752,1,0,0:0:0:0:
192,192,200752,1,0,0:0:0:0:
192,192,200854,1,0,0:0:0:0:
64,192,200854,1,0,0:0:0:0:
320,192,200957,1,0,0:0:0:0:
448,192,200957,1,0,0:0:0:0:
320,192,201060,128,0,201162:0:0:0:0:
448,192,201060,128,0,201162:0:0:0:0:
64,192,201060,128,0,201162:0:0:0:0:
192,192,201060,128,0,201162:0:0:0:0:
64,192,201265,1,0,0:0:0:0:
448,192,201265,1,0,0:0:0:0:
192,192,201316,1,0,0:0:0:0:
320,192,201368,1,0,0:0:0:0:
192,192,201419,1,0,0:0:0:0:
64,192,201470,1,0,0:0:0:0:
192,192,201522,1,0,0:0:0:0:
448,192,201573,1,0,0:0:0:0:
320,192,201573,1,0,0:0:0:0:
64,192,201624,1,0,0:0:0:0:
448,192,201676,1,0,0:0:0:0:
320,192,201676,1,0,0:0:0:0:
192,192,201727,1,0,0:0:0:0:
448,192,201779,1,0,0:0:0:0:
64,192,201813,1,0,0:0:0:0:
192,192,201847,1,0,0:0:0:0:
320,192,201881,1,0,0:0:0:0:
448,192,201915,1,0,0:0:0:0:
64,192,201984,1,0,0:0:0:0:
192,192,201984,1,0,0:0:0:0:
320,192,202035,1,0,0:0:0:0:
64,192,202087,1,0,0:0:0:0:
192,192,202087,1,0,0:0:0:0:
320,192,202138,1,0,0:0:0:0:
64,192,202189,1,0,0:0:0:0:
448,192,202224,1,0,0:0:0:0:
320,192,202258,1,0,0:0:0:0:
192,192,202292,1,0,0:0:0:0:
64,192,202326,1,0,0:0:0:0:
320,192,202395,1,0,0:0:0:0:
448,192,202395,1,0,0:0:0:0:
192,192,202440,1,0,0:0:0:0:
448,192,202486,1,0,0:0:0:0:
64,192,202532,1,0,0:0:0:0:
192,192,202566,1,0,0:0:0:0:
320,192,202600,1,0,0:0:0:0:
64,192,202634,1,0,0:0:0:0:
448,192,202669,1,0,0:0:0:0:
320,192,202703,1,0,0:0:0:0:
192,192,202737,1,0,0:0:0:0:
64,192,202771,1,0,0:0:0:0:
448,192,202806,1,0,0:0:0:0:
320,192,202806,1,0,0:0:0:0:
192,192,202857,1,0,0:0:0:0:
448,192,202908,1,0,0:0:0:0:
64,192,202943,1,0,0:0:0:0:
320,192,202977,1,0,0:0:0:0:
192,192,203011,1,0,0:0:0:0:
448,192,203079,1,0,0:0:0:0:
64,192,203114,1,0,0:0:0:0:
192,192,203148,1,0,0:0:0:0:
320,192,203182,1,0,0:0:0:0:
64,192,203216,1,0,0:0:0:0:
448,192,203216,1,0,0:0:0:0:
320,192,203268,1,0,0:0:0:0:
192,192,203319,1,0,0:0:0:0:
448,192,203353,1,0,0:0:0:0:
64,192,203388,1,0,0:0:0:0:
320,192,203422,1,0,0:0:0:0:
192,192,203447,1,0,0:0:0:0:
448,192,203490,1,0,0:0:0:0:
64,192,203525,1,0,0:0:0:0:
192,192,203559,1,0,0:0:0:0:
448,192,203627,1,0,0:0:0:0:
320,192,203627,1,0,0:0:0:0:
192,192,203679,1,0,0:0:0:0:
448,192,203730,1,0,0:0:0:0:
64,192,203764,1,0,0:0:0:0:
192,192,203798,1,0,0:0:0:0:
320,192,203833,1,0,0:0:0:0:
448,192,203867,1,0,0:0:0:0:
64,192,203901,1,0,0:0:0:0:
320,192,203970,1,0,0:0:0:0:
64,192,204038,1,0,0:0:0:0:
192,192,204038,1,0,0:0:0:0:
448,192,204091,1,0,0:0:0:0:
192,192,204143,1,0,0:0:0:0:
320,192,204178,1,0,0:0:0:0:
64,192,204212,1,0,0:0:0:0:
448,192,204282,1,0,0:0:0:0:
320,192,204317,1,0,0:0:0:0:
64,192,204352,1,0,0:0:0:0:
192,192,204352,1,0,0:0:0:0:
320,192,204456,1,0,0:0:0:0:
64,192,204560,1,0,0:0:0:0:
448,192,204560,1,0,0:0:0:0:
192,192,204612,1,0,0:0:0:0:
448,192,204665,1,0,0:0:0:0:
64,192,204665,1,0,0:0:0:0:
320,192,204717,1,0,0:0:0:0:
192,192,204769,1,0,0:0:0:0:
448,192,204769,1,0,0:0:0:0:
320,192,204821,1,0,0:0:0:0:
64,192,204873,1,0,0:0:0:0:
192,192,204873,1,0,0:0:0:0:
448,192,204924,1,0,0:0:0:0:
64,192,204975,1,0,0:0:0:0:
320,192,205078,1,0,0:0:0:0:
448,192,205078,1,0,0:0:0:0:
64,192,205129,1,0,0:0:0:0:
192,192,205181,1,0,0:0:0:0:
448,192,205232,1,0,0:0:0:0:
192,192,205283,1,0,0:0:0:0:
320,192,205283,1,0,0:0:0:0:
64,192,205335,1,0,0:0:0:0:
320,192,205386,1,0,0:0:0:0:
192,192,205489,1,0,0:0:0:0:
448,192,205489,1,0,0:0:0:0:
64,192,205489,1,0,0:0:0:0:
320,192,205591,1,0,0:0:0:0:
64,192,205591,1,0,0:0:0:0:
192,192,205617,1,0,0:0:0:0:
64,192,205694,1,0,0:0:0:0:
448,192,205694,1,0,0:0:0:0:
320,192,205694,1,0,0:0:0:0:
192,192,205797,1,0,0:0:0:0:
448,192,205797,1,0,0:0:0:0:
320,192,205823,1,0,0:0:0:0:
192,192,205900,1,0,0:0:0:0:
448,192,206002,128,0,206105:0:0:0:0:
320,192,206002,128,0,206105:0:0:0:0:
64,192,206002,1,0,0:0:0:0:
192,192,206105,1,0,0:0:0:0:
64,192,206208,1,0,0:0:0:0:
448,192,206208,1,0,0:0:0:0:
320,192,206310,1,0,0:0:0:0:
192,192,206310,1,0,0:0:0:0:
192,192,206413,1,0,0:0:0:0:
320,192,206413,1,0,0:0:0:0:
448,192,206516,1,0,0:0:0:0:
64,192,206516,1,0,0:0:0:0:
192,192,206516,1,0,0:0:0:0:
64,192,206618,1,0,0:0:0:0:
448,192,206618,1,0,0:0:0:0:
320,192,206721,1,0,0:0:0:0:
448,192,206721,1,0,0:0:0:0:
320,192,206824,1,0,0:0:0:0:
192,192,206824,1,0,0:0:0:0:
192,192,206927,1,0,0:0:0:0:
64,192,206927,1,0,0:0:0:0:
192,192,207029,1,0,0:0:0:0:
64,192,207029,1,0,0:0:0:0:
192,192,207132,1,0,0:0:0:0:
448,192,207132,1,0,0:0:0:0:
320,192,207132,1,0,0:0:0:0:
448,192,207235,1,0,0:0:0:0:
320,192,207235,1,0,0:0:0:0:
64,192,207338,1,0,0:0:0:0:
448,192,207338,1,0,0:0:0:0:
320,192,207338,1,0,0:0:0:0:
192,192,207338,1,0,0:0:0:0:
320,192,207441,1,0,0:0:0:0:
448,192,207545,1,0,0:0:0:0:
64,192,207545,1,0,0:0:0:0:
192,192,207545,1,0,0:0:0:0:
64,192,207648,1,0,0:0:0:0:
320,192,207648,1,0,0:0:0:0:
192,192,207648,1,0,0:0:0:0:
448,192,207700,1,0,0:0:0:0:
320,192,207752,1,0,0:0:0:0:
192,192,207803,1,0,0:0:0:0:
448,192,207855,1,0,0:0:0:0:
64,192,207907,1,0,0:0:0:0:
320,192,207959,1,0,0:0:0:0:
192,192,207959,1,0,0:0:0:0:
192,192,208062,1,0,0:0:0:0:
64,192,208062,1,0,0:0:0:0:
64,192,208166,1,0,0:0:0:0:
320,192,208166,1,0,0:0:0:0:
448,192,208166,1,0,0:0:0:0:
192,192,208269,1,0,0:0:0:0:
320,192,208269,1,0,0:0:0:0:
448,192,208321,1,0,0:0:0:0:
320,192,208373,1,0,0:0:0:0:
192,192,208424,1,0,0:0:0:0:
64,192,208476,1,0,0:0:0:0:
448,192,208528,1,0,0:0:0:0:
64,192,208580,1,0,0:0:0:0:
448,192,208631,1,0,0:0:0:0:
64,192,208683,1,0,0:0:0:0:
448,192,208735,1,0,0:0:0:0:
64,192,208787,1,0,0:0:0:0:
448,192,208839,1,0,0:0:0:0:
64,192,208890,1,0,0:0:0:0:
192,192,208942,1,0,0:0:0:0:
448,192,208994,1,0,0:0:0:0:
320,192,208994,1,0,0:0:0:0:
64,192,209098,1,0,0:0:0:0:
320,192,209098,1,0,0:0:0:0:
192,192,209202,1,0,0:0:0:0:
64,192,209307,1,0,0:0:0:0:
448,192,209307,1,0,0:0:0:0:
320,192,209359,1,0,0:0:0:0:
192,192,209411,1,0,0:0:0:0:
448,192,209463,1,0,0:0:0:0:
64,192,209515,1,0,0:0:0:0:
192,192,209515,1,0,0:0:0:0:
448,192,209567,1,0,0:0:0:0:
64,192,209620,1,0,0:0:0:0:
320,192,209620,1,0,0:0:0:0:
320,192,209724,1,0,0:0:0:0:
448,192,209828,1,0,0:0:0:0:
192,192,209828,1,0,0:0:0:0:
64,192,209828,1,0,0:0:0:0:
320,192,209933,1,0,0:0:0:0:
192,192,210037,1,0,0:0:0:0:
64,192,210037,1,0,0:0:0:0:
448,192,210037,1,0,0:0:0:0:
448,192,210141,1,0,0:0:0:0:
320,192,210141,1,0,0:0:0:0:
192,192,210141,1,0,0:0:0:0:
64,192,210246,1,0,0:0:0:0:
320,192,210246,1,0,0:0:0:0:
64,192,210350,1,0,0:0:0:0:
192,192,210350,1,0,0:0:0:0:
448,192,210350,1,0,0:0:0:0:
192,192,210454,1,0,0:0:0:0:
320,192,210454,1,0,0:0:0:0:
320,192,210559,1,0,0:0:0:0:
64,192,210663,1,0,0:0:0:0:
192,192,210663,1,0,0:0:0:0:
448,192,210663,1,0,0:0:0:0:
192,192,210767,1,0,0:0:0:0:
448,192,210767,1,0,0:0:0:0:
448,192,210872,1,0,0:0:0:0:
320,192,210872,1,0,0:0:0:0:
448,192,210976,1,0,0:0:0:0:
320,192,210976,1,0,0:0:0:0:
192,192,211081,1,0,0:0:0:0:
64,192,211081,1,0,0:0:0:0:
448,192,211081,1,0,0:0:0:0:
320,192,211183,1,0,0:0:0:0:
64,192,211183,1,0,0:0:0:0:
192,192,211286,1,0,0:0:0:0:
64,192,211286,1,0,0:0:0:0:
64,192,211389,1,0,0:0:0:0:
192,192,211389,1,0,0:0:0:0:
64,192,211491,1,0,0:0:0:0:
192,192,211491,1,0,0:0:0:0:
192,192,211594,1,0,0:0:0:0:
64,192,211594,1,0,0:0:0:0:
320,192,211697,1,0,0:0:0:0:
64,192,211697,1,0,0:0:0:0:
448,192,211697,1,0,0:0:0:0:
192,192,211799,1,0,0:0:0:0:
448,192,211799,1,0,0:0:0:0:
448,192,211902,1,0,0:0:0:0:
320,192,211902,1,0,0:0:0:0:
192,192,212005,1,0,0:0:0:0:
64,192,212005,1,0,0:0:0:0:
448,192,212005,1,0,0:0:0:0:
320,192,212108,1,0,0:0:0:0:
64,192,212108,1,0,0:0:0:0:
192,192,212210,1,0,0:0:0:0:
64,192,212210,1,0,0:0:0:0:
320,192,212314,1,0,0:0:0:0:
448,192,212314,1,0,0:0:0:0:
64,192,212314,1,0,0:0:0:0:
192,192,212417,1,0,0:0:0:0:
448,192,212417,1,0,0:0:0:0:
448,192,212521,1,0,0:0:0:0:
320,192,212521,1,0,0:0:0:0:
320,192,212624,1,0,0:0:0:0:
64,192,212624,1,0,0:0:0:0:
192,192,212624,1,0,0:0:0:0:
192,192,212728,1,0,0:0:0:0:
64,192,212831,1,0,0:0:0:0:
448,192,212831,1,0,0:0:0:0:
320,192,212831,1,0,0:0:0:0:
192,192,212935,1,0,0:0:0:0:
448,192,212935,1,0,0:0:0:0:
320,192,213038,1,0,0:0:0:0:
64,192,213142,1,0,0:0:0:0:
448,192,213142,1,0,0:0:0:0:
320,192,213142,1,0,0:0:0:0:
192,192,213142,1,0,0:0:0:0:
192,192,213245,1,0,0:0:0:0:
320,192,213349,1,0,0:0:0:0:
64,192,213349,1,0,0:0:0:0:
448,192,213349,1,0,0:0:0:0:
448,192,213452,1,0,0:0:0:0:
192,192,213452,1,0,0:0:0:0:
64,192,213452,1,0,0:0:0:0:
320,192,213556,1,0,0:0:0:0:
448,192,213659,128,0,213866:0:0:0:0:
64,192,213659,1,0,0:0:0:0:
192,192,213659,1,0,0:0:0:0:
64,192,213763,1,0,0:0:0:0:
192,192,213763,1,0,0:0:0:0:
64,192,213866,1,0,0:0:0:0:
192,192,213866,1,0,0:0:0:0:
320,192,213970,1,0,0:0:0:0:
448,192,213970,1,0,0:0:0:0:
192,192,213970,1,0,0:0:0:0:
64,192,213970,1,0,0:0:0:0:
320,192,214073,1,0,0:0:0:0:
192,192,214177,1,0,0:0:0:0:
320,192,214177,1,0,0:0:0:0:
64,192,214280,128,0,214487:0:0:0:0:
448,192,214280,1,0,0:0:0:0:
192,192,214280,1,0,0:0:0:0:
320,192,214384,1,0,0:0:0:0:
320,192,214487,1,0,0:0:0:0:
448,192,214487,1,0,0:0:0:0:
192,192,214539,1,0,0:0:0:0:
64,192,214591,1,0,0:0:0:0:
448,192,214591,1,0,0:0:0:0:
192,192,214643,1,0,0:0:0:0:
320,192,214694,1,0,0:0:0:0:
448,192,214746,1,0,0:0:0:0:
64,192,214798,1,0,0:0:0:0:
192,192,214798,1,0,0:0:0:0:
320,192,214867,1,0,0:0:0:0:
192,192,214901,1,0,0:0:0:0:
64,192,214936,1,0,0:0:0:0:
448,192,215005,1,0,0:0:0:0:
192,192,215040,1,0,0:0:0:0:
448,192,215109,1,0,0:0:0:0:
320,192,215160,1,0,0:0:0:0:
64,192,215213,1,0,0:0:0:0:
192,192,215213,1,0,0:0:0:0:
448,192,215278,1,0,0:0:0:0:
192,192,215311,1,0,0:0:0:0:
320,192,215344,1,0,0:0:0:0:
448,192,215377,1,0,0:0:0:0:
64,192,215410,1,0,0:0:0:0:
320,192,215476,1,0,0:0:0:0:
64,192,215509,1,0,0:0:0:0:
192,192,215542,1,0,0:0:0:0:
448,192,215607,1,0,0:0:0:0:
320,192,215607,1,0,0:0:0:0:
64,192,215676,1,0,0:0:0:0:
320,192,215710,1,0,0:0:0:0:
192,192,215710,1,0,0:0:0:0:
192,192,215814,1,0,0:0:0:0:
64,192,215917,1,0,0:0:0:0:
448,192,215917,1,0,0:0:0:0:
64,192,216021,1,0,0:0:0:0:
448,192,216021,1,0,0:0:0:0:
64,192,216124,1,0,0:0:0:0:
448,192,216124,1,0,0:0:0:0:
320,192,216176,1,0,0:0:0:0:
192,192,216228,1,0,0:0:0:0:
320,192,216279,1,0,0:0:0:0:
64,192,216331,1,0,0:0:0:0:
448,192,216331,1,0,0:0:0:0:
448,192,216435,1,0,0:0:0:0:
64,192,216435,1,0,0:0:0:0:
448,192,216538,1,0,0:0:0:0:
64,192,216538,1,0,0:0:0:0:
192,192,216590,1,0,0:0:0:0:
320,192,216642,1,0,0:0:0:0:
192,192,216693,1,0,0:0:0:0:
448,192,216745,1,0,0:0:0:0:
64,192,216745,1,0,0:0:0:0:
64,192,216849,1,0,0:0:0:0:
448,192,216849,1,0,0:0:0:0:
64,192,216952,1,0,0:0:0:0:
448,192,216952,1,0,0:0:0:0:
320,192,217004,1,0,0:0:0:0:
192,192,217056,1,0,0:0:0:0:
320,192,217108,1,0,0:0:0:0:
64,192,217159,1,0,0:0:0:0:
448,192,217159,1,0,0:0:0:0:
192,192,217263,1,0,0:0:0:0:
320,192,217263,1,0,0:0:0:0:
64,192,217263,1,0,0:0:0:0:
192,192,217366,1,0,0:0:0:0:
448,192,217366,1,0,0:0:0:0:
64,192,217470,1,0,0:0:0:0:
448,192,217573,128,0,217780:0:0:0:0:
320,192,217573,1,0,0:0:0:0:
192,192,217573,1,0,0:0:0:0:
192,192,217677,1,0,0:0:0:0:
320,192,217780,1,0,0:0:0:0:
64,192,217780,1,0,0:0:0:0:
320,192,217884,1,0,0:0:0:0:
64,192,217884,1,0,0:0:0:0:
64,192,217987,1,0,0:0:0:0:
192,192,217987,1,0,0:0:0:0:
192,192,218091,1,0,0:0:0:0:
320,192,218091,1,0,0:0:0:0:
448,192,218091,1,0,0:0:0:0:
448,192,218194,1,0,0:0:0:0:
64,192,218298,1,0,0:0:0:0:
192,192,218298,1,0,0:0:0:0:
320,192,218298,1,0,0:0:0:0:
64,192,218402,1,0,0:0:0:0:
448,192,218505,1,0,0:0:0:0:
320,192,218505,1,0,0:0:0:0:
192,192,218505,1,0,0:0:0:0:
448,192,218609,1,0,0:0:0:0:
320,192,218609,1,0,0:0:0:0:
192,192,218609,1,0,0:0:0:0:
64,192,218712,1,0,0:0:0:0:
192,192,218712,1,0,0:0:0:0:
448,192,218816,1,0,0:0:0:0:
320,192,218816,1,0,0:0:0:0:
192,192,218816,1,0,0:0:0:0:
64,192,218919,1,0,0:0:0:0:
448,192,218919,1,0,0:0:0:0:
320,192,218919,1,0,0:0:0:0:
192,192,219023,1,0,0:0:0:0:
64,192,219126,1,0,0:0:0:0:
448,192,219126,1,0,0:0:0:0:
320,192,219126,1,0,0:0:0:0:
192,192,219230,128,0,219333:0:0:0:0:
64,192,219230,128,0,219437:0:0:0:0:
448,192,219230,1,0,0:0:0:0:
320,192,219333,1,0,0:0:0:0:
448,192,219437,1,0,0:0:0:0:
192,192,219437,1,0,0:0:0:0:
192,192,219540,1,0,0:0:0:0:
64,192,219540,1,0,0:0:0:0:
320,192,219540,1,0,0:0:0:0:
320,192,219644,1,0,0:0:0:0:
64,192,219644,1,0,0:0:0:0:
320,192,219747,1,0,0:0:0:0:
448,192,219747,1,0,0:0:0:0:
192,192,219747,1,0,0:0:0:0:
192,192,219851,5,0,0:0:0:0:
448,192,219851,1,0,0:0:0:0:
192,192,219954,1,0,0:0:0:0:
64,192,219954,1,0,0:0:0:0:
320,192,219954,1,0,0:0:0:0:
320,192,220058,1,0,0:0:0:0:
64,192,220058,1,0,0:0:0:0:
320,192,220161,1,0,0:0:0:0:
448,192,220161,1,0,0:0:0:0:
192,192,220161,1,0,0:0:0:0:
192,192,220265,1,0,0:0:0:0:
448,192,220265,1,0,0:0:0:0:
192,192,220368,1,0,0:0:0:0:
64,192,220368,1,0,0:0:0:0:
320,192,220368,1,0,0:0:0:0:
320,192,220472,1,0,0:0:0:0:
64,192,220472,1,0,0:0:0:0:
320,192,220575,1,0,0:0:0:0:
448,192,220575,1,0,0:0:0:0:
192,192,220575,1,0,0:0:0:0:
192,192,220679,1,0,0:0:0:0:
64,192,220679,1,0,0:0:0:0:
448,192,220679,1,0,0:0:0:0:
320,192,220782,1,0,0:0:0:0:
448,192,220886,5,0,0:0:0:0:
192,192,220886,1,0,0:0:0:0:
64,192,220938,1,0,0:0:0:0:
192,192,220990,1,0,0:0:0:0:
320,192,221041,1,0,0:0:0:0:
448,192,221093,1,0,0:0:0:0:
192,192,221145,1,0,0:0:0:0:
448,192,221197,1,0,0:0:0:0:
192,192,221248,1,0,0:0:0:0:
448,192,221300,1,0,0:0:0:0:
192,192,221352,1,0,0:0:0:0:
320,192,221405,1,0,0:0:0:0:
448,192,221405,1,0,0:0:0:0:
64,192,221457,1,0,0:0:0:0:
448,192,221509,1,0,0:0:0:0:
64,192,221561,1,0,0:0:0:0:
448,192,221613,1,0,0:0:0:0:
64,192,221665,1,0,0:0:0:0:
448,192,221718,1,0,0:0:0:0:
320,192,221770,1,0,0:0:0:0:
192,192,221822,1,0,0:0:0:0:
64,192,221874,1,0,0:0:0:0:
320,192,221926,1,0,0:0:0:0:
64,192,221978,1,0,0:0:0:0:
320,192,222031,1,0,0:0:0:0:
64,192,222083,1,0,0:0:0:0:
192,192,222135,1,0,0:0:0:0:
320,192,222187,1,0,0:0:0:0:
64,192,222239,1,0,0:0:0:0:
448,192,222239,1,0,0:0:0:0:
192,192,222291,1,0,0:0:0:0:
448,192,222344,1,0,0:0:0:0:
192,192,222396,1,0,0:0:0:0:
448,192,222448,1,0,0:0:0:0:
192,192,222500,1,0,0:0:0:0:
64,192,222552,1,0,0:0:0:0:
320,192,222552,1,0,0:0:0:0:
448,192,222605,1,0,0:0:0:0:
320,192,222657,1,0,0:0:0:0:
192,192,222709,1,0,0:0:0:0:
64,192,222761,1,0,0:0:0:0:
320,192,222813,1,0,0:0:0:0:
64,192,222865,1,0,0:0:0:0:
320,192,222918,1,0,0:0:0:0:
64,192,222970,1,0,0:0:0:0:
320,192,223022,1,0,0:0:0:0:
192,192,223074,1,0,0:0:0:0:
64,192,223074,1,0,0:0:0:0:
448,192,223126,1,0,0:0:0:0:
64,192,223178,1,0,0:0:0:0:
448,192,223231,1,0,0:0:0:0:
64,192,223283,1,0,0:0:0:0:
448,192,223335,1,0,0:0:0:0:
64,192,223387,1,0,0:0:0:0:
192,192,223439,1,0,0:0:0:0:
320,192,223491,1,0,0:0:0:0:
448,192,223544,1,0,0:0:0:0:
192,192,223596,1,0,0:0:0:0:
448,192,223648,1,0,0:0:0:0:
192,192,223700,1,0,0:0:0:0:
448,192,223752,1,0,0:0:0:0:
320,192,223805,1,0,0:0:0:0:
192,192,223857,1,0,0:0:0:0:
448,192,223909,1,0,0:0:0:0:
64,192,223909,1,0,0:0:0:0:
320,192,223961,1,0,0:0:0:0:
64,192,224013,1,0,0:0:0:0:
320,192,224065,1,0,0:0:0:0:
64,192,224118,1,0,0:0:0:0:
320,192,224170,1,0,0:0:0:0:
448,192,224222,1,0,0:0:0:0:
192,192,224222,1,0,0:0:0:0:
64,192,224274,1,0,0:0:0:0:
192,192,224326,1,0,0:0:0:0:
320,192,224378,1,0,0:0:0:0:
448,192,224431,1,0,0:0:0:0:
64,192,224483,1,0,0:0:0:0:
448,192,224535,1,0,0:0:0:0:
64,192,224587,1,0,0:0:0:0:
448,192,224639,1,0,0:0:0:0:
64,192,224691,1,0,0:0:0:0:
320,192,224744,1,0,0:0:0:0:
448,192,224744,1,0,0:0:0:0:
192,192,224796,1,0,0:0:0:0:
448,192,224848,1,0,0:0:0:0:
192,192,224900,1,0,0:0:0:0:
448,192,224952,1,0,0:0:0:0:
192,192,225005,1,0,0:0:0:0:
448,192,225057,1,0,0:0:0:0:
320,192,225109,1,0,0:0:0:0:
192,192,225161,1,0,0:0:0:0:
64,192,225213,1,0,0:0:0:0:
320,192,225265,1,0,0:0:0:0:
64,192,225318,1,0,0:0:0:0:
320,192,225370,1,0,0:0:0:0:
64,192,225422,1,0,0:0:0:0:
192,192,225474,1,0,0:0:0:0:
320,192,225526,1,0,0:0:0:0:
192,192,225578,1,0,0:0:0:0:
448,192,225578,1,0,0:0:0:0:
64,192,225631,1,0,0:0:0:0:
448,192,225683,1,0,0:0:0:0:
64,192,225735,1,0,0:0:0:0:
448,192,225787,1,0,0:0:0:0:
64,192,225839,1,0,0:0:0:0:
320,192,225891,1,0,0:0:0:0:
192,192,225891,1,0,0:0:0:0:
448,192,225944,1,0,0:0:0:0:
320,192,225996,1,0,0:0:0:0:
192,192,226048,1,0,0:0:0:0:
64,192,226100,1,0,0:0:0:0:
448,192,226152,1,0,0:0:0:0:
192,192,226205,1,0,0:0:0:0:
320,192,226257,1,0,0:0:0:0:
448,192,226309,1,0,0:0:0:0:
64,192,226361,1,0,0:0:0:0:
448,192,226413,1,0,0:0:0:0:
320,192,226413,1,0,0:0:0:0:
192,192,226465,1,0,0:0:0:0:
64,192,226518,1,0,0:0:0:0:
448,192,226570,1,0,0:0:0:0:
320,192,226622,1,0,0:0:0:0:
64,192,226674,1,0,0:0:0:0:
192,192,226726,1,0,0:0:0:0:
448,192,226778,1,0,0:0:0:0:
64,192,226831,1,0,0:0:0:0:
320,192,226877,1,0,0:0:0:0:
192,192,226923,1,0,0:0:0:0:
448,192,226970,1,0,0:0:0:0:
320,192,227016,1,0,0:0:0:0:
64,192,227062,1,0,0:0:0:0:
448,192,227109,1,0,0:0:0:0:
192,192,227155,1,0,0:0:0:0:
320,192,227201,1,0,0:0:0:0:
64,192,227248,1,0,0:0:0:0:
192,192,227293,1,0,0:0:0:0:
320,192,227340,1,0,0:0:0:0:
448,192,227386,1,0,0:0:0:0:
64,192,227420,1,0,0:0:0:0:
192,192,227455,1,0,0:0:0:0:
320,192,227489,1,0,0:0:0:0:
448,192,227524,1,0,0:0:0:0:
192,192,227558,1,0,0:0:0:0:
64,192,227558,1,0,0:0:0:0:
320,192,227610,1,0,0:0:0:0:
448,192,227662,1,0,0:0:0:0:
64,192,227713,1,0,0:0:0:0:
320,192,227765,1,0,0:0:0:0:
192,192,227817,1,0,0:0:0:0:
64,192,227869,1,0,0:0:0:0:
448,192,227920,1,0,0:0:0:0:
192,192,227972,1,0,0:0:0:0:
320,192,228024,1,0,0:0:0:0:
64,192,228076,1,0,0:0:0:0:
448,192,228076,1,0,0:0:0:0:
192,192,228127,1,0,0:0:0:0:
320,192,228179,1,0,0:0:0:0:
448,192,228231,1,0,0:0:0:0:
64,192,228283,1,0,0:0:0:0:
320,192,228334,1,0,0:0:0:0:
448,192,228386,1,0,0:0:0:0:
64,192,228438,1,0,0:0:0:0:
320,192,228490,1,0,0:0:0:0:
192,192,228536,1,0,0:0:0:0:
64,192,228582,1,0,0:0:0:0:
448,192,228628,1,0,0:0:0:0:
320,192,228674,1,0,0:0:0:0:
192,192,228720,1,0,0:0:0:0:
448,192,228766,1,0,0:0:0:0:
64,192,228812,1,0,0:0:0:0:
192,192,228858,1,0,0:0:0:0:
448,192,228904,1,0,0:0:0:0:
320,192,228950,1,0,0:0:0:0:
192,192,228996,1,0,0:0:0:0:
64,192,229042,1,0,0:0:0:0:
448,192,229076,1,0,0:0:0:0:
320,192,229111,1,0,0:0:0:0:
192,192,229145,1,0,0:0:0:0:
64,192,229180,1,0,0:0:0:0:
448,192,229214,1,0,0:0:0:0:
320,192,229214,1,0,0:0:0:0:
192,192,229266,1,0,0:0:0:0:
448,192,229318,1,0,0:0:0:0:
64,192,229370,1,0,0:0:0:0:
192,192,229437,1,0,0:0:0:0:
448,192,229496,1,0,0:0:0:0:
320,192,229555,1,0,0:0:0:0:
448,192,229614,1,0,0:0:0:0:
64,192,229673,1,0,0:0:0:0:
320,192,229732,1,0,0:0:0:0:
192,192,229732,1,0,0:0:0:0:
64,192,229792,1,0,0:0:0:0:
448,192,229851,1,0,0:0:0:0:
320,192,229910,1,0,0:0:0:0:
64,192,229969,1,0,0:0:0:0:
320,192,230028,1,0,0:0:0:0:
192,192,230087,1,0,0:0:0:0:
448,192,230146,1,0,0:0:0:0:
64,192,230206,1,0,0:0:0:0:
320,192,230265,1,0,0:0:0:0:
448,192,230324,1,0,0:0:0:0:
64,192,230353,1,0,0:0:0:0:
192,192,230388,1,0,0:0:0:0:
320,192,230422,1,0,0:0:0:0:
448,192,230457,1,0,0:0:0:0:
64,192,230560,1,0,0:0:0:0:
192,192,230560,1,0,0:0:0:0:
320,192,230612,1,0,0:0:0:0:
64,192,230664,1,0,0:0:0:0:
320,192,230715,1,0,0:0:0:0:
64,192,230767,1,0,0:0:0:0:
192,192,230819,1,0,0:0:0:0:
448,192,230871,1,0,0:0:0:0:
64,192,230871,1,0,0:0:0:0:
320,192,230922,1,0,0:0:0:0:
192,192,230974,1,0,0:0:0:0:
448,192,231026,1,0,0:0:0:0:
320,192,231078,1,0,0:0:0:0:
64,192,231129,1,0,0:0:0:0:
448,192,231181,1,0,0:0:0:0:
192,192,231233,1,0,0:0:0:0:
64,192,231285,1,0,0:0:0:0:
448,192,231337,1,0,0:0:0:0:
320,192,231388,1,0,0:0:0:0:
192,192,231388,1,0,0:0:0:0:
64,192,231440,1,0,0:0:0:0:
448,192,231492,1,0,0:0:0:0:
192,192,231544,1,0,0:0:0:0:
320,192,231595,1,0,0:0:0:0:
64,192,231647,1,0,0:0:0:0:
448,192,231699,1,0,0:0:0:0:
320,192,231751,1,0,0:0:0:0:
192,192,231802,1,0,0:0:0:0:
448,192,231854,1,0,0:0:0:0:
320,192,231906,1,0,0:0:0:0:
64,192,231958,1,0,0:0:0:0:
192,192,232009,1,0,0:0:0:0:
320,192,232061,1,0,0:0:0:0:
64,192,232113,1,0,0:0:0:0:
192,192,232165,1,0,0:0:0:0:
448,192,232216,1,0,0:0:0:0:
320,192,232216,1,0,0:0:0:0:
64,192,232276,1,0,0:0:0:0:
192,192,232320,1,0,0:0:0:0:
448,192,232335,1,0,0:0:0:0:
320,192,232394,1,0,0:0:0:0:
448,192,232453,1,0,0:0:0:0:
64,192,232527,1,0,0:0:0:0:
192,192,232527,1,0,0:0:0:0:
320,192,232631,1,0,0:0:0:0:
64,192,232734,1,0,0:0:0:0:
192,192,232734,1,0,0:0:0:0:
192,192,232838,1,0,0:0:0:0:
448,192,232838,1,0,0:0:0:0:
320,192,232889,1,0,0:0:0:0:
64,192,232941,1,0,0:0:0:0:
192,192,232993,1,0,0:0:0:0:
64,192,233045,1,0,0:0:0:0:
448,192,233045,1,0,0:0:0:0:
320,192,233045,1,0,0:0:0:0:
192,192,233148,1,0,0:0:0:0:
448,192,233148,1,0,0:0:0:0:
64,192,233252,1,0,0:0:0:0:
320,192,233252,1,0,0:0:0:0:
448,192,233355,1,0,0:0:0:0:
64,192,233355,1,0,0:0:0:0:
192,192,233355,1,0,0:0:0:0:
448,192,233459,1,0,0:0:0:0:
320,192,233459,1,0,0:0:0:0:
192,192,233562,1,0,0:0:0:0:
64,192,233562,1,0,0:0:0:0:
320,192,233666,1,0,0:0:0:0:
192,192,233666,1,0,0:0:0:0:
64,192,233769,1,0,0:0:0:0:
192,192,233769,1,0,0:0:0:0:
448,192,233873,1,0,0:0:0:0:
320,192,233873,1,0,0:0:0:0:
320,192,233976,1,0,0:0:0:0:
64,192,233976,1,0,0:0:0:0:
320,192,234080,1,0,0:0:0:0:
448,192,234080,1,0,0:0:0:0:
192,192,234183,1,0,0:0:0:0:
448,192,234183,1,0,0:0:0:0:
320,192,234287,1,0,0:0:0:0:
64,192,234287,1,0,0:0:0:0:
448,192,234287,1,0,0:0:0:0:
64,192,234390,1,0,0:0:0:0:
192,192,234442,1,0,0:0:0:0:
448,192,234494,1,0,0:0:0:0:
320,192,234494,1,0,0:0:0:0:
64,192,234546,1,0,0:0:0:0:
448,192,234597,1,0,0:0:0:0:
320,192,234649,1,0,0:0:0:0:
192,192,234702,1,0,0:0:0:0:
64,192,234702,1,0,0:0:0:0:
448,192,234758,1,0,0:0:0:0:
192,192,234815,1,0,0:0:0:0:
320,192,234872,1,0,0:0:0:0:
64,192,234928,1,0,0:0:0:0:
448,192,234928,1,0,0:0:0:0:
320,192,234985,1,0,0:0:0:0:
192,192,235042,1,0,0:0:0:0:
64,192,235098,1,0,0:0:0:0:
320,192,235155,1,0,0:0:0:0:
448,192,235155,1,0,0:0:0:0:
192,192,235206,1,0,0:0:0:0:
448,192,235257,1,0,0:0:0:0:
64,192,235309,1,0,0:0:0:0:
320,192,235360,1,0,0:0:0:0:
192,192,235360,1,0,0:0:0:0:
448,192,235411,1,0,0:0:0:0:
192,192,235463,1,0,0:0:0:0:
448,192,235567,1,0,0:0:0:0:
320,192,235567,1,0,0:0:0:0:
64,192,235567,1,0,0:0:0:0:
448,192,235671,1,0,0:0:0:0:
192,192,235671,1,0,0:0:0:0:
192,192,235775,1,0,0:0:0:0:
320,192,235775,1,0,0:0:0:0:
64,192,235880,1,0,0:0:0:0:
320,192,235880,1,0,0:0:0:0:
64,192,235984,1,0,0:0:0:0:
192,192,235984,1,0,0:0:0:0:
448,192,236053,1,0,0:0:0:0:
320,192,236088,1,0,0:0:0:0:
192,192,236123,1,0,0:0:0:0:
448,192,236158,1,0,0:0:0:0:
64,192,236193,1,0,0:0:0:0:
192,192,236227,1,0,0:0:0:0:
320,192,236262,1,0,0:0:0:0:
64,192,236332,1,0,0:0:0:0:
448,192,236367,1,0,0:0:0:0:
320,192,236401,1,0,0:0:0:0:
192,192,236401,1,0,0:0:0:0:
64,192,236471,1,0,0:0:0:0:
448,192,236506,1,0,0:0:0:0:
320,192,236540,1,0,0:0:0:0:
192,192,236575,1,0,0:0:0:0:
448,192,236610,1,0,0:0:0:0:
64,192,236680,1,0,0:0:0:0:
192,192,236714,1,0,0:0:0:0:
320,192,236749,1,0,0:0:0:0:
448,192,236784,1,0,0:0:0:0:
64,192,236819,1,0,0:0:0:0:
192,192,236865,1,0,0:0:0:0:
64,192,236911,1,0,0:0:0:0:
448,192,236958,1,0,0:0:0:0:
320,192,237004,1,0,0:0:0:0:
192,192,237050,1,0,0:0:0:0:
64,192,237097,1,0,0:0:0:0:
320,192,237143,1,0,0:0:0:0:
448,192,237189,1,0,0:0:0:0:
64,192,237236,1,0,0:0:0:0:
320,192,237236,1,0,0:0:0:0:
192,192,237288,1,0,0:0:0:0:
448,192,237340,1,0,0:0:0:0:
192,192,237375,1,0,0:0:0:0:
64,192,237445,1,0,0:0:0:0:
192,192,237480,1,0,0:0:0:0:
320,192,237514,1,0,0:0:0:0:
448,192,237549,1,0,0:0:0:0:
64,192,237584,1,0,0:0:0:0:
192,192,237619,1,0,0:0:0:0:
448,192,237653,1,0,0:0:0:0:
320,192,237653,1,0,0:0:0:0:
64,192,237862,1,0,0:0:0:0:
448,192,237862,1,0,0:0:0:0:
448,192,238071,1,0,0:0:0:0:
64,192,238071,1,0,0:0:0:0:
192,192,238126,1,0,0:0:0:0:
320,192,238181,1,0,0:0:0:0:
448,192,238236,1,0,0:0:0:0:
64,192,238292,1,0,0:0:0:0:
192,192,238292,1,0,0:0:0:0:
320,192,238347,1,0,0:0:0:0:
448,192,238402,1,0,0:0:0:0:
320,192,238457,1,0,0:0:0:0:
64,192,238513,1,0,0:0:0:0:
192,192,238513,1,0,0:0:0:0:
448,192,238570,1,0,0:0:0:0:
320,192,238627,1,0,0:0:0:0:
192,192,238684,1,0,0:0:0:0:
448,192,238741,1,0,0:0:0:0:
320,192,238741,1,0,0:0:0:0:
64,192,238799,1,0,0:0:0:0:
192,192,238856,1,0,0:0:0:0:
320,192,238913,1,0,0:0:0:0:
64,192,238971,1,0,0:0:0:0:
448,192,238971,1,0,0:0:0:0:
192,192,239023,1,0,0:0:0:0:
320,192,239076,1,0,0:0:0:0:
448,192,239128,128,0,239602:0:0:0:0:
192,192,239321,1,0,0:0:0:0:
64,192,239321,1,0,0:0:0:0:
64,192,239602,1,0,0:0:0:0:
448,192,239707,1,0,0:0:0:0:
192,192,239707,1,0,0:0:0:0:
320,192,239759,1,0,0:0:0:0:
64,192,239812,1,0,0:0:0:0:
192,192,239812,1,0,0:0:0:0:
448,192,239847,1,0,0:0:0:0:
320,192,239882,1,0,0:0:0:0:
192,192,239917,1,0,0:0:0:0:
448,192,239952,1,0,0:0:0:0:
64,192,239999,1,0,0:0:0:0:
192,192,240046,1,0,0:0:0:0:
320,192,240093,1,0,0:0:0:0:
448,192,240140,1,0,0:0:0:0:
64,192,240186,1,0,0:0:0:0:
320,192,240233,1,0,0:0:0:0:
192,192,240280,1,0,0:0:0:0:
64,192,240327,1,0,0:0:0:0:
448,192,240373,1,0,0:0:0:0:
192,192,240420,1,0,0:0:0:0:
448,192,240467,1,0,0:0:0:0:
320,192,240513,1,0,0:0:0:0:
64,192,240560,1,0,0:0:0:0:
192,192,240607,1,0,0:0:0:0:
320,192,240653,1,0,0:0:0:0:
448,192,240700,1,0,0:0:0:0:
64,192,240759,1,0,0:0:0:0:
192,192,240813,1,0,0:0:0:0:
448,192,240866,1,0,0:0:0:0:
64,192,240866,1,0,0:0:0:0:
320,192,240920,1,0,0:0:0:0:
448,192,240973,1,0,0:0:0:0:
320,192,241027,1,0,0:0:0:0:
64,192,241033,1,0,0:0:0:0:
192,192,241080,1,0,0:0:0:0:
64,192,241128,1,0,0:0:0:0:
448,192,241176,1,0,0:0:0:0:
192,192,241223,1,0,0:0:0:0:
64,192,241271,1,0,0:0:0:0:
448,192,241319,1,0,0:0:0:0:
192,192,241365,1,0,0:0:0:0:
320,192,241401,1,0,0:0:0:0:
448,192,241454,1,0,0:0:0:0:
64,192,241508,1,0,0:0:0:0:
320,192,241508,1,0,0:0:0:0:
192,192,241561,1,0,0:0:0:0:
64,192,241615,1,0,0:0:0:0:
192,192,241668,1,0,0:0:0:0:
448,192,241668,1,0,0:0:0:0:
320,192,241722,1,0,0:0:0:0:
192,192,241793,1,0,0:0:0:0:
448,192,241841,1,0,0:0:0:0:
320,192,241888,1,0,0:0:0:0:
192,192,241935,1,0,0:0:0:0:
448,192,242007,1,0,0:0:0:0:
320,192,242078,1,0,0:0:0:0:
192,192,242149,1,0,0:0:0:0:
448,192,242203,1,0,0:0:0:0:
64,192,242221,1,0,0:0:0:0:
192,192,242292,1,0,0:0:0:0:
448,192,242363,1,0,0:0:0:0:
320,192,242363,1,0,0:0:0:0:
64,192,242417,1,0,0:0:0:0:
192,192,242470,1,0,0:0:0:0:
320,192,242506,1,0,0:0:0:0:
448,192,242541,1,0,0:0:0:0:
64,192,242577,1,0,0:0:0:0:
320,192,242613,1,0,0:0:0:0:
192,192,242648,1,0,0:0:0:0:
448,192,242696,1,0,0:0:0:0:
64,192,242737,1,0,0:0:0:0:
192,192,242791,1,0,0:0:0:0:
448,192,242839,1,0,0:0:0:0:
320,192,242887,1,0,0:0:0:0:
448,192,242933,1,0,0:0:0:0:
192,192,242981,1,0,0:0:0:0:
448,192,243029,1,0,0:0:0:0:
320,192,243076,1,0,0:0:0:0:
64,192,243124,1,0,0:0:0:0:
192,192,243172,1,0,0:0:0:0:
320,192,243218,1,0,0:0:0:0:
192,192,243267,1,0,0:0:0:0:
64,192,243314,1,0,0:0:0:0:
448,192,243361,1,0,0:0:0:0:
320,192,243409,1,0,0:0:0:0:
448,192,243457,1,0,0:0:0:0:
64,192,243468,1,0,0:0:0:0:
192,192,243504,1,0,0:0:0:0:
320,192,243575,1,0,0:0:0:0:
448,192,243646,1,0,0:0:0:0:
64,192,243646,1,0,0:0:0:0:
192,192,243694,1,0,0:0:0:0:
64,192,243741,1,0,0:0:0:0:
320,192,243789,1,0,0:0:0:0:
192,192,243837,1,0,0:0:0:0:
64,192,243884,1,0,0:0:0:0:
448,192,243896,1,0,0:0:0:0:
192,192,243967,1,0,0:0:0:0:
320,192,244002,1,0,0:0:0:0:
448,192,244038,1,0,0:0:0:0:
64,192,244074,1,0,0:0:0:0:
320,192,244120,1,0,0:0:0:0:
192,192,244167,1,0,0:0:0:0:
448,192,244213,1,0,0:0:0:0:
64,192,244260,1,0,0:0:0:0:
320,192,244306,1,0,0:0:0:0:
448,192,244352,1,0,0:0:0:0:
320,192,244399,1,0,0:0:0:0:
192,192,244445,1,0,0:0:0:0:
448,192,244491,1,0,0:0:0:0:
64,192,244538,1,0,0:0:0:0:
320,192,244584,1,0,0:0:0:0:
192,192,244630,1,0,0:0:0:0:
64,192,244677,1,0,0:0:0:0:
192,192,244723,1,0,0:0:0:0:
320,192,244769,1,0,0:0:0:0:
448,192,244816,1,0,0:0:0:0:
64,192,244862,1,0,0:0:0:0:
192,192,244908,1,0,0:0:0:0:
448,192,244955,1,0,0:0:0:0:
320,192,245001,1,0,0:0:0:0:
448,192,245047,1,0,0:0:0:0:
192,192,245094,1,0,0:0:0:0:
320,192,245187,1,0,0:0:0:0:
192,192,245256,1,0,0:0:0:0:
448,192,245326,1,0,0:0:0:0:
64,192,245326,1,0,0:0:0:0:
192,192,245378,1,0,0:0:0:0:
320,192,245430,1,0,0:0:0:0:
448,192,245482,1,0,0:0:0:0:
64,192,245534,1,0,0:0:0:0:
320,192,245534,1,0,0:0:0:0:
192,192,245587,1,0,0:0:0:0:
64,192,245639,1,0,0:0:0:0:
192,192,245691,1,0,0:0:0:0:
448,192,245744,1,0,0:0:0:0:
320,192,245795,1,0,0:0:0:0:
192,192,245846,1,0,0:0:0:0:
448,192,245898,1,0,0:0:0:0:
320,192,245949,1,0,0:0:0:0:
448,192,246000,1,0,0:0:0:0:
64,192,246052,1,0,0:0:0:0:
192,192,246103,1,0,0:0:0:0:
320,192,246154,1,0,0:0:0:0:
64,192,246206,1,0,0:0:0:0:
192,192,246257,1,0,0:0:0:0:
320,192,246308,1,0,0:0:0:0:
448,192,246360,1,0,0:0:0:0:
192,192,246411,1,0,0:0:0:0:
64,192,246462,1,0,0:0:0:0:
192,192,246514,1,0,0:0:0:0:
448,192,246565,1,0,0:0:0:0:
320,192,246616,1,0,0:0:0:0:
64,192,246668,1,0,0:0:0:0:
448,192,246719,1,0,0:0:0:0:
192,192,246771,1,0,0:0:0:0:
320,192,246822,1,0,0:0:0:0:
448,192,246873,1,0,0:0:0:0:
320,192,246925,1,0,0:0:0:0:
192,192,246976,1,0,0:0:0:0:
64,192,247027,1,0,0:0:0:0:
320,192,247079,1,0,0:0:0:0:
64,192,247130,1,0,0:0:0:0:
448,192,247181,1,0,0:0:0:0:
192,192,247233,1,0,0:0:0:0:
320,192,247284,1,0,0:0:0:0:
448,192,247335,1,0,0:0:0:0:
64,192,247387,1,0,0:0:0:0:
320,192,247439,1,0,0:0:0:0:
192,192,247491,1,0,0:0:0:0:
320,192,247543,1,0,0:0:0:0:
64,192,247595,1,0,0:0:0:0:
448,192,247647,1,0,0:0:0:0:
320,192,247700,1,0,0:0:0:0:
64,192,247752,1,0,0:0:0:0:
192,192,247804,1,0,0:0:0:0:
448,192,247856,1,0,0:0:0:0:
320,192,247908,1,0,0:0:0:0:
64,192,247960,1,0,0:0:0:0:
192,192,248013,1,0,0:0:0:0:
448,192,248065,1,0,0:0:0:0:
320,192,248117,1,0,0:0:0:0:
64,192,248169,1,0,0:0:0:0:
192,192,248221,1,0,0:0:0:0:
448,192,248273,1,0,0:0:0:0:
320,192,248326,1,0,0:0:0:0:
64,192,248378,1,0,0:0:0:0:
192,192,248430,1,0,0:0:0:0:
448,192,248482,1,0,0:0:0:0:
320,192,248534,1,0,0:0:0:0:
64,192,248587,1,0,0:0:0:0:
192,192,248639,1,0,0:0:0:0:
448,192,248691,1,0,0:0:0:0:
320,192,248743,1,0,0:0:0:0:
64,192,248795,1,0,0:0:0:0:
320,192,248847,1,0,0:0:0:0:
192,192,248900,1,0,0:0:0:0:
64,192,248952,1,0,0:0:0:0:
320,192,249057,1,0,0:0:0:0:
448,192,249057,1,0,0:0:0:0:
64,192,249057,1,0,0:0:0:0:
192,192,249168,1,0,0:0:0:0:
448,192,249168,1,0,0:0:0:0:
320,192,249224,1,0,0:0:0:0:
192,192,249279,1,0,0:0:0:0:
64,192,249279,128,0,249837:0:0:0:0:
64,192,249948,1,0,0:0:0:0:
448,192,249948,1,0,0:0:0:0:
192,192,250004,1,0,0:0:0:0:
320,192,250060,1,0,0:0:0:0:
64,192,250116,1,0,0:0:0:0:
448,192,250116,128,0,250394:0:0:0:0:
