osu file format v14

[General]
AudioFilename: Tatsuro Yamashita - Daydream110.mp3
AudioLeadIn: 0
PreviewTime: 141870
Countdown: 0
SampleSet: None
StackLeniency: 0.7
Mode: 3
LetterboxInBreaks: 0
SpecialStyle: 0
WidescreenStoryboard: 1

[Editor]
Bookmarks: 7410,21431,32013,39378,49531,56623,70612,84595,116228,128492,131873,142455,147740,158649,161635,230923,243093,250708,261539
DistanceSpacing: 0.8
BeatDivisor: 4
GridSize: 32
TimelineZoom: 1.8

[Metadata]
Title:Daydream
TitleUnicode:Daydream
Artist:Tatsuro Yamashita
ArtistUnicode:Tatsuro Yamashita
Creator:Ska
Version:1.1
Source:
Tags:tech dump stream jack
BeatmapID:3632458
BeatmapSetID:1774067

[Difficulty]
HPDrainRate:8.4
CircleSize:4
OverallDifficulty:8.4
ApproachRate:5
SliderMultiplier:1.4
SliderTickRate:1

[Events]
//Background and Video events
0,0,"b.jpg",0,0
//Break Periods
//Storyboard Layer 0 (Background)
//Storyboard Layer 1 (Fail)
//Storyboard Layer 2 (Pass)
//Storyboard Layer 3 (Foreground)
//Storyboard Layer 4 (Overlay)
//Storyboard Sound Samples

[TimingPoints]
405,419.58042,4,1,0,0,1,0
405,-103.9999999,4,1,0,0,0,0
825,429.491768181818,4,1,0,0,1,0
825,-101.6,4,1,0,0,0,0
1683,443.45898,4,1,0,0,1,0
1683,-98.40000001,4,1,0,0,0,0
2571,436.363636363636,4,1,0,0,1,0
2571,-100,4,1,0,0,0,0
3880,443.45898,4,1,0,0,1,0
3880,-98.40000001,4,1,0,0,0,0
4767,439.882698181818,4,1,0,0,1,0
4767,-99.19999995,4,1,0,0,0,0
5207,443.45898,4,1,0,0,1,0
5207,-98.40000001,4,1,0,0,0,0
6537,436.363636363636,4,1,0,0,1,0
6537,-100,4,1,0,0,0,0
7410,458.365164545454,4,1,0,0,1,0
7410,-95.19999994,4,1,0,0,0,0
7868,436.363636363636,4,1,0,0,1,0
7868,-100,4,1,0,0,0,0
9177,439.882698181818,4,1,0,0,1,0
9177,-99.19999995,4,1,0,0,0,0
13576,436.363636363636,4,1,0,0,1,0
13576,-100,4,1,0,0,0,0
33649,447.09389,4,1,0,0,1,0
33649,-97.59999994,4,1,0,0,0,0
34543,443.45898,4,1,0,0,1,0
34543,-98.40000001,4,1,0,0,0,0
36760,436.363636363636,4,1,0,0,1,0
36760,-100,4,1,0,0,0,0
48978,447.09389,4,1,0,0,1,0
48978,-97.59999994,4,1,0,0,0,0
49425,422.832980909091,4,1,0,0,1,0
49425,-103.2,4,1,0,0,0,0
54077,443.45898,4,1,0,0,1,0
54077,-98.40000001,4,1,0,0,0,0
54520,436.363636363636,4,1,0,0,1,0
54520,-100,4,1,0,0,0,0
56265,356.506239090909,4,1,0,0,1,0
56265,-122.3999999,4,1,0,0,0,0
56623,462.249614545455,4,1,0,0,1,0
56623,-94.40000005,4,1,0,0,0,0
57084,432.900432727273,4,1,0,0,1,0
57084,-100.8,4,1,0,0,0,0
57950,447.09389,4,1,0,0,1,0
57950,-97.59999994,4,1,0,0,0,0
59739,419.58042,4,1,0,0,1,0
59739,-103.9999999,4,1,0,0,0,0
60158,458.365164545454,4,1,0,0,1,0
60158,-95.19999994,4,1,0,0,0,0
60616,443.45898,4,1,0,0,1,0
60616,-98.40000001,4,1,0,0,0,0
61947,436.363636363636,4,1,0,0,1,0
61947,-100,4,1,0,0,0,0
63256,443.45898,4,1,0,0,1,0
63256,-98.40000001,4,1,0,0,0,0
63700,439.882698181818,4,1,0,0,1,0
63700,-99.19999995,4,1,0,0,0,0
68098,436.363636363636,4,1,0,0,1,0
68098,-100,4,1,0,0,0,0
70280,443.45898,4,1,0,0,1,0
70280,-98.40000001,4,1,0,0,0,0
72053,432.900432727273,4,1,0,0,1,0
72053,-100.8,4,1,0,0,0,0
73785,439.882698181818,4,1,0,0,1,0
73785,-99.19999995,4,1,0,0,0,0
76424,429.491768181818,4,1,0,0,1,0
76424,-101.6,4,1,0,0,0,0
77713,436.363636363636,4,1,0,0,1,0
77713,-100,4,1,0,0,0,0
79459,432.900432727273,4,1,0,0,1,0
79459,-100.8,4,1,0,0,0,0
80757,436.363636363636,4,1,0,0,1,0
80757,-100,4,1,0,0,0,0
82066,439.882698181818,4,1,0,0,1,0
82066,-99.19999995,4,1,0,0,0,0
89104,429.491768181818,4,1,0,0,1,0
89104,-101.6,4,1,0,0,0,0
90393,436.363636363636,4,1,0,0,1,0
90393,-100,4,1,0,0,0,0
91703,439.882698181818,4,1,0,0,1,0
91703,-99.19999995,4,1,0,0,0,0
93022,436.363636363636,4,1,0,0,1,0
93022,-100,4,1,0,0,0,0
110476,470.219435454545,4,1,0,0,1,0
110476,-92.80000006,4,1,0,0,0,0
110946,447.09389,4,1,0,0,1,0
110946,-97.59999994,4,1,0,0,0,0
111393,436.363636363636,4,1,0,0,1,0
111393,-100,4,1,0,0,0,0
115757,470.219435454545,4,1,0,0,1,0
115757,-92.80000006,4,1,0,0,0,0
116228,439.882698181818,4,1,0,0,1,0
116228,-99.19999995,4,1,0,0,0,0
120626,436.363636363636,4,1,0,0,1,0
120626,-100,4,1,0,0,0,0
123681,447.09389,4,1,0,0,1,0
123681,-97.59999994,4,1,0,0,0,0
124128,436.363636363636,4,1,0,0,1,0
124128,-100,4,1,0,0,0,0
146383,478.468899090909,4,1,0,0,1,0
146383,-91.20000008,4,1,0,0,0,0
146861,439.882698181818,4,1,0,0,1,0
146861,-99.19999995,4,1,0,0,0,0
148181,426.136363636364,4,1,0,0,1,0
148181,-102.4,4,1,0,0,0,0
149033,429.491768181818,4,1,0,0,1,0
149033,-101.6,4,1,0,0,0,0
149463,443.45898,4,1,0,0,1,0
149463,-98.40000001,4,1,0,0,0,0
150793,439.882698181818,4,1,0,0,1,0
150793,-99.19999995,4,1,0,0,0,0
156072,436.363636363636,4,1,0,0,1,0
156072,-100,4,1,0,0,0,0
158253,395.256917272727,4,1,0,0,1,0
158253,-110.3999999,4,1,0,0,0,0
158649,462.249614545455,4,1,0,0,1,0
158649,-94.40000005,4,1,0,0,0,0
159573,426.136363636364,4,1,0,0,1,0
159573,-102.4,4,1,0,0,0,0
159999,436.363636363636,4,1,0,0,1,0
159999,-100,4,1,0,0,0,0
162181,422.832980909091,4,1,0,0,1,0
162181,-103.2,4,1,0,0,0,0
163026,443.45898,4,1,0,0,1,0
163026,-98.40000001,4,1,0,0,0,0
163913,436.363636363636,4,1,0,0,1,0
163913,-100,4,1,0,0,0,0
168277,419.58042,4,1,0,0,1,0
168277,-103.9999999,4,1,0,0,0,0
169116,429.491768181818,4,1,0,0,1,0
169116,-101.6,4,1,0,0,0,0
169546,443.45898,4,1,0,0,1,0
169546,-98.40000001,4,1,0,0,0,0
169989,436.363636363636,4,1,0,0,1,0
169989,-100,4,1,0,0,0,0
172607,432.900432727273,4,1,0,0,1,0
172607,-100.8,4,1,0,0,0,0
173041,429.491768181818,4,1,0,0,1,0
173041,-101.6,4,1,0,0,0,0
174758,439.882698181818,4,1,0,0,1,0
174758,-99.19999995,4,1,0,0,0,0
176518,426.136363636364,4,1,0,0,1,0
176518,-102.4,4,1,0,0,0,0
178223,439.882698181818,4,1,0,0,1,0
178223,-99.19999995,4,1,0,0,0,0
180422,432.900432727273,4,1,0,0,1,0
180422,-100.8,4,1,0,0,0,0
180854,429.491768181818,4,1,0,0,1,0
180854,-101.6,4,1,0,0,0,0
183432,462.249614545455,4,1,0,0,1,0
183432,-94.40000005,4,1,0,0,0,0
183894,432.900432727273,4,1,0,0,1,0
183894,-100.8,4,1,0,0,0,0
188223,429.491768181818,4,1,0,0,1,0
188223,-101.6,4,1,0,0,0,0
190800,439.882698181818,4,1,0,0,1,0
190800,-99.19999995,4,1,0,0,0,0
192120,429.491768181818,4,1,0,0,1,0
192120,-101.6,4,1,0,0,0,0
194267,432.900432727273,4,1,0,0,1,0
194267,-100.8,4,1,0,0,0,0
197730,436.363636363636,4,1,0,0,1,0
197730,-100,4,1,0,0,0,0
200348,432.900432727273,4,1,0,0,1,0
200348,-100.8,4,1,0,0,0,0
201214,426.136363636364,4,1,0,0,1,0
201214,-102.4,4,1,0,0,0,0
202919,436.363636363636,4,1,0,0,1,0
202919,-100,4,1,0,0,0,0
204664,432.900432727273,4,1,0,0,1,0
204664,-100.8,4,1,0,0,0,0
208127,436.363636363636,4,1,0,0,1,0
208127,-100,4,1,0,0,0,0
209873,429.491768181818,4,1,0,0,1,0
209873,-101.6,4,1,0,0,0,0
213309,436.363636363636,4,1,0,0,1,0
213309,-100,4,1,0,0,0,0
214182,429.491768181818,4,1,0,0,1,0
214182,-101.6,4,1,0,0,0,0
216758,432.900432727273,4,1,0,0,1,0
216758,-100.8,4,1,0,0,0,0
218490,436.363636363636,4,1,0,0,1,0
218490,-100,4,1,0,0,0,0
220672,429.491768181818,4,1,0,0,1,0
220672,-101.6,4,1,0,0,0,0
221961,432.900432727273,4,1,0,0,1,0
221961,-100.8,4,1,0,0,0,0
224991,413.223140909091,4,1,0,0,1,0
224991,-105.5999999,4,1,0,0,0,0
225403,432.900432727273,4,1,0,0,1,0
225403,-100.8,4,1,0,0,0,0
231464,436.363636363636,4,1,0,0,1,0
231464,-100,4,1,0,0,0,0
237573,432.900432727273,4,1,0,0,1,0
237573,-100.8,4,1,0,0,0,0
245366,474.3083,4,1,0,0,1,0
245366,-92.00000008,4,1,0,0,0,0
245840,429.491768181818,4,1,0,0,1,0
245840,-101.6,4,1,0,0,0,0
246270,436.363636363636,4,1,0,0,1,0
246270,-100,4,1,0,0,0,0
248888,462.249614545455,4,1,0,0,1,0
248888,-94.40000005,4,1,0,0,0,0
249350,478.468899090909,4,1,0,0,1,0
249350,-91.20000008,4,1,0,0,0,0
249829,439.882698181818,4,1,0,0,1,0
249829,-99.19999995,4,1,0,0,0,0
251588,447.09389,4,1,0,0,1,0
251588,-97.59999994,4,1,0,0,0,0
255164,436.363636363636,4,1,0,0,1,0
255164,-100,4,1,0,0,0,0
256910,429.491768181818,4,1,0,0,1,0
256910,-101.6,4,1,0,0,0,0
258628,436.363636363636,4,1,0,0,1,0
258628,-100,4,1,0,0,0,0
260373,466.200466363636,4,1,0,0,1,0
260373,-93.59999997,4,1,0,0,0,0

[HitObjects]
448,192,405,5,0,0:0:0:0:
64,192,405,1,0,0:0:0:0:
192,192,509,1,0,0:0:0:0:
320,192,614,1,0,0:0:0:0:
64,192,614,1,0,0:0:0:0:
320,192,719,1,0,0:0:0:0:
192,192,824,1,0,0:0:0:0:
448,192,824,1,0,0:0:0:0:
192,192,932,1,0,0:0:0:0:
448,192,1039,1,0,0:0:0:0:
64,192,1147,1,0,0:0:0:0:
448,192,1147,1,0,0:0:0:0:
320,192,1254,1,0,0:0:0:0:
192,192,1361,1,0,0:0:0:0:
192,192,1469,1,0,0:0:0:0:
448,192,1469,1,0,0:0:0:0:
448,192,1576,1,0,0:0:0:0:
320,192,1683,1,0,0:0:0:0:
64,192,1683,1,0,0:0:0:0:
192,192,1793,1,0,0:0:0:0:
192,192,1904,1,0,0:0:0:0:
320,192,1904,1,0,0:0:0:0:
192,192,2015,1,0,0:0:0:0:
448,192,2126,1,0,0:0:0:0:
64,192,2126,1,0,0:0:0:0:
320,192,2237,1,0,0:0:0:0:
192,192,2348,1,0,0:0:0:0:
448,192,2348,1,0,0:0:0:0:
192,192,2459,1,0,0:0:0:0:
320,192,2571,1,0,0:0:0:0:
64,192,2571,1,0,0:0:0:0:
320,192,2680,1,0,0:0:0:0:
64,192,2789,1,0,0:0:0:0:
448,192,2898,1,0,0:0:0:0:
64,192,2898,1,0,0:0:0:0:
192,192,3007,1,0,0:0:0:0:
320,192,3116,1,0,0:0:0:0:
320,192,3225,1,0,0:0:0:0:
64,192,3225,1,0,0:0:0:0:
64,192,3334,1,0,0:0:0:0:
448,192,3443,1,0,0:0:0:0:
192,192,3443,1,0,0:0:0:0:
320,192,3552,1,0,0:0:0:0:
320,192,3661,1,0,0:0:0:0:
192,192,3661,1,0,0:0:0:0:
320,192,3770,1,0,0:0:0:0:
448,192,3880,1,0,0:0:0:0:
64,192,3880,1,0,0:0:0:0:
192,192,3990,1,0,0:0:0:0:
64,192,4101,1,0,0:0:0:0:
320,192,4101,1,0,0:0:0:0:
320,192,4212,1,0,0:0:0:0:
192,192,4323,1,0,0:0:0:0:
448,192,4323,1,0,0:0:0:0:
192,192,4434,1,0,0:0:0:0:
448,192,4545,1,0,0:0:0:0:
64,192,4656,1,0,0:0:0:0:
448,192,4656,1,0,0:0:0:0:
320,192,4766,1,0,0:0:0:0:
192,192,4876,1,0,0:0:0:0:
192,192,4986,1,0,0:0:0:0:
448,192,4986,1,0,0:0:0:0:
448,192,5096,1,0,0:0:0:0:
64,192,5207,1,0,0:0:0:0:
320,192,5207,1,0,0:0:0:0:
192,192,5317,1,0,0:0:0:0:
192,192,5428,1,0,0:0:0:0:
320,192,5428,1,0,0:0:0:0:
192,192,5539,1,0,0:0:0:0:
448,192,5650,1,0,0:0:0:0:
64,192,5650,1,0,0:0:0:0:
320,192,5761,1,0,0:0:0:0:
448,192,5872,1,0,0:0:0:0:
64,192,5872,1,0,0:0:0:0:
320,192,5983,1,0,0:0:0:0:
192,192,5983,1,0,0:0:0:0:
320,192,6093,1,0,0:0:0:0:
192,192,6093,1,0,0:0:0:0:
448,192,6204,1,0,0:0:0:0:
192,192,6204,1,0,0:0:0:0:
64,192,6315,1,0,0:0:0:0:
320,192,6315,1,0,0:0:0:0:
320,192,6426,1,0,0:0:0:0:
448,192,6537,1,0,0:0:0:0:
64,192,6537,1,0,0:0:0:0:
192,192,6537,1,0,0:0:0:0:
320,192,6646,1,0,0:0:0:0:
448,192,6646,1,0,0:0:0:0:
320,192,6755,1,0,0:0:0:0:
448,192,6755,1,0,0:0:0:0:
192,192,6864,1,0,0:0:0:0:
64,192,6864,1,0,0:0:0:0:
448,192,6900,1,0,0:0:0:0:
320,192,6937,1,0,0:0:0:0:
192,192,6973,1,0,0:0:0:0:
64,192,6973,1,0,0:0:0:0:
448,192,7009,1,0,0:0:0:0:
320,192,7046,1,0,0:0:0:0:
64,192,7082,1,0,0:0:0:0:
192,192,7082,1,0,0:0:0:0:
448,192,7118,1,0,0:0:0:0:
320,192,7155,1,0,0:0:0:0:
64,192,7191,1,0,0:0:0:0:
448,192,7227,1,0,0:0:0:0:
320,192,7264,1,0,0:0:0:0:
192,192,7300,1,0,0:0:0:0:
64,192,7336,1,0,0:0:0:0:
320,192,7410,128,0,7524:0:0:0:0:
448,192,7410,128,0,7639:0:0:0:0:
192,192,7524,1,0,0:0:0:0:
64,192,7639,1,0,0:0:0:0:
192,192,7696,1,0,0:0:0:0:
320,192,7753,1,0,0:0:0:0:
192,192,7811,1,0,0:0:0:0:
320,192,7868,1,0,0:0:0:0:
448,192,7922,1,0,0:0:0:0:
192,192,7977,1,0,0:0:0:0:
64,192,7977,1,0,0:0:0:0:
448,192,8049,1,0,0:0:0:0:
320,192,8122,1,0,0:0:0:0:
64,192,8195,1,0,0:0:0:0:
192,192,8195,1,0,0:0:0:0:
192,192,8304,1,0,0:0:0:0:
64,192,8304,1,0,0:0:0:0:
320,192,8413,1,0,0:0:0:0:
448,192,8413,1,0,0:0:0:0:
64,192,8486,1,0,0:0:0:0:
192,192,8558,1,0,0:0:0:0:
448,192,8631,1,0,0:0:0:0:
320,192,8631,1,0,0:0:0:0:
320,192,8740,1,0,0:0:0:0:
64,192,8740,1,0,0:0:0:0:
192,192,8849,1,0,0:0:0:0:
64,192,8849,1,0,0:0:0:0:
448,192,8849,1,0,0:0:0:0:
320,192,8958,1,0,0:0:0:0:
448,192,8958,1,0,0:0:0:0:
64,192,9031,1,0,0:0:0:0:
320,192,9104,1,0,0:0:0:0:
448,192,9177,1,0,0:0:0:0:
192,192,9177,1,0,0:0:0:0:
64,192,9250,1,0,0:0:0:0:
192,192,9323,1,0,0:0:0:0:
320,192,9396,1,0,0:0:0:0:
448,192,9396,1,0,0:0:0:0:
64,192,9506,1,0,0:0:0:0:
320,192,9506,1,0,0:0:0:0:
192,192,9616,1,0,0:0:0:0:
448,192,9616,1,0,0:0:0:0:
64,192,9726,1,0,0:0:0:0:
192,192,9726,1,0,0:0:0:0:
320,192,9726,1,0,0:0:0:0:
320,192,9836,1,0,0:0:0:0:
448,192,9836,1,0,0:0:0:0:
64,192,9946,1,0,0:0:0:0:
448,192,9946,1,0,0:0:0:0:
192,192,10056,1,0,0:0:0:0:
64,192,10056,1,0,0:0:0:0:
320,192,10166,1,0,0:0:0:0:
448,192,10166,1,0,0:0:0:0:
320,192,10276,1,0,0:0:0:0:
64,192,10276,128,0,10386:0:0:0:0:
448,192,10386,1,0,0:0:0:0:
192,192,10386,128,0,10496:0:0:0:0:
448,192,10496,1,0,0:0:0:0:
320,192,10496,1,0,0:0:0:0:
448,192,10606,1,0,0:0:0:0:
192,192,10606,128,0,10716:0:0:0:0:
320,192,10606,1,0,0:0:0:0:
64,192,10716,128,0,10826:0:0:0:0:
448,192,10716,1,0,0:0:0:0:
320,192,10826,1,0,0:0:0:0:
192,192,10936,1,0,0:0:0:0:
64,192,10936,1,0,0:0:0:0:
320,192,11046,1,0,0:0:0:0:
448,192,11156,1,0,0:0:0:0:
64,192,11156,1,0,0:0:0:0:
320,192,11211,1,0,0:0:0:0:
192,192,11266,1,0,0:0:0:0:
320,192,11321,1,0,0:0:0:0:
192,192,11376,1,0,0:0:0:0:
64,192,11431,1,0,0:0:0:0:
320,192,11486,1,0,0:0:0:0:
448,192,11486,1,0,0:0:0:0:
64,192,11559,1,0,0:0:0:0:
192,192,11633,1,0,0:0:0:0:
320,192,11706,1,0,0:0:0:0:
448,192,11706,1,0,0:0:0:0:
320,192,11816,1,0,0:0:0:0:
64,192,11816,1,0,0:0:0:0:
192,192,11926,1,0,0:0:0:0:
64,192,11926,1,0,0:0:0:0:
448,192,11999,1,0,0:0:0:0:
192,192,12036,1,0,0:0:0:0:
64,192,12146,1,0,0:0:0:0:
320,192,12146,1,0,0:0:0:0:
320,192,12256,1,0,0:0:0:0:
448,192,12256,1,0,0:0:0:0:
448,192,12366,1,0,0:0:0:0:
64,192,12366,1,0,0:0:0:0:
192,192,12366,1,0,0:0:0:0:
64,192,12476,1,0,0:0:0:0:
320,192,12476,1,0,0:0:0:0:
192,192,12549,1,0,0:0:0:0:
320,192,12622,1,0,0:0:0:0:
64,192,12696,1,0,0:0:0:0:
448,192,12696,1,0,0:0:0:0:
320,192,12769,1,0,0:0:0:0:
192,192,12842,1,0,0:0:0:0:
448,192,12916,1,0,0:0:0:0:
64,192,12916,1,0,0:0:0:0:
64,192,13025,1,0,0:0:0:0:
448,192,13025,1,0,0:0:0:0:
192,192,13135,1,0,0:0:0:0:
320,192,13135,1,0,0:0:0:0:
192,192,13245,1,0,0:0:0:0:
320,192,13245,1,0,0:0:0:0:
448,192,13245,1,0,0:0:0:0:
192,192,13355,1,0,0:0:0:0:
64,192,13355,1,0,0:0:0:0:
320,192,13465,1,0,0:0:0:0:
448,192,13465,1,0,0:0:0:0:
320,192,13576,1,0,0:0:0:0:
448,192,13576,1,0,0:0:0:0:
192,192,13685,1,0,0:0:0:0:
64,192,13685,1,0,0:0:0:0:
192,192,13794,1,0,0:0:0:0:
448,192,13794,128,0,13903:0:0:0:0:
320,192,13794,128,0,13903:0:0:0:0:
64,192,13903,1,0,0:0:0:0:
192,192,14012,1,0,0:0:0:0:
64,192,14012,1,0,0:0:0:0:
448,192,14012,128,0,14121:0:0:0:0:
320,192,14012,128,0,14121:0:0:0:0:
64,192,14121,1,0,0:0:0:0:
192,192,14121,1,0,0:0:0:0:
448,192,14230,128,0,14339:0:0:0:0:
64,192,14230,1,0,0:0:0:0:
320,192,14230,128,0,14339:0:0:0:0:
192,192,14339,1,0,0:0:0:0:
320,192,14448,1,0,0:0:0:0:
448,192,14448,1,0,0:0:0:0:
192,192,14557,1,0,0:0:0:0:
64,192,14666,1,0,0:0:0:0:
448,192,14666,1,0,0:0:0:0:
320,192,14721,1,0,0:0:0:0:
192,192,14775,1,0,0:0:0:0:
320,192,14830,1,0,0:0:0:0:
448,192,14885,1,0,0:0:0:0:
64,192,14939,1,0,0:0:0:0:
192,192,14994,1,0,0:0:0:0:
320,192,14994,1,0,0:0:0:0:
64,192,15066,1,0,0:0:0:0:
192,192,15139,1,0,0:0:0:0:
320,192,15212,1,0,0:0:0:0:
448,192,15212,1,0,0:0:0:0:
320,192,15321,1,0,0:0:0:0:
448,192,15321,1,0,0:0:0:0:
64,192,15430,1,0,0:0:0:0:
192,192,15430,1,0,0:0:0:0:
320,192,15503,1,0,0:0:0:0:
192,192,15575,1,0,0:0:0:0:
64,192,15648,1,0,0:0:0:0:
448,192,15648,1,0,0:0:0:0:
320,192,15757,1,0,0:0:0:0:
448,192,15757,1,0,0:0:0:0:
192,192,15866,1,0,0:0:0:0:
64,192,15866,1,0,0:0:0:0:
320,192,15866,1,0,0:0:0:0:
64,192,15975,1,0,0:0:0:0:
448,192,15975,1,0,0:0:0:0:
192,192,16048,1,0,0:0:0:0:
320,192,16121,1,0,0:0:0:0:
64,192,16194,1,0,0:0:0:0:
448,192,16194,1,0,0:0:0:0:
320,192,16266,1,0,0:0:0:0:
64,192,16339,1,0,0:0:0:0:
192,192,16412,1,0,0:0:0:0:
448,192,16412,1,0,0:0:0:0:
448,192,16521,1,0,0:0:0:0:
192,192,16521,1,0,0:0:0:0:
320,192,16630,1,0,0:0:0:0:
64,192,16630,1,0,0:0:0:0:
320,192,16739,1,0,0:0:0:0:
448,192,16739,1,0,0:0:0:0:
192,192,16739,1,0,0:0:0:0:
320,192,16848,1,0,0:0:0:0:
448,192,16848,1,0,0:0:0:0:
192,192,16957,1,0,0:0:0:0:
64,192,16957,1,0,0:0:0:0:
64,192,17066,1,0,0:0:0:0:
192,192,17066,1,0,0:0:0:0:
320,192,17175,1,0,0:0:0:0:
448,192,17175,1,0,0:0:0:0:
320,192,17285,1,0,0:0:0:0:
64,192,17285,128,0,17394:0:0:0:0:
448,192,17394,1,0,0:0:0:0:
192,192,17394,128,0,17503:0:0:0:0:
320,192,17503,1,0,0:0:0:0:
448,192,17503,1,0,0:0:0:0:
192,192,17612,128,0,17721:0:0:0:0:
320,192,17612,1,0,0:0:0:0:
448,192,17612,1,0,0:0:0:0:
64,192,17721,128,0,17830:0:0:0:0:
448,192,17721,1,0,0:0:0:0:
320,192,17830,1,0,0:0:0:0:
192,192,17939,1,0,0:0:0:0:
64,192,17939,1,0,0:0:0:0:
320,192,18048,1,0,0:0:0:0:
448,192,18157,1,0,0:0:0:0:
64,192,18157,1,0,0:0:0:0:
192,192,18212,1,0,0:0:0:0:
320,192,18266,1,0,0:0:0:0:
192,192,18321,1,0,0:0:0:0:
64,192,18375,1,0,0:0:0:0:
448,192,18430,1,0,0:0:0:0:
320,192,18485,1,0,0:0:0:0:
192,192,18485,1,0,0:0:0:0:
448,192,18557,1,0,0:0:0:0:
320,192,18630,1,0,0:0:0:0:
192,192,18703,1,0,0:0:0:0:
64,192,18703,1,0,0:0:0:0:
192,192,18812,1,0,0:0:0:0:
64,192,18812,1,0,0:0:0:0:
320,192,18921,1,0,0:0:0:0:
448,192,18921,1,0,0:0:0:0:
192,192,18994,1,0,0:0:0:0:
320,192,19066,1,0,0:0:0:0:
448,192,19139,1,0,0:0:0:0:
64,192,19139,1,0,0:0:0:0:
64,192,19248,1,0,0:0:0:0:
192,192,19248,1,0,0:0:0:0:
448,192,19357,1,0,0:0:0:0:
192,192,19357,1,0,0:0:0:0:
320,192,19357,1,0,0:0:0:0:
448,192,19466,1,0,0:0:0:0:
320,192,19466,1,0,0:0:0:0:
192,192,19466,1,0,0:0:0:0:
320,192,19794,1,0,0:0:0:0:
64,192,19794,128,0,20121:0:0:0:0:
320,192,19903,1,0,0:0:0:0:
192,192,20012,1,0,0:0:0:0:
192,192,20121,1,0,0:0:0:0:
448,192,20121,128,0,20448:0:0:0:0:
320,192,20230,1,0,0:0:0:0:
320,192,20339,1,0,0:0:0:0:
192,192,20448,1,0,0:0:0:0:
64,192,20448,128,0,20885:0:0:0:0:
192,192,20557,1,0,0:0:0:0:
320,192,20666,1,0,0:0:0:0:
320,192,20775,1,0,0:0:0:0:
192,192,20885,1,0,0:0:0:0:
448,192,20885,1,0,0:0:0:0:
192,192,21103,1,0,0:0:0:0:
64,192,21103,1,0,0:0:0:0:
320,192,21103,1,0,0:0:0:0:
192,192,21212,1,0,0:0:0:0:
64,192,21212,1,0,0:0:0:0:
320,192,21212,1,0,0:0:0:0:
448,192,21430,1,0,0:0:0:0:
320,192,21430,1,0,0:0:0:0:
320,192,21539,1,0,0:0:0:0:
448,192,21648,1,0,0:0:0:0:
192,192,21648,1,0,0:0:0:0:
192,192,21757,1,0,0:0:0:0:
64,192,21757,1,0,0:0:0:0:
320,192,21866,1,0,0:0:0:0:
448,192,21866,1,0,0:0:0:0:
64,192,21915,1,0,0:0:0:0:
320,192,21963,1,0,0:0:0:0:
192,192,22012,1,0,0:0:0:0:
64,192,22061,1,0,0:0:0:0:
448,192,22061,1,0,0:0:0:0:
192,192,22109,1,0,0:0:0:0:
320,192,22157,1,0,0:0:0:0:
448,192,22206,1,0,0:0:0:0:
64,192,22230,1,0,0:0:0:0:
192,192,22266,1,0,0:0:0:0:
448,192,22303,1,0,0:0:0:0:
320,192,22352,1,0,0:0:0:0:
192,192,22412,1,0,0:0:0:0:
64,192,22412,1,0,0:0:0:0:
64,192,22494,1,0,0:0:0:0:
192,192,22494,1,0,0:0:0:0:
64,192,22603,1,0,0:0:0:0:
320,192,22630,1,0,0:0:0:0:
320,192,22739,1,0,0:0:0:0:
192,192,22739,1,0,0:0:0:0:
64,192,22848,1,0,0:0:0:0:
448,192,22848,1,0,0:0:0:0:
320,192,22903,1,0,0:0:0:0:
64,192,22957,1,0,0:0:0:0:
192,192,23012,1,0,0:0:0:0:
320,192,23066,1,0,0:0:0:0:
448,192,23121,1,0,0:0:0:0:
192,192,23175,1,0,0:0:0:0:
64,192,23175,1,0,0:0:0:0:
448,192,23224,1,0,0:0:0:0:
192,192,23273,1,0,0:0:0:0:
320,192,23321,1,0,0:0:0:0:
64,192,23370,1,0,0:0:0:0:
448,192,23418,1,0,0:0:0:0:
320,192,23466,1,0,0:0:0:0:
192,192,23515,1,0,0:0:0:0:
448,192,23563,1,0,0:0:0:0:
64,192,23612,1,0,0:0:0:0:
192,192,23666,1,0,0:0:0:0:
320,192,23721,1,0,0:0:0:0:
448,192,23721,1,0,0:0:0:0:
192,192,23775,1,0,0:0:0:0:
320,192,23830,1,0,0:0:0:0:
448,192,23885,1,0,0:0:0:0:
64,192,23939,1,0,0:0:0:0:
320,192,23994,1,0,0:0:0:0:
64,192,24048,1,0,0:0:0:0:
192,192,24103,1,0,0:0:0:0:
448,192,24157,1,0,0:0:0:0:
320,192,24157,1,0,0:0:0:0:
64,192,24157,1,0,0:0:0:0:
320,192,24266,1,0,0:0:0:0:
448,192,24266,1,0,0:0:0:0:
192,192,24375,1,0,0:0:0:0:
320,192,24375,1,0,0:0:0:0:
192,192,24485,1,0,0:0:0:0:
320,192,24594,1,0,0:0:0:0:
448,192,24594,1,0,0:0:0:0:
64,192,24594,1,0,0:0:0:0:
192,192,24703,1,0,0:0:0:0:
320,192,24703,1,0,0:0:0:0:
320,192,24812,1,0,0:0:0:0:
448,192,24812,1,0,0:0:0:0:
192,192,24921,1,0,0:0:0:0:
64,192,24921,1,0,0:0:0:0:
448,192,25030,1,0,0:0:0:0:
320,192,25139,1,0,0:0:0:0:
64,192,25139,1,0,0:0:0:0:
320,192,25248,1,0,0:0:0:0:
448,192,25248,1,0,0:0:0:0:
64,192,25357,1,0,0:0:0:0:
192,192,25357,1,0,0:0:0:0:
448,192,25406,1,0,0:0:0:0:
64,192,25454,1,0,0:0:0:0:
320,192,25503,1,0,0:0:0:0:
192,192,25552,1,0,0:0:0:0:
448,192,25600,1,0,0:0:0:0:
320,192,25600,1,0,0:0:0:0:
64,192,25648,1,0,0:0:0:0:
192,192,25697,1,0,0:0:0:0:
320,192,25745,1,0,0:0:0:0:
64,192,25794,1,0,0:0:0:0:
192,192,25843,1,0,0:0:0:0:
320,192,25903,1,0,0:0:0:0:
448,192,25903,1,0,0:0:0:0:
320,192,25985,1,0,0:0:0:0:
448,192,25985,1,0,0:0:0:0:
448,192,26094,1,0,0:0:0:0:
192,192,26121,1,0,0:0:0:0:
320,192,26230,1,0,0:0:0:0:
192,192,26230,1,0,0:0:0:0:
64,192,26339,1,0,0:0:0:0:
448,192,26339,1,0,0:0:0:0:
192,192,26394,1,0,0:0:0:0:
448,192,26448,1,0,0:0:0:0:
64,192,26503,1,0,0:0:0:0:
320,192,26557,1,0,0:0:0:0:
192,192,26557,1,0,0:0:0:0:
64,192,26666,1,0,0:0:0:0:
448,192,26666,1,0,0:0:0:0:
320,192,26715,1,0,0:0:0:0:
192,192,26763,1,0,0:0:0:0:
448,192,26812,1,0,0:0:0:0:
320,192,26812,1,0,0:0:0:0:
64,192,26861,1,0,0:0:0:0:
192,192,26909,1,0,0:0:0:0:
320,192,26957,1,0,0:0:0:0:
64,192,27006,1,0,0:0:0:0:
448,192,27054,1,0,0:0:0:0:
320,192,27103,1,0,0:0:0:0:
192,192,27157,1,0,0:0:0:0:
64,192,27212,1,0,0:0:0:0:
448,192,27212,1,0,0:0:0:0:
64,192,27321,1,0,0:0:0:0:
448,192,27321,1,0,0:0:0:0:
320,192,27430,1,0,0:0:0:0:
192,192,27430,1,0,0:0:0:0:
320,192,27539,1,0,0:0:0:0:
192,192,27539,1,0,0:0:0:0:
192,192,27648,1,0,0:0:0:0:
64,192,27648,1,0,0:0:0:0:
192,192,27757,1,0,0:0:0:0:
64,192,27757,1,0,0:0:0:0:
320,192,27866,1,0,0:0:0:0:
320,192,27975,1,0,0:0:0:0:
192,192,27975,1,0,0:0:0:0:
192,192,28085,1,0,0:0:0:0:
64,192,28085,1,0,0:0:0:0:
448,192,28085,1,0,0:0:0:0:
64,192,28194,1,0,0:0:0:0:
320,192,28194,1,0,0:0:0:0:
192,192,28303,1,0,0:0:0:0:
320,192,28412,1,0,0:0:0:0:
448,192,28412,1,0,0:0:0:0:
448,192,28521,1,0,0:0:0:0:
64,192,28521,1,0,0:0:0:0:
320,192,28594,1,0,0:0:0:0:
64,192,28630,1,0,0:0:0:0:
448,192,28666,1,0,0:0:0:0:
320,192,28739,1,0,0:0:0:0:
192,192,28739,1,0,0:0:0:0:
192,192,28848,1,0,0:0:0:0:
64,192,28848,1,0,0:0:0:0:
448,192,28897,1,0,0:0:0:0:
320,192,28945,1,0,0:0:0:0:
192,192,28994,1,0,0:0:0:0:
64,192,28994,1,0,0:0:0:0:
320,192,29043,1,0,0:0:0:0:
192,192,29091,1,0,0:0:0:0:
448,192,29139,1,0,0:0:0:0:
64,192,29188,1,0,0:0:0:0:
320,192,29188,1,0,0:0:0:0:
192,192,29236,1,0,0:0:0:0:
448,192,29285,1,0,0:0:0:0:
320,192,29333,1,0,0:0:0:0:
64,192,29394,1,0,0:0:0:0:
192,192,29394,1,0,0:0:0:0:
192,192,29475,1,0,0:0:0:0:
64,192,29475,1,0,0:0:0:0:
64,192,29585,1,0,0:0:0:0:
320,192,29612,1,0,0:0:0:0:
320,192,29721,1,0,0:0:0:0:
192,192,29721,1,0,0:0:0:0:
64,192,29830,1,0,0:0:0:0:
448,192,29830,1,0,0:0:0:0:
192,192,29885,1,0,0:0:0:0:
448,192,29939,1,0,0:0:0:0:
320,192,29994,1,0,0:0:0:0:
192,192,30048,1,0,0:0:0:0:
64,192,30048,1,0,0:0:0:0:
320,192,30157,1,0,0:0:0:0:
448,192,30157,1,0,0:0:0:0:
192,192,30206,1,0,0:0:0:0:
64,192,30254,1,0,0:0:0:0:
192,192,30303,1,0,0:0:0:0:
448,192,30303,1,0,0:0:0:0:
320,192,30352,1,0,0:0:0:0:
448,192,30400,1,0,0:0:0:0:
320,192,30448,1,0,0:0:0:0:
64,192,30497,1,0,0:0:0:0:
192,192,30545,1,0,0:0:0:0:
448,192,30594,1,0,0:0:0:0:
320,192,30648,1,0,0:0:0:0:
64,192,30703,1,0,0:0:0:0:
192,192,30703,1,0,0:0:0:0:
320,192,30757,1,0,0:0:0:0:
192,192,30812,1,0,0:0:0:0:
64,192,30866,1,0,0:0:0:0:
448,192,30921,1,0,0:0:0:0:
320,192,30921,1,0,0:0:0:0:
192,192,30975,1,0,0:0:0:0:
448,192,31030,1,0,0:0:0:0:
320,192,31085,1,0,0:0:0:0:
64,192,31139,1,0,0:0:0:0:
192,192,31139,1,0,0:0:0:0:
64,192,31248,1,0,0:0:0:0:
448,192,31248,1,0,0:0:0:0:
320,192,31357,128,0,31521:0:0:0:0:
64,192,31357,1,0,0:0:0:0:
192,192,31466,1,0,0:0:0:0:
320,192,31575,1,0,0:0:0:0:
448,192,31575,1,0,0:0:0:0:
64,192,31575,1,0,0:0:0:0:
320,192,31685,1,0,0:0:0:0:
448,192,31685,1,0,0:0:0:0:
64,192,31685,1,0,0:0:0:0:
320,192,31794,1,0,0:0:0:0:
192,192,31903,1,0,0:0:0:0:
192,192,32012,1,0,0:0:0:0:
64,192,32012,1,0,0:0:0:0:
320,192,32048,1,0,0:0:0:0:
448,192,32085,1,0,0:0:0:0:
320,192,32121,1,0,0:0:0:0:
192,192,32157,1,0,0:0:0:0:
64,192,32194,1,0,0:0:0:0:
448,192,32230,1,0,0:0:0:0:
192,192,32266,1,0,0:0:0:0:
320,192,32303,1,0,0:0:0:0:
448,192,32339,1,0,0:0:0:0:
64,192,32394,1,0,0:0:0:0:
320,192,32448,1,0,0:0:0:0:
192,192,32448,1,0,0:0:0:0:
64,192,32533,1,0,0:0:0:0:
448,192,32582,1,0,0:0:0:0:
320,192,32582,1,0,0:0:0:0:
192,192,32612,1,0,0:0:0:0:
448,192,32679,1,0,0:0:0:0:
320,192,32727,1,0,0:0:0:0:
192,192,32775,1,0,0:0:0:0:
64,192,32775,1,0,0:0:0:0:
64,192,32873,1,0,0:0:0:0:
192,192,32873,1,0,0:0:0:0:
192,192,32970,1,0,0:0:0:0:
64,192,32970,1,0,0:0:0:0:
320,192,33018,1,0,0:0:0:0:
448,192,33066,1,0,0:0:0:0:
320,192,33157,1,0,0:0:0:0:
192,192,33212,1,0,0:0:0:0:
64,192,33212,1,0,0:0:0:0:
448,192,33248,1,0,0:0:0:0:
320,192,33285,1,0,0:0:0:0:
64,192,33321,1,0,0:0:0:0:
448,192,33357,1,0,0:0:0:0:
192,192,33394,1,0,0:0:0:0:
64,192,33454,1,0,0:0:0:0:
192,192,33503,1,0,0:0:0:0:
320,192,33552,1,0,0:0:0:0:
448,192,33600,1,0,0:0:0:0:
64,192,33649,1,0,0:0:0:0:
320,192,33704,1,0,0:0:0:0:
192,192,33760,1,0,0:0:0:0:
64,192,33760,1,0,0:0:0:0:
448,192,33798,1,0,0:0:0:0:
320,192,33835,1,0,0:0:0:0:
192,192,33872,1,0,0:0:0:0:
448,192,33909,1,0,0:0:0:0:
64,192,33947,1,0,0:0:0:0:
192,192,33984,1,0,0:0:0:0:
448,192,34021,1,0,0:0:0:0:
320,192,34058,1,0,0:0:0:0:
64,192,34096,1,0,0:0:0:0:
192,192,34151,1,0,0:0:0:0:
320,192,34207,1,0,0:0:0:0:
448,192,34207,1,0,0:0:0:0:
64,192,34294,1,0,0:0:0:0:
320,192,34344,1,0,0:0:0:0:
448,192,34344,1,0,0:0:0:0:
192,192,34394,1,0,0:0:0:0:
64,192,34443,1,0,0:0:0:0:
192,192,34493,1,0,0:0:0:0:
320,192,34543,1,0,0:0:0:0:
448,192,34543,1,0,0:0:0:0:
320,192,34641,1,0,0:0:0:0:
448,192,34641,1,0,0:0:0:0:
320,192,34739,1,0,0:0:0:0:
448,192,34739,1,0,0:0:0:0:
192,192,34789,1,0,0:0:0:0:
64,192,34838,1,0,0:0:0:0:
192,192,34931,1,0,0:0:0:0:
320,192,34986,1,0,0:0:0:0:
448,192,34986,1,0,0:0:0:0:
64,192,35035,1,0,0:0:0:0:
192,192,35084,1,0,0:0:0:0:
320,192,35134,1,0,0:0:0:0:
64,192,35183,1,0,0:0:0:0:
448,192,35183,1,0,0:0:0:0:
320,192,35232,1,0,0:0:0:0:
192,192,35282,1,0,0:0:0:0:
64,192,35331,1,0,0:0:0:0:
448,192,35356,1,0,0:0:0:0:
320,192,35429,1,0,0:0:0:0:
192,192,35485,1,0,0:0:0:0:
320,192,35540,1,0,0:0:0:0:
448,192,35540,1,0,0:0:0:0:
64,192,35577,1,0,0:0:0:0:
192,192,35614,1,0,0:0:0:0:
320,192,35651,1,0,0:0:0:0:
448,192,35688,1,0,0:0:0:0:
64,192,35725,1,0,0:0:0:0:
320,192,35762,1,0,0:0:0:0:
192,192,35799,1,0,0:0:0:0:
64,192,35836,1,0,0:0:0:0:
192,192,35873,1,0,0:0:0:0:
320,192,35928,1,0,0:0:0:0:
448,192,35984,1,0,0:0:0:0:
64,192,35984,1,0,0:0:0:0:
192,192,36119,1,0,0:0:0:0:
320,192,36119,1,0,0:0:0:0:
448,192,36169,1,0,0:0:0:0:
320,192,36217,1,0,0:0:0:0:
192,192,36267,1,0,0:0:0:0:
64,192,36316,1,0,0:0:0:0:
448,192,36316,1,0,0:0:0:0:
64,192,36414,1,0,0:0:0:0:
448,192,36414,1,0,0:0:0:0:
448,192,36513,1,0,0:0:0:0:
64,192,36513,1,0,0:0:0:0:
192,192,36563,1,0,0:0:0:0:
320,192,36649,1,0,0:0:0:0:
448,192,36649,1,0,0:0:0:0:
192,192,36760,1,0,0:0:0:0:
64,192,36760,1,0,0:0:0:0:
448,192,36814,1,0,0:0:0:0:
192,192,36869,1,0,0:0:0:0:
64,192,36923,1,0,0:0:0:0:
320,192,36978,1,0,0:0:0:0:
448,192,36978,1,0,0:0:0:0:
192,192,37032,1,0,0:0:0:0:
448,192,37087,1,0,0:0:0:0:
320,192,37141,1,0,0:0:0:0:
192,192,37196,1,0,0:0:0:0:
64,192,37196,1,0,0:0:0:0:
448,192,37250,1,0,0:0:0:0:
64,192,37305,1,0,0:0:0:0:
192,192,37341,1,0,0:0:0:0:
320,192,37378,1,0,0:0:0:0:
448,192,37414,1,0,0:0:0:0:
64,192,37450,1,0,0:0:0:0:
320,192,37487,1,0,0:0:0:0:
192,192,37535,1,0,0:0:0:0:
448,192,37583,1,0,0:0:0:0:
64,192,37632,1,0,0:0:0:0:
192,192,37681,1,0,0:0:0:0:
320,192,37729,1,0,0:0:0:0:
448,192,37729,1,0,0:0:0:0:
64,192,37778,1,0,0:0:0:0:
320,192,37826,1,0,0:0:0:0:
192,192,37874,1,0,0:0:0:0:
448,192,37923,1,0,0:0:0:0:
192,192,37972,1,0,0:0:0:0:
320,192,38020,1,0,0:0:0:0:
64,192,38069,1,0,0:0:0:0:
448,192,38117,1,0,0:0:0:0:
64,192,38165,1,0,0:0:0:0:
192,192,38214,1,0,0:0:0:0:
320,192,38263,1,0,0:0:0:0:
448,192,38311,1,0,0:0:0:0:
192,192,38396,1,0,0:0:0:0:
64,192,38396,1,0,0:0:0:0:
320,192,38450,1,0,0:0:0:0:
192,192,38505,1,0,0:0:0:0:
320,192,38614,1,0,0:0:0:0:
448,192,38614,1,0,0:0:0:0:
64,192,38614,1,0,0:0:0:0:
192,192,38723,128,0,38832:0:0:0:0:
320,192,38723,128,0,38832:0:0:0:0:
448,192,38723,128,0,38832:0:0:0:0:
192,192,38941,128,0,39050:0:0:0:0:
64,192,38941,128,0,39050:0:0:0:0:
320,192,38941,128,0,39050:0:0:0:0:
192,192,39160,1,0,0:0:0:0:
192,192,39269,1,0,0:0:0:0:
320,192,39378,1,0,0:0:0:0:
448,192,39378,1,0,0:0:0:0:
64,192,39426,1,0,0:0:0:0:
320,192,39474,1,0,0:0:0:0:
192,192,39523,1,0,0:0:0:0:
448,192,39572,1,0,0:0:0:0:
64,192,39572,1,0,0:0:0:0:
320,192,39620,1,0,0:0:0:0:
64,192,39669,1,0,0:0:0:0:
192,192,39717,1,0,0:0:0:0:
448,192,39765,1,0,0:0:0:0:
320,192,39814,1,0,0:0:0:0:
192,192,39863,1,0,0:0:0:0:
64,192,39923,1,0,0:0:0:0:
448,192,39923,1,0,0:0:0:0:
448,192,40005,1,0,0:0:0:0:
64,192,40005,1,0,0:0:0:0:
448,192,40114,1,0,0:0:0:0:
192,192,40141,1,0,0:0:0:0:
192,192,40250,1,0,0:0:0:0:
320,192,40250,1,0,0:0:0:0:
448,192,40360,1,0,0:0:0:0:
64,192,40360,1,0,0:0:0:0:
320,192,40414,1,0,0:0:0:0:
64,192,40469,1,0,0:0:0:0:
192,192,40523,1,0,0:0:0:0:
448,192,40578,1,0,0:0:0:0:
320,192,40578,1,0,0:0:0:0:
192,192,40687,1,0,0:0:0:0:
64,192,40687,1,0,0:0:0:0:
320,192,40735,1,0,0:0:0:0:
448,192,40783,1,0,0:0:0:0:
320,192,40832,1,0,0:0:0:0:
64,192,40832,1,0,0:0:0:0:
192,192,40881,1,0,0:0:0:0:
64,192,40929,1,0,0:0:0:0:
448,192,40978,1,0,0:0:0:0:
192,192,41026,1,0,0:0:0:0:
320,192,41074,1,0,0:0:0:0:
448,192,41123,1,0,0:0:0:0:
64,192,41178,1,0,0:0:0:0:
192,192,41232,1,0,0:0:0:0:
320,192,41232,1,0,0:0:0:0:
64,192,41287,1,0,0:0:0:0:
448,192,41341,1,0,0:0:0:0:
320,192,41396,1,0,0:0:0:0:
192,192,41450,1,0,0:0:0:0:
64,192,41505,1,0,0:0:0:0:
448,192,41559,1,0,0:0:0:0:
320,192,41559,1,0,0:0:0:0:
448,192,41669,1,0,0:0:0:0:
320,192,41669,1,0,0:0:0:0:
192,192,41669,1,0,0:0:0:0:
320,192,41778,1,0,0:0:0:0:
448,192,41778,1,0,0:0:0:0:
192,192,41778,1,0,0:0:0:0:
192,192,41887,1,0,0:0:0:0:
64,192,41887,1,0,0:0:0:0:
192,192,41996,1,0,0:0:0:0:
320,192,42105,1,0,0:0:0:0:
448,192,42105,1,0,0:0:0:0:
64,192,42105,1,0,0:0:0:0:
320,192,42214,1,0,0:0:0:0:
192,192,42214,1,0,0:0:0:0:
192,192,42323,1,0,0:0:0:0:
320,192,42432,1,0,0:0:0:0:
448,192,42432,1,0,0:0:0:0:
320,192,42541,1,0,0:0:0:0:
64,192,42650,1,0,0:0:0:0:
448,192,42650,1,0,0:0:0:0:
192,192,42759,1,0,0:0:0:0:
64,192,42759,1,0,0:0:0:0:
320,192,42869,1,0,0:0:0:0:
448,192,42869,1,0,0:0:0:0:
64,192,42917,1,0,0:0:0:0:
448,192,42965,1,0,0:0:0:0:
320,192,43014,1,0,0:0:0:0:
64,192,43063,1,0,0:0:0:0:
192,192,43063,1,0,0:0:0:0:
448,192,43111,1,0,0:0:0:0:
192,192,43159,1,0,0:0:0:0:
320,192,43208,1,0,0:0:0:0:
64,192,43256,1,0,0:0:0:0:
192,192,43305,1,0,0:0:0:0:
320,192,43353,1,0,0:0:0:0:
448,192,43414,1,0,0:0:0:0:
64,192,43414,1,0,0:0:0:0:
448,192,43496,1,0,0:0:0:0:
64,192,43496,1,0,0:0:0:0:
64,192,43605,1,0,0:0:0:0:
192,192,43632,1,0,0:0:0:0:
320,192,43741,1,0,0:0:0:0:
448,192,43741,1,0,0:0:0:0:
320,192,43850,1,0,0:0:0:0:
192,192,43850,1,0,0:0:0:0:
64,192,43905,1,0,0:0:0:0:
192,192,43959,1,0,0:0:0:0:
320,192,44014,1,0,0:0:0:0:
64,192,44069,1,0,0:0:0:0:
448,192,44069,1,0,0:0:0:0:
320,192,44178,1,0,0:0:0:0:
448,192,44178,1,0,0:0:0:0:
64,192,44226,1,0,0:0:0:0:
192,192,44274,1,0,0:0:0:0:
448,192,44274,1,0,0:0:0:0:
320,192,44323,1,0,0:0:0:0:
64,192,44372,1,0,0:0:0:0:
448,192,44420,1,0,0:0:0:0:
320,192,44469,1,0,0:0:0:0:
192,192,44517,1,0,0:0:0:0:
320,192,44565,1,0,0:0:0:0:
192,192,44614,1,0,0:0:0:0:
64,192,44669,1,0,0:0:0:0:
320,192,44723,1,0,0:0:0:0:
448,192,44723,1,0,0:0:0:0:
192,192,44778,1,0,0:0:0:0:
448,192,44832,1,0,0:0:0:0:
64,192,44887,1,0,0:0:0:0:
320,192,44905,1,0,0:0:0:0:
192,192,44941,1,0,0:0:0:0:
448,192,44996,1,0,0:0:0:0:
320,192,45050,1,0,0:0:0:0:
192,192,45105,1,0,0:0:0:0:
448,192,45159,1,0,0:0:0:0:
64,192,45159,1,0,0:0:0:0:
64,192,45269,1,0,0:0:0:0:
448,192,45269,1,0,0:0:0:0:
320,192,45378,1,0,0:0:0:0:
192,192,45378,1,0,0:0:0:0:
192,192,45487,1,0,0:0:0:0:
320,192,45596,1,0,0:0:0:0:
448,192,45596,1,0,0:0:0:0:
64,192,45596,1,0,0:0:0:0:
320,192,45705,1,0,0:0:0:0:
448,192,45705,1,0,0:0:0:0:
192,192,45705,1,0,0:0:0:0:
320,192,45814,1,0,0:0:0:0:
448,192,45923,1,0,0:0:0:0:
64,192,45923,1,0,0:0:0:0:
192,192,45923,1,0,0:0:0:0:
192,192,46032,1,0,0:0:0:0:
320,192,46141,1,0,0:0:0:0:
64,192,46141,1,0,0:0:0:0:
320,192,46250,1,0,0:0:0:0:
448,192,46250,1,0,0:0:0:0:
192,192,46359,1,0,0:0:0:0:
64,192,46359,1,0,0:0:0:0:
448,192,46408,1,0,0:0:0:0:
64,192,46456,1,0,0:0:0:0:
320,192,46505,1,0,0:0:0:0:
192,192,46553,1,0,0:0:0:0:
448,192,46602,1,0,0:0:0:0:
320,192,46602,1,0,0:0:0:0:
64,192,46650,1,0,0:0:0:0:
192,192,46699,1,0,0:0:0:0:
320,192,46747,1,0,0:0:0:0:
448,192,46796,1,0,0:0:0:0:
64,192,46850,1,0,0:0:0:0:
192,192,46905,1,0,0:0:0:0:
320,192,46905,1,0,0:0:0:0:
192,192,46987,1,0,0:0:0:0:
320,192,46987,1,0,0:0:0:0:
192,192,47096,1,0,0:0:0:0:
64,192,47123,1,0,0:0:0:0:
320,192,47232,1,0,0:0:0:0:
448,192,47232,1,0,0:0:0:0:
448,192,47341,1,0,0:0:0:0:
64,192,47341,1,0,0:0:0:0:
320,192,47396,1,0,0:0:0:0:
64,192,47450,1,0,0:0:0:0:
192,192,47505,1,0,0:0:0:0:
448,192,47559,1,0,0:0:0:0:
320,192,47559,1,0,0:0:0:0:
192,192,47669,1,0,0:0:0:0:
64,192,47669,1,0,0:0:0:0:
448,192,47717,1,0,0:0:0:0:
320,192,47765,1,0,0:0:0:0:
192,192,47814,1,0,0:0:0:0:
64,192,47863,1,0,0:0:0:0:
448,192,47911,1,0,0:0:0:0:
320,192,47911,1,0,0:0:0:0:
192,192,47959,1,0,0:0:0:0:
448,192,48008,1,0,0:0:0:0:
64,192,48056,1,0,0:0:0:0:
192,192,48105,1,0,0:0:0:0:
448,192,48159,1,0,0:0:0:0:
64,192,48214,1,0,0:0:0:0:
320,192,48214,1,0,0:0:0:0:
192,192,48269,1,0,0:0:0:0:
448,192,48323,1,0,0:0:0:0:
320,192,48378,1,0,0:0:0:0:
192,192,48432,1,0,0:0:0:0:
64,192,48432,1,0,0:0:0:0:
448,192,48487,1,0,0:0:0:0:
192,192,48541,1,0,0:0:0:0:
64,192,48596,1,0,0:0:0:0:
448,192,48650,1,0,0:0:0:0:
320,192,48650,1,0,0:0:0:0:
320,192,48759,1,0,0:0:0:0:
448,192,48759,1,0,0:0:0:0:
320,192,48869,1,0,0:0:0:0:
192,192,48869,128,0,49033:0:0:0:0:
448,192,48978,1,0,0:0:0:0:
320,192,49089,1,0,0:0:0:0:
192,192,49089,1,0,0:0:0:0:
64,192,49089,1,0,0:0:0:0:
320,192,49201,1,0,0:0:0:0:
192,192,49201,1,0,0:0:0:0:
64,192,49201,1,0,0:0:0:0:
320,192,49313,1,0,0:0:0:0:
448,192,49313,1,0,0:0:0:0:
320,192,49425,1,0,0:0:0:0:
448,192,49425,1,0,0:0:0:0:
192,192,49530,1,0,0:0:0:0:
64,192,49530,1,0,0:0:0:0:
448,192,49565,1,0,0:0:0:0:
320,192,49601,1,0,0:0:0:0:
192,192,49636,1,0,0:0:0:0:
64,192,49671,1,0,0:0:0:0:
192,192,49706,1,0,0:0:0:0:
320,192,49742,1,0,0:0:0:0:
64,192,49777,1,0,0:0:0:0:
448,192,49812,1,0,0:0:0:0:
320,192,49847,1,0,0:0:0:0:
192,192,49900,1,0,0:0:0:0:
64,192,49953,1,0,0:0:0:0:
448,192,49953,1,0,0:0:0:0:
448,192,50059,1,0,0:0:0:0:
320,192,50083,1,0,0:0:0:0:
192,192,50129,1,0,0:0:0:0:
64,192,50176,1,0,0:0:0:0:
192,192,50223,1,0,0:0:0:0:
448,192,50270,1,0,0:0:0:0:
320,192,50270,1,0,0:0:0:0:
64,192,50323,1,0,0:0:0:0:
192,192,50349,1,0,0:0:0:0:
320,192,50364,1,0,0:0:0:0:
448,192,50364,1,0,0:0:0:0:
320,192,50458,1,0,0:0:0:0:
448,192,50458,1,0,0:0:0:0:
192,192,50505,1,0,0:0:0:0:
64,192,50552,1,0,0:0:0:0:
192,192,50640,1,0,0:0:0:0:
320,192,50693,1,0,0:0:0:0:
448,192,50693,1,0,0:0:0:0:
64,192,50728,1,0,0:0:0:0:
192,192,50763,1,0,0:0:0:0:
448,192,50799,1,0,0:0:0:0:
320,192,50834,1,0,0:0:0:0:
192,192,50869,1,0,0:0:0:0:
448,192,50928,1,0,0:0:0:0:
64,192,50975,1,0,0:0:0:0:
192,192,51010,1,0,0:0:0:0:
320,192,51063,1,0,0:0:0:0:
192,192,51116,1,0,0:0:0:0:
320,192,51163,1,0,0:0:0:0:
448,192,51210,1,0,0:0:0:0:
64,192,51257,1,0,0:0:0:0:
192,192,51327,1,0,0:0:0:0:
320,192,51327,1,0,0:0:0:0:
448,192,51362,1,0,0:0:0:0:
64,192,51398,1,0,0:0:0:0:
192,192,51433,1,0,0:0:0:0:
320,192,51468,1,0,0:0:0:0:
64,192,51503,1,0,0:0:0:0:
448,192,51539,1,0,0:0:0:0:
320,192,51574,1,0,0:0:0:0:
192,192,51609,1,0,0:0:0:0:
64,192,51644,1,0,0:0:0:0:
192,192,51697,1,0,0:0:0:0:
320,192,51750,1,0,0:0:0:0:
448,192,51750,1,0,0:0:0:0:
448,192,51868,1,0,0:0:0:0:
64,192,51868,1,0,0:0:0:0:
192,192,51915,1,0,0:0:0:0:
320,192,51961,1,0,0:0:0:0:
448,192,52009,1,0,0:0:0:0:
320,192,52056,1,0,0:0:0:0:
192,192,52102,1,0,0:0:0:0:
64,192,52102,1,0,0:0:0:0:
192,192,52197,1,0,0:0:0:0:
64,192,52197,1,0,0:0:0:0:
192,192,52291,1,0,0:0:0:0:
64,192,52291,1,0,0:0:0:0:
448,192,52349,1,0,0:0:0:0:
320,192,52384,1,0,0:0:0:0:
192,192,52437,1,0,0:0:0:0:
64,192,52490,1,0,0:0:0:0:
192,192,52561,1,0,0:0:0:0:
448,192,52596,1,0,0:0:0:0:
320,192,52596,1,0,0:0:0:0:
320,192,52701,1,0,0:0:0:0:
448,192,52754,1,0,0:0:0:0:
64,192,52807,1,0,0:0:0:0:
192,192,52807,1,0,0:0:0:0:
320,192,52860,1,0,0:0:0:0:
64,192,52913,1,0,0:0:0:0:
192,192,52966,1,0,0:0:0:0:
320,192,53019,1,0,0:0:0:0:
448,192,53019,1,0,0:0:0:0:
64,192,53054,1,0,0:0:0:0:
448,192,53089,1,0,0:0:0:0:
192,192,53124,1,0,0:0:0:0:
320,192,53160,1,0,0:0:0:0:
448,192,53230,1,0,0:0:0:0:
192,192,53283,1,0,0:0:0:0:
64,192,53283,1,0,0:0:0:0:
320,192,53300,1,0,0:0:0:0:
192,192,53362,1,0,0:0:0:0:
320,192,53494,1,0,0:0:0:0:
448,192,53494,1,0,0:0:0:0:
64,192,53494,1,0,0:0:0:0:
448,192,53582,1,0,0:0:0:0:
192,192,53653,1,0,0:0:0:0:
64,192,53653,1,0,0:0:0:0:
320,192,53706,1,0,0:0:0:0:
192,192,53759,1,0,0:0:0:0:
448,192,53864,1,0,0:0:0:0:
64,192,53864,1,0,0:0:0:0:
192,192,53899,1,0,0:0:0:0:
320,192,53935,1,0,0:0:0:0:
448,192,53970,1,0,0:0:0:0:
64,192,54005,1,0,0:0:0:0:
320,192,54040,1,0,0:0:0:0:
192,192,54076,1,0,0:0:0:0:
448,192,54132,1,0,0:0:0:0:
192,192,54187,1,0,0:0:0:0:
64,192,54224,1,0,0:0:0:0:
320,192,54298,1,0,0:0:0:0:
448,192,54298,1,0,0:0:0:0:
192,192,54298,1,0,0:0:0:0:
64,192,54409,1,0,0:0:0:0:
320,192,54409,1,0,0:0:0:0:
320,192,54520,1,0,0:0:0:0:
448,192,54520,1,0,0:0:0:0:
320,192,54629,1,0,0:0:0:0:
448,192,54629,1,0,0:0:0:0:
320,192,54738,1,0,0:0:0:0:
448,192,54738,1,0,0:0:0:0:
192,192,54847,1,0,0:0:0:0:
64,192,54847,1,0,0:0:0:0:
448,192,54907,1,0,0:0:0:0:
320,192,54956,1,0,0:0:0:0:
192,192,55004,1,0,0:0:0:0:
64,192,55004,1,0,0:0:0:0:
448,192,55053,1,0,0:0:0:0:
64,192,55101,1,0,0:0:0:0:
192,192,55150,1,0,0:0:0:0:
320,192,55198,1,0,0:0:0:0:
448,192,55247,1,0,0:0:0:0:
320,192,55295,1,0,0:0:0:0:
64,192,55295,1,0,0:0:0:0:
192,192,55343,1,0,0:0:0:0:
64,192,55392,1,0,0:0:0:0:
448,192,55441,1,0,0:0:0:0:
192,192,55489,1,0,0:0:0:0:
320,192,55538,1,0,0:0:0:0:
192,192,55610,1,0,0:0:0:0:
64,192,55610,1,0,0:0:0:0:
448,192,55665,1,0,0:0:0:0:
64,192,55732,1,0,0:0:0:0:
192,192,55780,1,0,0:0:0:0:
320,192,55829,1,0,0:0:0:0:
448,192,55877,1,0,0:0:0:0:
192,192,55938,1,0,0:0:0:0:
64,192,55938,1,0,0:0:0:0:
320,192,55992,1,0,0:0:0:0:
192,192,56047,1,0,0:0:0:0:
64,192,56156,1,0,0:0:0:0:
448,192,56156,1,0,0:0:0:0:
320,192,56156,1,0,0:0:0:0:
192,192,56265,128,0,56487:0:0:0:0:
320,192,56265,128,0,56487:0:0:0:0:
320,192,56532,1,0,0:0:0:0:
448,192,56532,1,0,0:0:0:0:
192,192,56623,1,0,0:0:0:0:
64,192,56623,1,0,0:0:0:0:
448,192,56661,1,0,0:0:0:0:
320,192,56700,1,0,0:0:0:0:
192,192,56738,1,0,0:0:0:0:
64,192,56777,1,0,0:0:0:0:
448,192,56815,1,0,0:0:0:0:
320,192,56854,1,0,0:0:0:0:
192,192,56892,1,0,0:0:0:0:
64,192,56931,1,0,0:0:0:0:
320,192,56969,1,0,0:0:0:0:
448,192,57008,1,0,0:0:0:0:
64,192,57046,1,0,0:0:0:0:
192,192,57084,1,0,0:0:0:0:
448,192,57132,1,0,0:0:0:0:
192,192,57180,1,0,0:0:0:0:
320,192,57228,1,0,0:0:0:0:
64,192,57276,1,0,0:0:0:0:
448,192,57324,1,0,0:0:0:0:
320,192,57372,1,0,0:0:0:0:
64,192,57408,1,0,0:0:0:0:
192,192,57408,1,0,0:0:0:0:
448,192,57516,1,0,0:0:0:0:
320,192,57516,1,0,0:0:0:0:
192,192,57625,1,0,0:0:0:0:
320,192,57625,1,0,0:0:0:0:
448,192,57625,1,0,0:0:0:0:
192,192,57733,1,0,0:0:0:0:
64,192,57733,1,0,0:0:0:0:
320,192,57733,1,0,0:0:0:0:
192,192,57841,1,0,0:0:0:0:
64,192,57841,1,0,0:0:0:0:
64,192,57950,1,0,0:0:0:0:
448,192,57950,1,0,0:0:0:0:
192,192,57950,1,0,0:0:0:0:
320,192,57950,1,0,0:0:0:0:
320,192,58061,1,0,0:0:0:0:
448,192,58061,1,0,0:0:0:0:
192,192,58061,1,0,0:0:0:0:
320,192,58173,1,0,0:0:0:0:
192,192,58285,1,0,0:0:0:0:
64,192,58285,1,0,0:0:0:0:
448,192,58297,1,0,0:0:0:0:
320,192,58347,1,0,0:0:0:0:
192,192,58397,1,0,0:0:0:0:
64,192,58446,1,0,0:0:0:0:
448,192,58446,1,0,0:0:0:0:
192,192,58496,1,0,0:0:0:0:
320,192,58536,1,0,0:0:0:0:
448,192,58595,1,0,0:0:0:0:
320,192,58645,1,0,0:0:0:0:
192,192,58695,1,0,0:0:0:0:
64,192,58695,1,0,0:0:0:0:
448,192,58744,1,0,0:0:0:0:
64,192,58793,1,0,0:0:0:0:
192,192,58844,1,0,0:0:0:0:
448,192,58893,1,0,0:0:0:0:
320,192,58943,1,0,0:0:0:0:
192,192,58993,1,0,0:0:0:0:
64,192,58993,1,0,0:0:0:0:
448,192,59043,1,0,0:0:0:0:
192,192,59092,1,0,0:0:0:0:
320,192,59123,1,0,0:0:0:0:
64,192,59192,1,0,0:0:0:0:
448,192,59207,1,0,0:0:0:0:
320,192,59241,1,0,0:0:0:0:
64,192,59291,1,0,0:0:0:0:
192,192,59291,1,0,0:0:0:0:
448,192,59341,1,0,0:0:0:0:
320,192,59390,1,0,0:0:0:0:
192,192,59440,1,0,0:0:0:0:
448,192,59489,1,0,0:0:0:0:
64,192,59539,1,0,0:0:0:0:
192,192,59589,1,0,0:0:0:0:
320,192,59638,1,0,0:0:0:0:
448,192,59638,1,0,0:0:0:0:
64,192,59688,1,0,0:0:0:0:
320,192,59738,1,0,0:0:0:0:
448,192,59738,1,0,0:0:0:0:
192,192,59791,1,0,0:0:0:0:
448,192,59858,1,0,0:0:0:0:
64,192,59878,1,0,0:0:0:0:
320,192,59948,1,0,0:0:0:0:
192,192,60053,1,0,0:0:0:0:
64,192,60053,1,0,0:0:0:0:
320,192,60158,1,0,0:0:0:0:
448,192,60158,1,0,0:0:0:0:
64,192,60196,1,0,0:0:0:0:
192,192,60234,1,0,0:0:0:0:
320,192,60272,1,0,0:0:0:0:
448,192,60310,1,0,0:0:0:0:
192,192,60348,1,0,0:0:0:0:
320,192,60387,1,0,0:0:0:0:
64,192,60425,1,0,0:0:0:0:
448,192,60463,1,0,0:0:0:0:
320,192,60501,1,0,0:0:0:0:
192,192,60539,1,0,0:0:0:0:
64,192,60578,1,0,0:0:0:0:
448,192,60616,1,0,0:0:0:0:
192,192,60665,1,0,0:0:0:0:
320,192,60714,1,0,0:0:0:0:
192,192,60763,1,0,0:0:0:0:
448,192,60813,1,0,0:0:0:0:
64,192,60863,1,0,0:0:0:0:
192,192,60911,1,0,0:0:0:0:
320,192,60948,1,0,0:0:0:0:
448,192,60948,1,0,0:0:0:0:
192,192,61059,1,0,0:0:0:0:
64,192,61059,1,0,0:0:0:0:
192,192,61170,1,0,0:0:0:0:
64,192,61170,1,0,0:0:0:0:
320,192,61170,1,0,0:0:0:0:
320,192,61281,1,0,0:0:0:0:
448,192,61281,1,0,0:0:0:0:
192,192,61281,1,0,0:0:0:0:
320,192,61392,1,0,0:0:0:0:
448,192,61392,1,0,0:0:0:0:
192,192,61502,1,0,0:0:0:0:
64,192,61502,1,0,0:0:0:0:
320,192,61502,1,0,0:0:0:0:
448,192,61502,1,0,0:0:0:0:
192,192,61613,1,0,0:0:0:0:
64,192,61613,1,0,0:0:0:0:
320,192,61613,1,0,0:0:0:0:
192,192,61724,1,0,0:0:0:0:
448,192,61835,1,0,0:0:0:0:
192,192,61890,1,0,0:0:0:0:
448,192,61946,1,0,0:0:0:0:
320,192,61946,1,0,0:0:0:0:
64,192,62001,1,0,0:0:0:0:
320,192,62056,1,0,0:0:0:0:
64,192,62110,1,0,0:0:0:0:
192,192,62165,1,0,0:0:0:0:
448,192,62165,1,0,0:0:0:0:
320,192,62219,1,0,0:0:0:0:
192,192,62274,1,0,0:0:0:0:
320,192,62328,1,0,0:0:0:0:
448,192,62383,1,0,0:0:0:0:
64,192,62383,1,0,0:0:0:0:
192,192,62437,1,0,0:0:0:0:
320,192,62492,1,0,0:0:0:0:
192,192,62547,1,0,0:0:0:0:
448,192,62601,1,0,0:0:0:0:
64,192,62601,1,0,0:0:0:0:
64,192,62710,1,0,0:0:0:0:
448,192,62710,1,0,0:0:0:0:
64,192,62819,1,0,0:0:0:0:
192,192,62819,1,0,0:0:0:0:
448,192,62819,1,0,0:0:0:0:
320,192,62819,1,0,0:0:0:0:
320,192,62928,1,0,0:0:0:0:
192,192,62928,1,0,0:0:0:0:
192,192,63037,1,0,0:0:0:0:
320,192,63037,1,0,0:0:0:0:
320,192,63147,1,0,0:0:0:0:
64,192,63147,1,0,0:0:0:0:
448,192,63256,1,0,0:0:0:0:
192,192,63256,1,0,0:0:0:0:
64,192,63256,1,0,0:0:0:0:
448,192,63366,128,0,63588:0:0:0:0:
320,192,63366,128,0,63588:0:0:0:0:
192,192,63477,1,0,0:0:0:0:
192,192,63588,1,0,0:0:0:0:
320,192,63700,1,0,0:0:0:0:
448,192,63700,1,0,0:0:0:0:
64,192,63736,1,0,0:0:0:0:
192,192,63773,1,0,0:0:0:0:
320,192,63809,1,0,0:0:0:0:
448,192,63846,1,0,0:0:0:0:
320,192,63883,1,0,0:0:0:0:
192,192,63919,1,0,0:0:0:0:
64,192,63956,1,0,0:0:0:0:
448,192,63993,1,0,0:0:0:0:
192,192,64029,1,0,0:0:0:0:
320,192,64066,1,0,0:0:0:0:
64,192,64103,1,0,0:0:0:0:
448,192,64139,1,0,0:0:0:0:
192,192,64188,1,0,0:0:0:0:
320,192,64237,1,0,0:0:0:0:
448,192,64286,1,0,0:0:0:0:
320,192,64334,1,0,0:0:0:0:
192,192,64383,1,0,0:0:0:0:
64,192,64433,1,0,0:0:0:0:
448,192,64469,1,0,0:0:0:0:
320,192,64469,1,0,0:0:0:0:
192,192,64579,1,0,0:0:0:0:
64,192,64579,1,0,0:0:0:0:
192,192,64689,1,0,0:0:0:0:
64,192,64689,1,0,0:0:0:0:
448,192,64689,1,0,0:0:0:0:
320,192,64799,1,0,0:0:0:0:
448,192,64799,1,0,0:0:0:0:
64,192,64799,1,0,0:0:0:0:
320,192,64909,1,0,0:0:0:0:
448,192,64909,1,0,0:0:0:0:
192,192,65019,1,0,0:0:0:0:
64,192,65019,1,0,0:0:0:0:
448,192,65019,1,0,0:0:0:0:
320,192,65019,1,0,0:0:0:0:
192,192,65129,1,0,0:0:0:0:
64,192,65129,1,0,0:0:0:0:
320,192,65129,1,0,0:0:0:0:
192,192,65239,1,0,0:0:0:0:
320,192,65349,1,0,0:0:0:0:
448,192,65459,1,0,0:0:0:0:
64,192,65459,1,0,0:0:0:0:
192,192,65508,1,0,0:0:0:0:
320,192,65557,1,0,0:0:0:0:
448,192,65606,1,0,0:0:0:0:
64,192,65606,1,0,0:0:0:0:
320,192,65654,1,0,0:0:0:0:
192,192,65703,1,0,0:0:0:0:
64,192,65752,1,0,0:0:0:0:
448,192,65801,1,0,0:0:0:0:
320,192,65850,1,0,0:0:0:0:
192,192,65899,1,0,0:0:0:0:
64,192,65899,1,0,0:0:0:0:
448,192,65948,1,0,0:0:0:0:
64,192,65996,1,0,0:0:0:0:
192,192,66046,1,0,0:0:0:0:
320,192,66094,1,0,0:0:0:0:
448,192,66143,1,0,0:0:0:0:
320,192,66192,1,0,0:0:0:0:
64,192,66192,1,0,0:0:0:0:
192,192,66241,1,0,0:0:0:0:
64,192,66290,1,0,0:0:0:0:
448,192,66339,1,0,0:0:0:0:
192,192,66387,1,0,0:0:0:0:
320,192,66436,1,0,0:0:0:0:
448,192,66436,1,0,0:0:0:0:
64,192,66485,1,0,0:0:0:0:
320,192,66534,1,0,0:0:0:0:
192,192,66583,1,0,0:0:0:0:
448,192,66632,1,0,0:0:0:0:
64,192,66681,1,0,0:0:0:0:
192,192,66730,1,0,0:0:0:0:
320,192,66779,1,0,0:0:0:0:
448,192,66779,1,0,0:0:0:0:
64,192,66827,1,0,0:0:0:0:
192,192,66876,1,0,0:0:0:0:
320,192,66925,1,0,0:0:0:0:
64,192,66925,1,0,0:0:0:0:
448,192,66974,1,0,0:0:0:0:
320,192,67023,1,0,0:0:0:0:
192,192,67072,1,0,0:0:0:0:
448,192,67121,1,0,0:0:0:0:
320,192,67170,1,0,0:0:0:0:
192,192,67219,1,0,0:0:0:0:
64,192,67219,1,0,0:0:0:0:
64,192,67292,1,0,0:0:0:0:
192,192,67292,1,0,0:0:0:0:
320,192,67365,1,0,0:0:0:0:
448,192,67365,1,0,0:0:0:0:
64,192,67439,1,0,0:0:0:0:
320,192,67463,1,0,0:0:0:0:
448,192,67463,1,0,0:0:0:0:
192,192,67512,1,0,0:0:0:0:
64,192,67658,1,0,0:0:0:0:
192,192,67658,1,0,0:0:0:0:
320,192,67658,1,0,0:0:0:0:
320,192,67768,1,0,0:0:0:0:
192,192,67805,1,0,0:0:0:0:
448,192,67878,1,0,0:0:0:0:
320,192,67878,1,0,0:0:0:0:
64,192,67915,1,0,0:0:0:0:
192,192,67952,1,0,0:0:0:0:
320,192,67988,1,0,0:0:0:0:
448,192,67988,1,0,0:0:0:0:
192,192,68098,1,0,0:0:0:0:
64,192,68098,1,0,0:0:0:0:
64,192,68207,1,0,0:0:0:0:
448,192,68207,1,0,0:0:0:0:
320,192,68243,1,0,0:0:0:0:
448,192,68316,1,0,0:0:0:0:
192,192,68425,1,0,0:0:0:0:
64,192,68425,1,0,0:0:0:0:
320,192,68534,1,0,0:0:0:0:
448,192,68534,1,0,0:0:0:0:
64,192,68534,1,0,0:0:0:0:
320,192,68643,1,0,0:0:0:0:
448,192,68643,1,0,0:0:0:0:
64,192,68643,1,0,0:0:0:0:
320,192,68752,1,0,0:0:0:0:
192,192,68861,1,0,0:0:0:0:
320,192,68970,128,0,69298:0:0:0:0:
448,192,68970,1,0,0:0:0:0:
448,192,69079,1,0,0:0:0:0:
64,192,69188,1,0,0:0:0:0:
192,192,69298,128,0,69625:0:0:0:0:
64,192,69298,1,0,0:0:0:0:
448,192,69407,1,0,0:0:0:0:
448,192,69516,1,0,0:0:0:0:
320,192,69625,128,0,70061:0:0:0:0:
64,192,69625,1,0,0:0:0:0:
64,192,69734,1,0,0:0:0:0:
448,192,69843,1,0,0:0:0:0:
448,192,69952,1,0,0:0:0:0:
64,192,70061,1,0,0:0:0:0:
192,192,70061,1,0,0:0:0:0:
192,192,70280,1,0,0:0:0:0:
320,192,70280,1,0,0:0:0:0:
448,192,70280,1,0,0:0:0:0:
192,192,70390,1,0,0:0:0:0:
320,192,70390,1,0,0:0:0:0:
448,192,70390,1,0,0:0:0:0:
192,192,70612,1,0,0:0:0:0:
64,192,70612,1,0,0:0:0:0:
192,192,70723,1,0,0:0:0:0:
320,192,70834,1,0,0:0:0:0:
64,192,70834,1,0,0:0:0:0:
320,192,70945,1,0,0:0:0:0:
448,192,70945,1,0,0:0:0:0:
192,192,71056,1,0,0:0:0:0:
64,192,71056,1,0,0:0:0:0:
448,192,71068,1,0,0:0:0:0:
320,192,71117,1,0,0:0:0:0:
64,192,71166,1,0,0:0:0:0:
448,192,71215,1,0,0:0:0:0:
320,192,71265,1,0,0:0:0:0:
192,192,71265,1,0,0:0:0:0:
64,192,71314,1,0,0:0:0:0:
192,192,71363,1,0,0:0:0:0:
320,192,71413,1,0,0:0:0:0:
448,192,71462,1,0,0:0:0:0:
64,192,71512,1,0,0:0:0:0:
192,192,71561,1,0,0:0:0:0:
320,192,71610,1,0,0:0:0:0:
448,192,71610,1,0,0:0:0:0:
320,192,71693,1,0,0:0:0:0:
448,192,71693,1,0,0:0:0:0:
64,192,71832,1,0,0:0:0:0:
320,192,71832,1,0,0:0:0:0:
192,192,71942,1,0,0:0:0:0:
64,192,71942,1,0,0:0:0:0:
448,192,72053,1,0,0:0:0:0:
320,192,72053,1,0,0:0:0:0:
64,192,72107,1,0,0:0:0:0:
192,192,72161,1,0,0:0:0:0:
320,192,72161,1,0,0:0:0:0:
448,192,72215,1,0,0:0:0:0:
192,192,72269,1,0,0:0:0:0:
64,192,72377,1,0,0:0:0:0:
448,192,72377,1,0,0:0:0:0:
192,192,72431,1,0,0:0:0:0:
320,192,72485,1,0,0:0:0:0:
448,192,72534,1,0,0:0:0:0:
192,192,72583,1,0,0:0:0:0:
64,192,72583,1,0,0:0:0:0:
320,192,72630,1,0,0:0:0:0:
192,192,72678,1,0,0:0:0:0:
64,192,72726,1,0,0:0:0:0:
448,192,72774,1,0,0:0:0:0:
320,192,72823,1,0,0:0:0:0:
64,192,72871,1,0,0:0:0:0:
192,192,72918,1,0,0:0:0:0:
448,192,72918,1,0,0:0:0:0:
320,192,72972,1,0,0:0:0:0:
192,192,73027,1,0,0:0:0:0:
320,192,73081,1,0,0:0:0:0:
64,192,73135,1,0,0:0:0:0:
448,192,73189,1,0,0:0:0:0:
64,192,73243,1,0,0:0:0:0:
192,192,73297,1,0,0:0:0:0:
448,192,73351,1,0,0:0:0:0:
320,192,73351,1,0,0:0:0:0:
64,192,73351,1,0,0:0:0:0:
320,192,73459,1,0,0:0:0:0:
448,192,73459,1,0,0:0:0:0:
192,192,73568,1,0,0:0:0:0:
320,192,73568,1,0,0:0:0:0:
192,192,73676,1,0,0:0:0:0:
448,192,73676,1,0,0:0:0:0:
320,192,73785,1,0,0:0:0:0:
64,192,73785,1,0,0:0:0:0:
448,192,73785,1,0,0:0:0:0:
192,192,73894,1,0,0:0:0:0:
64,192,73894,1,0,0:0:0:0:
320,192,74004,1,0,0:0:0:0:
320,192,74114,1,0,0:0:0:0:
448,192,74114,1,0,0:0:0:0:
64,192,74114,1,0,0:0:0:0:
64,192,74224,1,0,0:0:0:0:
192,192,74224,1,0,0:0:0:0:
448,192,74334,1,0,0:0:0:0:
320,192,74334,1,0,0:0:0:0:
320,192,74444,1,0,0:0:0:0:
64,192,74444,1,0,0:0:0:0:
192,192,74554,1,0,0:0:0:0:
64,192,74554,1,0,0:0:0:0:
448,192,74567,1,0,0:0:0:0:
320,192,74615,1,0,0:0:0:0:
192,192,74664,1,0,0:0:0:0:
448,192,74713,1,0,0:0:0:0:
64,192,74763,1,0,0:0:0:0:
192,192,74811,1,0,0:0:0:0:
320,192,74811,1,0,0:0:0:0:
448,192,74860,1,0,0:0:0:0:
64,192,74909,1,0,0:0:0:0:
192,192,74958,1,0,0:0:0:0:
448,192,75007,1,0,0:0:0:0:
320,192,75055,1,0,0:0:0:0:
192,192,75104,1,0,0:0:0:0:
64,192,75104,1,0,0:0:0:0:
64,192,75187,1,0,0:0:0:0:
192,192,75187,1,0,0:0:0:0:
64,192,75297,1,0,0:0:0:0:
448,192,75324,1,0,0:0:0:0:
448,192,75434,1,0,0:0:0:0:
192,192,75434,1,0,0:0:0:0:
192,192,75544,1,0,0:0:0:0:
64,192,75544,1,0,0:0:0:0:
448,192,75599,1,0,0:0:0:0:
320,192,75654,1,0,0:0:0:0:
64,192,75654,1,0,0:0:0:0:
192,192,75709,1,0,0:0:0:0:
320,192,75764,1,0,0:0:0:0:
192,192,75874,1,0,0:0:0:0:
64,192,75874,1,0,0:0:0:0:
320,192,75929,1,0,0:0:0:0:
448,192,75984,1,0,0:0:0:0:
64,192,76033,1,0,0:0:0:0:
320,192,76082,1,0,0:0:0:0:
192,192,76131,1,0,0:0:0:0:
448,192,76131,1,0,0:0:0:0:
64,192,76180,1,0,0:0:0:0:
192,192,76229,1,0,0:0:0:0:
320,192,76277,1,0,0:0:0:0:
64,192,76326,1,0,0:0:0:0:
448,192,76375,1,0,0:0:0:0:
320,192,76424,1,0,0:0:0:0:
192,192,76424,1,0,0:0:0:0:
64,192,76477,1,0,0:0:0:0:
320,192,76531,1,0,0:0:0:0:
448,192,76585,1,0,0:0:0:0:
64,192,76638,1,0,0:0:0:0:
320,192,76674,1,0,0:0:0:0:
64,192,76746,1,0,0:0:0:0:
448,192,76781,1,0,0:0:0:0:
320,192,76817,1,0,0:0:0:0:
192,192,76853,1,0,0:0:0:0:
64,192,76853,1,0,0:0:0:0:
192,192,76960,1,0,0:0:0:0:
448,192,76960,1,0,0:0:0:0:
320,192,77068,1,0,0:0:0:0:
64,192,77068,1,0,0:0:0:0:
320,192,77175,1,0,0:0:0:0:
192,192,77282,1,0,0:0:0:0:
64,192,77282,1,0,0:0:0:0:
448,192,77282,1,0,0:0:0:0:
192,192,77390,1,0,0:0:0:0:
448,192,77390,1,0,0:0:0:0:
320,192,77497,1,0,0:0:0:0:
192,192,77605,1,0,0:0:0:0:
64,192,77605,1,0,0:0:0:0:
448,192,77713,1,0,0:0:0:0:
192,192,77822,1,0,0:0:0:0:
320,192,77822,1,0,0:0:0:0:
192,192,77931,1,0,0:0:0:0:
64,192,77931,1,0,0:0:0:0:
320,192,78040,1,0,0:0:0:0:
448,192,78040,1,0,0:0:0:0:
64,192,78053,1,0,0:0:0:0:
192,192,78101,1,0,0:0:0:0:
448,192,78149,1,0,0:0:0:0:
64,192,78198,1,0,0:0:0:0:
320,192,78246,1,0,0:0:0:0:
192,192,78294,1,0,0:0:0:0:
64,192,78343,1,0,0:0:0:0:
448,192,78343,1,0,0:0:0:0:
192,192,78392,1,0,0:0:0:0:
320,192,78440,1,0,0:0:0:0:
448,192,78489,1,0,0:0:0:0:
64,192,78537,1,0,0:0:0:0:
192,192,78585,1,0,0:0:0:0:
320,192,78585,1,0,0:0:0:0:
320,192,78667,1,0,0:0:0:0:
192,192,78667,1,0,0:0:0:0:
192,192,78776,1,0,0:0:0:0:
448,192,78803,1,0,0:0:0:0:
448,192,78913,1,0,0:0:0:0:
320,192,78913,1,0,0:0:0:0:
192,192,79022,1,0,0:0:0:0:
64,192,79022,1,0,0:0:0:0:
320,192,79058,1,0,0:0:0:0:
64,192,79094,1,0,0:0:0:0:
192,192,79131,1,0,0:0:0:0:
448,192,79167,1,0,0:0:0:0:
320,192,79203,1,0,0:0:0:0:
64,192,79240,1,0,0:0:0:0:
320,192,79349,1,0,0:0:0:0:
448,192,79349,1,0,0:0:0:0:
192,192,79403,1,0,0:0:0:0:
448,192,79459,1,0,0:0:0:0:
64,192,79506,1,0,0:0:0:0:
192,192,79554,1,0,0:0:0:0:
320,192,79603,1,0,0:0:0:0:
448,192,79603,1,0,0:0:0:0:
64,192,79651,1,0,0:0:0:0:
320,192,79699,1,0,0:0:0:0:
192,192,79747,1,0,0:0:0:0:
64,192,79795,1,0,0:0:0:0:
448,192,79843,1,0,0:0:0:0:
192,192,79891,1,0,0:0:0:0:
320,192,79891,1,0,0:0:0:0:
64,192,79946,1,0,0:0:0:0:
448,192,80000,1,0,0:0:0:0:
192,192,80054,1,0,0:0:0:0:
448,192,80108,1,0,0:0:0:0:
320,192,80162,1,0,0:0:0:0:
64,192,80216,1,0,0:0:0:0:
192,192,80216,1,0,0:0:0:0:
64,192,80324,1,0,0:0:0:0:
192,192,80324,1,0,0:0:0:0:
448,192,80421,1,0,0:0:0:0:
64,192,80433,1,0,0:0:0:0:
192,192,80433,1,0,0:0:0:0:
320,192,80469,1,0,0:0:0:0:
320,192,80564,1,0,0:0:0:0:
192,192,80649,1,0,0:0:0:0:
448,192,80649,1,0,0:0:0:0:
192,192,80757,1,0,0:0:0:0:
320,192,80757,1,0,0:0:0:0:
64,192,80757,1,0,0:0:0:0:
320,192,80866,1,0,0:0:0:0:
448,192,80866,1,0,0:0:0:0:
64,192,80975,1,0,0:0:0:0:
448,192,80975,1,0,0:0:0:0:
192,192,81084,1,0,0:0:0:0:
64,192,81084,1,0,0:0:0:0:
448,192,81193,1,0,0:0:0:0:
320,192,81302,1,0,0:0:0:0:
64,192,81302,1,0,0:0:0:0:
192,192,81411,1,0,0:0:0:0:
320,192,81411,1,0,0:0:0:0:
448,192,81520,1,0,0:0:0:0:
64,192,81520,1,0,0:0:0:0:
192,192,81575,1,0,0:0:0:0:
320,192,81629,1,0,0:0:0:0:
64,192,81678,1,0,0:0:0:0:
448,192,81726,1,0,0:0:0:0:
320,192,81775,1,0,0:0:0:0:
192,192,81775,1,0,0:0:0:0:
448,192,81823,1,0,0:0:0:0:
64,192,81872,1,0,0:0:0:0:
192,192,81920,1,0,0:0:0:0:
448,192,81969,1,0,0:0:0:0:
320,192,82017,1,0,0:0:0:0:
192,192,82066,1,0,0:0:0:0:
64,192,82066,1,0,0:0:0:0:
64,192,82148,1,0,0:0:0:0:
448,192,82148,1,0,0:0:0:0:
64,192,82258,1,0,0:0:0:0:
448,192,82285,1,0,0:0:0:0:
320,192,82395,1,0,0:0:0:0:
192,192,82395,1,0,0:0:0:0:
320,192,82505,1,0,0:0:0:0:
448,192,82505,1,0,0:0:0:0:
64,192,82505,1,0,0:0:0:0:
192,192,82615,1,0,0:0:0:0:
64,192,82615,1,0,0:0:0:0:
192,192,82725,1,0,0:0:0:0:
320,192,82835,1,0,0:0:0:0:
448,192,82835,1,0,0:0:0:0:
192,192,82945,1,0,0:0:0:0:
64,192,82945,1,0,0:0:0:0:
320,192,82945,1,0,0:0:0:0:
64,192,83055,1,0,0:0:0:0:
192,192,83055,1,0,0:0:0:0:
320,192,83055,1,0,0:0:0:0:
192,192,83165,1,0,0:0:0:0:
320,192,83220,1,0,0:0:0:0:
320,192,83330,1,0,0:0:0:0:
448,192,83413,1,0,0:0:0:0:
320,192,83440,1,0,0:0:0:0:
192,192,83495,1,0,0:0:0:0:
192,192,83605,1,0,0:0:0:0:
64,192,83688,1,0,0:0:0:0:
192,192,83715,1,0,0:0:0:0:
320,192,83770,1,0,0:0:0:0:
64,192,83825,1,0,0:0:0:0:
448,192,83853,1,0,0:0:0:0:
320,192,83908,1,0,0:0:0:0:
192,192,83962,1,0,0:0:0:0:
64,192,84017,1,0,0:0:0:0:
320,192,84045,1,0,0:0:0:0:
448,192,84045,1,0,0:0:0:0:
192,192,84265,1,0,0:0:0:0:
64,192,84265,1,0,0:0:0:0:
448,192,84320,1,0,0:0:0:0:
192,192,84375,1,0,0:0:0:0:
64,192,84375,1,0,0:0:0:0:
448,192,84430,1,0,0:0:0:0:
320,192,84485,1,0,0:0:0:0:
192,192,84540,1,0,0:0:0:0:
64,192,84595,1,0,0:0:0:0:
448,192,84595,1,0,0:0:0:0:
320,192,84595,1,0,0:0:0:0:
192,192,84650,1,0,0:0:0:0:
64,192,84705,1,0,0:0:0:0:
448,192,84741,1,0,0:0:0:0:
320,192,84778,1,0,0:0:0:0:
192,192,84815,1,0,0:0:0:0:
64,192,84851,1,0,0:0:0:0:
448,192,84901,1,0,0:0:0:0:
192,192,84950,1,0,0:0:0:0:
320,192,84998,1,0,0:0:0:0:
448,192,85047,1,0,0:0:0:0:
64,192,85096,1,0,0:0:0:0:
192,192,85145,1,0,0:0:0:0:
320,192,85145,1,0,0:0:0:0:
448,192,85193,1,0,0:0:0:0:
64,192,85243,1,0,0:0:0:0:
192,192,85291,1,0,0:0:0:0:
320,192,85341,1,0,0:0:0:0:
64,192,85389,1,0,0:0:0:0:
192,192,85438,1,0,0:0:0:0:
448,192,85487,1,0,0:0:0:0:
320,192,85536,1,0,0:0:0:0:
64,192,85585,1,0,0:0:0:0:
448,192,85633,1,0,0:0:0:0:
320,192,85683,1,0,0:0:0:0:
192,192,85731,1,0,0:0:0:0:
64,192,85781,1,0,0:0:0:0:
448,192,85829,1,0,0:0:0:0:
192,192,85878,1,0,0:0:0:0:
320,192,85927,1,0,0:0:0:0:
64,192,85976,1,0,0:0:0:0:
192,192,86024,1,0,0:0:0:0:
320,192,86024,1,0,0:0:0:0:
448,192,86073,1,0,0:0:0:0:
64,192,86123,1,0,0:0:0:0:
192,192,86171,1,0,0:0:0:0:
448,192,86220,1,0,0:0:0:0:
320,192,86269,1,0,0:0:0:0:
192,192,86318,1,0,0:0:0:0:
64,192,86367,1,0,0:0:0:0:
448,192,86415,1,0,0:0:0:0:
320,192,86464,1,0,0:0:0:0:
64,192,86513,1,0,0:0:0:0:
320,192,86563,1,0,0:0:0:0:
192,192,86611,1,0,0:0:0:0:
448,192,86660,1,0,0:0:0:0:
64,192,86709,1,0,0:0:0:0:
192,192,86758,1,0,0:0:0:0:
320,192,86807,1,0,0:0:0:0:
448,192,86855,1,0,0:0:0:0:
64,192,86904,1,0,0:0:0:0:
192,192,86904,1,0,0:0:0:0:
320,192,86953,1,0,0:0:0:0:
64,192,87003,1,0,0:0:0:0:
448,192,87051,1,0,0:0:0:0:
320,192,87100,1,0,0:0:0:0:
192,192,87149,1,0,0:0:0:0:
448,192,87197,1,0,0:0:0:0:
64,192,87246,1,0,0:0:0:0:
192,192,87295,1,0,0:0:0:0:
320,192,87344,1,0,0:0:0:0:
64,192,87393,1,0,0:0:0:0:
192,192,87442,1,0,0:0:0:0:
448,192,87491,1,0,0:0:0:0:
320,192,87540,1,0,0:0:0:0:
64,192,87589,1,0,0:0:0:0:
448,192,87637,1,0,0:0:0:0:
192,192,87686,1,0,0:0:0:0:
320,192,87735,1,0,0:0:0:0:
448,192,87784,1,0,0:0:0:0:
64,192,87784,1,0,0:0:0:0:
192,192,87833,1,0,0:0:0:0:
320,192,87882,1,0,0:0:0:0:
64,192,87931,1,0,0:0:0:0:
448,192,87980,1,0,0:0:0:0:
320,192,88029,1,0,0:0:0:0:
448,192,88114,128,0,88334:0:0:0:0:
192,192,88114,1,0,0:0:0:0:
64,192,88114,1,0,0:0:0:0:
320,192,88224,1,0,0:0:0:0:
192,192,88224,1,0,0:0:0:0:
64,192,88334,1,0,0:0:0:0:
192,192,88389,1,0,0:0:0:0:
320,192,88389,1,0,0:0:0:0:
448,192,88444,1,0,0:0:0:0:
192,192,88499,1,0,0:0:0:0:
64,192,88554,1,0,0:0:0:0:
320,192,88554,1,0,0:0:0:0:
192,192,88664,1,0,0:0:0:0:
64,192,88664,1,0,0:0:0:0:
448,192,88664,1,0,0:0:0:0:
320,192,88664,1,0,0:0:0:0:
448,192,88774,1,0,0:0:0:0:
192,192,88774,1,0,0:0:0:0:
64,192,88884,1,0,0:0:0:0:
320,192,88884,1,0,0:0:0:0:
320,192,88994,1,0,0:0:0:0:
192,192,89104,1,0,0:0:0:0:
64,192,89104,1,0,0:0:0:0:
448,192,89157,1,0,0:0:0:0:
320,192,89211,1,0,0:0:0:0:
192,192,89211,1,0,0:0:0:0:
64,192,89265,1,0,0:0:0:0:
448,192,89318,1,0,0:0:0:0:
320,192,89318,1,0,0:0:0:0:
192,192,89426,1,0,0:0:0:0:
64,192,89426,1,0,0:0:0:0:
320,192,89533,1,0,0:0:0:0:
448,192,89533,1,0,0:0:0:0:
64,192,89533,1,0,0:0:0:0:
192,192,89533,1,0,0:0:0:0:
320,192,89640,1,0,0:0:0:0:
448,192,89640,1,0,0:0:0:0:
192,192,89640,1,0,0:0:0:0:
320,192,89748,1,0,0:0:0:0:
448,192,89748,1,0,0:0:0:0:
192,192,89855,1,0,0:0:0:0:
64,192,89855,1,0,0:0:0:0:
320,192,89909,1,0,0:0:0:0:
448,192,89962,1,0,0:0:0:0:
64,192,89962,1,0,0:0:0:0:
192,192,90016,1,0,0:0:0:0:
320,192,90070,1,0,0:0:0:0:
448,192,90070,1,0,0:0:0:0:
192,192,90124,1,0,0:0:0:0:
64,192,90177,1,0,0:0:0:0:
320,192,90285,1,0,0:0:0:0:
448,192,90285,1,0,0:0:0:0:
192,192,90320,1,0,0:0:0:0:
64,192,90356,1,0,0:0:0:0:
320,192,90393,1,0,0:0:0:0:
448,192,90393,1,0,0:0:0:0:
192,192,90429,1,0,0:0:0:0:
64,192,90465,1,0,0:0:0:0:
448,192,90502,1,0,0:0:0:0:
320,192,90538,1,0,0:0:0:0:
64,192,90587,1,0,0:0:0:0:
192,192,90635,1,0,0:0:0:0:
320,192,90683,1,0,0:0:0:0:
448,192,90733,1,0,0:0:0:0:
64,192,90781,1,0,0:0:0:0:
192,192,90829,1,0,0:0:0:0:
320,192,90829,1,0,0:0:0:0:
448,192,90883,1,0,0:0:0:0:
64,192,90938,1,0,0:0:0:0:
192,192,90938,1,0,0:0:0:0:
320,192,91047,1,0,0:0:0:0:
448,192,91047,1,0,0:0:0:0:
192,192,91156,1,0,0:0:0:0:
64,192,91156,1,0,0:0:0:0:
320,192,91265,1,0,0:0:0:0:
448,192,91265,1,0,0:0:0:0:
64,192,91265,1,0,0:0:0:0:
320,192,91374,1,0,0:0:0:0:
64,192,91483,1,0,0:0:0:0:
192,192,91520,1,0,0:0:0:0:
320,192,91556,1,0,0:0:0:0:
64,192,91593,1,0,0:0:0:0:
192,192,91629,1,0,0:0:0:0:
448,192,91665,1,0,0:0:0:0:
320,192,91703,1,0,0:0:0:0:
192,192,91751,1,0,0:0:0:0:
64,192,91800,1,0,0:0:0:0:
448,192,91849,1,0,0:0:0:0:
320,192,91898,1,0,0:0:0:0:
64,192,91946,1,0,0:0:0:0:
192,192,91996,1,0,0:0:0:0:
320,192,92044,1,0,0:0:0:0:
192,192,92093,1,0,0:0:0:0:
320,192,92142,1,0,0:0:0:0:
448,192,92142,1,0,0:0:0:0:
64,192,92191,1,0,0:0:0:0:
448,192,92240,1,0,0:0:0:0:
192,192,92289,1,0,0:0:0:0:
320,192,92337,1,0,0:0:0:0:
448,192,92386,1,0,0:0:0:0:
64,192,92436,1,0,0:0:0:0:
192,192,92484,1,0,0:0:0:0:
320,192,92484,1,0,0:0:0:0:
64,192,92582,128,0,92802:0:0:0:0:
192,192,92582,128,0,92802:0:0:0:0:
320,192,92637,1,0,0:0:0:0:
448,192,92637,1,0,0:0:0:0:
448,192,92747,1,0,0:0:0:0:
320,192,92747,1,0,0:0:0:0:
320,192,92857,1,0,0:0:0:0:
448,192,92857,1,0,0:0:0:0:
192,192,92912,1,0,0:0:0:0:
64,192,92912,1,0,0:0:0:0:
192,192,93022,1,0,0:0:0:0:
64,192,93022,1,0,0:0:0:0:
320,192,93022,1,0,0:0:0:0:
448,192,93022,1,0,0:0:0:0:
192,192,93131,1,0,0:0:0:0:
448,192,93131,1,0,0:0:0:0:
320,192,93240,1,0,0:0:0:0:
192,192,93349,1,0,0:0:0:0:
64,192,93349,1,0,0:0:0:0:
448,192,93349,1,0,0:0:0:0:
320,192,93458,1,0,0:0:0:0:
448,192,93458,1,0,0:0:0:0:
320,192,93567,1,0,0:0:0:0:
192,192,93676,1,0,0:0:0:0:
64,192,93676,1,0,0:0:0:0:
448,192,93785,1,0,0:0:0:0:
320,192,93785,1,0,0:0:0:0:
64,192,93845,1,0,0:0:0:0:
192,192,93894,1,0,0:0:0:0:
320,192,93894,1,0,0:0:0:0:
448,192,93943,1,0,0:0:0:0:
64,192,93991,1,0,0:0:0:0:
192,192,94040,1,0,0:0:0:0:
448,192,94088,1,0,0:0:0:0:
320,192,94136,1,0,0:0:0:0:
64,192,94185,1,0,0:0:0:0:
192,192,94233,1,0,0:0:0:0:
320,192,94282,1,0,0:0:0:0:
448,192,94331,1,0,0:0:0:0:
64,192,94331,1,0,0:0:0:0:
320,192,94379,1,0,0:0:0:0:
192,192,94427,1,0,0:0:0:0:
448,192,94476,1,0,0:0:0:0:
64,192,94524,1,0,0:0:0:0:
192,192,94573,1,0,0:0:0:0:
320,192,94622,1,0,0:0:0:0:
64,192,94670,1,0,0:0:0:0:
448,192,94718,1,0,0:0:0:0:
320,192,94767,1,0,0:0:0:0:
192,192,94767,1,0,0:0:0:0:
64,192,94815,1,0,0:0:0:0:
448,192,94863,1,0,0:0:0:0:
320,192,94912,1,0,0:0:0:0:
64,192,94961,1,0,0:0:0:0:
192,192,95009,1,0,0:0:0:0:
320,192,95058,1,0,0:0:0:0:
448,192,95106,1,0,0:0:0:0:
320,192,95154,1,0,0:0:0:0:
192,192,95203,1,0,0:0:0:0:
64,192,95203,1,0,0:0:0:0:
448,192,95252,1,0,0:0:0:0:
320,192,95300,1,0,0:0:0:0:
64,192,95328,1,0,0:0:0:0:
192,192,95390,1,0,0:0:0:0:
320,192,95453,1,0,0:0:0:0:
448,192,95453,1,0,0:0:0:0:
64,192,95514,1,0,0:0:0:0:
448,192,95531,1,0,0:0:0:0:
64,192,95640,1,0,0:0:0:0:
320,192,95640,1,0,0:0:0:0:
192,192,95640,1,0,0:0:0:0:
192,192,95749,1,0,0:0:0:0:
320,192,95749,1,0,0:0:0:0:
192,192,95858,1,0,0:0:0:0:
448,192,95858,1,0,0:0:0:0:
64,192,95858,1,0,0:0:0:0:
448,192,95967,1,0,0:0:0:0:
192,192,96076,1,0,0:0:0:0:
320,192,96076,1,0,0:0:0:0:
64,192,96076,1,0,0:0:0:0:
320,192,96185,1,0,0:0:0:0:
192,192,96185,1,0,0:0:0:0:
64,192,96185,1,0,0:0:0:0:
320,192,96294,1,0,0:0:0:0:
448,192,96294,1,0,0:0:0:0:
192,192,96403,1,0,0:0:0:0:
64,192,96403,1,0,0:0:0:0:
320,192,96512,1,0,0:0:0:0:
448,192,96512,1,0,0:0:0:0:
64,192,96512,1,0,0:0:0:0:
192,192,96622,1,0,0:0:0:0:
448,192,96622,1,0,0:0:0:0:
320,192,96622,1,0,0:0:0:0:
320,192,96731,1,0,0:0:0:0:
64,192,96731,1,0,0:0:0:0:
192,192,96785,1,0,0:0:0:0:
448,192,96840,1,0,0:0:0:0:
320,192,96894,1,0,0:0:0:0:
192,192,96949,1,0,0:0:0:0:
64,192,96949,1,0,0:0:0:0:
448,192,96997,1,0,0:0:0:0:
192,192,97058,1,0,0:0:0:0:
64,192,97094,1,0,0:0:0:0:
320,192,97167,1,0,0:0:0:0:
448,192,97167,1,0,0:0:0:0:
64,192,97240,1,0,0:0:0:0:
192,192,97276,1,0,0:0:0:0:
320,192,97312,1,0,0:0:0:0:
448,192,97349,1,0,0:0:0:0:
64,192,97385,1,0,0:0:0:0:
192,192,97422,1,0,0:0:0:0:
320,192,97458,1,0,0:0:0:0:
448,192,97494,1,0,0:0:0:0:
64,192,97531,1,0,0:0:0:0:
192,192,97567,1,0,0:0:0:0:
448,192,97603,1,0,0:0:0:0:
320,192,97603,1,0,0:0:0:0:
320,192,97712,1,0,0:0:0:0:
64,192,97712,1,0,0:0:0:0:
192,192,97822,1,0,0:0:0:0:
448,192,97822,1,0,0:0:0:0:
64,192,97822,1,0,0:0:0:0:
64,192,97931,1,0,0:0:0:0:
192,192,97931,1,0,0:0:0:0:
448,192,97931,1,0,0:0:0:0:
320,192,98040,1,0,0:0:0:0:
448,192,98040,1,0,0:0:0:0:
192,192,98149,1,0,0:0:0:0:
320,192,98258,1,0,0:0:0:0:
448,192,98258,1,0,0:0:0:0:
64,192,98258,1,0,0:0:0:0:
192,192,98367,128,0,98476:0:0:0:0:
448,192,98367,128,0,98476:0:0:0:0:
320,192,98367,128,0,98476:0:0:0:0:
64,192,98476,1,0,0:0:0:0:
320,192,98585,1,0,0:0:0:0:
64,192,98585,128,0,98694:0:0:0:0:
192,192,98585,128,0,98694:0:0:0:0:
320,192,98694,1,0,0:0:0:0:
448,192,98694,1,0,0:0:0:0:
64,192,98776,1,0,0:0:0:0:
192,192,98803,1,0,0:0:0:0:
320,192,98831,1,0,0:0:0:0:
448,192,98858,1,0,0:0:0:0:
64,192,98912,1,0,0:0:0:0:
64,192,99022,1,0,0:0:0:0:
320,192,99049,1,0,0:0:0:0:
192,192,99131,1,0,0:0:0:0:
320,192,99131,1,0,0:0:0:0:
448,192,99131,1,0,0:0:0:0:
64,192,99240,1,0,0:0:0:0:
64,192,99349,128,0,99458:0:0:0:0:
320,192,99349,128,0,99458:0:0:0:0:
192,192,99349,128,0,99458:0:0:0:0:
448,192,99458,1,0,0:0:0:0:
192,192,99567,1,0,0:0:0:0:
320,192,99567,128,0,99676:0:0:0:0:
448,192,99567,128,0,99676:0:0:0:0:
192,192,99676,1,0,0:0:0:0:
64,192,99676,1,0,0:0:0:0:
448,192,99758,1,0,0:0:0:0:
320,192,99785,1,0,0:0:0:0:
192,192,99812,1,0,0:0:0:0:
64,192,99840,1,0,0:0:0:0:
448,192,99894,1,0,0:0:0:0:
448,192,100003,1,0,0:0:0:0:
192,192,100003,1,0,0:0:0:0:
320,192,100003,1,0,0:0:0:0:
448,192,100112,1,0,0:0:0:0:
192,192,100112,1,0,0:0:0:0:
320,192,100112,1,0,0:0:0:0:
448,192,100222,1,0,0:0:0:0:
320,192,100222,1,0,0:0:0:0:
192,192,100222,1,0,0:0:0:0:
192,192,100331,1,0,0:0:0:0:
64,192,100331,1,0,0:0:0:0:
320,192,100440,1,0,0:0:0:0:
64,192,100549,1,0,0:0:0:0:
192,192,100549,1,0,0:0:0:0:
448,192,100549,1,0,0:0:0:0:
320,192,100658,1,0,0:0:0:0:
64,192,100767,1,0,0:0:0:0:
192,192,100767,1,0,0:0:0:0:
64,192,100876,1,0,0:0:0:0:
192,192,100876,1,0,0:0:0:0:
448,192,100876,1,0,0:0:0:0:
320,192,100876,1,0,0:0:0:0:
320,192,100985,1,0,0:0:0:0:
192,192,100985,1,0,0:0:0:0:
448,192,100985,1,0,0:0:0:0:
320,192,101094,1,0,0:0:0:0:
192,192,101203,1,0,0:0:0:0:
64,192,101203,1,0,0:0:0:0:
320,192,101312,1,0,0:0:0:0:
448,192,101312,1,0,0:0:0:0:
64,192,101312,1,0,0:0:0:0:
192,192,101312,1,0,0:0:0:0:
448,192,101422,1,0,0:0:0:0:
192,192,101531,1,0,0:0:0:0:
320,192,101531,1,0,0:0:0:0:
64,192,101531,1,0,0:0:0:0:
320,192,101640,1,0,0:0:0:0:
192,192,101640,1,0,0:0:0:0:
192,192,101749,1,0,0:0:0:0:
64,192,101749,1,0,0:0:0:0:
448,192,101749,1,0,0:0:0:0:
320,192,101749,1,0,0:0:0:0:
448,192,101858,1,0,0:0:0:0:
320,192,101858,1,0,0:0:0:0:
192,192,101894,1,0,0:0:0:0:
64,192,101931,1,0,0:0:0:0:
448,192,101967,1,0,0:0:0:0:
320,192,102003,1,0,0:0:0:0:
192,192,102076,1,0,0:0:0:0:
64,192,102076,1,0,0:0:0:0:
64,192,102185,1,0,0:0:0:0:
320,192,102185,1,0,0:0:0:0:
192,192,102240,1,0,0:0:0:0:
448,192,102294,1,0,0:0:0:0:
320,192,102349,1,0,0:0:0:0:
192,192,102403,1,0,0:0:0:0:
64,192,102403,1,0,0:0:0:0:
448,192,102458,1,0,0:0:0:0:
64,192,102512,1,0,0:0:0:0:
192,192,102567,1,0,0:0:0:0:
320,192,102621,1,0,0:0:0:0:
448,192,102621,1,0,0:0:0:0:
64,192,102621,1,0,0:0:0:0:
320,192,102731,1,0,0:0:0:0:
192,192,102840,1,0,0:0:0:0:
64,192,102840,1,0,0:0:0:0:
448,192,102840,1,0,0:0:0:0:
192,192,102949,1,0,0:0:0:0:
448,192,103058,1,0,0:0:0:0:
320,192,103058,1,0,0:0:0:0:
64,192,103094,1,0,0:0:0:0:
192,192,103131,1,0,0:0:0:0:
448,192,103167,1,0,0:0:0:0:
64,192,103203,1,0,0:0:0:0:
192,192,103240,1,0,0:0:0:0:
320,192,103276,1,0,0:0:0:0:
448,192,103276,1,0,0:0:0:0:
320,192,103385,1,0,0:0:0:0:
64,192,103385,1,0,0:0:0:0:
192,192,103494,1,0,0:0:0:0:
64,192,103494,1,0,0:0:0:0:
448,192,103549,1,0,0:0:0:0:
64,192,103603,1,0,0:0:0:0:
320,192,103603,1,0,0:0:0:0:
320,192,103712,1,0,0:0:0:0:
448,192,103712,1,0,0:0:0:0:
64,192,103767,1,0,0:0:0:0:
192,192,103821,1,0,0:0:0:0:
448,192,103821,128,0,103985:0:0:0:0:
320,192,103821,128,0,103985:0:0:0:0:
192,192,103931,1,0,0:0:0:0:
448,192,104040,1,0,0:0:0:0:
192,192,104040,128,0,104258:0:0:0:0:
64,192,104040,128,0,104258:0:0:0:0:
448,192,104149,1,0,0:0:0:0:
448,192,104258,1,0,0:0:0:0:
192,192,104367,1,0,0:0:0:0:
64,192,104367,1,0,0:0:0:0:
320,192,104367,1,0,0:0:0:0:
448,192,104476,1,0,0:0:0:0:
192,192,104476,1,0,0:0:0:0:
320,192,104512,1,0,0:0:0:0:
448,192,104585,1,0,0:0:0:0:
64,192,104585,1,0,0:0:0:0:
192,192,104621,1,0,0:0:0:0:
64,192,104694,1,0,0:0:0:0:
320,192,104694,1,0,0:0:0:0:
448,192,104731,1,0,0:0:0:0:
320,192,104803,1,0,0:0:0:0:
192,192,104803,1,0,0:0:0:0:
64,192,104840,1,0,0:0:0:0:
320,192,104912,1,0,0:0:0:0:
448,192,104912,1,0,0:0:0:0:
192,192,104949,1,0,0:0:0:0:
448,192,105021,1,0,0:0:0:0:
64,192,105021,1,0,0:0:0:0:
192,192,105131,1,0,0:0:0:0:
320,192,105131,1,0,0:0:0:0:
192,192,105240,1,0,0:0:0:0:
64,192,105240,1,0,0:0:0:0:
448,192,105240,1,0,0:0:0:0:
320,192,105349,1,0,0:0:0:0:
64,192,105349,1,0,0:0:0:0:
192,192,105426,1,0,0:0:0:0:
448,192,105426,1,0,0:0:0:0:
320,192,105489,1,0,0:0:0:0:
192,192,105567,1,0,0:0:0:0:
64,192,105567,1,0,0:0:0:0:
448,192,105621,1,0,0:0:0:0:
320,192,105649,1,0,0:0:0:0:
192,192,105676,1,0,0:0:0:0:
448,192,105738,1,0,0:0:0:0:
64,192,105773,1,0,0:0:0:0:
192,192,105821,1,0,0:0:0:0:
320,192,105894,1,0,0:0:0:0:
448,192,105894,1,0,0:0:0:0:
64,192,105967,1,0,0:0:0:0:
320,192,105967,1,0,0:0:0:0:
192,192,106112,1,0,0:0:0:0:
64,192,106112,1,0,0:0:0:0:
448,192,106149,1,0,0:0:0:0:
320,192,106185,1,0,0:0:0:0:
192,192,106221,1,0,0:0:0:0:
64,192,106294,1,0,0:0:0:0:
320,192,106331,1,0,0:0:0:0:
448,192,106367,1,0,0:0:0:0:
64,192,106403,1,0,0:0:0:0:
192,192,106440,1,0,0:0:0:0:
320,192,106476,1,0,0:0:0:0:
448,192,106512,1,0,0:0:0:0:
64,192,106549,1,0,0:0:0:0:
320,192,106585,1,0,0:0:0:0:
192,192,106621,1,0,0:0:0:0:
448,192,106658,1,0,0:0:0:0:
64,192,106712,1,0,0:0:0:0:
320,192,106767,1,0,0:0:0:0:
192,192,106767,1,0,0:0:0:0:
64,192,106840,1,0,0:0:0:0:
448,192,106876,1,0,0:0:0:0:
320,192,106912,1,0,0:0:0:0:
192,192,106985,1,0,0:0:0:0:
64,192,106985,1,0,0:0:0:0:
448,192,106985,1,0,0:0:0:0:
320,192,107094,1,0,0:0:0:0:
192,192,107094,1,0,0:0:0:0:
448,192,107203,1,0,0:0:0:0:
320,192,107203,1,0,0:0:0:0:
192,192,107203,1,0,0:0:0:0:
320,192,107312,1,0,0:0:0:0:
448,192,107312,1,0,0:0:0:0:
192,192,107312,1,0,0:0:0:0:
192,192,107421,1,0,0:0:0:0:
64,192,107421,1,0,0:0:0:0:
320,192,107531,1,0,0:0:0:0:
64,192,107567,1,0,0:0:0:0:
192,192,107603,1,0,0:0:0:0:
448,192,107640,1,0,0:0:0:0:
320,192,107640,1,0,0:0:0:0:
448,192,107749,1,0,0:0:0:0:
320,192,107803,1,0,0:0:0:0:
192,192,107858,1,0,0:0:0:0:
64,192,107858,1,0,0:0:0:0:
448,192,107894,1,0,0:0:0:0:
320,192,107931,1,0,0:0:0:0:
192,192,107967,1,0,0:0:0:0:
64,192,108003,1,0,0:0:0:0:
448,192,108040,1,0,0:0:0:0:
320,192,108076,1,0,0:0:0:0:
192,192,108112,1,0,0:0:0:0:
64,192,108149,1,0,0:0:0:0:
448,192,108185,1,0,0:0:0:0:
320,192,108185,1,0,0:0:0:0:
192,192,108294,1,0,0:0:0:0:
64,192,108294,1,0,0:0:0:0:
192,192,108403,1,0,0:0:0:0:
320,192,108403,1,0,0:0:0:0:
448,192,108403,1,0,0:0:0:0:
320,192,108512,1,0,0:0:0:0:
64,192,108512,1,0,0:0:0:0:
192,192,108621,1,0,0:0:0:0:
448,192,108621,1,0,0:0:0:0:
320,192,108731,1,0,0:0:0:0:
192,192,108731,1,0,0:0:0:0:
64,192,108731,128,0,108949:0:0:0:0:
320,192,108840,1,0,0:0:0:0:
320,192,108949,1,0,0:0:0:0:
192,192,108949,1,0,0:0:0:0:
448,192,108949,128,0,109058:0:0:0:0:
192,192,109058,1,0,0:0:0:0:
448,192,109167,1,0,0:0:0:0:
320,192,109167,1,0,0:0:0:0:
64,192,109203,1,0,0:0:0:0:
192,192,109240,1,0,0:0:0:0:
320,192,109276,1,0,0:0:0:0:
64,192,109312,1,0,0:0:0:0:
448,192,109349,1,0,0:0:0:0:
320,192,109385,1,0,0:0:0:0:
192,192,109421,1,0,0:0:0:0:
64,192,109458,1,0,0:0:0:0:
448,192,109494,1,0,0:0:0:0:
192,192,109554,1,0,0:0:0:0:
320,192,109603,1,0,0:0:0:0:
448,192,109603,1,0,0:0:0:0:
64,192,109712,1,0,0:0:0:0:
448,192,109749,1,0,0:0:0:0:
320,192,109785,1,0,0:0:0:0:
192,192,109821,1,0,0:0:0:0:
448,192,109858,1,0,0:0:0:0:
64,192,109894,1,0,0:0:0:0:
192,192,109931,1,0,0:0:0:0:
320,192,109967,1,0,0:0:0:0:
448,192,110003,1,0,0:0:0:0:
64,192,110040,1,0,0:0:0:0:
320,192,110088,1,0,0:0:0:0:
192,192,110149,1,0,0:0:0:0:
448,192,110185,1,0,0:0:0:0:
64,192,110233,1,0,0:0:0:0:
192,192,110258,1,0,0:0:0:0:
320,192,110258,1,0,0:0:0:0:
320,192,110367,1,0,0:0:0:0:
448,192,110367,1,0,0:0:0:0:
192,192,110476,1,0,0:0:0:0:
64,192,110476,1,0,0:0:0:0:
448,192,110528,1,0,0:0:0:0:
320,192,110580,1,0,0:0:0:0:
64,192,110632,1,0,0:0:0:0:
448,192,110684,1,0,0:0:0:0:
320,192,110711,1,0,0:0:0:0:
192,192,110711,1,0,0:0:0:0:
64,192,110789,1,0,0:0:0:0:
448,192,110828,1,0,0:0:0:0:
192,192,110828,1,0,0:0:0:0:
320,192,110907,1,0,0:0:0:0:
448,192,110946,1,0,0:0:0:0:
64,192,110946,1,0,0:0:0:0:
192,192,111001,1,0,0:0:0:0:
320,192,111057,1,0,0:0:0:0:
64,192,111095,1,0,0:0:0:0:
448,192,111144,1,0,0:0:0:0:
320,192,111194,1,0,0:0:0:0:
192,192,111244,1,0,0:0:0:0:
64,192,111293,1,0,0:0:0:0:
448,192,111343,1,0,0:0:0:0:
320,192,111393,1,0,0:0:0:0:
192,192,111393,1,0,0:0:0:0:
64,192,111393,1,0,0:0:0:0:
192,192,111502,1,0,0:0:0:0:
448,192,111502,1,0,0:0:0:0:
64,192,111611,1,0,0:0:0:0:
320,192,111611,1,0,0:0:0:0:
320,192,111720,1,0,0:0:0:0:
192,192,111720,1,0,0:0:0:0:
64,192,111720,1,0,0:0:0:0:
192,192,111829,1,0,0:0:0:0:
448,192,111829,1,0,0:0:0:0:
192,192,111938,1,0,0:0:0:0:
448,192,111938,1,0,0:0:0:0:
320,192,112047,1,0,0:0:0:0:
64,192,112047,1,0,0:0:0:0:
192,192,112156,1,0,0:0:0:0:
448,192,112156,1,0,0:0:0:0:
320,192,112265,1,0,0:0:0:0:
192,192,112265,1,0,0:0:0:0:
64,192,112265,1,0,0:0:0:0:
320,192,112374,1,0,0:0:0:0:
192,192,112374,1,0,0:0:0:0:
64,192,112374,1,0,0:0:0:0:
320,192,112483,1,0,0:0:0:0:
448,192,112483,1,0,0:0:0:0:
320,192,112593,1,0,0:0:0:0:
448,192,112593,1,0,0:0:0:0:
192,192,112702,1,0,0:0:0:0:
448,192,112702,1,0,0:0:0:0:
64,192,112702,128,0,113029:0:0:0:0:
320,192,112811,1,0,0:0:0:0:
448,192,112920,1,0,0:0:0:0:
192,192,112920,1,0,0:0:0:0:
192,192,113029,1,0,0:0:0:0:
320,192,113138,1,0,0:0:0:0:
448,192,113138,1,0,0:0:0:0:
64,192,113138,1,0,0:0:0:0:
192,192,113247,1,0,0:0:0:0:
320,192,113356,1,0,0:0:0:0:
448,192,113356,1,0,0:0:0:0:
64,192,113393,1,0,0:0:0:0:
320,192,113429,1,0,0:0:0:0:
64,192,113502,1,0,0:0:0:0:
192,192,113502,1,0,0:0:0:0:
192,192,113574,1,0,0:0:0:0:
448,192,113574,1,0,0:0:0:0:
448,192,113683,1,0,0:0:0:0:
320,192,113793,1,0,0:0:0:0:
192,192,113793,1,0,0:0:0:0:
64,192,113793,1,0,0:0:0:0:
192,192,113902,1,0,0:0:0:0:
448,192,113902,1,0,0:0:0:0:
320,192,114011,1,0,0:0:0:0:
448,192,114011,1,0,0:0:0:0:
192,192,114047,1,0,0:0:0:0:
64,192,114083,1,0,0:0:0:0:
448,192,114120,1,0,0:0:0:0:
320,192,114156,1,0,0:0:0:0:
192,192,114193,1,0,0:0:0:0:
64,192,114229,1,0,0:0:0:0:
448,192,114265,1,0,0:0:0:0:
192,192,114302,1,0,0:0:0:0:
320,192,114361,1,0,0:0:0:0:
448,192,114420,1,0,0:0:0:0:
64,192,114447,1,0,0:0:0:0:
192,192,114447,1,0,0:0:0:0:
320,192,114496,1,0,0:0:0:0:
448,192,114544,1,0,0:0:0:0:
320,192,114593,1,0,0:0:0:0:
192,192,114642,1,0,0:0:0:0:
64,192,114690,1,0,0:0:0:0:
448,192,114738,1,0,0:0:0:0:
192,192,114787,1,0,0:0:0:0:
320,192,114787,1,0,0:0:0:0:
64,192,114835,1,0,0:0:0:0:
320,192,114883,1,0,0:0:0:0:
448,192,114883,1,0,0:0:0:0:
192,192,114933,1,0,0:0:0:0:
448,192,114981,1,0,0:0:0:0:
64,192,115029,1,0,0:0:0:0:
192,192,115078,1,0,0:0:0:0:
320,192,115126,1,0,0:0:0:0:
448,192,115174,1,0,0:0:0:0:
320,192,115223,1,0,0:0:0:0:
192,192,115272,1,0,0:0:0:0:
64,192,115320,1,0,0:0:0:0:
448,192,115320,1,0,0:0:0:0:
192,192,115369,1,0,0:0:0:0:
320,192,115417,1,0,0:0:0:0:
64,192,115465,1,0,0:0:0:0:
192,192,115514,1,0,0:0:0:0:
320,192,115563,1,0,0:0:0:0:
448,192,115563,1,0,0:0:0:0:
64,192,115611,1,0,0:0:0:0:
448,192,115660,1,0,0:0:0:0:
320,192,115708,1,0,0:0:0:0:
192,192,115757,1,0,0:0:0:0:
64,192,115757,1,0,0:0:0:0:
192,192,115874,128,0,116109:0:0:0:0:
320,192,115874,128,0,116109:0:0:0:0:
448,192,115874,128,0,116109:0:0:0:0:
192,192,116228,1,0,0:0:0:0:
64,192,116228,1,0,0:0:0:0:
448,192,116264,1,0,0:0:0:0:
320,192,116301,1,0,0:0:0:0:
192,192,116337,1,0,0:0:0:0:
448,192,116374,1,0,0:0:0:0:
64,192,116411,1,0,0:0:0:0:
192,192,116447,1,0,0:0:0:0:
320,192,116484,1,0,0:0:0:0:
64,192,116521,1,0,0:0:0:0:
448,192,116557,1,0,0:0:0:0:
320,192,116594,1,0,0:0:0:0:
192,192,116631,1,0,0:0:0:0:
64,192,116667,1,0,0:0:0:0:
448,192,116716,1,0,0:0:0:0:
192,192,116765,1,0,0:0:0:0:
448,192,116814,1,0,0:0:0:0:
320,192,116863,1,0,0:0:0:0:
64,192,116912,1,0,0:0:0:0:
192,192,116961,1,0,0:0:0:0:
320,192,116997,1,0,0:0:0:0:
448,192,116997,1,0,0:0:0:0:
192,192,117107,1,0,0:0:0:0:
64,192,117107,1,0,0:0:0:0:
192,192,117217,1,0,0:0:0:0:
64,192,117217,1,0,0:0:0:0:
320,192,117217,1,0,0:0:0:0:
320,192,117327,1,0,0:0:0:0:
192,192,117327,1,0,0:0:0:0:
448,192,117327,1,0,0:0:0:0:
320,192,117437,1,0,0:0:0:0:
448,192,117437,1,0,0:0:0:0:
448,192,117547,1,0,0:0:0:0:
320,192,117547,1,0,0:0:0:0:
192,192,117547,1,0,0:0:0:0:
64,192,117547,1,0,0:0:0:0:
192,192,117657,1,0,0:0:0:0:
64,192,117657,1,0,0:0:0:0:
320,192,117657,1,0,0:0:0:0:
192,192,117767,1,0,0:0:0:0:
320,192,117877,1,0,0:0:0:0:
448,192,117877,1,0,0:0:0:0:
64,192,117889,1,0,0:0:0:0:
192,192,117938,1,0,0:0:0:0:
320,192,117987,1,0,0:0:0:0:
448,192,117987,1,0,0:0:0:0:
64,192,118036,1,0,0:0:0:0:
448,192,118085,1,0,0:0:0:0:
320,192,118134,1,0,0:0:0:0:
192,192,118183,1,0,0:0:0:0:
448,192,118232,1,0,0:0:0:0:
64,192,118232,1,0,0:0:0:0:
192,192,118280,1,0,0:0:0:0:
320,192,118329,1,0,0:0:0:0:
448,192,118378,1,0,0:0:0:0:
192,192,118427,1,0,0:0:0:0:
64,192,118427,1,0,0:0:0:0:
320,192,118476,1,0,0:0:0:0:
64,192,118524,1,0,0:0:0:0:
448,192,118574,1,0,0:0:0:0:
320,192,118623,1,0,0:0:0:0:
192,192,118672,1,0,0:0:0:0:
320,192,118720,1,0,0:0:0:0:
448,192,118720,1,0,0:0:0:0:
64,192,118769,1,0,0:0:0:0:
192,192,118818,1,0,0:0:0:0:
320,192,118867,1,0,0:0:0:0:
448,192,118867,1,0,0:0:0:0:
192,192,118915,1,0,0:0:0:0:
64,192,118964,1,0,0:0:0:0:
448,192,119013,1,0,0:0:0:0:
320,192,119063,1,0,0:0:0:0:
64,192,119112,1,0,0:0:0:0:
192,192,119160,1,0,0:0:0:0:
320,192,119209,1,0,0:0:0:0:
448,192,119258,1,0,0:0:0:0:
64,192,119258,1,0,0:0:0:0:
320,192,119307,1,0,0:0:0:0:
192,192,119355,1,0,0:0:0:0:
448,192,119404,1,0,0:0:0:0:
64,192,119453,1,0,0:0:0:0:
192,192,119503,1,0,0:0:0:0:
320,192,119551,1,0,0:0:0:0:
448,192,119600,1,0,0:0:0:0:
64,192,119600,1,0,0:0:0:0:
320,192,119747,1,0,0:0:0:0:
192,192,119747,1,0,0:0:0:0:
64,192,119783,1,0,0:0:0:0:
448,192,119820,1,0,0:0:0:0:
320,192,119857,1,0,0:0:0:0:
192,192,119893,1,0,0:0:0:0:
448,192,119930,1,0,0:0:0:0:
64,192,119967,1,0,0:0:0:0:
192,192,120003,1,0,0:0:0:0:
320,192,120040,1,0,0:0:0:0:
448,192,120076,1,0,0:0:0:0:
64,192,120113,1,0,0:0:0:0:
320,192,120150,1,0,0:0:0:0:
192,192,120186,1,0,0:0:0:0:
448,192,120235,1,0,0:0:0:0:
64,192,120284,1,0,0:0:0:0:
192,192,120333,1,0,0:0:0:0:
448,192,120382,1,0,0:0:0:0:
320,192,120431,1,0,0:0:0:0:
192,192,120480,1,0,0:0:0:0:
448,192,120516,1,0,0:0:0:0:
64,192,120516,1,0,0:0:0:0:
192,192,120626,1,0,0:0:0:0:
320,192,120626,1,0,0:0:0:0:
320,192,120735,1,0,0:0:0:0:
448,192,120735,1,0,0:0:0:0:
64,192,120735,1,0,0:0:0:0:
320,192,120844,1,0,0:0:0:0:
448,192,120844,1,0,0:0:0:0:
64,192,120844,1,0,0:0:0:0:
192,192,120953,1,0,0:0:0:0:
64,192,120953,1,0,0:0:0:0:
192,192,121062,1,0,0:0:0:0:
320,192,121062,1,0,0:0:0:0:
448,192,121062,1,0,0:0:0:0:
64,192,121062,1,0,0:0:0:0:
320,192,121171,1,0,0:0:0:0:
448,192,121171,1,0,0:0:0:0:
192,192,121171,1,0,0:0:0:0:
320,192,121280,1,0,0:0:0:0:
64,192,121389,1,0,0:0:0:0:
192,192,121426,1,0,0:0:0:0:
320,192,121462,1,0,0:0:0:0:
64,192,121498,1,0,0:0:0:0:
448,192,121535,1,0,0:0:0:0:
320,192,121571,1,0,0:0:0:0:
192,192,121607,1,0,0:0:0:0:
64,192,121644,1,0,0:0:0:0:
320,192,121693,1,0,0:0:0:0:
448,192,121741,1,0,0:0:0:0:
64,192,121789,1,0,0:0:0:0:
192,192,121838,1,0,0:0:0:0:
320,192,121886,1,0,0:0:0:0:
64,192,121935,1,0,0:0:0:0:
448,192,121935,1,0,0:0:0:0:
320,192,121983,1,0,0:0:0:0:
192,192,122032,1,0,0:0:0:0:
320,192,122080,1,0,0:0:0:0:
64,192,122129,1,0,0:0:0:0:
192,192,122177,1,0,0:0:0:0:
448,192,122226,1,0,0:0:0:0:
320,192,122274,1,0,0:0:0:0:
192,192,122323,1,0,0:0:0:0:
64,192,122371,1,0,0:0:0:0:
448,192,122371,1,0,0:0:0:0:
320,192,122426,1,0,0:0:0:0:
192,192,122480,1,0,0:0:0:0:
64,192,122535,1,0,0:0:0:0:
192,192,122589,1,0,0:0:0:0:
320,192,122644,1,0,0:0:0:0:
448,192,122698,1,0,0:0:0:0:
320,192,122753,1,0,0:0:0:0:
192,192,122807,1,0,0:0:0:0:
64,192,122807,1,0,0:0:0:0:
64,192,122916,1,0,0:0:0:0:
192,192,122916,1,0,0:0:0:0:
448,192,122916,1,0,0:0:0:0:
192,192,123026,1,0,0:0:0:0:
320,192,123026,1,0,0:0:0:0:
320,192,123135,1,0,0:0:0:0:
192,192,123135,1,0,0:0:0:0:
448,192,123244,128,0,123462:0:0:0:0:
320,192,123244,1,0,0:0:0:0:
64,192,123244,128,0,123462:0:0:0:0:
192,192,123353,1,0,0:0:0:0:
320,192,123462,1,0,0:0:0:0:
320,192,123571,1,0,0:0:0:0:
448,192,123571,1,0,0:0:0:0:
64,192,123607,1,0,0:0:0:0:
192,192,123644,1,0,0:0:0:0:
320,192,123681,1,0,0:0:0:0:
64,192,123718,1,0,0:0:0:0:
448,192,123755,1,0,0:0:0:0:
320,192,123792,1,0,0:0:0:0:
192,192,123830,1,0,0:0:0:0:
64,192,123879,1,0,0:0:0:0:
192,192,123929,1,0,0:0:0:0:
320,192,123979,1,0,0:0:0:0:
448,192,124016,1,0,0:0:0:0:
64,192,124016,1,0,0:0:0:0:
320,192,124128,1,0,0:0:0:0:
448,192,124128,1,0,0:0:0:0:
192,192,124237,1,0,0:0:0:0:
64,192,124237,1,0,0:0:0:0:
320,192,124237,1,0,0:0:0:0:
192,192,124346,1,0,0:0:0:0:
64,192,124346,1,0,0:0:0:0:
448,192,124346,1,0,0:0:0:0:
192,192,124455,1,0,0:0:0:0:
64,192,124455,1,0,0:0:0:0:
320,192,124564,1,0,0:0:0:0:
192,192,124564,1,0,0:0:0:0:
64,192,124564,1,0,0:0:0:0:
448,192,124564,1,0,0:0:0:0:
192,192,124673,1,0,0:0:0:0:
320,192,124673,1,0,0:0:0:0:
448,192,124673,1,0,0:0:0:0:
320,192,124782,1,0,0:0:0:0:
448,192,124891,1,0,0:0:0:0:
64,192,124891,1,0,0:0:0:0:
192,192,125000,1,0,0:0:0:0:
64,192,125000,1,0,0:0:0:0:
320,192,125049,1,0,0:0:0:0:
448,192,125097,1,0,0:0:0:0:
320,192,125146,1,0,0:0:0:0:
64,192,125146,1,0,0:0:0:0:
192,192,125194,1,0,0:0:0:0:
64,192,125243,1,0,0:0:0:0:
448,192,125291,1,0,0:0:0:0:
320,192,125340,1,0,0:0:0:0:
192,192,125388,1,0,0:0:0:0:
64,192,125437,1,0,0:0:0:0:
448,192,125437,1,0,0:0:0:0:
320,192,125485,1,0,0:0:0:0:
192,192,125533,1,0,0:0:0:0:
320,192,125582,1,0,0:0:0:0:
448,192,125631,1,0,0:0:0:0:
64,192,125679,1,0,0:0:0:0:
192,192,125728,1,0,0:0:0:0:
320,192,125728,1,0,0:0:0:0:
448,192,125776,1,0,0:0:0:0:
64,192,125824,1,0,0:0:0:0:
192,192,125873,1,0,0:0:0:0:
320,192,125873,1,0,0:0:0:0:
448,192,125922,1,0,0:0:0:0:
64,192,125970,1,0,0:0:0:0:
192,192,126018,1,0,0:0:0:0:
320,192,126067,1,0,0:0:0:0:
192,192,126115,1,0,0:0:0:0:
64,192,126164,1,0,0:0:0:0:
448,192,126213,1,0,0:0:0:0:
320,192,126213,1,0,0:0:0:0:
192,192,126261,1,0,0:0:0:0:
64,192,126309,1,0,0:0:0:0:
448,192,126309,1,0,0:0:0:0:
320,192,126358,1,0,0:0:0:0:
192,192,126406,1,0,0:0:0:0:
448,192,126455,1,0,0:0:0:0:
320,192,126503,1,0,0:0:0:0:
64,192,126552,1,0,0:0:0:0:
192,192,126637,1,0,0:0:0:0:
448,192,126649,1,0,0:0:0:0:
320,192,126746,1,0,0:0:0:0:
192,192,126746,1,0,0:0:0:0:
64,192,126746,1,0,0:0:0:0:
320,192,126855,1,0,0:0:0:0:
64,192,126855,1,0,0:0:0:0:
448,192,126855,1,0,0:0:0:0:
192,192,126964,1,0,0:0:0:0:
448,192,126964,1,0,0:0:0:0:
192,192,127073,1,0,0:0:0:0:
448,192,127073,1,0,0:0:0:0:
192,192,127182,1,0,0:0:0:0:
320,192,127182,1,0,0:0:0:0:
448,192,127182,1,0,0:0:0:0:
64,192,127279,1,0,0:0:0:0:
192,192,127328,1,0,0:0:0:0:
320,192,127376,1,0,0:0:0:0:
64,192,127424,1,0,0:0:0:0:
192,192,127473,1,0,0:0:0:0:
320,192,127522,1,0,0:0:0:0:
448,192,127570,1,0,0:0:0:0:
192,192,127618,1,0,0:0:0:0:
64,192,127618,1,0,0:0:0:0:
320,192,127673,1,0,0:0:0:0:
320,192,127782,1,0,0:0:0:0:
320,192,127891,1,0,0:0:0:0:
192,192,127946,1,0,0:0:0:0:
64,192,127946,1,0,0:0:0:0:
192,192,128055,1,0,0:0:0:0:
320,192,128055,1,0,0:0:0:0:
448,192,128055,1,0,0:0:0:0:
320,192,128164,1,0,0:0:0:0:
448,192,128164,1,0,0:0:0:0:
192,192,128164,1,0,0:0:0:0:
320,192,128273,1,0,0:0:0:0:
192,192,128382,1,0,0:0:0:0:
448,192,128382,1,0,0:0:0:0:
64,192,128491,128,0,128818:0:0:0:0:
320,192,128491,1,0,0:0:0:0:
320,192,128600,1,0,0:0:0:0:
192,192,128709,1,0,0:0:0:0:
448,192,128818,128,0,129146:0:0:0:0:
192,192,128818,1,0,0:0:0:0:
320,192,128928,1,0,0:0:0:0:
320,192,129037,1,0,0:0:0:0:
64,192,129146,128,0,129582:0:0:0:0:
192,192,129146,1,0,0:0:0:0:
192,192,129255,1,0,0:0:0:0:
320,192,129364,1,0,0:0:0:0:
320,192,129473,1,0,0:0:0:0:
192,192,129582,1,0,0:0:0:0:
448,192,129582,1,0,0:0:0:0:
320,192,129800,1,0,0:0:0:0:
448,192,129800,1,0,0:0:0:0:
192,192,129800,1,0,0:0:0:0:
320,192,129909,1,0,0:0:0:0:
448,192,129909,1,0,0:0:0:0:
192,192,129909,1,0,0:0:0:0:
448,192,130128,1,0,0:0:0:0:
192,192,130128,1,0,0:0:0:0:
320,192,130237,128,0,130564:0:0:0:0:
64,192,130237,1,0,0:0:0:0:
64,192,130346,1,0,0:0:0:0:
448,192,130455,1,0,0:0:0:0:
192,192,130564,128,0,130891:0:0:0:0:
448,192,130564,1,0,0:0:0:0:
64,192,130673,1,0,0:0:0:0:
64,192,130782,1,0,0:0:0:0:
320,192,130891,128,0,131328:0:0:0:0:
448,192,130891,1,0,0:0:0:0:
448,192,131000,1,0,0:0:0:0:
64,192,131109,1,0,0:0:0:0:
64,192,131218,1,0,0:0:0:0:
192,192,131328,1,0,0:0:0:0:
448,192,131328,1,0,0:0:0:0:
320,192,131546,1,0,0:0:0:0:
192,192,131546,1,0,0:0:0:0:
64,192,131546,1,0,0:0:0:0:
64,192,131655,1,0,0:0:0:0:
192,192,131655,1,0,0:0:0:0:
320,192,131655,1,0,0:0:0:0:
192,192,131873,1,0,0:0:0:0:
320,192,131873,1,0,0:0:0:0:
448,192,131873,1,0,0:0:0:0:
64,192,131982,1,0,0:0:0:0:
192,192,132091,1,0,0:0:0:0:
320,192,132200,1,0,0:0:0:0:
448,192,132200,1,0,0:0:0:0:
192,192,132309,1,0,0:0:0:0:
64,192,132309,1,0,0:0:0:0:
448,192,132322,1,0,0:0:0:0:
320,192,132370,1,0,0:0:0:0:
192,192,132418,1,0,0:0:0:0:
448,192,132467,1,0,0:0:0:0:
64,192,132515,1,0,0:0:0:0:
192,192,132564,1,0,0:0:0:0:
320,192,132564,1,0,0:0:0:0:
448,192,132613,1,0,0:0:0:0:
64,192,132661,1,0,0:0:0:0:
320,192,132709,1,0,0:0:0:0:
192,192,132758,1,0,0:0:0:0:
64,192,132806,1,0,0:0:0:0:
448,192,132855,1,0,0:0:0:0:
320,192,132855,1,0,0:0:0:0:
320,192,132943,1,0,0:0:0:0:
448,192,132943,1,0,0:0:0:0:
448,192,133046,1,0,0:0:0:0:
64,192,133073,1,0,0:0:0:0:
64,192,133182,1,0,0:0:0:0:
192,192,133182,1,0,0:0:0:0:
448,192,133291,1,0,0:0:0:0:
320,192,133291,1,0,0:0:0:0:
64,192,133346,1,0,0:0:0:0:
192,192,133400,1,0,0:0:0:0:
320,192,133400,1,0,0:0:0:0:
448,192,133455,1,0,0:0:0:0:
192,192,133509,1,0,0:0:0:0:
448,192,133618,1,0,0:0:0:0:
64,192,133618,1,0,0:0:0:0:
192,192,133665,1,0,0:0:0:0:
320,192,133728,1,0,0:0:0:0:
64,192,133776,1,0,0:0:0:0:
448,192,133824,1,0,0:0:0:0:
320,192,133873,1,0,0:0:0:0:
192,192,133873,1,0,0:0:0:0:
64,192,133922,1,0,0:0:0:0:
448,192,133970,1,0,0:0:0:0:
320,192,134018,1,0,0:0:0:0:
64,192,134067,1,0,0:0:0:0:
192,192,134115,1,0,0:0:0:0:
448,192,134164,1,0,0:0:0:0:
320,192,134164,1,0,0:0:0:0:
64,192,134218,1,0,0:0:0:0:
448,192,134273,1,0,0:0:0:0:
320,192,134328,1,0,0:0:0:0:
192,192,134382,1,0,0:0:0:0:
64,192,134382,1,0,0:0:0:0:
448,192,134437,1,0,0:0:0:0:
192,192,134491,1,0,0:0:0:0:
64,192,134600,1,0,0:0:0:0:
320,192,134600,1,0,0:0:0:0:
448,192,134600,1,0,0:0:0:0:
320,192,134709,1,0,0:0:0:0:
448,192,134709,1,0,0:0:0:0:
320,192,134818,1,0,0:0:0:0:
64,192,134818,1,0,0:0:0:0:
192,192,134928,1,0,0:0:0:0:
448,192,134928,1,0,0:0:0:0:
192,192,135037,1,0,0:0:0:0:
320,192,135037,1,0,0:0:0:0:
64,192,135037,1,0,0:0:0:0:
64,192,135146,1,0,0:0:0:0:
192,192,135146,1,0,0:0:0:0:
320,192,135255,1,0,0:0:0:0:
320,192,135364,1,0,0:0:0:0:
448,192,135364,1,0,0:0:0:0:
64,192,135364,1,0,0:0:0:0:
192,192,135473,1,0,0:0:0:0:
64,192,135473,1,0,0:0:0:0:
448,192,135582,1,0,0:0:0:0:
320,192,135582,1,0,0:0:0:0:
448,192,135691,1,0,0:0:0:0:
192,192,135691,1,0,0:0:0:0:
64,192,135800,1,0,0:0:0:0:
320,192,135800,1,0,0:0:0:0:
192,192,135861,1,0,0:0:0:0:
448,192,135909,1,0,0:0:0:0:
320,192,135958,1,0,0:0:0:0:
64,192,136006,1,0,0:0:0:0:
192,192,136055,1,0,0:0:0:0:
320,192,136055,1,0,0:0:0:0:
448,192,136103,1,0,0:0:0:0:
64,192,136152,1,0,0:0:0:0:
192,192,136200,1,0,0:0:0:0:
448,192,136249,1,0,0:0:0:0:
320,192,136297,1,0,0:0:0:0:
192,192,136346,1,0,0:0:0:0:
64,192,136346,1,0,0:0:0:0:
192,192,136433,1,0,0:0:0:0:
64,192,136433,1,0,0:0:0:0:
64,192,136537,1,0,0:0:0:0:
448,192,136564,1,0,0:0:0:0:
320,192,136564,1,0,0:0:0:0:
448,192,136673,1,0,0:0:0:0:
320,192,136673,1,0,0:0:0:0:
192,192,136782,1,0,0:0:0:0:
64,192,136782,1,0,0:0:0:0:
320,192,136837,1,0,0:0:0:0:
448,192,136891,1,0,0:0:0:0:
64,192,136891,1,0,0:0:0:0:
192,192,136946,1,0,0:0:0:0:
320,192,137000,1,0,0:0:0:0:
64,192,137109,1,0,0:0:0:0:
192,192,137109,1,0,0:0:0:0:
448,192,137170,1,0,0:0:0:0:
320,192,137218,1,0,0:0:0:0:
192,192,137267,1,0,0:0:0:0:
64,192,137315,1,0,0:0:0:0:
320,192,137364,1,0,0:0:0:0:
448,192,137364,1,0,0:0:0:0:
192,192,137413,1,0,0:0:0:0:
320,192,137461,1,0,0:0:0:0:
64,192,137509,1,0,0:0:0:0:
448,192,137558,1,0,0:0:0:0:
320,192,137606,1,0,0:0:0:0:
192,192,137655,1,0,0:0:0:0:
64,192,137655,1,0,0:0:0:0:
192,192,137764,1,0,0:0:0:0:
448,192,137780,1,0,0:0:0:0:
320,192,137873,1,0,0:0:0:0:
64,192,137873,1,0,0:0:0:0:
64,192,137982,1,0,0:0:0:0:
192,192,137982,1,0,0:0:0:0:
64,192,138091,1,0,0:0:0:0:
320,192,138091,1,0,0:0:0:0:
448,192,138091,1,0,0:0:0:0:
192,192,138200,1,0,0:0:0:0:
448,192,138200,1,0,0:0:0:0:
320,192,138309,1,0,0:0:0:0:
64,192,138309,1,0,0:0:0:0:
320,192,138418,1,0,0:0:0:0:
192,192,138528,1,0,0:0:0:0:
64,192,138528,1,0,0:0:0:0:
448,192,138528,1,0,0:0:0:0:
192,192,138637,1,0,0:0:0:0:
448,192,138637,1,0,0:0:0:0:
320,192,138746,1,0,0:0:0:0:
192,192,138855,1,0,0:0:0:0:
64,192,138855,1,0,0:0:0:0:
448,192,138964,1,0,0:0:0:0:
320,192,139073,1,0,0:0:0:0:
192,192,139073,1,0,0:0:0:0:
192,192,139182,1,0,0:0:0:0:
64,192,139182,1,0,0:0:0:0:
320,192,139291,1,0,0:0:0:0:
448,192,139291,1,0,0:0:0:0:
64,192,139303,1,0,0:0:0:0:
192,192,139352,1,0,0:0:0:0:
448,192,139400,1,0,0:0:0:0:
64,192,139449,1,0,0:0:0:0:
320,192,139497,1,0,0:0:0:0:
192,192,139546,1,0,0:0:0:0:
448,192,139594,1,0,0:0:0:0:
64,192,139594,1,0,0:0:0:0:
192,192,139643,1,0,0:0:0:0:
320,192,139691,1,0,0:0:0:0:
448,192,139740,1,0,0:0:0:0:
64,192,139788,1,0,0:0:0:0:
192,192,139837,1,0,0:0:0:0:
320,192,139837,1,0,0:0:0:0:
320,192,139924,1,0,0:0:0:0:
192,192,139924,1,0,0:0:0:0:
192,192,140028,1,0,0:0:0:0:
448,192,140055,1,0,0:0:0:0:
320,192,140164,1,0,0:0:0:0:
448,192,140164,1,0,0:0:0:0:
192,192,140273,1,0,0:0:0:0:
64,192,140273,1,0,0:0:0:0:
448,192,140328,1,0,0:0:0:0:
64,192,140382,1,0,0:0:0:0:
320,192,140382,1,0,0:0:0:0:
192,192,140437,1,0,0:0:0:0:
320,192,140491,1,0,0:0:0:0:
192,192,140600,1,0,0:0:0:0:
64,192,140600,1,0,0:0:0:0:
448,192,140613,1,0,0:0:0:0:
320,192,140661,1,0,0:0:0:0:
64,192,140709,1,0,0:0:0:0:
448,192,140758,1,0,0:0:0:0:
192,192,140806,1,0,0:0:0:0:
320,192,140855,1,0,0:0:0:0:
448,192,140855,1,0,0:0:0:0:
64,192,140903,1,0,0:0:0:0:
192,192,140952,1,0,0:0:0:0:
320,192,141000,1,0,0:0:0:0:
64,192,141049,1,0,0:0:0:0:
448,192,141097,1,0,0:0:0:0:
192,192,141146,1,0,0:0:0:0:
320,192,141146,1,0,0:0:0:0:
64,192,141200,1,0,0:0:0:0:
448,192,141255,1,0,0:0:0:0:
192,192,141309,1,0,0:0:0:0:
448,192,141364,1,0,0:0:0:0:
320,192,141364,1,0,0:0:0:0:
64,192,141473,1,0,0:0:0:0:
320,192,141473,1,0,0:0:0:0:
192,192,141582,1,0,0:0:0:0:
64,192,141582,1,0,0:0:0:0:
448,192,141582,1,0,0:0:0:0:
192,192,141691,1,0,0:0:0:0:
64,192,141691,1,0,0:0:0:0:
448,192,141800,1,0,0:0:0:0:
320,192,141855,1,0,0:0:0:0:
64,192,141909,1,0,0:0:0:0:
192,192,141964,1,0,0:0:0:0:
320,192,142018,1,0,0:0:0:0:
448,192,142018,1,0,0:0:0:0:
64,192,142018,1,0,0:0:0:0:
192,192,142128,1,0,0:0:0:0:
320,192,142128,1,0,0:0:0:0:
448,192,142128,1,0,0:0:0:0:
192,192,142237,1,0,0:0:0:0:
64,192,142237,1,0,0:0:0:0:
192,192,142346,1,0,0:0:0:0:
64,192,142346,1,0,0:0:0:0:
320,192,142455,1,0,0:0:0:0:
448,192,142455,1,0,0:0:0:0:
64,192,142491,1,0,0:0:0:0:
192,192,142528,1,0,0:0:0:0:
320,192,142564,1,0,0:0:0:0:
448,192,142600,1,0,0:0:0:0:
320,192,142637,1,0,0:0:0:0:
192,192,142673,1,0,0:0:0:0:
448,192,142709,1,0,0:0:0:0:
64,192,142746,1,0,0:0:0:0:
192,192,142782,1,0,0:0:0:0:
320,192,142837,1,0,0:0:0:0:
448,192,142891,1,0,0:0:0:0:
64,192,142891,1,0,0:0:0:0:
192,192,143000,1,0,0:0:0:0:
320,192,143037,1,0,0:0:0:0:
64,192,143085,1,0,0:0:0:0:
448,192,143133,1,0,0:0:0:0:
320,192,143182,1,0,0:0:0:0:
192,192,143231,1,0,0:0:0:0:
64,192,143231,1,0,0:0:0:0:
448,192,143273,1,0,0:0:0:0:
320,192,143300,1,0,0:0:0:0:
192,192,143327,1,0,0:0:0:0:
64,192,143327,1,0,0:0:0:0:
64,192,143424,1,0,0:0:0:0:
192,192,143424,1,0,0:0:0:0:
320,192,143473,1,0,0:0:0:0:
448,192,143522,1,0,0:0:0:0:
320,192,143618,1,0,0:0:0:0:
192,192,143655,1,0,0:0:0:0:
64,192,143655,1,0,0:0:0:0:
448,192,143691,1,0,0:0:0:0:
320,192,143727,1,0,0:0:0:0:
192,192,143764,1,0,0:0:0:0:
64,192,143800,1,0,0:0:0:0:
448,192,143837,1,0,0:0:0:0:
192,192,143873,1,0,0:0:0:0:
320,192,143927,1,0,0:0:0:0:
64,192,143982,1,0,0:0:0:0:
448,192,144037,1,0,0:0:0:0:
320,192,144091,1,0,0:0:0:0:
192,192,144146,1,0,0:0:0:0:
64,192,144200,1,0,0:0:0:0:
448,192,144200,1,0,0:0:0:0:
192,192,144237,1,0,0:0:0:0:
320,192,144273,1,0,0:0:0:0:
448,192,144309,1,0,0:0:0:0:
192,192,144346,1,0,0:0:0:0:
64,192,144382,1,0,0:0:0:0:
448,192,144418,1,0,0:0:0:0:
320,192,144455,1,0,0:0:0:0:
192,192,144491,1,0,0:0:0:0:
448,192,144564,1,0,0:0:0:0:
64,192,144637,1,0,0:0:0:0:
192,192,144637,1,0,0:0:0:0:
448,192,144746,1,0,0:0:0:0:
192,192,144746,1,0,0:0:0:0:
320,192,144782,1,0,0:0:0:0:
64,192,144831,1,0,0:0:0:0:
320,192,144879,1,0,0:0:0:0:
192,192,144927,1,0,0:0:0:0:
448,192,144976,1,0,0:0:0:0:
64,192,144976,1,0,0:0:0:0:
448,192,145073,1,0,0:0:0:0:
64,192,145073,1,0,0:0:0:0:
448,192,145170,1,0,0:0:0:0:
64,192,145170,1,0,0:0:0:0:
192,192,145218,1,0,0:0:0:0:
320,192,145267,1,0,0:0:0:0:
64,192,145315,1,0,0:0:0:0:
448,192,145364,1,0,0:0:0:0:
320,192,145437,1,0,0:0:0:0:
64,192,145509,1,0,0:0:0:0:
192,192,145509,1,0,0:0:0:0:
192,192,145618,1,0,0:0:0:0:
320,192,145618,1,0,0:0:0:0:
448,192,145618,1,0,0:0:0:0:
320,192,145727,1,0,0:0:0:0:
448,192,145727,1,0,0:0:0:0:
192,192,145727,1,0,0:0:0:0:
192,192,145837,1,0,0:0:0:0:
320,192,145837,1,0,0:0:0:0:
448,192,145837,1,0,0:0:0:0:
192,192,145946,1,0,0:0:0:0:
64,192,145946,1,0,0:0:0:0:
320,192,145982,1,0,0:0:0:0:
64,192,146055,1,0,0:0:0:0:
448,192,146055,1,0,0:0:0:0:
192,192,146127,1,0,0:0:0:0:
448,192,146164,1,0,0:0:0:0:
320,192,146200,1,0,0:0:0:0:
192,192,146237,1,0,0:0:0:0:
64,192,146273,1,0,0:0:0:0:
320,192,146383,1,0,0:0:0:0:
448,192,146383,1,0,0:0:0:0:
64,192,146442,1,0,0:0:0:0:
192,192,146502,1,0,0:0:0:0:
320,192,146562,1,0,0:0:0:0:
448,192,146562,1,0,0:0:0:0:
64,192,146622,1,0,0:0:0:0:
320,192,146682,1,0,0:0:0:0:
192,192,146741,1,0,0:0:0:0:
64,192,146741,1,0,0:0:0:0:
448,192,146781,1,0,0:0:0:0:
320,192,146821,1,0,0:0:0:0:
192,192,146861,1,0,0:0:0:0:
64,192,146897,1,0,0:0:0:0:
448,192,146934,1,0,0:0:0:0:
192,192,146970,1,0,0:0:0:0:
320,192,147007,1,0,0:0:0:0:
64,192,147080,1,0,0:0:0:0:
320,192,147112,1,0,0:0:0:0:
192,192,147190,1,0,0:0:0:0:
448,192,147190,1,0,0:0:0:0:
320,192,147300,1,0,0:0:0:0:
192,192,147300,1,0,0:0:0:0:
64,192,147300,1,0,0:0:0:0:
192,192,147410,1,0,0:0:0:0:
448,192,147410,1,0,0:0:0:0:
320,192,147520,1,0,0:0:0:0:
64,192,147520,1,0,0:0:0:0:
64,192,147630,1,0,0:0:0:0:
320,192,147630,1,0,0:0:0:0:
320,192,147740,1,0,0:0:0:0:
448,192,147740,1,0,0:0:0:0:
192,192,147789,1,0,0:0:0:0:
64,192,147838,1,0,0:0:0:0:
192,192,147887,1,0,0:0:0:0:
320,192,147935,1,0,0:0:0:0:
448,192,147984,1,0,0:0:0:0:
64,192,148034,1,0,0:0:0:0:
320,192,148083,1,0,0:0:0:0:
192,192,148131,1,0,0:0:0:0:
64,192,148180,1,0,0:0:0:0:
448,192,148180,1,0,0:0:0:0:
320,192,148228,1,0,0:0:0:0:
448,192,148275,1,0,0:0:0:0:
320,192,148323,1,0,0:0:0:0:
192,192,148370,1,0,0:0:0:0:
448,192,148417,1,0,0:0:0:0:
64,192,148465,1,0,0:0:0:0:
320,192,148465,1,0,0:0:0:0:
192,192,148512,1,0,0:0:0:0:
64,192,148559,1,0,0:0:0:0:
192,192,148607,1,0,0:0:0:0:
320,192,148653,1,0,0:0:0:0:
448,192,148701,1,0,0:0:0:0:
448,192,148820,1,0,0:0:0:0:
64,192,148820,1,0,0:0:0:0:
320,192,148926,1,0,0:0:0:0:
64,192,149033,1,0,0:0:0:0:
192,192,149033,1,0,0:0:0:0:
320,192,149033,1,0,0:0:0:0:
64,192,149140,1,0,0:0:0:0:
192,192,149140,1,0,0:0:0:0:
448,192,149247,1,0,0:0:0:0:
320,192,149301,1,0,0:0:0:0:
64,192,149355,1,0,0:0:0:0:
192,192,149408,1,0,0:0:0:0:
448,192,149463,1,0,0:0:0:0:
320,192,149463,1,0,0:0:0:0:
64,192,149499,1,0,0:0:0:0:
192,192,149536,1,0,0:0:0:0:
320,192,149573,1,0,0:0:0:0:
448,192,149610,1,0,0:0:0:0:
320,192,149647,1,0,0:0:0:0:
192,192,149684,1,0,0:0:0:0:
64,192,149721,1,0,0:0:0:0:
448,192,149758,1,0,0:0:0:0:
192,192,149807,1,0,0:0:0:0:
320,192,149856,1,0,0:0:0:0:
64,192,149906,1,0,0:0:0:0:
448,192,149906,1,0,0:0:0:0:
64,192,150004,1,0,0:0:0:0:
320,192,150054,1,0,0:0:0:0:
192,192,150103,1,0,0:0:0:0:
448,192,150152,1,0,0:0:0:0:
320,192,150202,1,0,0:0:0:0:
192,192,150251,1,0,0:0:0:0:
64,192,150300,1,0,0:0:0:0:
448,192,150349,1,0,0:0:0:0:
320,192,150349,1,0,0:0:0:0:
192,192,150398,1,0,0:0:0:0:
64,192,150448,1,0,0:0:0:0:
448,192,150460,1,0,0:0:0:0:
320,192,150571,1,0,0:0:0:0:
192,192,150571,1,0,0:0:0:0:
320,192,150682,1,0,0:0:0:0:
448,192,150793,1,0,0:0:0:0:
192,192,150793,1,0,0:0:0:0:
64,192,150793,1,0,0:0:0:0:
192,192,150902,1,0,0:0:0:0:
64,192,150902,1,0,0:0:0:0:
448,192,150902,1,0,0:0:0:0:
320,192,151012,1,0,0:0:0:0:
64,192,151012,1,0,0:0:0:0:
192,192,151122,1,0,0:0:0:0:
320,192,151232,1,0,0:0:0:0:
448,192,151232,1,0,0:0:0:0:
64,192,151269,1,0,0:0:0:0:
192,192,151306,1,0,0:0:0:0:
320,192,151342,1,0,0:0:0:0:
64,192,151379,1,0,0:0:0:0:
448,192,151416,1,0,0:0:0:0:
320,192,151452,1,0,0:0:0:0:
192,192,151489,1,0,0:0:0:0:
64,192,151526,1,0,0:0:0:0:
448,192,151574,1,0,0:0:0:0:
192,192,151623,1,0,0:0:0:0:
448,192,151672,1,0,0:0:0:0:
320,192,151672,1,0,0:0:0:0:
64,192,151721,1,0,0:0:0:0:
192,192,151770,1,0,0:0:0:0:
448,192,151819,1,0,0:0:0:0:
320,192,151892,1,0,0:0:0:0:
64,192,151892,1,0,0:0:0:0:
320,192,152002,1,0,0:0:0:0:
192,192,152002,1,0,0:0:0:0:
192,192,152112,1,0,0:0:0:0:
64,192,152112,1,0,0:0:0:0:
448,192,152149,1,0,0:0:0:0:
64,192,152210,1,0,0:0:0:0:
192,192,152259,1,0,0:0:0:0:
320,192,152259,1,0,0:0:0:0:
448,192,152332,1,0,0:0:0:0:
192,192,152442,1,0,0:0:0:0:
320,192,152552,1,0,0:0:0:0:
448,192,152552,1,0,0:0:0:0:
64,192,152552,1,0,0:0:0:0:
64,192,152662,1,0,0:0:0:0:
448,192,152662,1,0,0:0:0:0:
320,192,152662,1,0,0:0:0:0:
320,192,152772,1,0,0:0:0:0:
192,192,152882,1,0,0:0:0:0:
64,192,152882,1,0,0:0:0:0:
320,192,152992,1,0,0:0:0:0:
448,192,152992,1,0,0:0:0:0:
192,192,153041,1,0,0:0:0:0:
64,192,153089,1,0,0:0:0:0:
192,192,153139,1,0,0:0:0:0:
448,192,153187,1,0,0:0:0:0:
320,192,153236,1,0,0:0:0:0:
192,192,153285,1,0,0:0:0:0:
448,192,153333,1,0,0:0:0:0:
320,192,153383,1,0,0:0:0:0:
448,192,153432,1,0,0:0:0:0:
64,192,153432,1,0,0:0:0:0:
192,192,153480,1,0,0:0:0:0:
320,192,153529,1,0,0:0:0:0:
64,192,153578,1,0,0:0:0:0:
192,192,153627,1,0,0:0:0:0:
448,192,153676,1,0,0:0:0:0:
64,192,153725,1,0,0:0:0:0:
192,192,153773,1,0,0:0:0:0:
320,192,153872,1,0,0:0:0:0:
448,192,153872,1,0,0:0:0:0:
64,192,153982,1,0,0:0:0:0:
448,192,153982,1,0,0:0:0:0:
192,192,153982,1,0,0:0:0:0:
192,192,154092,1,0,0:0:0:0:
320,192,154202,1,0,0:0:0:0:
448,192,154202,1,0,0:0:0:0:
320,192,154312,1,0,0:0:0:0:
192,192,154312,1,0,0:0:0:0:
64,192,154312,1,0,0:0:0:0:
448,192,154312,128,0,154532:0:0:0:0:
64,192,154422,1,0,0:0:0:0:
192,192,154422,1,0,0:0:0:0:
64,192,154532,1,0,0:0:0:0:
320,192,154532,1,0,0:0:0:0:
192,192,154641,1,0,0:0:0:0:
64,192,154641,1,0,0:0:0:0:
320,192,154751,1,0,0:0:0:0:
448,192,154751,1,0,0:0:0:0:
64,192,154800,1,0,0:0:0:0:
192,192,154849,1,0,0:0:0:0:
320,192,154898,1,0,0:0:0:0:
64,192,154946,1,0,0:0:0:0:
448,192,154995,1,0,0:0:0:0:
320,192,155045,1,0,0:0:0:0:
192,192,155093,1,0,0:0:0:0:
64,192,155142,1,0,0:0:0:0:
320,192,155191,1,0,0:0:0:0:
448,192,155191,1,0,0:0:0:0:
192,192,155240,1,0,0:0:0:0:
448,192,155289,1,0,0:0:0:0:
64,192,155338,1,0,0:0:0:0:
192,192,155386,1,0,0:0:0:0:
320,192,155435,1,0,0:0:0:0:
448,192,155485,1,0,0:0:0:0:
192,192,155533,1,0,0:0:0:0:
320,192,155582,1,0,0:0:0:0:
64,192,155631,1,0,0:0:0:0:
448,192,155631,1,0,0:0:0:0:
320,192,155680,1,0,0:0:0:0:
192,192,155729,1,0,0:0:0:0:
64,192,155778,1,0,0:0:0:0:
448,192,155826,1,0,0:0:0:0:
320,192,155875,1,0,0:0:0:0:
192,192,155924,1,0,0:0:0:0:
448,192,155973,1,0,0:0:0:0:
64,192,156022,1,0,0:0:0:0:
192,192,156071,1,0,0:0:0:0:
320,192,156071,1,0,0:0:0:0:
448,192,156120,1,0,0:0:0:0:
64,192,156168,1,0,0:0:0:0:
192,192,156217,1,0,0:0:0:0:
320,192,156265,1,0,0:0:0:0:
64,192,156313,1,0,0:0:0:0:
448,192,156362,1,0,0:0:0:0:
320,192,156411,1,0,0:0:0:0:
192,192,156459,1,0,0:0:0:0:
448,192,156508,1,0,0:0:0:0:
64,192,156508,1,0,0:0:0:0:
192,192,156556,1,0,0:0:0:0:
320,192,156604,1,0,0:0:0:0:
448,192,156653,1,0,0:0:0:0:
64,192,156702,1,0,0:0:0:0:
320,192,156750,1,0,0:0:0:0:
192,192,156799,1,0,0:0:0:0:
64,192,156847,1,0,0:0:0:0:
448,192,156895,1,0,0:0:0:0:
320,192,156944,1,0,0:0:0:0:
192,192,156944,1,0,0:0:0:0:
64,192,156993,1,0,0:0:0:0:
448,192,157041,1,0,0:0:0:0:
192,192,157090,1,0,0:0:0:0:
320,192,157138,1,0,0:0:0:0:
448,192,157186,1,0,0:0:0:0:
64,192,157235,1,0,0:0:0:0:
192,192,157283,1,0,0:0:0:0:
448,192,157332,1,0,0:0:0:0:
320,192,157381,1,0,0:0:0:0:
192,192,157429,1,0,0:0:0:0:
448,192,157477,1,0,0:0:0:0:
64,192,157490,1,0,0:0:0:0:
192,192,157544,1,0,0:0:0:0:
320,192,157599,1,0,0:0:0:0:
448,192,157599,1,0,0:0:0:0:
64,192,157692,1,0,0:0:0:0:
448,192,157692,1,0,0:0:0:0:
192,192,157781,1,0,0:0:0:0:
320,192,157781,1,0,0:0:0:0:
320,192,157890,128,0,157962:0:0:0:0:
448,192,157890,128,0,157962:0:0:0:0:
64,192,157890,128,0,157962:0:0:0:0:
64,192,158090,128,0,158172:0:0:0:0:
320,192,158090,128,0,158172:0:0:0:0:
192,192,158090,128,0,158172:0:0:0:0:
64,192,158649,1,0,0:0:0:0:
448,192,158649,1,0,0:0:0:0:
192,192,158706,1,0,0:0:0:0:
320,192,158764,1,0,0:0:0:0:
448,192,158822,1,0,0:0:0:0:
320,192,158880,1,0,0:0:0:0:
192,192,158937,1,0,0:0:0:0:
320,192,158995,1,0,0:0:0:0:
192,192,159053,1,0,0:0:0:0:
64,192,159111,1,0,0:0:0:0:
192,192,159169,1,0,0:0:0:0:
320,192,159226,1,0,0:0:0:0:
192,192,159284,1,0,0:0:0:0:
64,192,159342,1,0,0:0:0:0:
192,192,159400,1,0,0:0:0:0:
320,192,159457,1,0,0:0:0:0:
448,192,159515,1,0,0:0:0:0:
320,192,159573,1,0,0:0:0:0:
192,192,159626,1,0,0:0:0:0:
320,192,159679,1,0,0:0:0:0:
448,192,159732,1,0,0:0:0:0:
320,192,159786,1,0,0:0:0:0:
192,192,159839,1,0,0:0:0:0:
64,192,159892,1,0,0:0:0:0:
192,192,159945,1,0,0:0:0:0:
64,192,159999,1,0,0:0:0:0:
448,192,159999,1,0,0:0:0:0:
320,192,159999,1,0,0:0:0:0:
192,192,160071,1,0,0:0:0:0:
320,192,160144,1,0,0:0:0:0:
192,192,160217,1,0,0:0:0:0:
64,192,160217,1,0,0:0:0:0:
448,192,160217,1,0,0:0:0:0:
320,192,160271,1,0,0:0:0:0:
192,192,160326,1,0,0:0:0:0:
448,192,160380,1,0,0:0:0:0:
64,192,160435,1,0,0:0:0:0:
192,192,160489,1,0,0:0:0:0:
320,192,160544,1,0,0:0:0:0:
448,192,160544,1,0,0:0:0:0:
64,192,160544,1,0,0:0:0:0:
192,192,160599,1,0,0:0:0:0:
320,192,160653,1,0,0:0:0:0:
64,192,160708,1,0,0:0:0:0:
448,192,160762,1,0,0:0:0:0:
320,192,160817,1,0,0:0:0:0:
192,192,160871,1,0,0:0:0:0:
448,192,160871,1,0,0:0:0:0:
64,192,160871,128,0,161089:0:0:0:0:
320,192,160980,1,0,0:0:0:0:
448,192,161089,128,0,161308:0:0:0:0:
320,192,161089,1,0,0:0:0:0:
192,192,161089,1,0,0:0:0:0:
64,192,161199,1,0,0:0:0:0:
64,192,161308,1,0,0:0:0:0:
320,192,161308,1,0,0:0:0:0:
192,192,161308,1,0,0:0:0:0:
64,192,161417,1,0,0:0:0:0:
192,192,161417,1,0,0:0:0:0:
320,192,161417,1,0,0:0:0:0:
448,192,161526,1,0,0:0:0:0:
320,192,161526,1,0,0:0:0:0:
192,192,161619,1,0,0:0:0:0:
64,192,161619,1,0,0:0:0:0:
448,192,161619,1,0,0:0:0:0:
192,192,161744,1,0,0:0:0:0:
320,192,161853,1,0,0:0:0:0:
448,192,161853,1,0,0:0:0:0:
64,192,161853,1,0,0:0:0:0:
192,192,161962,1,0,0:0:0:0:
448,192,161962,1,0,0:0:0:0:
192,192,162071,1,0,0:0:0:0:
448,192,162071,1,0,0:0:0:0:
64,192,162181,1,0,0:0:0:0:
192,192,162181,1,0,0:0:0:0:
320,192,162181,1,0,0:0:0:0:
192,192,162286,1,0,0:0:0:0:
320,192,162286,1,0,0:0:0:0:
64,192,162392,1,0,0:0:0:0:
448,192,162392,128,0,162603:0:0:0:0:
320,192,162498,128,0,162603:0:0:0:0:
192,192,162603,1,0,0:0:0:0:
64,192,162603,1,0,0:0:0:0:
448,192,162709,1,0,0:0:0:0:
64,192,162709,1,0,0:0:0:0:
192,192,162815,1,0,0:0:0:0:
320,192,162815,1,0,0:0:0:0:
64,192,162885,1,0,0:0:0:0:
192,192,162956,1,0,0:0:0:0:
320,192,163026,1,0,0:0:0:0:
448,192,163026,1,0,0:0:0:0:
64,192,163026,1,0,0:0:0:0:
448,192,163136,1,0,0:0:0:0:
192,192,163192,1,0,0:0:0:0:
320,192,163192,1,0,0:0:0:0:
64,192,163358,1,0,0:0:0:0:
448,192,163358,1,0,0:0:0:0:
192,192,163414,1,0,0:0:0:0:
320,192,163469,1,0,0:0:0:0:
64,192,163524,1,0,0:0:0:0:
192,192,163580,1,0,0:0:0:0:
320,192,163635,1,0,0:0:0:0:
64,192,163691,1,0,0:0:0:0:
448,192,163691,1,0,0:0:0:0:
448,192,163802,1,0,0:0:0:0:
64,192,163802,1,0,0:0:0:0:
192,192,163913,1,0,0:0:0:0:
320,192,163913,1,0,0:0:0:0:
64,192,163913,1,0,0:0:0:0:
448,192,164022,1,0,0:0:0:0:
320,192,164022,1,0,0:0:0:0:
64,192,164131,1,0,0:0:0:0:
192,192,164131,1,0,0:0:0:0:
192,192,164240,1,0,0:0:0:0:
64,192,164349,1,0,0:0:0:0:
448,192,164349,1,0,0:0:0:0:
320,192,164349,1,0,0:0:0:0:
320,192,164458,1,0,0:0:0:0:
192,192,164458,1,0,0:0:0:0:
448,192,164567,1,0,0:0:0:0:
64,192,164567,1,0,0:0:0:0:
320,192,164622,1,0,0:0:0:0:
192,192,164676,1,0,0:0:0:0:
64,192,164731,1,0,0:0:0:0:
448,192,164785,1,0,0:0:0:0:
320,192,164785,1,0,0:0:0:0:
64,192,164894,1,0,0:0:0:0:
192,192,164894,1,0,0:0:0:0:
448,192,164949,1,0,0:0:0:0:
192,192,165003,1,0,0:0:0:0:
320,192,165058,1,0,0:0:0:0:
64,192,165113,1,0,0:0:0:0:
448,192,165113,1,0,0:0:0:0:
192,192,165185,1,0,0:0:0:0:
448,192,165222,1,0,0:0:0:0:
64,192,165258,1,0,0:0:0:0:
448,192,165331,1,0,0:0:0:0:
64,192,165367,1,0,0:0:0:0:
448,192,165440,1,0,0:0:0:0:
192,192,165440,1,0,0:0:0:0:
320,192,165549,1,0,0:0:0:0:
192,192,165549,1,0,0:0:0:0:
448,192,165658,1,0,0:0:0:0:
320,192,165658,1,0,0:0:0:0:
64,192,165658,1,0,0:0:0:0:
192,192,165731,1,0,0:0:0:0:
448,192,165767,1,0,0:0:0:0:
64,192,165803,1,0,0:0:0:0:
192,192,165876,1,0,0:0:0:0:
448,192,165876,1,0,0:0:0:0:
320,192,165985,1,0,0:0:0:0:
192,192,165985,1,0,0:0:0:0:
320,192,166094,1,0,0:0:0:0:
64,192,166094,1,0,0:0:0:0:
448,192,166094,1,0,0:0:0:0:
64,192,166203,1,0,0:0:0:0:
192,192,166203,1,0,0:0:0:0:
448,192,166313,1,0,0:0:0:0:
320,192,166422,1,0,0:0:0:0:
64,192,166422,1,0,0:0:0:0:
448,192,166531,1,0,0:0:0:0:
64,192,166531,1,0,0:0:0:0:
192,192,166531,1,0,0:0:0:0:
320,192,166640,1,0,0:0:0:0:
448,192,166640,1,0,0:0:0:0:
64,192,166640,1,0,0:0:0:0:
320,192,166749,1,0,0:0:0:0:
192,192,166858,1,0,0:0:0:0:
64,192,166858,1,0,0:0:0:0:
448,192,166967,1,0,0:0:0:0:
192,192,166967,1,0,0:0:0:0:
448,192,167076,1,0,0:0:0:0:
192,192,167076,1,0,0:0:0:0:
320,192,167185,1,0,0:0:0:0:
192,192,167185,1,0,0:0:0:0:
64,192,167185,1,0,0:0:0:0:
320,192,167294,1,0,0:0:0:0:
192,192,167403,1,0,0:0:0:0:
448,192,167403,1,0,0:0:0:0:
64,192,167403,1,0,0:0:0:0:
448,192,167513,1,0,0:0:0:0:
192,192,167513,1,0,0:0:0:0:
192,192,167622,1,0,0:0:0:0:
64,192,167622,1,0,0:0:0:0:
320,192,167622,1,0,0:0:0:0:
320,192,167731,1,0,0:0:0:0:
448,192,167731,1,0,0:0:0:0:
64,192,167840,1,0,0:0:0:0:
192,192,167840,1,0,0:0:0:0:
448,192,167949,1,0,0:0:0:0:
320,192,167949,1,0,0:0:0:0:
64,192,167949,1,0,0:0:0:0:
320,192,168058,1,0,0:0:0:0:
448,192,168167,1,0,0:0:0:0:
64,192,168167,1,0,0:0:0:0:
192,192,168167,1,0,0:0:0:0:
192,192,168277,1,0,0:0:0:0:
320,192,168277,1,0,0:0:0:0:
320,192,168381,1,0,0:0:0:0:
64,192,168381,1,0,0:0:0:0:
448,192,168381,1,0,0:0:0:0:
192,192,168451,1,0,0:0:0:0:
192,192,168591,1,0,0:0:0:0:
448,192,168591,1,0,0:0:0:0:
64,192,168591,1,0,0:0:0:0:
64,192,168696,1,0,0:0:0:0:
448,192,168696,1,0,0:0:0:0:
448,192,168801,1,0,0:0:0:0:
64,192,168801,1,0,0:0:0:0:
320,192,168906,1,0,0:0:0:0:
192,192,168906,1,0,0:0:0:0:
192,192,169011,1,0,0:0:0:0:
448,192,169116,1,0,0:0:0:0:
64,192,169116,1,0,0:0:0:0:
320,192,169116,1,0,0:0:0:0:
192,192,169223,1,0,0:0:0:0:
64,192,169330,1,0,0:0:0:0:
448,192,169330,1,0,0:0:0:0:
320,192,169384,1,0,0:0:0:0:
192,192,169384,1,0,0:0:0:0:
192,192,169546,1,0,0:0:0:0:
320,192,169546,1,0,0:0:0:0:
448,192,169601,1,0,0:0:0:0:
64,192,169601,1,0,0:0:0:0:
64,192,169740,128,0,169850:0:0:0:0:
448,192,169740,128,0,169850:0:0:0:0:
320,192,169767,128,0,169906:0:0:0:0:
192,192,169767,128,0,169906:0:0:0:0:
64,192,169989,1,0,0:0:0:0:
320,192,169989,1,0,0:0:0:0:
192,192,169989,1,0,0:0:0:0:
448,192,170098,1,0,0:0:0:0:
192,192,170098,1,0,0:0:0:0:
448,192,170207,1,0,0:0:0:0:
320,192,170316,1,0,0:0:0:0:
192,192,170316,1,0,0:0:0:0:
64,192,170316,1,0,0:0:0:0:
192,192,170425,1,0,0:0:0:0:
64,192,170534,1,0,0:0:0:0:
320,192,170534,1,0,0:0:0:0:
448,192,170534,1,0,0:0:0:0:
192,192,170643,1,0,0:0:0:0:
320,192,170643,1,0,0:0:0:0:
192,192,170752,1,0,0:0:0:0:
320,192,170752,1,0,0:0:0:0:
64,192,170861,1,0,0:0:0:0:
448,192,170861,1,0,0:0:0:0:
320,192,170861,1,0,0:0:0:0:
192,192,170970,1,0,0:0:0:0:
64,192,170970,1,0,0:0:0:0:
448,192,171079,1,0,0:0:0:0:
320,192,171079,1,0,0:0:0:0:
320,192,171189,1,0,0:0:0:0:
448,192,171298,1,0,0:0:0:0:
64,192,171298,1,0,0:0:0:0:
192,192,171298,1,0,0:0:0:0:
320,192,171407,1,0,0:0:0:0:
192,192,171407,1,0,0:0:0:0:
448,192,171516,128,0,171625:0:0:0:0:
64,192,171516,1,0,0:0:0:0:
320,192,171625,1,0,0:0:0:0:
192,192,171625,128,0,171734:0:0:0:0:
448,192,171734,1,0,0:0:0:0:
320,192,171734,1,0,0:0:0:0:
64,192,171734,1,0,0:0:0:0:
192,192,171843,1,0,0:0:0:0:
64,192,171843,1,0,0:0:0:0:
448,192,171952,1,0,0:0:0:0:
192,192,171952,1,0,0:0:0:0:
448,192,172061,1,0,0:0:0:0:
64,192,172061,1,0,0:0:0:0:
320,192,172061,1,0,0:0:0:0:
320,192,172170,1,0,0:0:0:0:
64,192,172279,1,0,0:0:0:0:
320,192,172279,1,0,0:0:0:0:
192,192,172389,1,0,0:0:0:0:
448,192,172389,1,0,0:0:0:0:
448,192,172498,1,0,0:0:0:0:
192,192,172498,1,0,0:0:0:0:
64,192,172607,1,0,0:0:0:0:
192,192,172607,1,0,0:0:0:0:
320,192,172607,1,0,0:0:0:0:
64,192,172715,1,0,0:0:0:0:
320,192,172715,1,0,0:0:0:0:
448,192,172823,1,0,0:0:0:0:
192,192,172823,1,0,0:0:0:0:
192,192,172931,1,0,0:0:0:0:
448,192,172931,1,0,0:0:0:0:
64,192,173041,1,0,0:0:0:0:
192,192,173041,1,0,0:0:0:0:
320,192,173041,1,0,0:0:0:0:
64,192,173148,1,0,0:0:0:0:
320,192,173148,1,0,0:0:0:0:
448,192,173255,1,0,0:0:0:0:
192,192,173255,1,0,0:0:0:0:
192,192,173363,1,0,0:0:0:0:
448,192,173363,1,0,0:0:0:0:
192,192,173470,1,0,0:0:0:0:
64,192,173470,1,0,0:0:0:0:
320,192,173470,1,0,0:0:0:0:
320,192,173577,1,0,0:0:0:0:
64,192,173577,1,0,0:0:0:0:
192,192,173685,1,0,0:0:0:0:
64,192,173792,1,0,0:0:0:0:
320,192,173792,1,0,0:0:0:0:
448,192,173792,1,0,0:0:0:0:
192,192,173846,1,0,0:0:0:0:
448,192,173899,1,0,0:0:0:0:
320,192,173953,1,0,0:0:0:0:
64,192,174007,1,0,0:0:0:0:
192,192,174007,1,0,0:0:0:0:
448,192,174061,1,0,0:0:0:0:
64,192,174114,1,0,0:0:0:0:
192,192,174168,1,0,0:0:0:0:
320,192,174222,1,0,0:0:0:0:
448,192,174275,1,0,0:0:0:0:
64,192,174329,1,0,0:0:0:0:
192,192,174329,1,0,0:0:0:0:
448,192,174383,1,0,0:0:0:0:
320,192,174436,1,0,0:0:0:0:
64,192,174436,1,0,0:0:0:0:
320,192,174544,1,0,0:0:0:0:
192,192,174544,1,0,0:0:0:0:
448,192,174651,1,0,0:0:0:0:
64,192,174651,1,0,0:0:0:0:
192,192,174651,1,0,0:0:0:0:
448,192,174758,1,0,0:0:0:0:
320,192,174758,1,0,0:0:0:0:
64,192,174867,1,0,0:0:0:0:
448,192,174867,1,0,0:0:0:0:
320,192,174867,1,0,0:0:0:0:
192,192,174977,1,0,0:0:0:0:
64,192,174977,128,0,175142:0:0:0:0:
448,192,175032,128,0,175142:0:0:0:0:
320,192,175087,128,0,175142:0:0:0:0:
192,192,175197,1,0,0:0:0:0:
64,192,175197,1,0,0:0:0:0:
448,192,175197,1,0,0:0:0:0:
320,192,175307,1,0,0:0:0:0:
320,192,175417,1,0,0:0:0:0:
448,192,175417,1,0,0:0:0:0:
64,192,175417,1,0,0:0:0:0:
320,192,175527,1,0,0:0:0:0:
192,192,175527,1,0,0:0:0:0:
192,192,175637,1,0,0:0:0:0:
64,192,175637,1,0,0:0:0:0:
448,192,175637,1,0,0:0:0:0:
320,192,175692,1,0,0:0:0:0:
64,192,175747,1,0,0:0:0:0:
320,192,175802,1,0,0:0:0:0:
192,192,175857,1,0,0:0:0:0:
448,192,175857,1,0,0:0:0:0:
320,192,175967,1,0,0:0:0:0:
192,192,175967,1,0,0:0:0:0:
192,192,176077,1,0,0:0:0:0:
64,192,176077,1,0,0:0:0:0:
448,192,176077,1,0,0:0:0:0:
320,192,176132,1,0,0:0:0:0:
64,192,176187,1,0,0:0:0:0:
320,192,176242,1,0,0:0:0:0:
448,192,176297,1,0,0:0:0:0:
192,192,176297,1,0,0:0:0:0:
64,192,176407,1,0,0:0:0:0:
320,192,176407,1,0,0:0:0:0:
192,192,176462,1,0,0:0:0:0:
320,192,176517,1,0,0:0:0:0:
448,192,176518,1,0,0:0:0:0:
192,192,176571,1,0,0:0:0:0:
64,192,176624,1,0,0:0:0:0:
192,192,176677,1,0,0:0:0:0:
320,192,176731,1,0,0:0:0:0:
448,192,176784,1,0,0:0:0:0:
320,192,176837,1,0,0:0:0:0:
192,192,176890,1,0,0:0:0:0:
64,192,176944,1,0,0:0:0:0:
448,192,176944,1,0,0:0:0:0:
192,192,176997,1,0,0:0:0:0:
448,192,177050,1,0,0:0:0:0:
320,192,177103,1,0,0:0:0:0:
64,192,177157,1,0,0:0:0:0:
192,192,177157,1,0,0:0:0:0:
448,192,177263,1,0,0:0:0:0:
64,192,177263,1,0,0:0:0:0:
320,192,177263,1,0,0:0:0:0:
320,192,177370,1,0,0:0:0:0:
192,192,177476,1,0,0:0:0:0:
64,192,177476,1,0,0:0:0:0:
448,192,177583,1,0,0:0:0:0:
192,192,177583,1,0,0:0:0:0:
192,192,177689,1,0,0:0:0:0:
448,192,177689,1,0,0:0:0:0:
320,192,177796,1,0,0:0:0:0:
448,192,177796,1,0,0:0:0:0:
64,192,177796,1,0,0:0:0:0:
192,192,177902,1,0,0:0:0:0:
320,192,178009,1,0,0:0:0:0:
64,192,178009,1,0,0:0:0:0:
320,192,178116,1,0,0:0:0:0:
192,192,178223,1,0,0:0:0:0:
64,192,178223,1,0,0:0:0:0:
320,192,178332,1,0,0:0:0:0:
64,192,178332,1,0,0:0:0:0:
448,192,178332,1,0,0:0:0:0:
320,192,178442,1,0,0:0:0:0:
64,192,178552,1,0,0:0:0:0:
448,192,178552,1,0,0:0:0:0:
192,192,178552,1,0,0:0:0:0:
320,192,178662,1,0,0:0:0:0:
192,192,178662,1,0,0:0:0:0:
64,192,178772,1,0,0:0:0:0:
448,192,178772,1,0,0:0:0:0:
320,192,178772,1,0,0:0:0:0:
64,192,178882,1,0,0:0:0:0:
192,192,178882,1,0,0:0:0:0:
192,192,178992,1,0,0:0:0:0:
320,192,178992,1,0,0:0:0:0:
448,192,178992,1,0,0:0:0:0:
320,192,179102,1,0,0:0:0:0:
448,192,179212,1,0,0:0:0:0:
64,192,179212,1,0,0:0:0:0:
192,192,179267,1,0,0:0:0:0:
320,192,179322,1,0,0:0:0:0:
64,192,179322,1,0,0:0:0:0:
192,192,179377,1,0,0:0:0:0:
320,192,179432,1,0,0:0:0:0:
192,192,179487,1,0,0:0:0:0:
448,192,179542,1,0,0:0:0:0:
64,192,179542,1,0,0:0:0:0:
448,192,179652,1,0,0:0:0:0:
320,192,179652,1,0,0:0:0:0:
64,192,179707,1,0,0:0:0:0:
320,192,179762,1,0,0:0:0:0:
192,192,179762,1,0,0:0:0:0:
448,192,179872,1,0,0:0:0:0:
320,192,179872,1,0,0:0:0:0:
64,192,179927,1,0,0:0:0:0:
320,192,179982,1,0,0:0:0:0:
192,192,179982,1,0,0:0:0:0:
64,192,180092,1,0,0:0:0:0:
192,192,180092,1,0,0:0:0:0:
192,192,180202,1,0,0:0:0:0:
448,192,180257,1,0,0:0:0:0:
64,192,180312,1,0,0:0:0:0:
320,192,180312,1,0,0:0:0:0:
64,192,180422,1,0,0:0:0:0:
448,192,180422,1,0,0:0:0:0:
320,192,180422,1,0,0:0:0:0:
192,192,180530,1,0,0:0:0:0:
448,192,180530,1,0,0:0:0:0:
320,192,180638,1,0,0:0:0:0:
64,192,180638,1,0,0:0:0:0:
192,192,180746,1,0,0:0:0:0:
320,192,180746,1,0,0:0:0:0:
192,192,180854,1,0,0:0:0:0:
448,192,180854,1,0,0:0:0:0:
64,192,180854,1,0,0:0:0:0:
448,192,180961,1,0,0:0:0:0:
192,192,181068,1,0,0:0:0:0:
64,192,181068,1,0,0:0:0:0:
320,192,181068,1,0,0:0:0:0:
320,192,181176,1,0,0:0:0:0:
448,192,181283,1,0,0:0:0:0:
192,192,181283,1,0,0:0:0:0:
64,192,181283,1,0,0:0:0:0:
64,192,181390,1,0,0:0:0:0:
320,192,181498,1,0,0:0:0:0:
448,192,181498,1,0,0:0:0:0:
192,192,181498,1,0,0:0:0:0:
64,192,181605,1,0,0:0:0:0:
320,192,181605,1,0,0:0:0:0:
448,192,181605,1,0,0:0:0:0:
192,192,181712,1,0,0:0:0:0:
320,192,181712,1,0,0:0:0:0:
64,192,181820,1,0,0:0:0:0:
448,192,181820,1,0,0:0:0:0:
192,192,181820,1,0,0:0:0:0:
64,192,181927,1,0,0:0:0:0:
320,192,182035,1,0,0:0:0:0:
192,192,182035,1,0,0:0:0:0:
448,192,182035,1,0,0:0:0:0:
320,192,182142,1,0,0:0:0:0:
64,192,182142,1,0,0:0:0:0:
448,192,182249,1,0,0:0:0:0:
192,192,182249,1,0,0:0:0:0:
64,192,182249,1,0,0:0:0:0:
192,192,182357,1,0,0:0:0:0:
448,192,182464,1,0,0:0:0:0:
320,192,182464,1,0,0:0:0:0:
64,192,182518,1,0,0:0:0:0:
192,192,182571,1,0,0:0:0:0:
448,192,182625,1,0,0:0:0:0:
64,192,182679,1,0,0:0:0:0:
320,192,182679,1,0,0:0:0:0:
192,192,182733,1,0,0:0:0:0:
448,192,182786,1,0,0:0:0:0:
64,192,182786,1,0,0:0:0:0:
192,192,182840,1,0,0:0:0:0:
320,192,182894,1,0,0:0:0:0:
64,192,182947,1,0,0:0:0:0:
192,192,183001,1,0,0:0:0:0:
448,192,183001,1,0,0:0:0:0:
320,192,183001,1,0,0:0:0:0:
192,192,183108,1,0,0:0:0:0:
448,192,183108,1,0,0:0:0:0:
320,192,183216,1,0,0:0:0:0:
64,192,183216,1,0,0:0:0:0:
320,192,183323,1,0,0:0:0:0:
192,192,183323,1,0,0:0:0:0:
64,192,183432,1,0,0:0:0:0:
448,192,183432,1,0,0:0:0:0:
64,192,183547,1,0,0:0:0:0:
192,192,183547,1,0,0:0:0:0:
448,192,183586,1,0,0:0:0:0:
320,192,183636,1,0,0:0:0:0:
192,192,183663,1,0,0:0:0:0:
64,192,183688,1,0,0:0:0:0:
448,192,183720,1,0,0:0:0:0:
320,192,183778,1,0,0:0:0:0:
192,192,183836,1,0,0:0:0:0:
320,192,183894,1,0,0:0:0:0:
448,192,183894,1,0,0:0:0:0:
192,192,183948,1,0,0:0:0:0:
64,192,184002,1,0,0:0:0:0:
448,192,184056,1,0,0:0:0:0:
320,192,184110,1,0,0:0:0:0:
192,192,184110,1,0,0:0:0:0:
64,192,184218,1,0,0:0:0:0:
448,192,184218,1,0,0:0:0:0:
192,192,184272,1,0,0:0:0:0:
320,192,184326,1,0,0:0:0:0:
64,192,184381,1,0,0:0:0:0:
448,192,184435,1,0,0:0:0:0:
320,192,184435,1,0,0:0:0:0:
192,192,184489,1,0,0:0:0:0:
64,192,184543,1,0,0:0:0:0:
192,192,184597,1,0,0:0:0:0:
448,192,184651,1,0,0:0:0:0:
320,192,184651,1,0,0:0:0:0:
192,192,184705,1,0,0:0:0:0:
64,192,184759,1,0,0:0:0:0:
448,192,184759,1,0,0:0:0:0:
320,192,184813,1,0,0:0:0:0:
448,192,184868,1,0,0:0:0:0:
64,192,184922,1,0,0:0:0:0:
320,192,184976,1,0,0:0:0:0:
192,192,184976,1,0,0:0:0:0:
192,192,185084,1,0,0:0:0:0:
64,192,185084,1,0,0:0:0:0:
448,192,185138,1,0,0:0:0:0:
320,192,185192,1,0,0:0:0:0:
192,192,185246,1,0,0:0:0:0:
64,192,185300,1,0,0:0:0:0:
320,192,185355,1,0,0:0:0:0:
448,192,185409,1,0,0:0:0:0:
64,192,185409,1,0,0:0:0:0:
320,192,185463,1,0,0:0:0:0:
64,192,185517,1,0,0:0:0:0:
192,192,185571,1,0,0:0:0:0:
320,192,185625,1,0,0:0:0:0:
448,192,185625,1,0,0:0:0:0:
64,192,185733,1,0,0:0:0:0:
448,192,185733,1,0,0:0:0:0:
192,192,185787,1,0,0:0:0:0:
320,192,185842,1,0,0:0:0:0:
64,192,185950,1,0,0:0:0:0:
192,192,185950,1,0,0:0:0:0:
448,192,186004,1,0,0:0:0:0:
192,192,186058,1,0,0:0:0:0:
320,192,186058,1,0,0:0:0:0:
448,192,186112,1,0,0:0:0:0:
64,192,186166,1,0,0:0:0:0:
320,192,186220,1,0,0:0:0:0:
64,192,186274,1,0,0:0:0:0:
192,192,186274,1,0,0:0:0:0:
448,192,186329,1,0,0:0:0:0:
192,192,186383,1,0,0:0:0:0:
320,192,186437,1,0,0:0:0:0:
64,192,186491,1,0,0:0:0:0:
448,192,186491,1,0,0:0:0:0:
192,192,186545,1,0,0:0:0:0:
64,192,186599,1,0,0:0:0:0:
320,192,186599,1,0,0:0:0:0:
192,192,186707,1,0,0:0:0:0:
448,192,186707,1,0,0:0:0:0:
448,192,186816,1,0,0:0:0:0:
64,192,186852,1,0,0:0:0:0:
192,192,186888,1,0,0:0:0:0:
320,192,186924,1,0,0:0:0:0:
448,192,186960,1,0,0:0:0:0:
192,192,187032,1,0,0:0:0:0:
448,192,187140,1,0,0:0:0:0:
64,192,187140,1,0,0:0:0:0:
192,192,187248,1,0,0:0:0:0:
320,192,187248,1,0,0:0:0:0:
448,192,187357,1,0,0:0:0:0:
64,192,187357,1,0,0:0:0:0:
192,192,187357,1,0,0:0:0:0:
64,192,187465,1,0,0:0:0:0:
320,192,187465,1,0,0:0:0:0:
320,192,187573,1,0,0:0:0:0:
64,192,187681,1,0,0:0:0:0:
192,192,187681,1,0,0:0:0:0:
448,192,187735,1,0,0:0:0:0:
320,192,187790,1,0,0:0:0:0:
448,192,187844,1,0,0:0:0:0:
64,192,187898,1,0,0:0:0:0:
192,192,187952,1,0,0:0:0:0:
448,192,188006,1,0,0:0:0:0:
320,192,188006,1,0,0:0:0:0:
192,192,188060,1,0,0:0:0:0:
320,192,188114,1,0,0:0:0:0:
192,192,188168,1,0,0:0:0:0:
64,192,188223,1,0,0:0:0:0:
448,192,188223,1,0,0:0:0:0:
320,192,188276,1,0,0:0:0:0:
192,192,188330,1,0,0:0:0:0:
320,192,188384,1,0,0:0:0:0:
448,192,188437,1,0,0:0:0:0:
64,192,188437,1,0,0:0:0:0:
192,192,188491,1,0,0:0:0:0:
64,192,188545,1,0,0:0:0:0:
448,192,188545,1,0,0:0:0:0:
320,192,188652,1,0,0:0:0:0:
192,192,188652,1,0,0:0:0:0:
448,192,188759,1,0,0:0:0:0:
320,192,188759,1,0,0:0:0:0:
192,192,188867,1,0,0:0:0:0:
448,192,188867,1,0,0:0:0:0:
64,192,188920,1,0,0:0:0:0:
320,192,188974,1,0,0:0:0:0:
192,192,189028,1,0,0:0:0:0:
64,192,189081,1,0,0:0:0:0:
320,192,189081,1,0,0:0:0:0:
448,192,189081,1,0,0:0:0:0:
64,192,189189,1,0,0:0:0:0:
448,192,189189,1,0,0:0:0:0:
320,192,189189,1,0,0:0:0:0:
192,192,189269,1,0,0:0:0:0:
320,192,189296,1,0,0:0:0:0:
64,192,189404,1,0,0:0:0:0:
192,192,189404,1,0,0:0:0:0:
448,192,189439,1,0,0:0:0:0:
320,192,189475,1,0,0:0:0:0:
192,192,189511,1,0,0:0:0:0:
448,192,189558,1,0,0:0:0:0:
64,192,189606,1,0,0:0:0:0:
192,192,189654,1,0,0:0:0:0:
320,192,189702,1,0,0:0:0:0:
448,192,189749,1,0,0:0:0:0:
320,192,189797,1,0,0:0:0:0:
192,192,189844,1,0,0:0:0:0:
64,192,189893,1,0,0:0:0:0:
448,192,189940,1,0,0:0:0:0:
320,192,189940,1,0,0:0:0:0:
192,192,189994,1,0,0:0:0:0:
64,192,190048,1,0,0:0:0:0:
448,192,190102,1,0,0:0:0:0:
192,192,190155,1,0,0:0:0:0:
320,192,190155,1,0,0:0:0:0:
64,192,190209,1,0,0:0:0:0:
320,192,190263,1,0,0:0:0:0:
448,192,190263,1,0,0:0:0:0:
192,192,190316,1,0,0:0:0:0:
320,192,190370,1,0,0:0:0:0:
64,192,190424,1,0,0:0:0:0:
448,192,190477,1,0,0:0:0:0:
320,192,190531,1,0,0:0:0:0:
64,192,190585,1,0,0:0:0:0:
192,192,190585,1,0,0:0:0:0:
192,192,190692,1,0,0:0:0:0:
64,192,190799,1,0,0:0:0:0:
448,192,190799,1,0,0:0:0:0:
320,192,190799,1,0,0:0:0:0:
64,192,190909,1,0,0:0:0:0:
192,192,190909,1,0,0:0:0:0:
320,192,190964,1,0,0:0:0:0:
448,192,191019,1,0,0:0:0:0:
64,192,191129,1,0,0:0:0:0:
192,192,191129,1,0,0:0:0:0:
320,192,191166,1,0,0:0:0:0:
448,192,191203,1,0,0:0:0:0:
64,192,191239,1,0,0:0:0:0:
320,192,191288,1,0,0:0:0:0:
192,192,191337,1,0,0:0:0:0:
64,192,191386,1,0,0:0:0:0:
448,192,191434,1,0,0:0:0:0:
192,192,191483,1,0,0:0:0:0:
320,192,191533,1,0,0:0:0:0:
448,192,191582,1,0,0:0:0:0:
320,192,191630,1,0,0:0:0:0:
64,192,191679,1,0,0:0:0:0:
192,192,191679,1,0,0:0:0:0:
448,192,191734,1,0,0:0:0:0:
320,192,191789,1,0,0:0:0:0:
192,192,191844,1,0,0:0:0:0:
448,192,191899,1,0,0:0:0:0:
64,192,191899,1,0,0:0:0:0:
320,192,191954,1,0,0:0:0:0:
64,192,192009,1,0,0:0:0:0:
192,192,192009,1,0,0:0:0:0:
320,192,192064,1,0,0:0:0:0:
448,192,192119,1,0,0:0:0:0:
320,192,192173,1,0,0:0:0:0:
64,192,192227,1,0,0:0:0:0:
192,192,192281,1,0,0:0:0:0:
448,192,192334,1,0,0:0:0:0:
64,192,192334,1,0,0:0:0:0:
192,192,192388,1,0,0:0:0:0:
320,192,192442,1,0,0:0:0:0:
448,192,192495,1,0,0:0:0:0:
64,192,192549,1,0,0:0:0:0:
192,192,192549,1,0,0:0:0:0:
192,192,192656,1,0,0:0:0:0:
448,192,192656,1,0,0:0:0:0:
64,192,192764,1,0,0:0:0:0:
320,192,192764,1,0,0:0:0:0:
448,192,192871,1,0,0:0:0:0:
320,192,192871,1,0,0:0:0:0:
64,192,192907,1,0,0:0:0:0:
192,192,192943,1,0,0:0:0:0:
320,192,192978,1,0,0:0:0:0:
64,192,193026,1,0,0:0:0:0:
448,192,193073,1,0,0:0:0:0:
320,192,193122,1,0,0:0:0:0:
192,192,193169,1,0,0:0:0:0:
64,192,193217,1,0,0:0:0:0:
192,192,193265,1,0,0:0:0:0:
320,192,193313,1,0,0:0:0:0:
448,192,193360,1,0,0:0:0:0:
64,192,193408,1,0,0:0:0:0:
192,192,193408,1,0,0:0:0:0:
320,192,193462,1,0,0:0:0:0:
448,192,193515,1,0,0:0:0:0:
64,192,193569,1,0,0:0:0:0:
320,192,193623,1,0,0:0:0:0:
192,192,193623,1,0,0:0:0:0:
448,192,193676,1,0,0:0:0:0:
192,192,193730,1,0,0:0:0:0:
64,192,193730,1,0,0:0:0:0:
320,192,193784,1,0,0:0:0:0:
192,192,193837,1,0,0:0:0:0:
448,192,193891,1,0,0:0:0:0:
64,192,193945,1,0,0:0:0:0:
192,192,193999,1,0,0:0:0:0:
448,192,194052,1,0,0:0:0:0:
320,192,194052,1,0,0:0:0:0:
64,192,194106,1,0,0:0:0:0:
320,192,194160,1,0,0:0:0:0:
192,192,194213,1,0,0:0:0:0:
64,192,194267,1,0,0:0:0:0:
448,192,194267,1,0,0:0:0:0:
192,192,194321,1,0,0:0:0:0:
448,192,194375,1,0,0:0:0:0:
64,192,194429,1,0,0:0:0:0:
320,192,194483,1,0,0:0:0:0:
64,192,194537,1,0,0:0:0:0:
448,192,194591,1,0,0:0:0:0:
320,192,194627,1,0,0:0:0:0:
192,192,194663,1,0,0:0:0:0:
64,192,194699,1,0,0:0:0:0:
448,192,194754,1,0,0:0:0:0:
192,192,194808,1,0,0:0:0:0:
320,192,194808,1,0,0:0:0:0:
64,192,194862,1,0,0:0:0:0:
448,192,194916,1,0,0:0:0:0:
320,192,194970,1,0,0:0:0:0:
192,192,195024,1,0,0:0:0:0:
64,192,195024,1,0,0:0:0:0:
64,192,195132,1,0,0:0:0:0:
448,192,195132,1,0,0:0:0:0:
320,192,195132,1,0,0:0:0:0:
448,192,195241,1,0,0:0:0:0:
192,192,195241,1,0,0:0:0:0:
192,192,195349,1,0,0:0:0:0:
64,192,195457,1,0,0:0:0:0:
192,192,195457,1,0,0:0:0:0:
448,192,195511,1,0,0:0:0:0:
64,192,195565,1,0,0:0:0:0:
320,192,195565,1,0,0:0:0:0:
320,192,195673,1,0,0:0:0:0:
448,192,195782,1,0,0:0:0:0:
320,192,195782,1,0,0:0:0:0:
64,192,195836,1,0,0:0:0:0:
448,192,195890,1,0,0:0:0:0:
192,192,195890,1,0,0:0:0:0:
64,192,195998,1,0,0:0:0:0:
320,192,195998,1,0,0:0:0:0:
192,192,195998,1,0,0:0:0:0:
448,192,196106,1,0,0:0:0:0:
192,192,196106,1,0,0:0:0:0:
320,192,196215,1,0,0:0:0:0:
64,192,196215,1,0,0:0:0:0:
320,192,196323,1,0,0:0:0:0:
192,192,196323,1,0,0:0:0:0:
448,192,196323,128,0,196539:0:0:0:0:
320,192,196431,1,0,0:0:0:0:
64,192,196431,1,0,0:0:0:0:
192,192,196539,1,0,0:0:0:0:
64,192,196539,1,0,0:0:0:0:
320,192,196593,1,0,0:0:0:0:
192,192,196647,1,0,0:0:0:0:
448,192,196647,1,0,0:0:0:0:
320,192,196702,1,0,0:0:0:0:
64,192,196756,1,0,0:0:0:0:
192,192,196810,1,0,0:0:0:0:
320,192,196864,1,0,0:0:0:0:
448,192,196864,1,0,0:0:0:0:
192,192,196918,1,0,0:0:0:0:
64,192,196972,1,0,0:0:0:0:
448,192,197026,1,0,0:0:0:0:
320,192,197080,1,0,0:0:0:0:
192,192,197080,1,0,0:0:0:0:
448,192,197134,1,0,0:0:0:0:
320,192,197189,1,0,0:0:0:0:
448,192,197243,1,0,0:0:0:0:
192,192,197297,1,0,0:0:0:0:
64,192,197297,1,0,0:0:0:0:
320,192,197351,1,0,0:0:0:0:
448,192,197405,1,0,0:0:0:0:
192,192,197405,1,0,0:0:0:0:
64,192,197459,1,0,0:0:0:0:
320,192,197513,1,0,0:0:0:0:
448,192,197513,1,0,0:0:0:0:
192,192,197567,1,0,0:0:0:0:
320,192,197621,1,0,0:0:0:0:
448,192,197676,1,0,0:0:0:0:
64,192,197730,1,0,0:0:0:0:
192,192,197730,1,0,0:0:0:0:
320,192,197784,1,0,0:0:0:0:
192,192,197839,1,0,0:0:0:0:
448,192,197839,1,0,0:0:0:0:
64,192,197893,1,0,0:0:0:0:
448,192,197948,1,0,0:0:0:0:
320,192,197948,1,0,0:0:0:0:
64,192,198002,1,0,0:0:0:0:
320,192,198057,1,0,0:0:0:0:
192,192,198057,1,0,0:0:0:0:
192,192,198166,1,0,0:0:0:0:
448,192,198275,1,0,0:0:0:0:
320,192,198275,1,0,0:0:0:0:
64,192,198330,1,0,0:0:0:0:
320,192,198384,1,0,0:0:0:0:
192,192,198384,1,0,0:0:0:0:
448,192,198439,1,0,0:0:0:0:
320,192,198493,1,0,0:0:0:0:
192,192,198548,1,0,0:0:0:0:
64,192,198602,1,0,0:0:0:0:
448,192,198602,1,0,0:0:0:0:
320,192,198657,1,0,0:0:0:0:
64,192,198711,1,0,0:0:0:0:
192,192,198766,1,0,0:0:0:0:
320,192,198820,1,0,0:0:0:0:
64,192,198820,1,0,0:0:0:0:
192,192,198875,1,0,0:0:0:0:
448,192,198930,1,0,0:0:0:0:
64,192,198984,1,0,0:0:0:0:
448,192,199039,1,0,0:0:0:0:
320,192,199093,1,0,0:0:0:0:
64,192,199148,1,0,0:0:0:0:
448,192,199148,1,0,0:0:0:0:
320,192,199202,1,0,0:0:0:0:
192,192,199257,1,0,0:0:0:0:
448,192,199311,1,0,0:0:0:0:
192,192,199366,1,0,0:0:0:0:
64,192,199420,1,0,0:0:0:0:
448,192,199475,1,0,0:0:0:0:
192,192,199475,1,0,0:0:0:0:
64,192,199530,1,0,0:0:0:0:
320,192,199584,1,0,0:0:0:0:
192,192,199639,1,0,0:0:0:0:
320,192,199693,1,0,0:0:0:0:
448,192,199748,1,0,0:0:0:0:
320,192,199802,1,0,0:0:0:0:
192,192,199802,1,0,0:0:0:0:
64,192,199802,1,0,0:0:0:0:
448,192,199857,1,0,0:0:0:0:
64,192,199911,1,0,0:0:0:0:
192,192,200020,1,0,0:0:0:0:
448,192,200020,1,0,0:0:0:0:
320,192,200130,1,0,0:0:0:0:
64,192,200130,1,0,0:0:0:0:
64,192,200239,1,0,0:0:0:0:
320,192,200239,1,0,0:0:0:0:
64,192,200348,1,0,0:0:0:0:
192,192,200348,1,0,0:0:0:0:
448,192,200348,1,0,0:0:0:0:
192,192,200456,1,0,0:0:0:0:
448,192,200456,1,0,0:0:0:0:
320,192,200564,1,0,0:0:0:0:
64,192,200564,1,0,0:0:0:0:
448,192,200672,1,0,0:0:0:0:
192,192,200672,1,0,0:0:0:0:
64,192,200780,1,0,0:0:0:0:
448,192,200780,1,0,0:0:0:0:
192,192,200780,1,0,0:0:0:0:
192,192,200889,1,0,0:0:0:0:
448,192,200889,1,0,0:0:0:0:
320,192,200997,1,0,0:0:0:0:
64,192,200997,1,0,0:0:0:0:
192,192,201105,1,0,0:0:0:0:
448,192,201105,1,0,0:0:0:0:
320,192,201214,1,0,0:0:0:0:
64,192,201214,1,0,0:0:0:0:
192,192,201214,1,0,0:0:0:0:
320,192,201320,1,0,0:0:0:0:
448,192,201320,1,0,0:0:0:0:
192,192,201427,1,0,0:0:0:0:
64,192,201427,1,0,0:0:0:0:
448,192,201533,1,0,0:0:0:0:
320,192,201533,1,0,0:0:0:0:
192,192,201533,1,0,0:0:0:0:
64,192,201640,1,0,0:0:0:0:
192,192,201687,1,0,0:0:0:0:
320,192,201734,1,0,0:0:0:0:
448,192,201782,1,0,0:0:0:0:
64,192,201817,1,0,0:0:0:0:
192,192,201853,1,0,0:0:0:0:
320,192,201888,1,0,0:0:0:0:
448,192,201924,1,0,0:0:0:0:
64,192,201959,1,0,0:0:0:0:
192,192,201995,1,0,0:0:0:0:
64,192,202066,1,0,0:0:0:0:
448,192,202066,1,0,0:0:0:0:
320,192,202066,1,0,0:0:0:0:
448,192,202172,1,0,0:0:0:0:
320,192,202279,1,0,0:0:0:0:
64,192,202279,1,0,0:0:0:0:
192,192,202279,1,0,0:0:0:0:
64,192,202385,1,0,0:0:0:0:
320,192,202385,1,0,0:0:0:0:
448,192,202492,1,0,0:0:0:0:
192,192,202492,1,0,0:0:0:0:
320,192,202598,1,0,0:0:0:0:
64,192,202598,1,0,0:0:0:0:
64,192,202705,1,0,0:0:0:0:
320,192,202705,1,0,0:0:0:0:
448,192,202812,1,0,0:0:0:0:
192,192,202812,1,0,0:0:0:0:
448,192,202919,1,0,0:0:0:0:
192,192,202919,1,0,0:0:0:0:
448,192,203028,1,0,0:0:0:0:
192,192,203028,1,0,0:0:0:0:
64,192,203137,1,0,0:0:0:0:
320,192,203137,1,0,0:0:0:0:
320,192,203246,1,0,0:0:0:0:
448,192,203246,1,0,0:0:0:0:
192,192,203246,1,0,0:0:0:0:
192,192,203355,1,0,0:0:0:0:
64,192,203464,1,0,0:0:0:0:
448,192,203464,1,0,0:0:0:0:
320,192,203464,1,0,0:0:0:0:
448,192,203573,1,0,0:0:0:0:
192,192,203573,1,0,0:0:0:0:
448,192,203682,1,0,0:0:0:0:
192,192,203682,1,0,0:0:0:0:
320,192,203791,1,0,0:0:0:0:
64,192,203791,1,0,0:0:0:0:
192,192,203791,1,0,0:0:0:0:
320,192,203900,1,0,0:0:0:0:
64,192,203900,1,0,0:0:0:0:
448,192,204009,1,0,0:0:0:0:
192,192,204009,1,0,0:0:0:0:
448,192,204119,1,0,0:0:0:0:
192,192,204119,1,0,0:0:0:0:
192,192,204228,1,0,0:0:0:0:
64,192,204228,1,0,0:0:0:0:
64,192,204337,1,0,0:0:0:0:
448,192,204337,1,0,0:0:0:0:
320,192,204337,1,0,0:0:0:0:
448,192,204446,1,0,0:0:0:0:
192,192,204446,1,0,0:0:0:0:
448,192,204555,1,0,0:0:0:0:
192,192,204555,1,0,0:0:0:0:
320,192,204664,1,0,0:0:0:0:
64,192,204664,1,0,0:0:0:0:
192,192,204664,1,0,0:0:0:0:
64,192,204772,1,0,0:0:0:0:
320,192,204772,1,0,0:0:0:0:
448,192,204880,1,0,0:0:0:0:
192,192,204880,1,0,0:0:0:0:
192,192,204988,1,0,0:0:0:0:
448,192,204988,1,0,0:0:0:0:
192,192,205096,1,0,0:0:0:0:
64,192,205096,1,0,0:0:0:0:
448,192,205205,1,0,0:0:0:0:
320,192,205205,1,0,0:0:0:0:
64,192,205205,1,0,0:0:0:0:
448,192,205313,1,0,0:0:0:0:
192,192,205313,1,0,0:0:0:0:
448,192,205421,1,0,0:0:0:0:
192,192,205421,1,0,0:0:0:0:
320,192,205529,1,0,0:0:0:0:
64,192,205529,1,0,0:0:0:0:
192,192,205529,1,0,0:0:0:0:
64,192,205638,1,0,0:0:0:0:
320,192,205638,1,0,0:0:0:0:
448,192,205746,1,0,0:0:0:0:
192,192,205746,1,0,0:0:0:0:
192,192,205854,1,0,0:0:0:0:
448,192,205854,1,0,0:0:0:0:
64,192,205962,1,0,0:0:0:0:
192,192,205962,1,0,0:0:0:0:
64,192,206070,1,0,0:0:0:0:
448,192,206070,1,0,0:0:0:0:
320,192,206070,1,0,0:0:0:0:
448,192,206179,1,0,0:0:0:0:
192,192,206179,1,0,0:0:0:0:
192,192,206287,1,0,0:0:0:0:
448,192,206287,1,0,0:0:0:0:
320,192,206395,1,0,0:0:0:0:
64,192,206395,1,0,0:0:0:0:
192,192,206395,1,0,0:0:0:0:
320,192,206503,1,0,0:0:0:0:
64,192,206503,1,0,0:0:0:0:
448,192,206612,1,0,0:0:0:0:
192,192,206612,1,0,0:0:0:0:
448,192,206720,1,0,0:0:0:0:
192,192,206720,1,0,0:0:0:0:
64,192,206828,1,0,0:0:0:0:
192,192,206828,1,0,0:0:0:0:
64,192,206936,1,0,0:0:0:0:
448,192,206936,1,0,0:0:0:0:
320,192,206936,1,0,0:0:0:0:
448,192,207044,1,0,0:0:0:0:
192,192,207044,1,0,0:0:0:0:
448,192,207153,1,0,0:0:0:0:
192,192,207153,1,0,0:0:0:0:
320,192,207261,1,0,0:0:0:0:
64,192,207261,1,0,0:0:0:0:
192,192,207261,1,0,0:0:0:0:
320,192,207369,1,0,0:0:0:0:
64,192,207369,1,0,0:0:0:0:
448,192,207477,1,0,0:0:0:0:
192,192,207477,1,0,0:0:0:0:
192,192,207586,1,0,0:0:0:0:
448,192,207586,1,0,0:0:0:0:
64,192,207694,1,0,0:0:0:0:
192,192,207694,1,0,0:0:0:0:
320,192,207694,1,0,0:0:0:0:
64,192,207802,1,0,0:0:0:0:
320,192,207802,1,0,0:0:0:0:
192,192,207910,1,0,0:0:0:0:
320,192,207910,1,0,0:0:0:0:
64,192,208018,1,0,0:0:0:0:
192,192,208018,1,0,0:0:0:0:
64,192,208127,1,0,0:0:0:0:
320,192,208127,1,0,0:0:0:0:
448,192,208127,1,0,0:0:0:0:
64,192,208236,1,0,0:0:0:0:
448,192,208236,1,0,0:0:0:0:
192,192,208345,1,0,0:0:0:0:
320,192,208345,1,0,0:0:0:0:
192,192,208454,1,0,0:0:0:0:
320,192,208454,1,0,0:0:0:0:
448,192,208454,1,0,0:0:0:0:
64,192,208563,1,0,0:0:0:0:
192,192,208672,1,0,0:0:0:0:
320,192,208672,1,0,0:0:0:0:
448,192,208672,1,0,0:0:0:0:
448,192,208781,1,0,0:0:0:0:
64,192,208781,1,0,0:0:0:0:
320,192,208890,1,0,0:0:0:0:
192,192,208890,1,0,0:0:0:0:
192,192,208999,128,0,209108:0:0:0:0:
64,192,208999,128,0,209108:0:0:0:0:
448,192,208999,1,0,0:0:0:0:
448,192,209108,1,0,0:0:0:0:
192,192,209217,128,0,209327:0:0:0:0:
64,192,209217,128,0,209327:0:0:0:0:
448,192,209217,1,0,0:0:0:0:
448,192,209327,1,0,0:0:0:0:
448,192,209436,1,0,0:0:0:0:
64,192,209436,1,0,0:0:0:0:
192,192,209436,1,0,0:0:0:0:
192,192,209533,1,0,0:0:0:0:
64,192,209533,1,0,0:0:0:0:
448,192,209630,1,0,0:0:0:0:
320,192,209630,1,0,0:0:0:0:
192,192,209630,1,0,0:0:0:0:
64,192,209763,1,0,0:0:0:0:
320,192,209763,1,0,0:0:0:0:
320,192,209873,1,0,0:0:0:0:
448,192,209873,1,0,0:0:0:0:
192,192,209873,1,0,0:0:0:0:
192,192,209980,1,0,0:0:0:0:
64,192,209980,1,0,0:0:0:0:
320,192,210087,1,0,0:0:0:0:
448,192,210087,1,0,0:0:0:0:
320,192,210195,128,0,210302:0:0:0:0:
448,192,210195,128,0,210302:0:0:0:0:
64,192,210195,128,0,210302:0:0:0:0:
192,192,210195,128,0,210302:0:0:0:0:
64,192,210409,1,0,0:0:0:0:
448,192,210409,1,0,0:0:0:0:
192,192,210463,1,0,0:0:0:0:
320,192,210517,1,0,0:0:0:0:
192,192,210570,1,0,0:0:0:0:
64,192,210624,1,0,0:0:0:0:
192,192,210678,1,0,0:0:0:0:
448,192,210731,1,0,0:0:0:0:
320,192,210731,1,0,0:0:0:0:
64,192,210785,1,0,0:0:0:0:
448,192,210839,1,0,0:0:0:0:
320,192,210839,1,0,0:0:0:0:
192,192,210893,1,0,0:0:0:0:
448,192,210946,1,0,0:0:0:0:
64,192,210982,1,0,0:0:0:0:
192,192,211018,1,0,0:0:0:0:
320,192,211054,1,0,0:0:0:0:
448,192,211089,1,0,0:0:0:0:
64,192,211161,1,0,0:0:0:0:
192,192,211161,1,0,0:0:0:0:
320,192,211215,1,0,0:0:0:0:
64,192,211268,1,0,0:0:0:0:
192,192,211268,1,0,0:0:0:0:
320,192,211322,1,0,0:0:0:0:
64,192,211376,1,0,0:0:0:0:
448,192,211412,1,0,0:0:0:0:
320,192,211447,1,0,0:0:0:0:
192,192,211483,1,0,0:0:0:0:
64,192,211519,1,0,0:0:0:0:
320,192,211590,1,0,0:0:0:0:
448,192,211590,1,0,0:0:0:0:
192,192,211638,1,0,0:0:0:0:
448,192,211685,1,0,0:0:0:0:
64,192,211734,1,0,0:0:0:0:
192,192,211769,1,0,0:0:0:0:
320,192,211805,1,0,0:0:0:0:
64,192,211841,1,0,0:0:0:0:
448,192,211877,1,0,0:0:0:0:
320,192,211913,1,0,0:0:0:0:
192,192,211948,1,0,0:0:0:0:
64,192,211984,1,0,0:0:0:0:
448,192,212020,1,0,0:0:0:0:
320,192,212020,1,0,0:0:0:0:
192,192,212074,1,0,0:0:0:0:
448,192,212127,1,0,0:0:0:0:
64,192,212163,1,0,0:0:0:0:
320,192,212199,1,0,0:0:0:0:
192,192,212235,1,0,0:0:0:0:
448,192,212306,1,0,0:0:0:0:
64,192,212342,1,0,0:0:0:0:
192,192,212378,1,0,0:0:0:0:
320,192,212414,1,0,0:0:0:0:
64,192,212449,1,0,0:0:0:0:
448,192,212449,1,0,0:0:0:0:
320,192,212503,1,0,0:0:0:0:
192,192,212557,1,0,0:0:0:0:
448,192,212593,1,0,0:0:0:0:
64,192,212628,1,0,0:0:0:0:
320,192,212664,1,0,0:0:0:0:
192,192,212691,1,0,0:0:0:0:
448,192,212736,1,0,0:0:0:0:
64,192,212772,1,0,0:0:0:0:
192,192,212807,1,0,0:0:0:0:
448,192,212879,1,0,0:0:0:0:
320,192,212879,1,0,0:0:0:0:
192,192,212933,1,0,0:0:0:0:
448,192,212986,1,0,0:0:0:0:
64,192,213022,1,0,0:0:0:0:
192,192,213058,1,0,0:0:0:0:
320,192,213094,1,0,0:0:0:0:
448,192,213129,1,0,0:0:0:0:
64,192,213165,1,0,0:0:0:0:
320,192,213237,1,0,0:0:0:0:
64,192,213308,1,0,0:0:0:0:
192,192,213308,1,0,0:0:0:0:
448,192,213363,1,0,0:0:0:0:
192,192,213418,1,0,0:0:0:0:
320,192,213454,1,0,0:0:0:0:
64,192,213490,1,0,0:0:0:0:
448,192,213563,1,0,0:0:0:0:
320,192,213599,1,0,0:0:0:0:
64,192,213636,1,0,0:0:0:0:
192,192,213636,1,0,0:0:0:0:
320,192,213745,1,0,0:0:0:0:
64,192,213854,1,0,0:0:0:0:
448,192,213854,1,0,0:0:0:0:
192,192,213909,1,0,0:0:0:0:
448,192,213963,1,0,0:0:0:0:
64,192,213963,1,0,0:0:0:0:
320,192,214018,1,0,0:0:0:0:
192,192,214072,1,0,0:0:0:0:
448,192,214072,1,0,0:0:0:0:
320,192,214127,1,0,0:0:0:0:
64,192,214182,1,0,0:0:0:0:
192,192,214182,1,0,0:0:0:0:
448,192,214235,1,0,0:0:0:0:
64,192,214289,1,0,0:0:0:0:
320,192,214396,1,0,0:0:0:0:
448,192,214396,1,0,0:0:0:0:
64,192,214450,1,0,0:0:0:0:
192,192,214504,1,0,0:0:0:0:
448,192,214557,1,0,0:0:0:0:
192,192,214611,1,0,0:0:0:0:
320,192,214611,1,0,0:0:0:0:
64,192,214665,1,0,0:0:0:0:
320,192,214718,1,0,0:0:0:0:
192,192,214826,1,0,0:0:0:0:
448,192,214826,1,0,0:0:0:0:
64,192,214826,1,0,0:0:0:0:
320,192,214933,1,0,0:0:0:0:
64,192,214933,1,0,0:0:0:0:
192,192,214960,1,0,0:0:0:0:
64,192,215040,1,0,0:0:0:0:
448,192,215040,1,0,0:0:0:0:
320,192,215040,1,0,0:0:0:0:
192,192,215148,1,0,0:0:0:0:
448,192,215148,1,0,0:0:0:0:
320,192,215175,1,0,0:0:0:0:
192,192,215255,1,0,0:0:0:0:
448,192,215363,128,0,215470:0:0:0:0:
320,192,215363,128,0,215470:0:0:0:0:
64,192,215363,1,0,0:0:0:0:
192,192,215470,1,0,0:0:0:0:
64,192,215577,1,0,0:0:0:0:
448,192,215577,1,0,0:0:0:0:
320,192,215685,1,0,0:0:0:0:
192,192,215685,1,0,0:0:0:0:
192,192,215792,1,0,0:0:0:0:
320,192,215792,1,0,0:0:0:0:
448,192,215899,1,0,0:0:0:0:
64,192,215899,1,0,0:0:0:0:
192,192,215899,1,0,0:0:0:0:
64,192,216007,1,0,0:0:0:0:
448,192,216007,1,0,0:0:0:0:
320,192,216114,1,0,0:0:0:0:
448,192,216114,1,0,0:0:0:0:
320,192,216222,1,0,0:0:0:0:
192,192,216222,1,0,0:0:0:0:
192,192,216329,1,0,0:0:0:0:
64,192,216329,1,0,0:0:0:0:
192,192,216436,1,0,0:0:0:0:
64,192,216436,1,0,0:0:0:0:
192,192,216544,1,0,0:0:0:0:
448,192,216544,1,0,0:0:0:0:
320,192,216544,1,0,0:0:0:0:
448,192,216651,1,0,0:0:0:0:
320,192,216651,1,0,0:0:0:0:
64,192,216758,1,0,0:0:0:0:
448,192,216758,1,0,0:0:0:0:
320,192,216758,1,0,0:0:0:0:
192,192,216758,1,0,0:0:0:0:
320,192,216866,1,0,0:0:0:0:
448,192,216974,1,0,0:0:0:0:
64,192,216974,1,0,0:0:0:0:
192,192,216974,1,0,0:0:0:0:
64,192,217082,1,0,0:0:0:0:
320,192,217082,1,0,0:0:0:0:
192,192,217082,1,0,0:0:0:0:
448,192,217136,1,0,0:0:0:0:
320,192,217190,1,0,0:0:0:0:
192,192,217245,1,0,0:0:0:0:
448,192,217299,1,0,0:0:0:0:
64,192,217353,1,0,0:0:0:0:
320,192,217407,1,0,0:0:0:0:
192,192,217407,1,0,0:0:0:0:
192,192,217515,1,0,0:0:0:0:
64,192,217515,1,0,0:0:0:0:
64,192,217623,1,0,0:0:0:0:
320,192,217623,1,0,0:0:0:0:
448,192,217623,1,0,0:0:0:0:
192,192,217732,1,0,0:0:0:0:
320,192,217732,1,0,0:0:0:0:
448,192,217786,1,0,0:0:0:0:
320,192,217840,1,0,0:0:0:0:
192,192,217894,1,0,0:0:0:0:
64,192,217948,1,0,0:0:0:0:
448,192,218002,1,0,0:0:0:0:
64,192,218056,1,0,0:0:0:0:
448,192,218110,1,0,0:0:0:0:
64,192,218164,1,0,0:0:0:0:
448,192,218219,1,0,0:0:0:0:
64,192,218273,1,0,0:0:0:0:
448,192,218327,1,0,0:0:0:0:
64,192,218381,1,0,0:0:0:0:
192,192,218435,1,0,0:0:0:0:
448,192,218489,1,0,0:0:0:0:
320,192,218489,1,0,0:0:0:0:
64,192,218599,1,0,0:0:0:0:
320,192,218599,1,0,0:0:0:0:
192,192,218708,1,0,0:0:0:0:
64,192,218817,1,0,0:0:0:0:
448,192,218817,1,0,0:0:0:0:
320,192,218871,1,0,0:0:0:0:
192,192,218926,1,0,0:0:0:0:
448,192,218980,1,0,0:0:0:0:
64,192,219035,1,0,0:0:0:0:
192,192,219035,1,0,0:0:0:0:
448,192,219090,1,0,0:0:0:0:
64,192,219144,1,0,0:0:0:0:
320,192,219144,1,0,0:0:0:0:
320,192,219253,1,0,0:0:0:0:
448,192,219362,1,0,0:0:0:0:
192,192,219362,1,0,0:0:0:0:
64,192,219362,1,0,0:0:0:0:
320,192,219471,1,0,0:0:0:0:
192,192,219580,1,0,0:0:0:0:
64,192,219580,1,0,0:0:0:0:
448,192,219580,1,0,0:0:0:0:
448,192,219690,1,0,0:0:0:0:
320,192,219690,1,0,0:0:0:0:
192,192,219690,1,0,0:0:0:0:
64,192,219799,1,0,0:0:0:0:
320,192,219799,1,0,0:0:0:0:
64,192,219908,1,0,0:0:0:0:
192,192,219908,1,0,0:0:0:0:
448,192,219908,1,0,0:0:0:0:
192,192,220017,1,0,0:0:0:0:
320,192,220017,1,0,0:0:0:0:
320,192,220126,1,0,0:0:0:0:
64,192,220235,1,0,0:0:0:0:
192,192,220235,1,0,0:0:0:0:
448,192,220235,1,0,0:0:0:0:
192,192,220344,1,0,0:0:0:0:
448,192,220344,1,0,0:0:0:0:
448,192,220453,1,0,0:0:0:0:
320,192,220453,1,0,0:0:0:0:
448,192,220562,1,0,0:0:0:0:
320,192,220562,1,0,0:0:0:0:
192,192,220672,1,0,0:0:0:0:
64,192,220672,1,0,0:0:0:0:
448,192,220672,1,0,0:0:0:0:
320,192,220779,1,0,0:0:0:0:
64,192,220779,1,0,0:0:0:0:
192,192,220886,1,0,0:0:0:0:
64,192,220886,1,0,0:0:0:0:
64,192,220994,1,0,0:0:0:0:
192,192,220994,1,0,0:0:0:0:
64,192,221101,1,0,0:0:0:0:
192,192,221101,1,0,0:0:0:0:
192,192,221208,1,0,0:0:0:0:
64,192,221208,1,0,0:0:0:0:
320,192,221316,1,0,0:0:0:0:
64,192,221316,1,0,0:0:0:0:
448,192,221316,1,0,0:0:0:0:
192,192,221423,1,0,0:0:0:0:
448,192,221423,1,0,0:0:0:0:
448,192,221530,1,0,0:0:0:0:
320,192,221530,1,0,0:0:0:0:
192,192,221638,1,0,0:0:0:0:
64,192,221638,1,0,0:0:0:0:
448,192,221638,1,0,0:0:0:0:
320,192,221745,1,0,0:0:0:0:
64,192,221745,1,0,0:0:0:0:
192,192,221853,1,0,0:0:0:0:
64,192,221853,1,0,0:0:0:0:
320,192,221961,1,0,0:0:0:0:
448,192,221961,1,0,0:0:0:0:
64,192,221961,1,0,0:0:0:0:
192,192,222069,1,0,0:0:0:0:
448,192,222069,1,0,0:0:0:0:
448,192,222177,1,0,0:0:0:0:
320,192,222177,1,0,0:0:0:0:
320,192,222285,1,0,0:0:0:0:
64,192,222285,1,0,0:0:0:0:
192,192,222285,1,0,0:0:0:0:
192,192,222393,1,0,0:0:0:0:
64,192,222502,1,0,0:0:0:0:
448,192,222502,1,0,0:0:0:0:
320,192,222502,1,0,0:0:0:0:
192,192,222610,1,0,0:0:0:0:
448,192,222610,1,0,0:0:0:0:
320,192,222718,1,0,0:0:0:0:
64,192,222826,1,0,0:0:0:0:
448,192,222826,1,0,0:0:0:0:
320,192,222826,1,0,0:0:0:0:
192,192,222826,1,0,0:0:0:0:
192,192,222935,1,0,0:0:0:0:
320,192,223043,1,0,0:0:0:0:
64,192,223043,1,0,0:0:0:0:
448,192,223043,1,0,0:0:0:0:
448,192,223151,1,0,0:0:0:0:
192,192,223151,1,0,0:0:0:0:
64,192,223151,1,0,0:0:0:0:
320,192,223259,1,0,0:0:0:0:
448,192,223367,128,0,223584:0:0:0:0:
64,192,223367,1,0,0:0:0:0:
192,192,223367,1,0,0:0:0:0:
64,192,223476,1,0,0:0:0:0:
192,192,223476,1,0,0:0:0:0:
64,192,223584,1,0,0:0:0:0:
192,192,223584,1,0,0:0:0:0:
320,192,223692,1,0,0:0:0:0:
448,192,223692,1,0,0:0:0:0:
192,192,223692,1,0,0:0:0:0:
64,192,223692,1,0,0:0:0:0:
320,192,223800,1,0,0:0:0:0:
192,192,223909,1,0,0:0:0:0:
320,192,223909,1,0,0:0:0:0:
64,192,224017,128,0,224233:0:0:0:0:
448,192,224017,1,0,0:0:0:0:
192,192,224017,1,0,0:0:0:0:
320,192,224125,1,0,0:0:0:0:
320,192,224233,1,0,0:0:0:0:
448,192,224233,1,0,0:0:0:0:
192,192,224287,1,0,0:0:0:0:
64,192,224341,1,0,0:0:0:0:
448,192,224341,1,0,0:0:0:0:
192,192,224396,1,0,0:0:0:0:
320,192,224450,1,0,0:0:0:0:
448,192,224504,1,0,0:0:0:0:
64,192,224558,1,0,0:0:0:0:
192,192,224558,1,0,0:0:0:0:
320,192,224630,1,0,0:0:0:0:
192,192,224666,1,0,0:0:0:0:
64,192,224702,1,0,0:0:0:0:
448,192,224774,1,0,0:0:0:0:
192,192,224810,1,0,0:0:0:0:
448,192,224883,1,0,0:0:0:0:
320,192,224937,1,0,0:0:0:0:
64,192,224991,1,0,0:0:0:0:
192,192,224991,1,0,0:0:0:0:
448,192,225059,1,0,0:0:0:0:
192,192,225094,1,0,0:0:0:0:
320,192,225128,1,0,0:0:0:0:
448,192,225163,1,0,0:0:0:0:
64,192,225197,1,0,0:0:0:0:
320,192,225266,1,0,0:0:0:0:
64,192,225300,1,0,0:0:0:0:
192,192,225335,1,0,0:0:0:0:
448,192,225403,1,0,0:0:0:0:
320,192,225403,1,0,0:0:0:0:
64,192,225475,1,0,0:0:0:0:
320,192,225511,1,0,0:0:0:0:
192,192,225511,1,0,0:0:0:0:
192,192,225619,1,0,0:0:0:0:
64,192,225727,1,0,0:0:0:0:
448,192,225727,1,0,0:0:0:0:
64,192,225835,1,0,0:0:0:0:
448,192,225835,1,0,0:0:0:0:
64,192,225944,1,0,0:0:0:0:
448,192,225944,1,0,0:0:0:0:
320,192,225998,1,0,0:0:0:0:
192,192,226052,1,0,0:0:0:0:
320,192,226106,1,0,0:0:0:0:
64,192,226160,1,0,0:0:0:0:
448,192,226160,1,0,0:0:0:0:
448,192,226268,1,0,0:0:0:0:
64,192,226268,1,0,0:0:0:0:
448,192,226377,1,0,0:0:0:0:
64,192,226377,1,0,0:0:0:0:
192,192,226431,1,0,0:0:0:0:
320,192,226485,1,0,0:0:0:0:
192,192,226539,1,0,0:0:0:0:
448,192,226593,1,0,0:0:0:0:
64,192,226593,1,0,0:0:0:0:
64,192,226701,1,0,0:0:0:0:
448,192,226701,1,0,0:0:0:0:
64,192,226809,1,0,0:0:0:0:
448,192,226809,1,0,0:0:0:0:
320,192,226864,1,0,0:0:0:0:
192,192,226918,1,0,0:0:0:0:
320,192,226972,1,0,0:0:0:0:
64,192,227026,1,0,0:0:0:0:
448,192,227026,1,0,0:0:0:0:
192,192,227134,1,0,0:0:0:0:
320,192,227134,1,0,0:0:0:0:
64,192,227134,1,0,0:0:0:0:
192,192,227242,1,0,0:0:0:0:
448,192,227242,1,0,0:0:0:0:
64,192,227351,1,0,0:0:0:0:
448,192,227459,128,0,227675:0:0:0:0:
320,192,227459,1,0,0:0:0:0:
192,192,227459,1,0,0:0:0:0:
192,192,227567,1,0,0:0:0:0:
320,192,227675,1,0,0:0:0:0:
64,192,227675,1,0,0:0:0:0:
320,192,227783,1,0,0:0:0:0:
64,192,227783,1,0,0:0:0:0:
64,192,227892,1,0,0:0:0:0:
192,192,227892,1,0,0:0:0:0:
192,192,228000,1,0,0:0:0:0:
320,192,228000,1,0,0:0:0:0:
448,192,228000,1,0,0:0:0:0:
448,192,228108,1,0,0:0:0:0:
64,192,228216,1,0,0:0:0:0:
192,192,228216,1,0,0:0:0:0:
320,192,228216,1,0,0:0:0:0:
64,192,228325,1,0,0:0:0:0:
448,192,228433,1,0,0:0:0:0:
320,192,228433,1,0,0:0:0:0:
192,192,228433,1,0,0:0:0:0:
448,192,228541,1,0,0:0:0:0:
320,192,228541,1,0,0:0:0:0:
192,192,228541,1,0,0:0:0:0:
64,192,228649,1,0,0:0:0:0:
192,192,228649,1,0,0:0:0:0:
448,192,228757,1,0,0:0:0:0:
320,192,228757,1,0,0:0:0:0:
192,192,228757,1,0,0:0:0:0:
64,192,228866,1,0,0:0:0:0:
448,192,228866,1,0,0:0:0:0:
320,192,228866,1,0,0:0:0:0:
192,192,228974,1,0,0:0:0:0:
64,192,229082,1,0,0:0:0:0:
448,192,229082,1,0,0:0:0:0:
320,192,229082,1,0,0:0:0:0:
192,192,229190,128,0,229299:0:0:0:0:
64,192,229190,128,0,229407:0:0:0:0:
448,192,229190,1,0,0:0:0:0:
320,192,229299,1,0,0:0:0:0:
448,192,229407,1,0,0:0:0:0:
192,192,229407,1,0,0:0:0:0:
192,192,229515,1,0,0:0:0:0:
64,192,229515,1,0,0:0:0:0:
320,192,229515,1,0,0:0:0:0:
320,192,229623,1,0,0:0:0:0:
64,192,229623,1,0,0:0:0:0:
320,192,229732,1,0,0:0:0:0:
448,192,229732,1,0,0:0:0:0:
192,192,229732,1,0,0:0:0:0:
192,192,229840,5,0,0:0:0:0:
448,192,229840,1,0,0:0:0:0:
192,192,229948,1,0,0:0:0:0:
64,192,229948,1,0,0:0:0:0:
320,192,229948,1,0,0:0:0:0:
320,192,230056,1,0,0:0:0:0:
64,192,230056,1,0,0:0:0:0:
320,192,230164,1,0,0:0:0:0:
448,192,230164,1,0,0:0:0:0:
192,192,230164,1,0,0:0:0:0:
192,192,230273,1,0,0:0:0:0:
448,192,230273,1,0,0:0:0:0:
192,192,230381,1,0,0:0:0:0:
64,192,230381,1,0,0:0:0:0:
320,192,230381,1,0,0:0:0:0:
320,192,230489,1,0,0:0:0:0:
64,192,230489,1,0,0:0:0:0:
320,192,230597,1,0,0:0:0:0:
448,192,230597,1,0,0:0:0:0:
192,192,230597,1,0,0:0:0:0:
192,192,230706,1,0,0:0:0:0:
64,192,230706,1,0,0:0:0:0:
448,192,230706,1,0,0:0:0:0:
320,192,230814,1,0,0:0:0:0:
448,192,230922,5,0,0:0:0:0:
192,192,230922,1,0,0:0:0:0:
64,192,230976,1,0,0:0:0:0:
192,192,231030,1,0,0:0:0:0:
320,192,231084,1,0,0:0:0:0:
448,192,231138,1,0,0:0:0:0:
192,192,231193,1,0,0:0:0:0:
448,192,231247,1,0,0:0:0:0:
192,192,231301,1,0,0:0:0:0:
448,192,231355,1,0,0:0:0:0:
192,192,231409,1,0,0:0:0:0:
320,192,231464,1,0,0:0:0:0:
448,192,231464,1,0,0:0:0:0:
64,192,231518,1,0,0:0:0:0:
448,192,231573,1,0,0:0:0:0:
64,192,231627,1,0,0:0:0:0:
448,192,231682,1,0,0:0:0:0:
64,192,231736,1,0,0:0:0:0:
448,192,231791,1,0,0:0:0:0:
320,192,231845,1,0,0:0:0:0:
192,192,231900,1,0,0:0:0:0:
64,192,231954,1,0,0:0:0:0:
320,192,232009,1,0,0:0:0:0:
64,192,232064,1,0,0:0:0:0:
320,192,232118,1,0,0:0:0:0:
64,192,232173,1,0,0:0:0:0:
192,192,232227,1,0,0:0:0:0:
320,192,232282,1,0,0:0:0:0:
64,192,232336,1,0,0:0:0:0:
448,192,232336,1,0,0:0:0:0:
192,192,232391,1,0,0:0:0:0:
448,192,232445,1,0,0:0:0:0:
192,192,232500,1,0,0:0:0:0:
448,192,232554,1,0,0:0:0:0:
192,192,232609,1,0,0:0:0:0:
64,192,232664,1,0,0:0:0:0:
320,192,232664,1,0,0:0:0:0:
448,192,232718,1,0,0:0:0:0:
320,192,232773,1,0,0:0:0:0:
192,192,232827,1,0,0:0:0:0:
64,192,232882,1,0,0:0:0:0:
320,192,232936,1,0,0:0:0:0:
64,192,232991,1,0,0:0:0:0:
320,192,233045,1,0,0:0:0:0:
64,192,233100,1,0,0:0:0:0:
320,192,233154,1,0,0:0:0:0:
192,192,233209,1,0,0:0:0:0:
64,192,233209,1,0,0:0:0:0:
448,192,233264,1,0,0:0:0:0:
64,192,233318,1,0,0:0:0:0:
448,192,233373,1,0,0:0:0:0:
64,192,233427,1,0,0:0:0:0:
448,192,233482,1,0,0:0:0:0:
64,192,233536,1,0,0:0:0:0:
192,192,233591,1,0,0:0:0:0:
320,192,233645,1,0,0:0:0:0:
448,192,233700,1,0,0:0:0:0:
192,192,233754,1,0,0:0:0:0:
448,192,233809,1,0,0:0:0:0:
192,192,233864,1,0,0:0:0:0:
448,192,233918,1,0,0:0:0:0:
320,192,233973,1,0,0:0:0:0:
192,192,234027,1,0,0:0:0:0:
448,192,234082,1,0,0:0:0:0:
64,192,234082,1,0,0:0:0:0:
320,192,234136,1,0,0:0:0:0:
64,192,234191,1,0,0:0:0:0:
320,192,234245,1,0,0:0:0:0:
64,192,234300,1,0,0:0:0:0:
320,192,234354,1,0,0:0:0:0:
448,192,234409,1,0,0:0:0:0:
192,192,234409,1,0,0:0:0:0:
64,192,234464,1,0,0:0:0:0:
192,192,234518,1,0,0:0:0:0:
320,192,234573,1,0,0:0:0:0:
448,192,234627,1,0,0:0:0:0:
64,192,234682,1,0,0:0:0:0:
448,192,234736,1,0,0:0:0:0:
64,192,234791,1,0,0:0:0:0:
448,192,234845,1,0,0:0:0:0:
64,192,234900,1,0,0:0:0:0:
320,192,234954,1,0,0:0:0:0:
448,192,234954,1,0,0:0:0:0:
192,192,235009,1,0,0:0:0:0:
448,192,235064,1,0,0:0:0:0:
192,192,235118,1,0,0:0:0:0:
448,192,235173,1,0,0:0:0:0:
192,192,235227,1,0,0:0:0:0:
448,192,235282,1,0,0:0:0:0:
320,192,235336,1,0,0:0:0:0:
192,192,235391,1,0,0:0:0:0:
64,192,235445,1,0,0:0:0:0:
320,192,235500,1,0,0:0:0:0:
64,192,235554,1,0,0:0:0:0:
320,192,235609,1,0,0:0:0:0:
64,192,235664,1,0,0:0:0:0:
192,192,235718,1,0,0:0:0:0:
320,192,235773,1,0,0:0:0:0:
192,192,235827,1,0,0:0:0:0:
448,192,235827,1,0,0:0:0:0:
64,192,235882,1,0,0:0:0:0:
448,192,235936,1,0,0:0:0:0:
64,192,235991,1,0,0:0:0:0:
448,192,236045,1,0,0:0:0:0:
64,192,236100,1,0,0:0:0:0:
320,192,236154,1,0,0:0:0:0:
192,192,236154,1,0,0:0:0:0:
448,192,236209,1,0,0:0:0:0:
320,192,236264,1,0,0:0:0:0:
192,192,236318,1,0,0:0:0:0:
64,192,236373,1,0,0:0:0:0:
448,192,236427,1,0,0:0:0:0:
192,192,236482,1,0,0:0:0:0:
320,192,236536,1,0,0:0:0:0:
448,192,236591,1,0,0:0:0:0:
64,192,236645,1,0,0:0:0:0:
448,192,236700,1,0,0:0:0:0:
320,192,236700,1,0,0:0:0:0:
192,192,236754,1,0,0:0:0:0:
64,192,236809,1,0,0:0:0:0:
448,192,236864,1,0,0:0:0:0:
320,192,236918,1,0,0:0:0:0:
64,192,236973,1,0,0:0:0:0:
192,192,237027,1,0,0:0:0:0:
448,192,237082,1,0,0:0:0:0:
64,192,237136,1,0,0:0:0:0:
320,192,237185,1,0,0:0:0:0:
192,192,237233,1,0,0:0:0:0:
448,192,237282,1,0,0:0:0:0:
320,192,237331,1,0,0:0:0:0:
64,192,237379,1,0,0:0:0:0:
448,192,237427,1,0,0:0:0:0:
192,192,237476,1,0,0:0:0:0:
320,192,237524,1,0,0:0:0:0:
64,192,237573,1,0,0:0:0:0:
192,192,237621,1,0,0:0:0:0:
320,192,237669,1,0,0:0:0:0:
448,192,237717,1,0,0:0:0:0:
64,192,237753,1,0,0:0:0:0:
192,192,237789,1,0,0:0:0:0:
320,192,237825,1,0,0:0:0:0:
448,192,237861,1,0,0:0:0:0:
192,192,237897,1,0,0:0:0:0:
64,192,237897,1,0,0:0:0:0:
320,192,237951,1,0,0:0:0:0:
448,192,238005,1,0,0:0:0:0:
64,192,238060,1,0,0:0:0:0:
320,192,238114,1,0,0:0:0:0:
192,192,238168,1,0,0:0:0:0:
64,192,238222,1,0,0:0:0:0:
448,192,238276,1,0,0:0:0:0:
192,192,238330,1,0,0:0:0:0:
320,192,238384,1,0,0:0:0:0:
64,192,238438,1,0,0:0:0:0:
448,192,238438,1,0,0:0:0:0:
192,192,238492,1,0,0:0:0:0:
320,192,238547,1,0,0:0:0:0:
448,192,238601,1,0,0:0:0:0:
64,192,238655,1,0,0:0:0:0:
320,192,238709,1,0,0:0:0:0:
448,192,238763,1,0,0:0:0:0:
64,192,238817,1,0,0:0:0:0:
320,192,238871,1,0,0:0:0:0:
192,192,238920,1,0,0:0:0:0:
64,192,238968,1,0,0:0:0:0:
448,192,239016,1,0,0:0:0:0:
320,192,239064,1,0,0:0:0:0:
192,192,239113,1,0,0:0:0:0:
448,192,239160,1,0,0:0:0:0:
64,192,239208,1,0,0:0:0:0:
192,192,239256,1,0,0:0:0:0:
448,192,239304,1,0,0:0:0:0:
320,192,239353,1,0,0:0:0:0:
192,192,239401,1,0,0:0:0:0:
64,192,239448,1,0,0:0:0:0:
448,192,239484,1,0,0:0:0:0:
320,192,239521,1,0,0:0:0:0:
192,192,239557,1,0,0:0:0:0:
64,192,239593,1,0,0:0:0:0:
448,192,239629,1,0,0:0:0:0:
320,192,239629,1,0,0:0:0:0:
192,192,239683,1,0,0:0:0:0:
448,192,239737,1,0,0:0:0:0:
64,192,239791,1,0,0:0:0:0:
192,192,239862,1,0,0:0:0:0:
448,192,239923,1,0,0:0:0:0:
320,192,239985,1,0,0:0:0:0:
448,192,240047,1,0,0:0:0:0:
64,192,240109,1,0,0:0:0:0:
320,192,240170,1,0,0:0:0:0:
192,192,240170,1,0,0:0:0:0:
64,192,240233,1,0,0:0:0:0:
448,192,240294,1,0,0:0:0:0:
320,192,240356,1,0,0:0:0:0:
64,192,240418,1,0,0:0:0:0:
320,192,240480,1,0,0:0:0:0:
192,192,240542,1,0,0:0:0:0:
448,192,240603,1,0,0:0:0:0:
64,192,240665,1,0,0:0:0:0:
320,192,240727,1,0,0:0:0:0:
448,192,240789,1,0,0:0:0:0:
64,192,240819,1,0,0:0:0:0:
192,192,240855,1,0,0:0:0:0:
320,192,240891,1,0,0:0:0:0:
448,192,240927,1,0,0:0:0:0:
64,192,241036,1,0,0:0:0:0:
192,192,241036,1,0,0:0:0:0:
320,192,241090,1,0,0:0:0:0:
64,192,241144,1,0,0:0:0:0:
320,192,241198,1,0,0:0:0:0:
64,192,241252,1,0,0:0:0:0:
192,192,241306,1,0,0:0:0:0:
448,192,241360,1,0,0:0:0:0:
64,192,241360,1,0,0:0:0:0:
320,192,241414,1,0,0:0:0:0:
192,192,241469,1,0,0:0:0:0:
448,192,241523,1,0,0:0:0:0:
320,192,241577,1,0,0:0:0:0:
64,192,241631,1,0,0:0:0:0:
448,192,241685,1,0,0:0:0:0:
192,192,241739,1,0,0:0:0:0:
64,192,241793,1,0,0:0:0:0:
448,192,241847,1,0,0:0:0:0:
320,192,241902,1,0,0:0:0:0:
192,192,241902,1,0,0:0:0:0:
64,192,241956,1,0,0:0:0:0:
448,192,242010,1,0,0:0:0:0:
192,192,242064,1,0,0:0:0:0:
320,192,242118,1,0,0:0:0:0:
64,192,242172,1,0,0:0:0:0:
448,192,242226,1,0,0:0:0:0:
320,192,242280,1,0,0:0:0:0:
192,192,242334,1,0,0:0:0:0:
448,192,242389,1,0,0:0:0:0:
320,192,242443,1,0,0:0:0:0:
64,192,242497,1,0,0:0:0:0:
192,192,242551,1,0,0:0:0:0:
320,192,242605,1,0,0:0:0:0:
64,192,242659,1,0,0:0:0:0:
192,192,242713,1,0,0:0:0:0:
448,192,242767,1,0,0:0:0:0:
320,192,242767,1,0,0:0:0:0:
64,192,242830,1,0,0:0:0:0:
192,192,242876,1,0,0:0:0:0:
448,192,242892,1,0,0:0:0:0:
320,192,242953,1,0,0:0:0:0:
448,192,243015,1,0,0:0:0:0:
64,192,243092,1,0,0:0:0:0:
192,192,243092,1,0,0:0:0:0:
320,192,243200,1,0,0:0:0:0:
64,192,243308,1,0,0:0:0:0:
192,192,243308,1,0,0:0:0:0:
192,192,243417,1,0,0:0:0:0:
448,192,243417,1,0,0:0:0:0:
320,192,243471,1,0,0:0:0:0:
64,192,243525,1,0,0:0:0:0:
192,192,243579,1,0,0:0:0:0:
64,192,243633,1,0,0:0:0:0:
448,192,243633,1,0,0:0:0:0:
320,192,243633,1,0,0:0:0:0:
192,192,243741,1,0,0:0:0:0:
448,192,243741,1,0,0:0:0:0:
64,192,243850,1,0,0:0:0:0:
320,192,243850,1,0,0:0:0:0:
448,192,243958,1,0,0:0:0:0:
64,192,243958,1,0,0:0:0:0:
192,192,243958,1,0,0:0:0:0:
448,192,244066,1,0,0:0:0:0:
320,192,244066,1,0,0:0:0:0:
192,192,244174,1,0,0:0:0:0:
64,192,244174,1,0,0:0:0:0:
320,192,244282,1,0,0:0:0:0:
192,192,244282,1,0,0:0:0:0:
64,192,244391,1,0,0:0:0:0:
192,192,244391,1,0,0:0:0:0:
448,192,244499,1,0,0:0:0:0:
320,192,244499,1,0,0:0:0:0:
320,192,244607,1,0,0:0:0:0:
64,192,244607,1,0,0:0:0:0:
320,192,244715,1,0,0:0:0:0:
448,192,244715,1,0,0:0:0:0:
192,192,244824,1,0,0:0:0:0:
448,192,244824,1,0,0:0:0:0:
320,192,244932,1,0,0:0:0:0:
64,192,244932,1,0,0:0:0:0:
448,192,244932,1,0,0:0:0:0:
64,192,245040,1,0,0:0:0:0:
192,192,245094,1,0,0:0:0:0:
448,192,245148,1,0,0:0:0:0:
320,192,245148,1,0,0:0:0:0:
64,192,245202,1,0,0:0:0:0:
448,192,245256,1,0,0:0:0:0:
320,192,245311,1,0,0:0:0:0:
192,192,245366,1,0,0:0:0:0:
64,192,245366,1,0,0:0:0:0:
448,192,245425,1,0,0:0:0:0:
192,192,245484,1,0,0:0:0:0:
320,192,245543,1,0,0:0:0:0:
64,192,245603,1,0,0:0:0:0:
448,192,245603,1,0,0:0:0:0:
320,192,245662,1,0,0:0:0:0:
192,192,245721,1,0,0:0:0:0:
64,192,245781,1,0,0:0:0:0:
320,192,245840,1,0,0:0:0:0:
448,192,245840,1,0,0:0:0:0:
192,192,245893,1,0,0:0:0:0:
448,192,245947,1,0,0:0:0:0:
64,192,246001,1,0,0:0:0:0:
320,192,246054,1,0,0:0:0:0:
192,192,246054,1,0,0:0:0:0:
448,192,246108,1,0,0:0:0:0:
192,192,246162,1,0,0:0:0:0:
448,192,246270,1,0,0:0:0:0:
320,192,246270,1,0,0:0:0:0:
64,192,246270,1,0,0:0:0:0:
448,192,246379,1,0,0:0:0:0:
192,192,246379,1,0,0:0:0:0:
192,192,246488,1,0,0:0:0:0:
320,192,246488,1,0,0:0:0:0:
64,192,246597,1,0,0:0:0:0:
320,192,246597,1,0,0:0:0:0:
64,192,246706,1,0,0:0:0:0:
192,192,246706,1,0,0:0:0:0:
448,192,246779,1,0,0:0:0:0:
320,192,246815,1,0,0:0:0:0:
192,192,246851,1,0,0:0:0:0:
448,192,246888,1,0,0:0:0:0:
64,192,246924,1,0,0:0:0:0:
192,192,246960,1,0,0:0:0:0:
320,192,246997,1,0,0:0:0:0:
64,192,247070,1,0,0:0:0:0:
448,192,247106,1,0,0:0:0:0:
320,192,247142,1,0,0:0:0:0:
192,192,247142,1,0,0:0:0:0:
64,192,247215,1,0,0:0:0:0:
448,192,247251,1,0,0:0:0:0:
320,192,247288,1,0,0:0:0:0:
192,192,247324,1,0,0:0:0:0:
448,192,247360,1,0,0:0:0:0:
64,192,247433,1,0,0:0:0:0:
192,192,247470,1,0,0:0:0:0:
320,192,247506,1,0,0:0:0:0:
448,192,247542,1,0,0:0:0:0:
64,192,247579,1,0,0:0:0:0:
192,192,247627,1,0,0:0:0:0:
64,192,247675,1,0,0:0:0:0:
448,192,247724,1,0,0:0:0:0:
320,192,247773,1,0,0:0:0:0:
192,192,247821,1,0,0:0:0:0:
64,192,247870,1,0,0:0:0:0:
320,192,247918,1,0,0:0:0:0:
448,192,247966,1,0,0:0:0:0:
64,192,248015,1,0,0:0:0:0:
320,192,248015,1,0,0:0:0:0:
192,192,248070,1,0,0:0:0:0:
448,192,248124,1,0,0:0:0:0:
192,192,248160,1,0,0:0:0:0:
64,192,248233,1,0,0:0:0:0:
192,192,248270,1,0,0:0:0:0:
320,192,248306,1,0,0:0:0:0:
448,192,248342,1,0,0:0:0:0:
64,192,248379,1,0,0:0:0:0:
192,192,248415,1,0,0:0:0:0:
448,192,248451,1,0,0:0:0:0:
320,192,248451,1,0,0:0:0:0:
64,192,248670,1,0,0:0:0:0:
448,192,248670,1,0,0:0:0:0:
448,192,248888,1,0,0:0:0:0:
64,192,248888,1,0,0:0:0:0:
192,192,248945,1,0,0:0:0:0:
320,192,249003,1,0,0:0:0:0:
448,192,249061,1,0,0:0:0:0:
64,192,249119,1,0,0:0:0:0:
192,192,249119,1,0,0:0:0:0:
320,192,249176,1,0,0:0:0:0:
448,192,249234,1,0,0:0:0:0:
320,192,249292,1,0,0:0:0:0:
64,192,249350,1,0,0:0:0:0:
192,192,249350,1,0,0:0:0:0:
448,192,249409,1,0,0:0:0:0:
320,192,249469,1,0,0:0:0:0:
192,192,249529,1,0,0:0:0:0:
448,192,249589,1,0,0:0:0:0:
320,192,249589,1,0,0:0:0:0:
64,192,249649,1,0,0:0:0:0:
192,192,249708,1,0,0:0:0:0:
320,192,249768,1,0,0:0:0:0:
64,192,249829,1,0,0:0:0:0:
448,192,249829,1,0,0:0:0:0:
192,192,249883,1,0,0:0:0:0:
320,192,249938,1,0,0:0:0:0:
448,192,249993,128,0,250488:0:0:0:0:
192,192,250195,1,0,0:0:0:0:
64,192,250195,1,0,0:0:0:0:
64,192,250488,1,0,0:0:0:0:
448,192,250598,1,0,0:0:0:0:
192,192,250598,1,0,0:0:0:0:
320,192,250653,1,0,0:0:0:0:
64,192,250708,1,0,0:0:0:0:
192,192,250708,1,0,0:0:0:0:
448,192,250745,1,0,0:0:0:0:
320,192,250782,1,0,0:0:0:0:
192,192,250818,1,0,0:0:0:0:
448,192,250855,1,0,0:0:0:0:
64,192,250903,1,0,0:0:0:0:
192,192,250953,1,0,0:0:0:0:
320,192,251002,1,0,0:0:0:0:
448,192,251051,1,0,0:0:0:0:
64,192,251099,1,0,0:0:0:0:
320,192,251148,1,0,0:0:0:0:
192,192,251197,1,0,0:0:0:0:
64,192,251246,1,0,0:0:0:0:
448,192,251295,1,0,0:0:0:0:
192,192,251343,1,0,0:0:0:0:
448,192,251393,1,0,0:0:0:0:
320,192,251441,1,0,0:0:0:0:
64,192,251490,1,0,0:0:0:0:
192,192,251539,1,0,0:0:0:0:
320,192,251588,1,0,0:0:0:0:
448,192,251637,1,0,0:0:0:0:
64,192,251699,1,0,0:0:0:0:
192,192,251755,1,0,0:0:0:0:
448,192,251811,1,0,0:0:0:0:
64,192,251811,1,0,0:0:0:0:
320,192,251867,1,0,0:0:0:0:
448,192,251923,1,0,0:0:0:0:
320,192,251979,1,0,0:0:0:0:
64,192,251985,1,0,0:0:0:0:
192,192,252035,1,0,0:0:0:0:
64,192,252084,1,0,0:0:0:0:
448,192,252134,1,0,0:0:0:0:
192,192,252184,1,0,0:0:0:0:
64,192,252233,1,0,0:0:0:0:
448,192,252283,1,0,0:0:0:0:
192,192,252333,1,0,0:0:0:0:
320,192,252370,1,0,0:0:0:0:
448,192,252426,1,0,0:0:0:0:
64,192,252482,1,0,0:0:0:0:
320,192,252482,1,0,0:0:0:0:
192,192,252538,1,0,0:0:0:0:
64,192,252593,1,0,0:0:0:0:
192,192,252649,1,0,0:0:0:0:
448,192,252649,1,0,0:0:0:0:
320,192,252705,1,0,0:0:0:0:
192,192,252780,1,0,0:0:0:0:
448,192,252830,1,0,0:0:0:0:
320,192,252879,1,0,0:0:0:0:
192,192,252929,1,0,0:0:0:0:
448,192,253003,1,0,0:0:0:0:
320,192,253078,1,0,0:0:0:0:
192,192,253152,1,0,0:0:0:0:
448,192,253208,1,0,0:0:0:0:
64,192,253227,1,0,0:0:0:0:
192,192,253301,1,0,0:0:0:0:
448,192,253376,1,0,0:0:0:0:
320,192,253376,1,0,0:0:0:0:
64,192,253432,1,0,0:0:0:0:
192,192,253488,1,0,0:0:0:0:
320,192,253525,1,0,0:0:0:0:
448,192,253562,1,0,0:0:0:0:
64,192,253599,1,0,0:0:0:0:
320,192,253637,1,0,0:0:0:0:
192,192,253674,1,0,0:0:0:0:
448,192,253723,1,0,0:0:0:0:
64,192,253767,1,0,0:0:0:0:
192,192,253823,1,0,0:0:0:0:
448,192,253873,1,0,0:0:0:0:
320,192,253923,1,0,0:0:0:0:
448,192,253972,1,0,0:0:0:0:
192,192,254022,1,0,0:0:0:0:
448,192,254072,1,0,0:0:0:0:
320,192,254121,1,0,0:0:0:0:
64,192,254171,1,0,0:0:0:0:
192,192,254221,1,0,0:0:0:0:
320,192,254270,1,0,0:0:0:0:
192,192,254320,1,0,0:0:0:0:
64,192,254370,1,0,0:0:0:0:
448,192,254419,1,0,0:0:0:0:
320,192,254469,1,0,0:0:0:0:
448,192,254519,1,0,0:0:0:0:
64,192,254531,1,0,0:0:0:0:
192,192,254568,1,0,0:0:0:0:
320,192,254643,1,0,0:0:0:0:
448,192,254717,1,0,0:0:0:0:
64,192,254717,1,0,0:0:0:0:
192,192,254767,1,0,0:0:0:0:
64,192,254816,1,0,0:0:0:0:
320,192,254866,1,0,0:0:0:0:
192,192,254916,1,0,0:0:0:0:
64,192,254965,1,0,0:0:0:0:
448,192,254978,1,0,0:0:0:0:
192,192,255052,1,0,0:0:0:0:
320,192,255090,1,0,0:0:0:0:
448,192,255127,1,0,0:0:0:0:
64,192,255164,1,0,0:0:0:0:
320,192,255213,1,0,0:0:0:0:
192,192,255261,1,0,0:0:0:0:
448,192,255309,1,0,0:0:0:0:
64,192,255358,1,0,0:0:0:0:
320,192,255406,1,0,0:0:0:0:
448,192,255454,1,0,0:0:0:0:
320,192,255503,1,0,0:0:0:0:
192,192,255552,1,0,0:0:0:0:
448,192,255600,1,0,0:0:0:0:
64,192,255649,1,0,0:0:0:0:
320,192,255697,1,0,0:0:0:0:
192,192,255745,1,0,0:0:0:0:
64,192,255794,1,0,0:0:0:0:
192,192,255843,1,0,0:0:0:0:
320,192,255891,1,0,0:0:0:0:
448,192,255940,1,0,0:0:0:0:
64,192,255988,1,0,0:0:0:0:
192,192,256036,1,0,0:0:0:0:
448,192,256085,1,0,0:0:0:0:
320,192,256133,1,0,0:0:0:0:
448,192,256182,1,0,0:0:0:0:
192,192,256231,1,0,0:0:0:0:
320,192,256327,1,0,0:0:0:0:
192,192,256400,1,0,0:0:0:0:
448,192,256473,1,0,0:0:0:0:
64,192,256473,1,0,0:0:0:0:
192,192,256527,1,0,0:0:0:0:
320,192,256582,1,0,0:0:0:0:
448,192,256636,1,0,0:0:0:0:
64,192,256691,1,0,0:0:0:0:
320,192,256691,1,0,0:0:0:0:
192,192,256745,1,0,0:0:0:0:
64,192,256800,1,0,0:0:0:0:
192,192,256854,1,0,0:0:0:0:
448,192,256910,1,0,0:0:0:0:
320,192,256963,1,0,0:0:0:0:
192,192,257017,1,0,0:0:0:0:
448,192,257071,1,0,0:0:0:0:
320,192,257124,1,0,0:0:0:0:
448,192,257178,1,0,0:0:0:0:
64,192,257232,1,0,0:0:0:0:
192,192,257285,1,0,0:0:0:0:
320,192,257339,1,0,0:0:0:0:
64,192,257393,1,0,0:0:0:0:
192,192,257446,1,0,0:0:0:0:
320,192,257500,1,0,0:0:0:0:
448,192,257554,1,0,0:0:0:0:
192,192,257607,1,0,0:0:0:0:
64,192,257661,1,0,0:0:0:0:
192,192,257715,1,0,0:0:0:0:
448,192,257768,1,0,0:0:0:0:
320,192,257822,1,0,0:0:0:0:
64,192,257876,1,0,0:0:0:0:
448,192,257930,1,0,0:0:0:0:
192,192,257983,1,0,0:0:0:0:
320,192,258037,1,0,0:0:0:0:
448,192,258091,1,0,0:0:0:0:
320,192,258144,1,0,0:0:0:0:
192,192,258198,1,0,0:0:0:0:
64,192,258252,1,0,0:0:0:0:
320,192,258305,1,0,0:0:0:0:
64,192,258359,1,0,0:0:0:0:
448,192,258413,1,0,0:0:0:0:
192,192,258466,1,0,0:0:0:0:
320,192,258520,1,0,0:0:0:0:
448,192,258574,1,0,0:0:0:0:
64,192,258627,1,0,0:0:0:0:
320,192,258682,1,0,0:0:0:0:
192,192,258737,1,0,0:0:0:0:
320,192,258791,1,0,0:0:0:0:
64,192,258846,1,0,0:0:0:0:
448,192,258900,1,0,0:0:0:0:
320,192,258955,1,0,0:0:0:0:
64,192,259009,1,0,0:0:0:0:
192,192,259064,1,0,0:0:0:0:
448,192,259118,1,0,0:0:0:0:
320,192,259173,1,0,0:0:0:0:
64,192,259228,1,0,0:0:0:0:
192,192,259282,1,0,0:0:0:0:
448,192,259337,1,0,0:0:0:0:
320,192,259391,1,0,0:0:0:0:
64,192,259446,1,0,0:0:0:0:
192,192,259500,1,0,0:0:0:0:
448,192,259555,1,0,0:0:0:0:
320,192,259609,1,0,0:0:0:0:
64,192,259664,1,0,0:0:0:0:
192,192,259718,1,0,0:0:0:0:
448,192,259773,1,0,0:0:0:0:
320,192,259828,1,0,0:0:0:0:
64,192,259882,1,0,0:0:0:0:
192,192,259937,1,0,0:0:0:0:
448,192,259991,1,0,0:0:0:0:
320,192,260046,1,0,0:0:0:0:
64,192,260100,1,0,0:0:0:0:
320,192,260155,1,0,0:0:0:0:
192,192,260209,1,0,0:0:0:0:
64,192,260264,1,0,0:0:0:0:
320,192,260373,1,0,0:0:0:0:
448,192,260373,1,0,0:0:0:0:
64,192,260373,1,0,0:0:0:0:
192,192,260489,1,0,0:0:0:0:
448,192,260489,1,0,0:0:0:0:
320,192,260547,1,0,0:0:0:0:
192,192,260606,1,0,0:0:0:0:
64,192,260606,128,0,261188:0:0:0:0:
64,192,261305,1,0,0:0:0:0:
448,192,261305,1,0,0:0:0:0:
192,192,261363,1,0,0:0:0:0:
320,192,261421,1,0,0:0:0:0:
64,192,261480,1,0,0:0:0:0:
448,192,261480,128,0,261771:0:0:0:0:
