osu file format v14

[General]
AudioFilename: Megumi Tatsumi featured by Hiroaki Sano - Tsubomi.mp3
AudioLeadIn: 0
PreviewTime: 53925
Countdown: 0
SampleSet: Soft
StackLeniency: 0.7
Mode: 2
LetterboxInBreaks: 0
WidescreenStoryboard: 0

[Editor]
DistanceSpacing: 4
BeatDivisor: 4
GridSize: 4
TimelineZoom: 1

[Metadata]
Title:Tsubomi
TitleUnicode:つぼみ
Artist:Tatsumi Megumi featured by Sano Hiroaki
ArtistUnicode:達見 恵 featured by 佐野宏晃
Creator:SYAHME
Version:Murumuru's Platter
Source:GuitarFreaksXG3 & DrumManiaXG3
Tags:Original Soundtrack 2nd season Disc 1 Benami Konami BoberOfDarkness murutattack
BeatmapID:955227
BeatmapSetID:403823

[Difficulty]
HPDrainRate:5
CircleSize:4
OverallDifficulty:8
ApproachRate:8
SliderMultiplier:1.1
SliderTickRate:1

[Events]
//Background and Video events
0,0,"Megumi Tatsumi featured by Hiroaki Sano - Tsubomi.jpg",0,0
//Break Periods
2,10593,11762
//Storyboard Layer 0 (Background)
//Storyboard Layer 1 (Fail)
//Storyboard Layer 2 (Pass)
//Storyboard Layer 3 (Foreground)
//Storyboard Sound Samples

[TimingPoints]
1426,326.086956521739,4,2,1,70,1,0
8925,-100,4,2,3,30,0,0
10393,-100,4,2,1,70,0,0
12512,-100,4,2,2,40,0,0
13165,-100,4,2,2,60,0,0
20665,-100,4,2,1,30,0,0
20991,-100,4,2,2,50,0,0
22132,-100,4,2,2,70,0,0
22295,-100,4,2,2,50,0,0
24741,-100,4,2,2,70,0,0
25067,-100,4,2,2,50,0,0
27349,-100,4,2,2,70,0,0
27512,-100,4,2,2,50,0,0
29958,-100,4,2,2,70,0,0
30121,-100,4,2,2,50,0,0
32567,-100,4,2,2,70,0,0
32730,-100,4,2,2,50,0,0
35175,-100,4,2,2,70,0,0
35339,-100,4,2,2,50,0,0
35439,-100,4,2,2,60,0,0
37784,-100,4,2,2,80,0,0
37947,-100,4,2,2,60,0,0
40393,-100,4,2,2,70,0,0
41860,-100,4,2,1,50,0,0
49034,-100,4,2,2,30,0,0
54904,-100,4,1,1,50,0,1
69904,-100,4,2,2,80,0,1
70556,-100,4,1,1,50,0,1
84741,-100,4,2,2,80,0,1
86208,-100,4,1,1,50,0,1
88817,-100,4,1,1,40,0,0
89958,-100,4,2,1,30,0,0
91425,-100,4,2,2,70,0,0
100393,-100,4,3,0,30,0,0

[Colours]
Combo1 : 255,128,128
Combo2 : 255,128,255

[HitObjects]
96,192,610,5,0,0:0:0:0:
140,192,773,1,0,0:0:0:0:
184,192,936,1,0,0:0:0:0:
232,192,1099,1,0,0:0:0:0:
284,192,1262,1,0,0:0:0:0:
432,192,1426,6,0,P|432:144|400:80,1,110,4|0,0:0|0:0,0:0:0:0:
240,88,1915,2,0,P|208:136|240:296,1,220,2|0,0:0|0:0,0:0:0:0:
332,296,2730,6,0,L|412:216,1,110,2|0,0:0|0:0,0:0:0:0:
292,196,3382,2,0,L|228:100,1,110,2|0,0:0|0:0,0:0:0:0:
160,48,4034,1,2,0:0:0:0:
352,64,4360,1,0,0:0:0:0:
128,64,4523,2,0,P|112:128|192:320,1,275,2|2,0:0|0:0,0:0:0:0:
416,192,5991,5,0,0:0:0:0:
192,192,6317,2,0,L|128:192,1,55,0|0,0:0|0:0,0:0:0:0:
64,192,6643,5,2,0:0:0:0:
160,320,6969,2,0,L|192:272,1,55,0|0,0:0|0:0,0:0:0:0:
288,320,7295,2,0,L|336:256,1,55,2|0,0:0|0:0,0:0:0:0:
480,320,7621,2,0,L|449:274,1,55,0|0,0:0|0:0,0:0:0:0:
352,320,7947,2,0,L|320:272,1,55,2|0,0:0|0:0,0:0:0:0:
224,320,8273,2,0,L|176:256,1,55,0|0,0:0|0:0,0:0:0:0:
32,320,8599,2,0,L|63:274,1,55,2|0,0:0|0:0,0:0:0:0:
144,272,8925,2,0,L|224:272,1,55,8|0,0:0|0:0,0:0:0:0:
400,264,9252,6,0,B|448:168|496:88|272:72|232:80,1,330,8|0,0:0|0:0,0:0:0:0:
80,192,10393,1,4,0:0:0:0:
48,192,12512,5,8,0:0:0:0:
64,192,12593,1,0,0:0:0:0:
84,192,12675,1,2,0:0:0:0:
128,192,12757,1,2,0:0:0:0:
176,192,12838,1,8,0:0:0:0:
224,192,12920,1,2,0:0:0:0:
272,192,13002,1,2,0:0:0:0:
448,192,13165,6,0,B|480:160|480:160|416:160,1,110,12|8,0:0|0:0,0:0:0:0:
288,144,13654,2,0,L|240:96,2,55,0|2|2,0:0|0:0|0:0,0:0:0:0:
80,80,14306,2,0,P|64:160|80:192,1,110,4|2,0:0|0:0,0:0:0:0:
160,176,14795,1,8,0:0:0:0:
384,176,15121,6,0,L|448:176,2,55,4|0|8,0:0|0:0|0:0,0:0:0:0:
272,352,15610,2,0,P|240:304|256:240,1,110,2|2,0:0|0:0,0:0:0:0:
384,240,16099,2,0,L|336:192,1,55,2|8,0:0|0:0,0:0:0:0:
208,144,16426,1,0,0:0:0:0:
304,96,16589,1,2,0:0:0:0:
400,48,16752,1,8,0:0:0:0:
128,64,17078,6,0,L|80:112,2,55,4|2|8,0:0|0:0|0:0,0:0:0:0:
292,64,17567,2,0,P|340:112|324:160,1,110,0|2,0:0|0:0,0:0:0:0:
168,144,18056,1,8,0:0:0:0:
112,176,18219,2,0,P|112:224|160:272,1,110,4|2,0:0|0:0,0:0:0:0:
400,176,18708,2,0,P|400:224|352:272,1,110,8|8,0:0|0:0,0:0:0:0:
138,272,19197,6,0,L|218:272,1,55,2|8,0:0|0:0,0:0:0:0:
352,272,19523,1,4,0:0:0:0:
256,192,19686,12,0,20665,0:0:0:0:
176,288,20991,6,0,L|112:240,1,55,4|0,0:0|0:0,0:0:0:0:
64,208,21317,2,0,L|112:160,1,55,8|2,0:0|0:0,0:0:0:0:
160,112,21643,2,0,L|240:192,1,110,0|8,0:0|0:0,0:0:0:0:
400,112,22132,2,0,L|272:240,1,165,2|8,0:0|0:0,0:0:0:0:
176,272,22947,2,0,L|112:224,2,55,2|0|8,0:0|0:0|0:0,0:0:0:0:
304,336,23599,6,0,P|352:320|368:256,1,110,2|8,0:0|0:0,0:0:0:0:
440,212,24089,2,0,L|344:148,1,110,2|2,0:0|0:0,0:0:0:0:
272,104,24578,1,0,0:0:0:0:
104,108,24741,1,0,0:0:0:0:
192,176,25230,6,0,L|128:128,1,55,8|0,0:0|0:0,0:0:0:0:
92,112,25556,2,0,L|188:32,1,110,2|8,0:0|0:0,0:0:0:0:
260,40,26045,1,0,0:0:0:0:
416,64,26208,6,0,L|324:144,1,110,2|8,0:0|0:0,0:0:0:0:
352,256,26697,2,0,L|240:256,1,110,2|0,0:0|0:0,0:0:0:0:
105,240,27186,2,0,L|160:240,1,55,2|8,0:0|0:0,0:0:0:0:
80,180,27839,6,0,L|32:148,1,55,8|0,0:0|0:0,0:0:0:0:
16,128,28165,2,0,L|128:96,1,110,2|8,0:0|0:0,0:0:0:0:
208,80,28654,1,0,0:0:0:0:
368,80,28817,2,0,P|384:128|288:256,1,220,2|2,0:0|0:0,0:0:0:0:
160,256,29632,2,0,L|224:256,1,55,2|0,0:0|0:0,0:0:0:0:
288,256,29958,1,8,0:0:0:0:
368,260,30284,6,0,L|416:212,2,55,2|8|0,0:0|0:0|0:0,0:0:0:0:
212,272,30773,2,0,L|148:272,2,55,2|2|8,0:0|0:0|0:0,0:0:0:0:
352,280,31262,1,0,0:0:0:0:
192,272,31425,6,0,P|112:208|112:192,1,110,4|8,0:0|0:0,0:0:0:0:
40,144,31915,2,0,L|152:96,1,110
284,97,32404,2,0,L|240:64,1,55,2|8,0:0|0:0,0:0:0:0:
416,320,33056,2,0,P|480:272|496:224,2,110,8|2|8,0:0|0:0|0:0,0:0:0:0:
192,320,34034,6,0,L|128:272,1,55,2|0,0:0|0:0,0:0:0:0:
112,256,34360,1,8,0:0:0:0:
32,208,34523,2,0,L|128:128,1,110,2|2,0:0|0:0,0:0:0:0:
224,160,35012,2,0,L|288:112,1,55,0|8,0:0|0:0,0:0:0:0:
448,48,35665,6,0,P|464:96|464:112,1,55,8|2,0:0|0:0,0:0:0:0:
416,144,35991,1,2,0:0:0:0:
368,144,36154,2,0,L|288:144,1,55,2|8,0:0|0:0,0:0:0:0:
256,144,36480,1,0,0:0:0:0:
96,144,36643,6,0,P|48:128|0:64,1,110,4|8,0:0|0:0,0:0:0:0:
160,144,37132,2,0,L|240:64,1,110,2|2,0:0|0:0,0:0:0:0:
352,144,37784,5,8,0:0:0:0:
408,144,37947,2,0,P|371:184|320:202,1,110,0|8,0:0|0:0,0:0:0:0:
264,200,38436,2,0,L|184:120,1,110,2|2,0:0|0:0,0:0:0:0:
144,88,38925,1,8,0:0:0:0:
364,96,39252,6,0,L|460:176,1,110,4|8,0:0|0:0,0:0:0:0:
316,192,39741,1,0,0:0:0:0:
412,176,39904,2,0,L|476:128,2,55,2|0|2,0:0|0:0|0:0,0:0:0:0:
128,224,40393,6,0,L|195:311,1,110,12|2,0:0|0:0,0:0:0:0:
256,192,40882,1,8,0:0:0:0:
344,192,41045,2,0,L|272:104,1,110,2|2,0:0|0:0,0:0:0:0:
144,320,41860,6,0,P|112:272|112:208,1,110,4|8,0:0|0:0,0:0:0:0:
384,96,42512,2,0,L|304:192,1,110,2|8,0:0|0:0,0:0:0:0:
196,276,43165,1,2,0:0:0:0:
84,272,43491,2,0,P|20:240|4:208,2,110,8|0|8,0:0|0:0|0:0,0:0:0:0:
140,264,44469,2,0,L|276:264,1,110,2|8,0:0|0:0,0:0:0:0:
360,272,45121,1,2,0:0:0:0:
128,288,45447,5,8,0:0:0:0:
96,240,45610,1,0,0:0:0:0:
224,256,45773,1,2,0:0:0:0:
256,192,45936,1,0,0:0:0:0:
240,128,46099,1,8,0:0:0:0:
192,96,46262,1,0,0:0:0:0:
48,176,46425,1,2,0:0:0:0:
128,176,46589,1,0,0:0:0:0:
208,176,46752,1,8,0:0:0:0:
288,176,46915,5,0,0:0:0:0:
456,176,47078,2,0,L|346:176,1,110,2|8,0:0|0:0,0:0:0:0:
208,180,47730,1,2,0:0:0:0:
92,160,48056,6,0,P|28:224|44:304,1,165,8|0,0:0|0:0,0:0:0:0:
112,296,48708,1,8,0:0:0:0:
280,204,48871,2,0,L|328:316,1,110
280,344,49360,1,8,0:0:0:0:
228,336,49523,1,8,0:0:0:0:
144,320,49686,6,0,L|88:288,2,55,12|0|8,0:0|0:0|0:0,0:0:0:0:
368,320,50175,2,0,L|424:288,2,55,4|0|2,0:0|0:0|0:0,0:0:0:0:
108,64,50665,6,0,L|208:272,1,220,4|8,0:0|0:0,0:0:0:0:
388,304,51643,2,0,P|312:256|236:256,1,165,2|2,0:0|0:0,0:0:0:0:
192,280,52295,6,0,L|124:312,2,55,4|0|8,0:0|0:0|0:0,0:0:0:0:
360,268,52784,2,0,L|420:296,2,55,4|0|8,0:0|0:0|0:0,0:0:0:0:
136,240,53273,2,0,L|200:240,1,55,2|0,0:0|0:0,0:0:0:0:
304,240,53599,2,0,L|236:240,1,55,8|8,0:0|0:0,0:0:0:0:
340,172,54089,5,0,0:0:0:0:
272,208,54252,1,0,0:0:0:0:
192,168,54416,1,0,0:0:0:0:
216,92,54578,1,0,0:0:0:0:
308,224,54741,1,0,0:0:0:0:
88,316,54904,6,0,P|64:272|72:208,1,110,4|8,0:0|0:0,0:0:0:0:
152,248,55393,2,0,P|192:232|232:164,1,110
200,104,55882,1,8,0:0:0:0:
52,116,56045,1,0,0:0:0:0:
160,60,56208,2,0,L|216:96,1,55,2|0,0:0|0:0,0:0:0:0:
312,76,56534,2,0,L|368:108,1,55,8|0,0:0|0:0,0:0:0:0:
472,148,56860,2,0,L|400:148,1,55,2|0,0:0|0:0,0:0:0:0:
276,148,57186,2,0,L|196:148,1,55,8|0,0:0|0:0,0:0:0:0:
28,144,57512,6,0,P|36:208|92:244,1,110,2|8,0:0|0:0,0:0:0:0:
428,180,58002,2,0,P|420:244|332:308,1,165,0|8,0:0|0:0,0:0:0:0:
268,296,58654,1,0,0:0:0:0:
176,232,58817,6,0,L|116:200,1,55,2|0,0:0|0:0,0:0:0:0:
56,172,59143,2,0,L|104:136,1,55,8|2,0:0|0:0,0:0:0:0:
256,192,59469,2,0,L|316:160,1,55,0|2,0:0|0:0,0:0:0:0:
376,132,59795,2,0,L|328:96,1,55,8|0,0:0|0:0,0:0:0:0:
112,84,60121,6,0,P|64:124|40:168,1,110,4|8,0:0|0:0,0:0:0:0:
200,200,60773,2,0,L|316:160,1,110,2|8,0:0|0:0,0:0:0:0:
376,296,61425,6,0,P|424:256|448:212,1,110,2|8,0:0|0:0,0:0:0:0:
312,184,62077,2,0,L|196:224,1,110,2|8,0:0|0:0,0:0:0:0:
76,260,62730,2,0,L|16:232,2,55,6|0|8,0:0|0:0|0:0,0:0:0:0:
144,336,63219,2,0,L|280:336,1,110,0|0,0:0|0:0,0:0:0:0:
364,336,63708,2,0,L|296:336,1,55,8|0,0:0|0:0,0:0:0:0:
136,336,64034,6,0,L|72:336,2,55,2|2|8,0:0|0:0|0:0,0:0:0:0:
356,352,64523,2,0,L|420:352,2,55,2|2|0,0:0|0:0|0:0,0:0:0:0:
308,352,64931,1,0,0:0:0:0:
264,352,65012,2,0,L|196:352,1,55,8|0,0:0|0:0,0:0:0:0:
48,352,65339,6,0,P|104:336|148:288,1,110,4|8,0:0|0:0,0:0:0:0:
284,256,65828,2,0,P|228:240|184:192,1,110,0|0,0:0|0:0,0:0:0:0:
352,168,66317,1,8,0:0:0:0:
464,352,66643,6,0,P|408:336|364:288,1,110,2|8,0:0|0:0,0:0:0:0:
228,256,67132,2,0,P|284:240|328:192,1,110,2|2,0:0|0:0,0:0:0:0:
160,168,67621,1,8,0:0:0:0:
44,192,67947,2,0,L|176:164,1,110,2|8,0:0|0:0,0:0:0:0:
320,192,68436,2,0,L|440:144,1,110,2|2,0:0|0:0,0:0:0:0:
488,128,68925,1,8,0:0:0:0:
256,128,69089,2,0,P|216:168|244:276,1,165,4|8,0:0|0:0,0:0:0:0:
296,312,69741,5,2,0:0:0:0:
384,292,69904,1,2,0:0:0:0:
428,208,70067,1,2,0:0:0:0:
400,124,70230,1,8,0:0:0:0:
368,92,70311,1,0,0:0:0:0:
324,72,70393,1,2,0:0:0:0:
104,64,70556,6,0,P|36:72|-16:108,1,110,4|8,0:0|0:0,0:0:0:0:
104,140,71045,2,0,P|172:148|224:184,1,110,0|0,0:0|0:0,0:0:0:0:
128,224,71534,1,8,0:0:0:0:
40,276,71697,1,0,0:0:0:0:
96,316,71860,6,0,P|136:328|172:320,1,55,2|0,0:0|0:0,0:0:0:0:
204,236,72186,2,0,P|244:248|280:240,1,55,8|0,0:0|0:0,0:0:0:0:
480,316,72513,2,0,P|440:328|404:320,1,55,2|0,0:0|0:0,0:0:0:0:
372,236,72839,2,0,P|332:248|296:240,1,55,8|0,0:0|0:0,0:0:0:0:
180,332,73165,6,0,P|128:288|128:236,1,110,2|8,0:0|0:0,0:0:0:0:
324,332,73654,2,0,P|392:304|416:200,1,165,0|8,0:0|0:0,0:0:0:0:
344,168,74306,1,0,0:0:0:0:
264,128,74469,6,0,L|204:136,2,55,2|0|8,0:0|0:0|0:0,0:0:0:0:
180,64,74958,2,0,L|116:72,2,55,0|2|0,0:0|0:0|0:0,0:0:0:0:
232,56,75366,1,0,0:0:0:0:
284,28,75447,2,0,L|352:48,1,55,8|0,0:0|0:0,0:0:0:0:
472,80,75773,6,0,L|348:136,1,110,4|8,0:0|0:0,0:0:0:0:
300,140,76262,1,0,0:0:0:0:
80,164,76425,2,0,P|160:204|188:212,1,110,2|8,0:0|0:0,0:0:0:0:
252,224,76915,1,0,0:0:0:0:
352,200,77078,2,0,L|416:160,2,55,2|0|8,0:0|0:0|0:0,0:0:0:0:
236,184,77567,2,0,L|176:144,2,55,0|2|0,0:0|0:0|0:0,0:0:0:0:
388,192,78056,2,0,L|340:248,1,55,8|0,0:0|0:0,0:0:0:0:
80,236,78382,6,0,P|80:296|108:352,1,110,4|8,0:0|0:0,0:0:0:0:
188,280,78871,2,0,L|308:268,1,110,0|0,0:0|0:0,0:0:0:0:
448,260,79360,2,0,L|388:272,1,55,8|0,0:0|0:0,0:0:0:0:
284,304,79686,5,2,0:0:0:0:
184,312,79849,1,0,0:0:0:0:
100,268,80012,1,8,0:0:0:0:
68,184,80175,1,0,0:0:0:0:
228,304,80339,5,2,0:0:0:0:
328,312,80502,1,0,0:0:0:0:
412,268,80665,1,8,0:0:0:0:
444,184,80828,1,0,0:0:0:0:
224,116,80991,6,0,L|104:112,1,110,4|8,0:0|0:0,0:0:0:0:
56,108,81480,2,0,L|190:108,1,110
304,38,81969,2,0,L|374:77,1,55,8|0,0:0|0:0,0:0:0:0:
189,76,82295,6,0,L|112:164,1,110,2|8,0:0|0:0,0:0:0:0:
280,60,82784,2,0,L|377:114,1,110,0|0,0:0|0:0,0:0:0:0:
487,147,83273,2,0,L|417:186,1,55,8|0,0:0|0:0,0:0:0:0:
218,212,83599,6,0,L|337:195,1,110,12|8,0:0|0:0,0:0:0:0:
438,173,84089,2,0,L|507:163,2,55,2|2|0,0:0|0:0|0:0,0:0:0:0:
332,189,84578,2,0,L|261:179,1,55,8|4,0:0|0:0,0:0:0:0:
119,126,84904,6,0,L|69:157,1,55,0|2,0:0|0:0,0:0:0:0:
12,200,85230,2,0,L|70:241,1,55,8|2,0:0|0:0,0:0:0:0:
171,125,85556,2,0,L|121:156,1,55,8|2,0:0|0:0,0:0:0:0:
12,200,85882,2,0,L|70:241,1,55,8|2,0:0|0:0,0:0:0:0:
139,291,86208,6,0,L|255:290,1,110,4|8,0:0|0:0,0:0:0:0:
360,293,86860,2,0,L|430:257,1,55,2|0,0:0|0:0,0:0:0:0:
299,259,87186,2,0,L|230:239,1,55,8|0,0:0|0:0,0:0:0:0:
104,194,87512,2,0,L|220:123,1,110,2|8,0:0|0:0,0:0:0:0:
372,172,88165,2,0,L|432:138,1,55,2|0,0:0|0:0,0:0:0:0:
198,143,88491,2,0,L|132:122,1,55,8|0,0:0|0:0,0:0:0:0:
49,93,88817,6,0,P|111:66|266:61,1,220,4|2,0:0|0:0,0:0:0:0:
348,94,89632,1,2,0:0:0:0:
405,164,89795,1,8,0:0:0:0:
156,148,89958,2,0,P|104:148|164:172,1,165
64,192,91426,6,0,B|32:160|32:160|96:160,1,110,4|8,0:0|0:0,0:0:0:0:
224,144,91915,2,0,L|272:96,2,55,0|2|0,0:0|0:0|0:0,0:0:0:0:
432,80,92567,2,0,P|448:160|432:192,1,110,4|8,0:0|0:0,0:0:0:0:
380,188,93056,1,8,0:0:0:0:
160,336,93382,6,0,L|112:288,2,55,4|0|8,0:0|0:0|0:0,0:0:0:0:
256,352,93871,2,0,P|288:304|272:240,1,110,2|2,0:0|0:0,0:0:0:0:
140,236,94360,2,0,L|188:188,1,55,0|2,0:0|0:0,0:0:0:0:
288,160,94687,1,0,0:0:0:0:
192,112,94850,1,2,0:0:0:0:
96,64,95013,1,8,0:0:0:0:
348,68,95339,6,0,L|408:68,2,55,4|0|8,0:0|0:0|0:0,0:0:0:0:
180,84,95828,2,0,P|188:148|228:156,1,110,2|2,0:0|0:0,0:0:0:0:
344,152,96317,1,8,0:0:0:0:
400,176,96480,2,0,P|400:224|352:272,1,110,0|0,0:0|0:0,0:0:0:0:
140,196,96969,2,0,L|236:276,1,110,8|0,0:0|0:0,0:0:0:0:
368,272,97458,6,0,L|288:272,1,55,8|0,0:0|0:0,0:0:0:0:
160,272,97784,1,4,0:0:0:0:
256,192,97947,12,4,100556,0:0:0:0:
