osu file format v14

[General]
AudioFilename: Megumi Tatsumi featured by Hiroaki Sano - Tsubomi.mp3
AudioLeadIn: 0
PreviewTime: 53925
Countdown: 0
SampleSet: Soft
StackLeniency: 0.7
Mode: 2
LetterboxInBreaks: 0
WidescreenStoryboard: 0

[Editor]
DistanceSpacing: 1
BeatDivisor: 2
GridSize: 16
TimelineZoom: 1

[Metadata]
Title:Tsubomi
TitleUnicode:つぼみ
Artist:Tatsumi Megumi featured by Sano Hiroaki
ArtistUnicode:達見 恵 featured by 佐野宏晃
Creator:SYAHME
Version:Cup
Source:GuitarFreaksXG3 & DrumManiaXG3
Tags:Original Soundtrack 2nd season Disc 1 Benami Konami BoberOfDarkness murutattack
BeatmapID:955226
BeatmapSetID:403823

[Difficulty]
HPDrainRate:4
CircleSize:3
OverallDifficulty:6
ApproachRate:6
SliderMultiplier:1.1
SliderTickRate:1

[Events]
//Background and Video events
0,0,"Megumi Tatsumi featured by Hiroaki Sano - Tsubomi.jpg",0,0
//Break Periods
2,10593,11462
2,42186,45773
//Storyboard Layer 0 (Background)
//Storyboard Layer 1 (Fail)
//Storyboard Layer 2 (Pass)
//Storyboard Layer 3 (Foreground)
//Storyboard Sound Samples

[TimingPoints]
1426,326.086956521739,4,2,1,70,1,0
8925,-100,4,2,3,30,0,0
10393,-100,4,2,1,70,0,0
12512,-100,4,2,2,40,0,0
13165,-100,4,2,2,60,0,0
20665,-100,4,2,1,30,0,0
20991,-100,4,2,2,50,0,0
22132,-100,4,2,2,70,0,0
22295,-100,4,2,2,50,0,0
24741,-100,4,2,2,70,0,0
25067,-100,4,2,2,50,0,0
27349,-100,4,2,2,70,0,0
27512,-100,4,2,2,50,0,0
29958,-100,4,2,2,70,0,0
30121,-100,4,2,2,50,0,0
32567,-100,4,2,2,70,0,0
32730,-100,4,2,2,50,0,0
35175,-100,4,2,2,70,0,0
35339,-100,4,2,2,50,0,0
35439,-100,4,2,2,60,0,0
37784,-100,4,2,2,80,0,0
37947,-100,4,2,2,60,0,0
40393,-100,4,2,2,70,0,0
41860,-100,4,2,1,50,0,0
49034,-100,4,2,2,30,0,0
54904,-100,4,1,1,50,0,1
69904,-100,4,2,2,80,0,1
70556,-100,4,1,1,50,0,1
84741,-100,4,2,2,80,0,1
86208,-100,4,1,1,50,0,1
88817,-100,4,1,1,40,0,1
89958,-100,4,2,1,30,0,0
91425,-100,4,2,2,70,0,0
100393,-100,4,3,0,20,0,0

[Colours]
Combo1 : 255,128,128
Combo2 : 255,128,255

[HitObjects]
256,192,1426,5,4,0:0:0:0:
160,192,1752,1,0,0:0:0:0:
112,192,1915,2,0,P|80:144|144:48,1,165,2|0,0:0|0:0,0:0:0:0:
176,192,2567,6,0,L|224:160,1,55,0|2,0:0|0:0,0:0:0:0:
352,192,3056,1,0,0:0:0:0:
240,192,3382,1,2,0:0:0:0:
128,192,3708,1,0,0:0:0:0:
240,192,4034,5,2,0:0:0:0:
352,192,4360,1,0,0:0:0:0:
400,192,4523,2,0,P|432:272|384:352,1,165,2|0,0:0|0:0,0:0:0:0:
288,336,5339,2,0,P|236:244|288:152,1,220,2|0,0:0|0:0,0:0:0:0:
192,160,6480,6,0,L|128:160,1,55,0|2,0:0|0:0,0:0:0:0:
240,48,6969,1,0,0:0:0:0:
347,40,7295,1,2,0:0:0:0:
434,103,7621,1,0,0:0:0:0:
461,208,7947,5,2,0:0:0:0:
414,305,8273,1,0,0:0:0:0:
316,350,8599,1,2,0:0:0:0:
212,321,8925,1,8,0:0:0:0:
112,320,9252,6,0,P|208:256|96:112,1,330,8|0,0:0|0:0,0:0:0:0:
176,112,10393,1,4,0:0:0:0:
176,240,12512,6,0,P|112:176|192:80,1,220,8|12,0:0|0:0,0:0:0:0:
256,81,13491,2,0,P|320:177|240:225,1,220
192,240,14306,5,4,0:0:0:0:
256,240,14469,1,0,0:0:0:0:
320,240,14632,1,2,0:0:0:0:
256,191,14795,2,0,L|256:80,1,110,8|4,0:0|0:0,0:0:0:0:
176,112,15447,6,0,L|240:112,1,55,8|2,0:0|0:0,0:0:0:0:
272,112,15773,2,0,P|352:176|256:304,1,275,2|2,0:0|0:0,0:0:0:0:
208,224,16752,2,0,L|208:144,1,55
272,320,17078,6,0,P|352:288|240:80,1,385,4|4,0:0|0:0,0:0:0:0:
192,96,18382,6,0,P|112:144|208:320,1,330,0|8,0:0|0:0,0:0:0:0:
256,336,19523,6,0,B|256:48|256:48|256:160,1,385,4|0,0:0|0:0,0:0:0:0:
160,64,20991,6,0,P|128:112|176:144,1,110,4|8,0:0|0:0,0:0:0:0:
224,144,21480,2,0,L|272:112,1,55,2|0,0:0|0:0,0:0:0:0:
368,144,21969,2,0,L|416:112,1,55,8|2,0:0|0:0,0:0:0:0:
256,144,22458,5,0,0:0:0:0:
192,144,22621,2,0,L|80:144,2,110,8|2|8,0:0|0:0|0:0,0:0:0:0:
272,144,23436,2,0,L|272:80,1,55,0|2,0:0|0:0,0:0:0:0:
208,240,23925,5,8,0:0:0:0:
272,240,24089,1,2,0:0:0:0:
336,240,24252,1,0,0:0:0:0:
272,176,24415,2,0,L|272:64,1,110,2|8,0:0|0:0,0:0:0:0:
400,192,25230,5,0,0:0:0:0:
352,192,25393,1,0,0:0:0:0:
306,192,25556,1,0,0:0:0:0:
208,192,25882,1,0,0:0:0:0:
160,192,26045,1,0,0:0:0:0:
112,192,26208,5,0,0:0:0:0:
208,128,26534,1,8,0:0:0:0:
256,128,26697,2,0,L|368:64,1,110,2|0,0:0|0:0,0:0:0:0:
256,288,27349,5,8,0:0:0:0:
208,288,27512,2,0,L|96:288,3,110,0|8|2|8,0:0|0:0|0:0|0:0,0:0:0:0:
240,288,28817,6,0,P|320:272|240:96,1,330,2|0,0:0|0:0,0:0:0:0:
192,96,29958,1,8,0:0:0:0:
256,192,30284,12,4,31425,0:0:0:0:
176,192,31752,6,0,L|176:128,1,55,8|0,0:0|0:0,0:0:0:0:
336,192,32404,2,0,L|336:128,1,55,2|8,0:0|0:0,0:0:0:0:
208,192,33056,2,0,L|208:80,1,110,8|2,0:0|0:0,0:0:0:0:
320,192,33708,6,0,L|320:128,1,55,8|0,0:0|0:0,0:0:0:0:
272,192,34034,2,0,L|160:192,1,110,2|8,0:0|0:0,0:0:0:0:
208,144,34523,1,2,0:0:0:0:
256,144,34686,1,0,0:0:0:0:
304,144,34849,1,2,0:0:0:0:
208,224,35175,5,8,0:0:0:0:
160,224,35339,2,0,L|48:224,3,110,0|8|2|8,0:0|0:0|0:0|0:0,0:0:0:0:
160,224,36643,6,0,L|160:112,1,110,4|8,0:0|0:0,0:0:0:0:
240,224,37132,2,0,L|240:336,1,110,2|2,0:0|0:0,0:0:0:0:
352,192,37784,5,8,0:0:0:0:
400,144,37947,2,0,L|288:144,3,110,0|8|0|8,0:0|0:0|0:0|0:0,0:0:0:0:
160,192,39252,6,0,L|160:80,1,110,4|8,0:0|0:0,0:0:0:0:
240,192,39741,2,0,L|240:256,1,55,0|2,0:0|0:0,0:0:0:0:
384,256,40393,6,0,L|384:144,1,110,12|2,0:0|0:0,0:0:0:0:
320,256,40882,1,8,0:0:0:0:
256,256,41045,2,0,L|256:80,1,165,2|0,0:0|0:0,0:0:0:0:
128,256,41860,5,4,0:0:0:0:
256,192,47078,12,0,49034,0:0:0:0:
256,192,49686,6,0,L|80:192,2,165,12|4|4,0:0|0:0|0:0,0:0:0:0:
144,192,51154,6,0,L|176:144,1,55
208,192,51480,2,0,L|240:144,1,55
256,192,51806,2,0,L|368:64,1,165,0|4,0:0|0:0,0:0:0:0:
208,96,52621,6,0,L|208:32,1,55,8|4,0:0|0:0,0:0:0:0:
368,144,53110,2,0,L|368:208,1,55,8|2,0:0|0:0,0:0:0:0:
208,192,53599,2,0,L|144:224,1,55,8|8,0:0|0:0,0:0:0:0:
144,192,54904,6,0,L|128:80,1,110,4|8,0:0|0:0,0:0:0:0:
224,176,55393,2,0,L|240:352,1,165,0|8,0:0|0:0,0:0:0:0:
352,176,56208,2,0,L|464:176,3,110,2|8|2|8,0:0|0:0|0:0|0:0,0:0:0:0:
320,176,57512,6,0,L|208:176,1,110,2|8,0:0|0:0,0:0:0:0:
144,48,58002,2,0,P|272:80|128:304,1,495,0|0,0:0|0:0,0:0:0:0:
256,48,59795,5,8,0:0:0:0:
368,192,60121,2,0,L|144:192,2,220,4|2|2,0:0|0:0|0:0,0:0:0:0:
176,192,62078,2,0,L|64:192,2,110,2|8|6,0:0|0:0|0:0,0:0:0:0:
304,96,63056,5,8,0:0:0:0:
352,96,63219,2,0,L|224:208,1,165,0|8,0:0|0:0,0:0:0:0:
176,96,63871,2,0,P|96:176|208:288,1,275,0|2,0:0|0:0,0:0:0:0:
320,288,65175,6,0,L|320:224,1,55,0|4,0:0|0:0,0:0:0:0:
192,288,65665,2,0,L|176:176,1,110,8|0,0:0|0:0,0:0:0:0:
320,288,66317,2,0,L|336:176,1,110,8|0,0:0|0:0,0:0:0:0:
224,192,66969,2,0,L|96:192,2,110,8|0|8,0:0|0:0|0:0,0:0:0:0:
336,192,67947,5,2,0:0:0:0:
176,192,68436,1,2,0:0:0:0:
288,96,68762,1,0,0:0:0:0:
336,96,68925,1,8,0:0:0:0:
384,96,69089,2,0,L|256:96,1,110,4|0,0:0|0:0,0:0:0:0:
160,96,69741,6,0,P|64:144|176:224,1,275,2|4,0:0|0:0,0:0:0:0:
272,96,70882,1,8,0:0:0:0:
224,96,71045,2,0,L|112:224,1,165,0|8,0:0|0:0,0:0:0:0:
240,192,71860,6,0,L|352:192,3,110,0|8|0|8,0:0|0:0|0:0|0:0,0:0:0:0:
240,112,73165,6,0,L|128:112,1,110,2|8,0:0|0:0,0:0:0:0:
192,32,73654,2,0,P|352:192|160:320,1,495,0|2,0:0|0:0,0:0:0:0:
304,320,75447,5,8,0:0:0:0:
416,320,75773,2,0,L|240:176,2,220,4|2|2,0:0|0:0|0:0,0:0:0:0:
320,112,77404,5,8,0:0:0:0:
216,131,77730,1,2,0:0:0:0:
177,229,78056,1,8,0:0:0:0:
238,315,78382,1,4,0:0:0:0:
344,309,78708,5,8,0:0:0:0:
288,304,78871,2,0,P|160:272|304:48,1,495,0|2,0:0|0:0,0:0:0:0:
144,48,80828,6,0,L|144:112,1,55,0|4,0:0|0:0,0:0:0:0:
288,112,81317,1,8,0:0:0:0:
288,176,81480,2,0,L|368:288,1,110,0|0,0:0|0:0,0:0:0:0:
208,144,82132,5,0,0:0:0:0:
144,144,82295,2,0,L|256:144,3,110,2|8|2|8,0:0|0:0|0:0|0:0,0:0:0:0:
352,80,83599,6,0,P|432:128|336:304,1,330,4|8,0:0|0:0,0:0:0:0:
256,304,84904,2,0,P|176:256|288:80,1,330,0|8,0:0|0:0,0:0:0:0:
304,80,86045,6,0,L|304:144,1,55,2|4,0:0|0:0,0:0:0:0:
176,144,86534,1,8,0:0:0:0:
176,208,86697,2,0,L|96:320,1,110
240,240,87349,5,0,0:0:0:0:
304,240,87512,2,0,L|176:240,3,110,10|8|2|8,0:0|0:0|0:0|0:0,0:0:0:0:
320,320,88817,6,0,P|400:256|304:80,1,330,4|8,0:0|0:0,0:0:0:0:
256,320,89958,2,0,L|256:144,1,165
192,64,91425,6,0,P|112:112|224:288,1,330,4|0,0:0|0:0,0:0:0:0:
240,288,92567,1,4,0:0:0:0:
304,288,92730,1,0,0:0:0:0:
368,288,92893,1,8,0:0:0:0:
304,224,93056,2,0,L|304:112,1,110,8|4,0:0|0:0,0:0:0:0:
208,112,93708,6,0,L|272:112,1,55,8|2,0:0|0:0,0:0:0:0:
304,112,94034,2,0,P|384:176|288:304,1,275,2|2,0:0|0:0,0:0:0:0:
240,256,95012,2,0,L|240:192,1,55,8|0,0:0|0:0,0:0:0:0:
304,336,95339,6,0,P|416:224|272:64,1,385,4|4,0:0|0:0,0:0:0:0:
224,64,96643,6,0,P|112:176|240:336,1,385,2|4,0:0|0:0,0:0:0:0:
256,192,98110,12,4,100556,0:0:0:0:
