osu file format v14

[General]
AudioFilename: tsubomi.mp3
AudioLeadIn: 0
PreviewTime: 54078
Countdown: 0
SampleSet: Soft
StackLeniency: 0.7
Mode: 0
LetterboxInBreaks: 1
EpilepsyWarning: 1
WidescreenStoryboard: 1

[Editor]
DistanceSpacing: 0.3
BeatDivisor: 4
GridSize: 16
TimelineZoom: 1.5

[Metadata]
Title:Tsubomi (Long Version)
TitleUnicode:つぼみ (Long Version)
Artist:Tatsumi Megumi featured by Sano Hiroaki
ArtistUnicode:達見 恵 featured by 佐野宏晃
Creator:Pururut
Version:Knospe
Source:GuitarFreaksXG3 & DrumManiaXG3
Tags:original soundtrack 2nd season jubeat yf_bmp
BeatmapID:694958
BeatmapSetID:311064

[Difficulty]
HPDrainRate:6
CircleSize:4
OverallDifficulty:8
ApproachRate:9.2
SliderMultiplier:1.6
SliderTickRate:1

[Events]
//Background and Video events
0,0,"sb/bg.jpg",0,0
//Break Periods
//Storyboard Layer 0 (Background)
//Storyboard Layer 1 (Fail)
//Storyboard Layer 2 (Pass)
//Storyboard Layer 3 (Foreground)
//Storyboard Sound Samples

[TimingPoints]
274,326.086956521739,4,1,0,100,1,0
763,-100,4,2,1,70,0,0
9404,-100,4,2,3,30,0,0
10056,-100,4,2,3,40,0,0
10464,-100,4,2,1,50,0,0
12665,-100,4,2,1,40,0,0
12991,-100,4,2,1,70,0,0
21143,-100,4,2,1,80,0,0
36795,-100,4,2,1,60,0,0
37121,-100,4,2,1,80,0,0
42013,-133.333333333333,4,2,1,40,0,0
42176,-133.333333333333,4,2,2,40,0,0
49187,-133.333333333333,4,2,1,50,0,0
49839,-100,4,2,1,80,0,0
53752,-100,4,2,1,60,0,0
53915,-100,4,2,1,70,0,0
55056,-83.3333333333333,4,2,1,80,0,1
70382,-83.3333333333333,4,2,1,80,0,0
70708,-83.3333333333333,4,2,2,80,0,1
70871,-83.3333333333333,4,2,1,80,0,1
85219,-83.3333333333333,4,2,1,60,0,1
89784,-83.3333333333333,4,2,1,40,0,1
90110,-100,4,2,1,40,0,0
91578,-100,4,2,1,80,0,0
120273,-133.333333333333,4,2,1,50,0,0
120600,-133.333333333333,4,2,2,50,0,0
127284,-133.333333333333,4,2,1,40,0,0
128100,-133.333333333333,4,2,1,80,0,0
133317,-83.3333333333333,4,2,1,80,0,1
148643,-83.3333333333333,4,2,1,80,0,0
148969,-83.3333333333333,4,2,2,80,0,1
149132,-83.3333333333333,4,2,1,80,0,1
163317,-83.3333333333333,4,2,1,60,0,1
168045,-83.3333333333333,4,2,1,40,0,1
168371,-83.3333333333333,4,2,1,40,0,0
169839,-83.3333333333333,4,2,1,60,0,0
170002,-83.3333333333333,4,2,1,40,0,0
170491,-133.333333333333,4,2,1,70,0,0
180926,-133.333333333333,4,2,1,40,0,0
181252,-133.333333333333,4,2,1,80,0,0
185491,-133.333333333333,4,2,1,90,0,0
185654,-133.333333333333,4,2,1,80,0,0
188100,-100,4,2,1,70,0,0
198045,-100,4,2,1,80,0,0
198371,-100,4,2,1,70,0,0
216795,-133.333333333333,4,2,1,60,0,0
232447,-133.333333333333,4,2,2,40,0,0
248100,-100,4,2,1,70,0,0
251850,-83.3333333333333,4,2,1,70,0,0
252665,-83.3333333333333,4,2,1,30,0,0
253317,-83.3333333333333,4,2,1,80,0,1
267665,-83.3333333333333,4,2,1,50,0,1
268154,-83.3333333333333,4,2,1,70,0,1
268643,-83.3333333333333,4,2,1,80,0,0
268969,-83.3333333333333,4,2,2,80,0,1
269132,-83.3333333333333,4,2,1,80,0,1
283480,-83.3333333333333,4,2,1,50,0,1
284295,-83.3333333333333,4,2,1,60,0,1
284621,-83.3333333333333,4,2,1,70,0,1
289839,-100,4,2,1,80,0,1
292610,-100,4,2,1,30,0,1
292937,-100,4,2,1,50,0,1
293263,-100,4,2,1,70,0,1
293589,-100,4,2,1,80,0,0
296360,-100,4,2,1,80,0,0
305654,-100,4,2,2,50,0,0
305817,-100,4,2,2,40,0,0
306469,-100,4,2,1,60,0,0
306632,-100,4,2,1,70,0,0
308100,-100,4,2,1,60,0,0
309404,-100,4,2,1,40,0,0
310708,-100,4,2,1,20,0,0
312013,-100,4,2,1,5,0,0

[Colours]
Combo1 : 255,128,255
Combo2 : 128,255,255
Combo3 : 255,255,128
Combo4 : 128,128,255

[HitObjects]
68,153,763,5,0,0:0:0:0:
188,123,926,1,0,0:0:0:0:
105,57,1089,1,0,0:0:0:0:
215,219,1252,1,0,0:0:0:0:
314,179,1415,1,0,0:0:0:0:
314,179,1496,1,0,0:0:0:0:
314,179,1578,6,0,P|402:171|467:199,1,160,2|0,0:2|0:0,0:0:0:0:
215,219,2067,2,0,P|134:246|56:222,1,160
349,72,2719,1,0,0:0:0:0:
426,161,2882,2,0,L|400:251,1,80
319,289,3208,2,0,P|389:276|489:306,1,160
205,257,3697,1,0,0:0:0:0:
241,159,3860,2,0,P|243:114|225:69,1,80
56,204,4187,6,0,L|34:370,1,160,2|0,0:0|0:0,0:0:0:0:
214,336,4676,2,0,L|201:235,1,80
386,129,5002,1,0,0:0:0:0:
386,129,5165,2,0,L|374:218,1,80
241,159,5491,2,0,P|181:167|95:109,1,160,2|0,0:0|0:0,0:0:0:0:
488,33,6143,1,2,0:0:0:0:
489,44,6469,1,0,0:0:0:0:
491,54,6795,6,0,L|500:158,1,80,2|0,3:2|0:0,0:0:0:0:
291,273,7121,2,0,L|314:373,1,80,0|0,3:0|0:0,0:0:0:0:
192,148,7447,2,0,B|182:191|159:234,1,80,0|0,3:0|0:0,0:0:0:0:
433,232,7773,2,0,P|431:278|443:331,1,80,0|0,3:0|0:0,0:0:0:0:
141,327,8100,6,0,P|74:295|70:195,1,160,0|0,3:0|3:0,0:0:0:0:
192,148,8589,1,0,0:0:0:0:
192,148,8670,1,0,0:0:0:0:
192,148,8752,2,0,L|186:59,1,80,0|0,3:0|0:0,0:0:0:0:
305,202,9078,2,0,L|312:296,1,80,0|0,3:0|0:0,0:0:0:0:
426,208,9404,5,8,2:2:0:0:
420,176,9485,1,8,2:2:0:0:
404,147,9567,1,8,2:2:0:0:
383,122,9648,1,8,2:2:0:0:
356,103,9730,1,8,2:2:0:0:
324,94,9812,1,8,2:2:0:0:
292,92,9893,1,8,2:2:0:0:
261,101,9975,1,8,2:2:0:0:
233,116,10056,1,8,2:2:0:0:
207,141,10138,1,8,2:2:0:0:
173,154,10219,1,8,2:2:0:0:
137,161,10301,1,8,2:2:0:0:
101,155,10382,1,8,2:2:0:0:
32,95,10545,5,6,0:0:0:0:
256,192,10627,12,0,12502,0:0:0:0:
84,208,12665,5,2,0:0:0:0:
86,219,12746,1,2,0:0:0:0:
88,230,12828,1,2,0:0:0:0:
90,241,12909,1,2,0:0:0:0:
92,252,12991,1,2,0:0:0:0:
94,263,13072,1,0,0:0:0:0:
96,274,13154,1,0,0:0:0:0:
99,285,13235,1,0,0:0:0:0:
101,296,13317,5,6,0:0:0:0:
225,245,13480,1,0,0:0:0:0:
302,346,13643,1,8,0:0:0:0:
419,288,13806,1,2,0:2:0:0:
325,169,13969,1,0,0:0:0:0:
337,155,14051,1,0,0:0:0:0:
349,144,14132,2,0,L|359:228,1,80
473,123,14458,6,0,P|471:66|449:24,2,80,6|0|0,3:2|0:0|0:0,0:0:0:0:
227,209,14947,2,0,L|120:196,1,80,2|0,1:2|0:0,0:0:0:0:
115,194,15192,1,0,0:0:0:0:
115,194,15273,5,4,0:1:0:0:
260,104,15437,1,0,0:0:0:0:
284,354,15600,1,0,1:0:0:0:
161,289,15763,1,0,0:0:0:0:
350,192,15926,5,0,0:0:0:0:
338,189,16007,1,0,0:0:0:0:
326,186,16089,1,0,3:0:0:0:
398,320,16252,1,0,3:0:0:0:
441,224,16415,1,0,3:0:0:0:
284,354,16578,1,2,0:0:0:0:
260,104,16741,1,2,0:0:0:0:
161,289,16904,1,6,0:2:0:0:
161,289,17230,5,6,0:0:0:0:
80,188,17393,1,0,0:0:0:0:
80,188,17475,1,0,0:0:0:0:
80,188,17556,2,0,L|80:246,1,40,0|0,1:0|0:0,0:0:0:0:
23,289,17719,1,0,0:0:0:0:
193,191,17882,1,2,0:0:0:0:
146,34,18045,1,2,0:0:0:0:
193,191,18208,1,0,3:0:0:0:
193,191,18290,1,0,3:0:0:0:
193,191,18371,2,0,P|255:205|294:188,1,80,0|0,3:0|3:0,0:0:0:0:
363,151,18697,1,2,0:0:0:0:
492,266,18860,6,0,L|397:256,1,80,4|0,3:1|0:0,0:0:0:0:
261,114,19187,1,0,3:0:0:0:
105,218,19350,1,0,3:0:0:0:
152,42,19513,1,2,0:0:0:0:
382,208,19676,1,4,0:2:0:0:
386,190,21143,6,0,L|385:104,1,80,6|0,0:0|0:0,0:0:0:0:
427,305,21469,2,0,P|354:307|319:286,1,80,8|0,0:0|0:0,0:0:0:0:
188,204,21795,2,0,P|261:202|296:223,1,80,0|0,0:0|3:0,0:0:0:0:
93,362,22121,1,0,0:0:0:0:
93,362,22284,6,0,B|71:324|71:324|82:202,1,160,8|0,0:0|0:0,0:0:0:0:
7,127,22773,2,0,L|0:211,1,80,8|0,0:0|0:0,0:0:0:0:
158,282,23100,2,0,L|167:190,1,80
70,33,23426,1,8,0:0:0:0:
104,131,23589,1,0,0:0:0:0:
201,167,23752,5,0,3:0:0:0:
304,169,23915,1,0,0:0:0:0:
365,252,24078,1,8,0:0:0:0:
467,270,24241,1,0,0:0:0:0:
485,167,24404,5,0,3:0:0:0:
383,146,24567,1,0,3:0:0:0:
365,252,24730,1,0,0:0:0:0:
490,266,24893,1,8,0:0:0:0:
478,268,24975,1,0,0:0:0:0:
467,270,25056,1,0,0:0:0:0:
452,75,25219,5,0,3:0:0:0:
383,146,25382,1,8,0:0:0:0:
266,87,25545,1,0,0:0:0:0:
277,90,25627,1,0,0:0:0:0:
288,92,25708,1,0,3:0:0:0:
106,200,25871,5,0,3:0:0:0:
217,176,26034,1,8,0:0:0:0:
325,148,26197,1,0,0:0:0:0:
106,200,26360,6,0,B|103:163|103:163|114:113|114:113|101:54,1,120,2|0,3:2|0:0,0:0:0:0:
99,54,26687,1,8,0:0:0:0:
16,222,26850,1,0,0:0:0:0:
121,357,27013,5,0,3:0:0:0:
213,382,27176,1,0,3:0:0:0:
296,308,27339,1,0,0:0:0:0:
273,209,27502,1,8,0:0:0:0:
398,321,27665,6,0,B|445:342|509:315,1,80,2|0,0:0|3:0,0:0:0:0:
370,123,27991,2,0,B|326:113|263:144,1,80,8|0,0:0|0:0,0:0:0:0:
434,240,28317,2,0,P|497:238|533:222,1,80,2|0,3:2|3:0,0:0:0:0:
285,47,28643,2,0,P|241:61|211:103,1,80,8|0,0:0|0:0,0:0:0:0:
328,289,28969,6,0,L|339:210,1,80,2|0,3:2|0:0,0:0:0:0:
66,51,29295,2,0,L|54:130,1,80,8|0,0:0|0:0,0:0:0:0:
232,248,29621,1,0,0:0:0:0:
168,319,29784,1,0,3:0:0:0:
73,301,29947,1,0,0:0:0:0:
232,248,30110,1,8,0:0:0:0:
232,248,30437,5,0,0:0:0:0:
322,216,30600,1,8,0:0:0:0:
416,234,30763,1,0,0:0:0:0:
344,124,30926,5,0,3:0:0:0:
249,151,31089,1,0,3:0:0:0:
163,109,31252,1,8,0:0:0:0:
79,149,31415,1,0,0:0:0:0:
73,137,31496,1,0,0:0:0:0:
68,125,31578,6,0,L|92:25,1,80,6|0,0:0|0:0,0:0:0:0:
192,309,31904,1,8,0:0:0:0:
96,319,32067,1,0,0:0:0:0:
264,239,32230,1,0,3:0:0:0:
359,251,32393,1,0,3:0:0:0:
176,318,32556,1,0,0:0:0:0:
84,287,32719,6,0,P|38:271|12:239,1,80,10|0,0:0|0:0,0:0:0:0:
191,180,33045,1,0,3:0:0:0:
287,313,33208,2,0,L|188:295,1,80,10|0,0:0|0:0,0:0:0:0:
359,251,33534,5,0,3:0:0:0:
445,292,33697,1,0,3:0:0:0:
442,196,33860,1,10,0:0:0:0:
263,216,34023,1,0,0:0:0:0:
267,120,34187,5,0,3:0:0:0:
442,196,34350,1,0,0:0:0:0:
439,100,34513,1,10,0:0:0:0:
267,120,34676,1,0,0:0:0:0:
269,25,34839,5,0,3:0:0:0:
94,158,35002,1,0,3:0:0:0:
101,62,35165,1,0,3:0:0:0:
94,158,35328,1,8,0:0:0:0:
85,254,35491,6,0,L|92:342,1,80,2|0,0:0|3:0,0:0:0:0:
177,209,35817,1,8,0:0:0:0:
177,209,35980,1,0,0:0:0:0:
361,286,36143,2,0,L|345:388,1,80,0|0,3:0|3:0,0:0:0:0:
478,232,36469,1,10,0:0:0:0:
294,81,36632,1,0,0:0:0:0:
210,291,36795,6,0,P|251:264|266:214,1,80,4|0,0:1|0:0,0:0:0:0:
450,70,37121,2,0,L|466:177,1,80,8|0,0:0|0:0,0:0:0:0:
154,188,37447,1,0,3:0:0:0:
368,274,37610,1,0,3:0:0:0:
301,49,37773,1,0,0:0:0:0:
263,237,37937,1,4,0:1:0:0:
263,237,38018,1,0,0:0:0:0:
263,237,38100,6,0,L|263:324,1,80,0|0,0:0|3:0,0:0:0:0:
30,140,38426,2,0,P|36:85|60:45,1,80,8|0,0:0|3:0,0:0:0:0:
213,133,38752,2,0,L|120:124,1,80,0|0,0:0|3:0,0:0:0:0:
133,231,39078,1,8,0:0:0:0:
117,229,39159,1,0,0:0:0:0:
100,228,39241,1,0,0:0:0:0:
21,332,39404,6,0,L|121:329,1,80,4|0,0:0|3:0,0:0:0:0:
406,293,39730,2,0,L|318:286,1,80,8|0,0:0|0:0,0:0:0:0:
40,144,40056,2,0,L|147:139,1,80,0|0,3:0|3:0,0:0:0:0:
346,49,40382,1,0,0:0:0:0:
148,50,40545,1,4,0:1:0:0:
148,50,40627,1,0,0:0:0:0:
148,50,40708,5,0,0:0:0:0:
147,254,40871,1,0,3:0:0:0:
303,136,41034,1,8,0:0:0:0:
256,295,41197,2,0,L|255:200,1,80,4|0,0:0|3:0,0:0:0:0:
342,362,41523,1,0,3:0:0:0:
430,161,41687,1,10,0:0:0:0:
430,161,42013,6,0,L|433:243,1,60.0000022888184,4|0,0:1|0:0,0:0:0:0:
448,324,42339,1,2,3:1:0:0:
284,268,42665,1,0,0:0:0:0:
123,327,42991,1,0,0:0:0:0:
123,327,43154,1,2,3:1:0:0:
123,327,43317,6,0,L|62:325,1,60.0000022888184,2|0,3:1|0:0,0:0:0:0:
184,244,43643,1,0,0:0:0:0:
184,244,43969,2,0,P|175:189|186:161,1,60.0000022888184,0|2,0:0|3:1,0:0:0:0:
245,103,44295,2,0,L|232:29,1,60.0000022888184,0|0,0:0|3:0,0:0:0:0:
78,33,44621,6,0,L|104:163,1,120.000004577637,2|2,3:1|0:1,0:0:0:0:
28,224,45110,1,2,0:1:0:0:
28,224,45273,2,0,L|19:308,1,60.0000022888184,0|0,0:0|3:0,0:0:0:0:
134,329,45600,1,0,0:0:0:0:
267,342,45763,1,2,3:1:0:0:
262,258,45926,5,0,0:0:0:0:
134,329,46089,1,2,3:1:0:0:
148,246,46252,1,2,3:1:0:0:
262,258,46415,1,0,0:0:0:0:
253,174,46578,5,0,0:0:0:0:
148,246,46741,1,2,3:1:0:0:
166,164,46904,1,2,3:1:0:0:
262,258,47067,1,0,0:0:0:0:
166,164,47230,6,0,P|163:107|202:44,1,120.000004577637,12|0,0:1|0:0,0:0:0:0:
343,146,47882,1,0,0:0:0:0:
354,317,48208,2,0,P|292:301|259:246,1,120.000004577637,0|0,3:0|0:0,0:0:0:0:
493,284,48860,2,0,P|495:336|481:369,1,60.0000022888184,0|0,3:0|0:0,0:0:0:0:
427,202,49187,6,0,L|426:146,2,30.0000011444092,0|0|0,1:0|0:0|1:0,0:0:0:0:
340,308,49513,2,0,L|344:357,2,30.0000011444092,0|0|0,1:0|1:0|1:0,0:0:0:0:
204,192,49839,6,0,B|187:179|187:179|174:270|278:306,1,160,4|0,0:0|0:0,0:0:0:0:
430,91,50328,2,0,B|443:72|443:72|474:151|410:222,1,160,4|0,0:0|0:0,0:0:0:0:
303,77,50817,2,0,B|278:40|278:40|301:164,1,160,6|0,0:0|0:0,0:0:0:0:
318,247,51306,5,0,0:0:0:0:
428,275,51469,2,0,L|431:338,2,40,0|0|0,1:0|0:0|0:0,0:0:0:0:
234,306,51795,1,0,0:0:0:0:
318,247,51958,1,0,0:0:0:0:
135,283,52121,1,0,3:0:0:0:
123,292,52203,1,0,3:0:0:0:
112,301,52284,1,0,3:0:0:0:
101,313,52366,1,0,3:0:0:0:
88,323,52447,6,0,L|77:231,1,80,6|0,0:0|0:0,0:0:0:0:
213,135,52773,1,0,1:0:0:0:
45,13,52937,2,0,L|52:92,1,80,4|0,0:0|0:0,0:0:0:0:
213,135,53263,2,0,L|223:233,2,80,0|0|0,0:0|1:0|0:0,0:0:0:0:
302,75,53752,5,8,1:2:0:0:
302,315,53915,1,10,1:2:0:0:
424,276,54241,5,2,0:0:0:0:
453,118,54404,1,2,0:0:0:0:
336,221,54567,1,2,0:0:0:0:
502,206,54730,1,2,0:0:0:0:
502,206,54893,1,2,0:0:0:0:
354,113,55056,6,0,P|362:55|383:21,1,95.9999970703126,6|0,0:2|0:0,0:0:0:0:
470,153,55382,1,8,0:0:0:0:
262,192,55545,1,0,3:0:0:0:
281,195,55627,1,0,3:0:0:0:
298,198,55708,1,2,3:2:0:0:
268,17,55871,5,0,3:0:0:0:
220,243,56034,1,10,3:2:0:0:
470,153,56197,1,0,0:0:0:0:
283,133,56360,6,0,L|389:122,1,95.9999970703126,2|0,3:2|3:0,0:0:0:0:
460,325,56687,2,0,L|355:309,1,95.9999970703126,8|0,0:0|0:0,0:0:0:0:
124,251,57013,2,0,L|252:239,1,95.9999970703126,2|0,3:2|3:0,0:0:0:0:
443,210,57339,1,8,0:0:0:0:
235,328,57502,1,0,0:0:0:0:
250,330,57584,1,0,0:0:0:0:
264,332,57665,5,2,3:2:0:0:
171,170,57828,1,0,3:0:0:0:
7,290,57991,2,0,P|2:243|30:192,1,95.9999970703126,8|0,0:0|3:0,0:0:0:0:
187,265,58317,1,2,3:2:0:0:
88,257,58480,1,0,3:0:0:0:
366,321,58643,1,8,0:0:0:0:
270,332,58806,1,0,0:0:0:0:
366,321,58969,6,0,P|386:257|374:211,1,95.9999970703126,2|0,3:2|3:0,0:0:0:0:
172,42,59295,2,0,P|176:96|205:145,1,95.9999970703126,8|0,0:0|3:0,0:0:0:0:
302,204,59621,1,2,3:2:0:0:
511,165,59784,1,0,3:0:0:0:
393,36,59947,1,8,0:0:0:0:
381,229,60110,1,0,0:0:0:0:
224,230,60273,6,0,L|73:209,1,143.999995605469,4|0,3:1|0:0,0:0:0:0:
50,225,60600,1,8,0:0:0:0:
215,198,60763,1,0,0:0:0:0:
377,162,60926,1,2,3:2:0:0:
307,70,61089,1,0,3:0:0:0:
292,200,61252,1,8,0:0:0:0:
277,332,61415,1,0,0:0:0:0:
387,297,61578,6,0,B|359:246|359:246|382:134,1,143.999995605469,2|0,3:2|0:0,0:0:0:0:
407,134,61904,1,8,0:0:0:0:
478,209,62067,1,0,0:0:0:0:
476,223,62148,1,0,0:0:0:0:
474,237,62230,1,2,3:2:0:0:
496,351,62393,1,0,3:0:0:0:
388,298,62556,1,8,0:0:0:0:
393,183,62719,1,0,0:0:0:0:
277,332,62882,6,0,P|228:344|145:322,1,95.9999970703126,2|0,3:2|0:0,0:0:0:0:
91,293,63208,1,8,0:0:0:0:
316,242,63371,1,0,0:0:0:0:
316,242,63534,1,2,3:2:0:0:
205,64,63697,1,0,3:0:0:0:
142,217,63860,1,8,0:0:0:0:
363,166,64023,1,0,0:0:0:0:
142,217,64187,6,0,L|31:202,1,95.9999970703126,2|0,0:0|0:0,0:0:0:0:
46,204,64513,1,8,0:0:0:0:
223,334,64676,1,0,0:0:0:0:
223,334,64757,1,0,0:0:0:0:
223,334,64839,2,0,L|338:331,1,95.9999970703126,0|2,3:0|3:2,0:0:0:0:
123,357,65165,1,8,0:0:0:0:
214,124,65328,1,0,0:0:0:0:
305,247,65491,6,0,L|293:136,1,95.9999970703126,4|0,3:2|0:0,0:0:0:0:
213,43,65817,1,8,0:0:0:0:
46,204,65980,1,0,0:0:0:0:
60,202,66062,1,0,0:0:0:0:
75,200,66143,1,2,3:2:0:0:
226,183,66306,1,0,3:0:0:0:
383,164,66469,1,8,0:0:0:0:
310,293,66632,1,0,0:0:0:0:
310,293,66714,1,0,0:0:0:0:
310,293,66795,6,0,P|248:301|186:272,1,95.9999970703126,2|0,3:2|0:0,0:0:0:0:
107,115,67121,1,8,0:0:0:0:
213,43,67284,1,0,0:0:0:0:
210,57,67366,1,0,0:0:0:0:
207,71,67447,1,2,3:2:0:0:
176,198,67610,1,0,0:0:0:0:
147,326,67773,1,8,0:0:0:0:
294,166,67937,1,0,0:0:0:0:
294,180,68018,1,0,0:0:0:0:
295,194,68100,5,6,3:2:0:0:
416,317,68263,2,0,L|409:376,2,47.9999985351563,0|0|8,0:0|0:0|0:0,0:0:0:0:
382,145,68589,1,4,3:2:0:0:
512,304,68752,1,2,0:0:0:0:
327,262,68915,1,4,3:1:0:0:
512,164,69078,1,2,0:0:0:0:
381,8,69241,1,4,3:2:0:0:
293,135,69404,5,2,0:0:0:0:
255,130,69485,1,0,0:0:0:0:
216,126,69567,1,0,0:0:0:0:
178,122,69648,1,0,0:0:0:0:
139,119,69730,1,0,0:0:0:0:
91,237,69893,1,2,0:0:0:0:
356,181,70056,1,2,0:0:0:0:
187,32,70219,1,2,0:0:0:0:
245,262,70382,1,2,0:0:0:0:
283,261,70464,1,2,0:0:0:0:
321,259,70545,1,2,0:0:0:0:
359,259,70627,1,2,0:0:0:0:
397,257,70708,5,4,3:2:0:0:
53,304,71034,2,0,P|20:261|85:157,2,191.999994140625,8|0|8,0:0|3:0|0:0,0:0:0:0:
153,268,71850,1,0,0:0:0:0:
222,348,72013,6,0,L|338:360,1,95.9999970703126,2|0,3:2|0:0,0:0:0:0:
443,112,72339,2,0,L|327:122,1,95.9999970703126,8|0,0:0|0:0,0:0:0:0:
410,296,72665,2,0,B|459:296|459:296|523:267,1,95.9999970703126,2|0,3:2|3:0,0:0:0:0:
241,67,72991,2,0,B|227:117|227:117|238:182,1,95.9999970703126,8|0,0:0|0:0,0:0:0:0:
310,293,73317,6,0,B|324:243|324:243|313:178,1,95.9999970703126,2|0,3:2|0:0,0:0:0:0:
114,288,73643,2,0,B|58:292|58:292|15:271,1,95.9999970703126,8|0,0:0|0:0,0:0:0:0:
234,160,73969,1,2,3:2:0:0:
292,373,74132,1,0,3:0:0:0:
410,296,74295,2,0,L|532:295,1,95.9999970703126,8|0,0:0|0:0,0:0:0:0:
176,352,74621,5,2,3:2:0:0:
278,269,74784,1,0,0:0:0:0:
148,152,74947,2,0,P|144:102|162:33,1,95.9999970703126,8|0,0:0|0:0,0:0:0:0:
414,201,75273,2,0,P|420:247|403:310,1,95.9999970703126,2|0,3:2|3:0,0:0:0:0:
175,360,75600,1,8,0:0:0:0:
262,167,75763,1,0,0:0:0:0:
1,240,75926,6,0,P|46:269|158:255,1,143.999995605469,6|0,3:2|0:0,0:0:0:0:
134,267,76252,1,8,0:0:0:0:
139,161,76415,1,0,0:0:0:0:
125,155,76496,1,0,0:0:0:0:
110,151,76578,1,2,3:2:0:0:
109,59,76741,1,0,0:0:0:0:
236,206,76904,2,0,L|368:202,1,95.9999970703126,8|0,0:0|0:0,0:0:0:0:
485,331,77230,6,0,L|376:322,1,95.9999970703126,2|0,3:2|3:0,0:0:0:0:
360,73,77556,2,0,P|452:77|492:104,1,95.9999970703126,8|0,0:0|0:0,0:0:0:0:
231,379,77882,6,0,P|212:311|236:264,1,95.9999970703126,2|0,3:2|0:0,0:0:0:0:
417,233,78208,1,8,0:0:0:0:
329,310,78371,1,0,0:0:0:0:
324,296,78453,1,0,0:0:0:0:
317,283,78534,2,0,L|325:173,1,95.9999970703126,6|0,3:2|0:0,0:0:0:0:
103,27,78860,5,8,0:0:0:0:
51,181,79023,1,0,0:0:0:0:
219,225,79187,2,0,L|211:125,1,95.9999970703126,2|0,3:2|3:0,0:0:0:0:
384,11,79513,5,8,0:0:0:0:
325,133,79676,1,0,0:0:0:0:
417,233,79839,2,0,L|420:341,1,95.9999970703126,2|0,3:2|3:0,0:0:0:0:
419,328,80083,1,0,0:0:0:0:
419,328,80165,1,8,0:0:0:0:
327,266,80328,1,0,0:0:0:0:
506,208,80491,2,0,L|503:99,2,95.9999970703126,2|0|8,3:2|3:0|0:0,0:0:0:0:
422,83,80980,2,0,L|413:35,1,47.9999985351563
349,122,81143,6,0,P|285:130|244:102,1,95.9999970703126,6|0,0:0|0:0,0:0:0:0:
155,39,81469,1,8,0:0:0:0:
126,161,81632,2,0,L|131:268,1,95.9999970703126,0|2,0:0|3:2,0:0:0:0:
205,338,81958,1,0,3:0:0:0:
42,319,82121,2,0,L|37:223,1,95.9999970703126,8|0,0:0|0:0,0:0:0:0:
286,262,82447,6,0,P|314:311|310:360,1,95.9999970703126,2|0,3:2|0:0,0:0:0:0:
205,338,82773,1,10,0:0:0:0:
249,167,82937,1,0,0:0:0:0:
397,290,83100,1,2,3:2:0:0:
205,338,83263,1,0,0:0:0:0:
342,150,83426,2,0,B|361:96|345:44|345:44|306:95,1,143.999995605469,8|0,0:0|0:0,0:0:0:0:
342,150,83752,6,0,B|401:209|485:196|485:196|471:139,1,191.999994140625,6|8,3:2|0:0,0:0:0:0:
259,119,84241,1,2,0:0:0:0:
259,119,84404,2,0,L|125:130,1,95.9999970703126,2|0,0:0|0:0,0:0:0:0:
27,249,84730,1,10,0:0:0:0:
12,130,84893,1,0,0:0:0:0:
118,331,85056,5,2,0:0:0:0:
138,187,85219,1,2,0:0:0:0:
142,196,85301,1,2,0:0:0:0:
146,205,85382,1,2,0:0:0:0:
149,214,85464,1,2,0:0:0:0:
167,257,85545,5,2,0:0:0:0:
208,280,85626,1,0,0:0:0:0:
256,280,85708,1,0,0:0:0:0:
295,253,85789,1,0,0:0:0:0:
311,207,85871,1,0,1:0:0:0:
291,163,85952,1,0,3:0:0:0:
289,114,86034,1,0,1:0:0:0:
321,78,86116,1,0,1:0:0:0:
367,67,86197,1,0,1:0:0:0:
182,114,86360,6,0,L|58:106,1,95.9999970703126,14|0,0:0|0:0,0:0:0:0:
330,270,86687,2,0,L|454:278,1,95.9999970703126,10|0,0:0|0:0,0:0:0:0:
184,347,87013,2,0,P|162:285|182:227,1,95.9999970703126,10|0,0:0|0:0,0:0:0:0:
328,37,87339,2,0,P|350:99|330:157,1,95.9999970703126,10|0,0:0|0:0,0:0:0:0:
166,256,87665,5,10,0:0:0:0:
182,114,87828,1,0,0:0:0:0:
329,270,87991,1,10,0:0:0:0:
345,127,88154,1,0,0:0:0:0:
166,256,88317,1,10,0:0:0:0:
182,114,88480,1,0,0:0:0:0:
329,270,88643,2,0,L|317:382,1,95.9999970703126,10|0,0:0|0:0,0:0:0:0:
451,207,88969,5,14,0:0:0:0:
451,207,89295,2,0,P|447:167|412:103,1,95.9999970703126,10|0,0:0|0:0,0:0:0:0:
211,353,89621,1,8,0:0:0:0:
345,342,89784,5,0,1:0:0:0:
340,318,89866,1,0,1:0:0:0:
335,294,89947,1,0,1:0:0:0:
329,270,90029,1,0,1:0:0:0:
323,246,90110,1,4,1:1:0:0:
100,127,91578,5,4,0:0:0:0:
21,224,91741,2,0,L|25:276,2,40,0|0|0,1:0|3:0|3:0,0:0:0:0:
183,168,92067,1,2,0:2:0:0:
29,58,92230,1,0,0:0:0:0:
156,262,92393,1,0,3:0:0:0:
255,242,92556,1,0,0:0:0:0:
414,346,92719,5,0,3:0:0:0:
315,340,92882,1,0,0:0:0:0:
218,338,93045,1,0,3:0:0:0:
315,340,93208,1,0,1:0:0:0:
454,198,93534,5,6,0:0:0:0:
412,306,93697,2,0,L|414:368,2,40,0|0|0,0:0|1:0|0:0,0:0:0:0:
464,204,94023,1,0,3:0:0:0:
374,133,94187,2,0,L|378:70,2,40,0|0|0,3:0|1:0|3:0,0:0:0:0:
473,210,94513,1,0,0:0:0:0:
468,108,94676,1,0,3:0:0:0:
323,226,94839,5,0,0:0:0:0:
224,211,95002,1,0,0:0:0:0:
127,193,95165,1,0,1:0:0:0:
127,193,95491,5,6,0:2:0:0:
193,113,95654,2,0,L|189:59,2,40,0|0|0,1:0|3:0|3:0,0:0:0:0:
224,211,95980,1,0,3:0:0:0:
170,297,96143,2,0,L|176:359,2,40,0|0|0,1:0|3:0|3:0,0:0:0:0:
127,193,96469,1,0,3:0:0:0:
268,337,96632,5,0,3:0:0:0:
369,322,96795,1,0,0:0:0:0:
473,305,96958,1,0,0:0:0:0:
369,322,97121,6,0,L|268:340,2,80,0|0|0,3:0|0:0|0:0,0:0:0:0:
498,211,97610,1,0,0:0:0:0:
410,34,97773,1,0,0:0:0:0:
320,254,97937,1,4,0:1:0:0:
121,287,99404,6,0,L|17:295,1,80,4|0,0:0|0:0,0:0:0:0:
225,336,99730,2,0,L|319:340,1,80,8|0,0:0|0:0,0:0:0:0:
461,280,100056,1,0,0:0:0:0:
441,177,100219,1,0,3:0:0:0:
327,164,100382,1,8,0:0:0:0:
246,75,100545,1,0,0:0:0:0:
248,59,100627,1,0,0:0:0:0:
249,43,100708,5,2,0:2:0:0:
371,65,100871,1,0,3:0:0:0:
150,153,101034,2,0,P|107:160|59:143,1,80,8|0,0:0|0:0,0:0:0:0:
20,79,101360,5,0,0:0:0:0:
246,89,101523,1,0,3:0:0:0:
266,206,101687,1,8,0:0:0:0:
370,285,101850,1,0,0:0:0:0:
370,285,102013,6,0,P|386:232|377:195,1,80,2|0,3:2|3:0,0:0:0:0:
116,305,102339,2,0,P|129:352|165:377,1,80,8|0,0:0|0:0,0:0:0:0:
265,384,102665,2,0,L|374:372,1,80,2|0,0:0|3:0,0:0:0:0:
439,314,102991,1,8,0:0:0:0:
439,314,103154,2,0,P|404:292|360:286,1,80,0|0,0:0|3:0,0:0:0:0:
211,357,103480,5,2,3:2:0:0:
226,355,103561,1,0,0:0:0:0:
241,353,103643,1,8,0:0:0:0:
143,267,103806,1,0,0:0:0:0:
44,355,103969,2,0,P|26:311|41:246,1,80,2|0,0:0|3:0,0:0:0:0:
85,104,104295,2,0,P|90:173|70:208,1,80,8|0,0:0|0:0,0:0:0:0:
248,249,104621,6,0,L|388:235,1,120,2|0,0:0|0:0,0:0:0:0:
397,254,104947,1,8,0:0:0:0:
183,177,105110,1,0,0:0:0:0:
392,65,105273,1,2,0:0:0:0:
392,65,105437,1,2,3:2:0:0:
394,155,105600,1,8,0:0:0:0:
307,118,105763,1,0,3:0:0:0:
307,118,105926,6,0,P|288:60|300:29,1,80,2|0,0:0|3:0,0:0:0:0:
492,138,106252,2,0,P|495:186|477:238,1,80,8|0,0:0|0:0,0:0:0:0:
395,332,106578,2,0,P|390:277|408:231,1,80,2|0,0:0|3:0,0:0:0:0:
478,370,106904,1,8,0:0:0:0:
304,259,107067,1,0,0:0:0:0:
304,259,107148,1,0,0:0:0:0:
304,259,107230,6,0,P|321:186|377:140,1,120,2|0,0:0|0:0,0:0:0:0:
389,125,107556,2,0,L|378:17,1,80,8|0,0:0|0:0,0:0:0:0:
196,110,107882,2,0,P|249:100|278:62,1,80,0|0,0:0|3:0,0:0:0:0:
38,78,108208,1,8,0:0:0:0:
125,42,108371,1,2,0:0:0:0:
2,252,108697,5,0,3:0:0:0:
81,200,108860,1,8,0:0:0:0:
118,348,109023,1,0,0:0:0:0:
144,262,109187,1,0,3:0:0:0:
230,384,109350,1,0,0:0:0:0:
227,293,109513,1,8,0:0:0:0:
340,316,109676,1,2,0:0:0:0:
351,320,109757,1,2,0:0:0:0:
362,323,109839,6,0,L|345:216,1,80,6|0,0:0|0:0,0:0:0:0:
280,149,110165,2,0,L|298:53,1,80,8|0,0:0|0:0,0:0:0:0:
380,154,110491,1,0,3:0:0:0:
174,209,110654,1,0,3:0:0:0:
185,107,110817,1,8,0:0:0:0:
174,209,110980,2,0,L|180:306,1,80,2|0,0:0|3:0,0:0:0:0:
411,324,111306,5,0,0:0:0:0:
275,246,111469,2,0,L|357:248,1,80,8|0,0:0|0:0,0:0:0:0:
507,350,111795,1,2,3:2:0:0:
461,211,111958,1,0,3:0:0:0:
465,199,112040,1,0,0:0:0:0:
469,188,112121,1,8,0:0:0:0:
448,84,112284,1,2,0:0:0:0:
334,161,112447,5,2,3:2:0:0:
255,176,112610,1,0,0:0:0:0:
178,151,112773,1,8,0:0:0:0:
133,83,112937,1,0,0:0:0:0:
258,63,113100,5,2,3:2:0:0:
258,63,113263,1,0,3:0:0:0:
266,309,113426,1,10,0:0:0:0:
176,280,113589,1,2,0:0:0:0:
343,247,113752,6,0,P|404:243|488:286,1,120
512,312,114078,2,0,P|446:334|412:318,1,80,12|0,0:0|0:0,0:0:0:0:
293,182,114404,2,0,P|348:166|400:182,1,80,0|0,3:0|0:0,0:0:0:0:
502,85,114730,1,0,3:0:0:0:
502,85,114812,1,0,3:0:0:0:
502,85,114893,1,0,3:0:0:0:
502,85,114975,1,0,3:0:0:0:
502,85,115056,6,0,L|400:77,1,80,6|0,3:2|0:0,0:0:0:0:
88,137,115382,2,0,L|196:155,1,80,8|0,0:0|0:0,0:0:0:0:
320,322,115708,2,0,B|314:274|314:274|336:221|336:221|325:156,1,160,2|8,3:2|0:0,0:0:0:0:
289,71,116197,1,0,3:0:0:0:
289,71,116360,6,0,P|251:89|237:142,1,80,0|0,0:0|3:0,0:0:0:0:
233,162,116605,1,0,0:0:0:0:
233,162,116687,1,8,0:0:0:0:
456,241,116850,1,0,3:0:0:0:
372,112,117013,1,0,0:0:0:0:
320,322,117176,1,0,3:0:0:0:
238,204,117339,2,0,L|128:197,1,80,10|0,0:0|0:0,0:0:0:0:
320,322,117665,6,0,P|371:333|447:299,1,120,6|0,0:0|0:0,0:0:0:0:
500,286,117991,2,0,P|468:246|428:242,1,80,8|0,0:0|0:0,0:0:0:0:
186,313,118317,1,2,3:2:0:0:
197,315,118398,1,0,0:0:0:0:
208,317,118480,1,0,3:0:0:0:
265,240,118643,1,8,0:0:0:0:
196,162,118806,1,4,0:0:0:0:
270,83,118969,5,2,0:0:0:0:
196,162,119132,1,0,3:0:0:0:
265,240,119295,1,14,0:0:0:0:
343,165,119458,1,0,0:0:0:0:
196,162,119621,2,0,P|151:166|108:157,2,80,2|0|8,0:0|3:0|0:0,0:0:0:0:
270,83,120110,1,0,0:0:0:0:
265,240,120273,6,0,P|324:273|399:259,1,120.000004577637,4|0,0:1|0:0,0:0:0:0:
472,108,120926,1,0,0:0:0:0:
504,228,121252,2,0,L|492:356,1,120.000004577637,0|2,0:0|3:1,0:0:0:0:
304,348,121904,1,0,0:0:0:0:
152,288,122230,2,0,L|76:292,1,60.0000022888184,2|2,0:0|3:1,0:0:0:0:
34,218,122556,1,0,0:0:0:0:
242,212,122882,6,0,P|254:154|236:88,1,120.000004577637,2|0,0:1|0:0,0:0:0:0:
148,129,123371,2,0,L|73:128,1,60.0000022888184
34,218,123697,2,0,L|112:220,1,60.0000022888184,2|0,3:1|0:0,0:0:0:0:
242,212,124023,5,2,3:1:0:0:
171,299,124187,1,0,0:0:0:0:
345,265,124350,1,2,3:1:0:0:
257,292,124513,5,2,3:1:0:0:
331,180,124676,1,0,0:0:0:0:
433,267,124839,1,0,0:0:0:0:
345,265,125002,5,2,3:1:0:0:
447,177,125165,1,2,3:1:0:0:
493,339,125328,1,0,0:0:0:0:
447,177,125491,6,0,P|446:109|472:64,1,120.000004577637,12|0,0:1|0:0,0:0:0:0:
268,176,126143,2,0,P|275:241|241:312,1,120.000004577637
175,338,126632,2,0,P|119:342|58:298,1,120.000004577637
66,309,127121,1,0,0:0:0:0:
71,209,127284,5,0,3:0:0:0:
68,194,127366,1,0,3:0:0:0:
65,179,127447,1,0,3:0:0:0:
165,164,127610,1,0,3:0:0:0:
167,149,127692,1,0,3:0:0:0:
169,134,127773,1,0,3:0:0:0:
263,204,127937,1,0,3:0:0:0:
268,192,128018,1,0,3:0:0:0:
275,178,128100,6,0,P|297:120|267:51,1,120.000004577637,4|0,0:0|0:0,0:0:0:0:
190,274,128589,2,4,P|230:302|306:297,1,120.000004577637,4|0,0:0|0:0,0:0:0:0:
432,172,129078,2,0,B|413:156|413:156|432:272,1,120.000004577637,4|0,0:0|0:0,0:0:0:0:
477,336,129567,5,0,0:0:0:0:
366,308,129730,1,8,0:0:0:0:
269,354,129893,1,0,0:0:0:0:
366,308,130056,1,0,0:0:0:0:
350,204,130219,1,0,0:0:0:0:
262,204,130382,1,0,3:0:0:0:
262,204,130464,1,0,3:0:0:0:
262,204,130545,1,0,3:0:0:0:
262,204,130627,1,0,3:0:0:0:
262,204,130708,6,0,P|243:153|277:76,1,120.000004577637,4|0,3:1|1:0,0:0:0:0:
145,193,131197,2,0,L|148:281,1,60.0000022888184,4|0,0:0|0:0,0:0:0:0:
129,364,131523,1,0,0:0:0:0:
161,379,131605,1,0,0:0:0:0:
197,377,131687,1,0,0:0:0:0:
232,372,131768,1,0,0:0:0:0:
267,353,131850,6,0,P|313:319|329:243,1,120.000004577637,4|2,0:2|0:0,0:0:0:0:
331,260,132339,1,2,0:0:0:0:
410,43,132502,5,0,0:0:0:0:
272,161,132665,1,2,0:0:0:0:
463,144,132828,1,4,0:3:0:0:
295,53,132991,1,2,0:0:0:0:
295,53,133154,1,0,0:0:0:0:
463,144,133317,6,0,P|475:220|437:288,1,143.999995605469,6|0,0:0|0:0,0:0:0:0:
380,322,133643,2,0,L|280:328,1,95.9999970703126,8|0,0:0|3:0,0:0:0:0:
243,330,133887,1,0,3:0:0:0:
243,330,133969,1,2,3:2:0:0:
383,240,134132,1,0,3:2:0:0:
383,240,134295,2,0,P|433:250|468:295,1,95.9999970703126,8|0,0:0|0:0,0:0:0:0:
192,376,134621,6,0,L|77:363,1,95.9999970703126,2|0,3:2|0:0,0:0:0:0:
0,188,134947,1,8,0:0:0:0:
169,173,135110,1,0,0:0:0:0:
86,221,135273,1,2,3:2:0:0:
76,74,135437,1,0,3:0:0:0:
13,277,135600,2,0,P|-8:229|12:168,1,95.9999970703126,8|0,0:0|0:0,0:0:0:0:
196,286,135926,6,0,P|205:344|165:399,1,95.9999970703126,2|0,3:2|0:0,0:0:0:0:
101,304,136252,1,8,0:0:0:0:
219,180,136415,1,0,0:0:0:0:
217,189,136496,1,0,0:0:0:0:
215,198,136578,1,2,3:2:0:0:
304,288,136741,1,0,3:0:0:0:
409,189,136904,1,8,0:0:0:0:
450,336,137067,1,0,0:0:0:0:
312,186,137230,6,0,L|327:80,1,95.9999970703126,2|0,3:2|0:0,0:0:0:0:
122,34,137556,2,0,L|132:137,1,95.9999970703126,8|0,0:0|0:0,0:0:0:0:
137,165,137801,1,0,0:0:0:0:
137,165,137882,5,2,3:2:0:0:
283,246,138045,1,2,3:2:0:0:
365,109,138208,1,8,0:0:0:0:
512,187,138371,1,0,0:0:0:0:
450,336,138534,6,0,P|443:262|478:210,1,95.9999970703126,6|0,3:2|0:0,0:0:0:0:
331,36,138860,1,8,0:0:0:0:
446,116,139023,1,2,0:0:0:0:
228,132,139187,2,0,P|169:147|112:124,1,95.9999970703126,2|0,3:2|3:0,0:0:0:0:
63,218,139513,1,8,0:0:0:0:
170,36,139676,1,0,0:0:0:0:
349,135,139839,6,0,L|347:240,1,95.9999970703126,2|0,3:2|0:0,0:0:0:0:
268,367,140165,1,8,0:0:0:0:
131,329,140328,1,2,0:0:0:0:
131,329,140409,1,0,0:0:0:0:
131,329,140491,1,0,3:0:0:0:
211,225,140654,1,0,3:0:0:0:
268,367,140817,1,8,0:0:0:0:
416,338,140980,1,0,0:0:0:0:
211,225,141143,6,0,P|207:167|236:107,1,95.9999970703126,4|0,3:2|0:0,0:0:0:0:
328,100,141469,2,0,P|336:157|314:209,1,95.9999970703126,8|0,0:0|0:0,0:0:0:0:
128,104,141795,2,0,P|154:57|202:38,1,95.9999970703126,2|0,3:2|3:0,0:0:0:0:
439,170,142121,2,0,P|439:225|407:268,1,95.9999970703126,8|0,0:0|0:0,0:0:0:0:
212,371,142447,5,2,3:2:0:0:
302,242,142610,1,0,0:0:0:0:
416,338,142773,1,8,0:0:0:0:
117,358,142937,5,0,0:0:0:0:
197,215,143100,1,2,3:2:0:0:
318,343,143263,1,0,3:2:0:0:
220,313,143426,1,8,0:0:0:0:
408,230,143589,1,0,0:0:0:0:
197,215,143752,6,0,P|191:155|224:101,1,95.9999970703126,6|0,3:2|0:0,0:0:0:0:
306,41,144078,1,8,0:0:0:0:
458,206,144241,2,0,L|345:194,1,95.9999970703126,0|2,0:0|3:2,0:0:0:0:
117,88,144567,5,0,3:0:0:0:
49,179,144730,1,8,0:0:0:0:
63,180,144812,1,0,0:0:0:0:
77,180,144893,1,0,0:0:0:0:
0,275,145056,2,0,L|110:280,1,95.9999970703126,2|0,3:2|0:0,0:0:0:0:
216,367,145382,6,0,P|273:368|326:337,1,95.9999970703126,8|0,0:0|0:0,0:0:0:0:
370,268,145708,1,2,3:2:0:0:
370,268,145871,1,0,3:0:0:0:
236,162,146034,2,0,P|242:217|283:247,1,95.9999970703126,8|0,0:0|0:0,0:0:0:0:
475,341,146360,6,0,L|497:232,1,95.9999970703126,6|0,3:2|0:0,0:0:0:0:
504,209,146605,1,0,0:0:0:0:
504,209,146687,1,8,0:0:0:0:
340,58,146850,2,0,P|349:115|328:155,1,95.9999970703126,4|0,3:2|0:0,0:0:0:0:
164,311,147176,1,0,0:0:0:0:
236,162,147339,1,0,0:0:0:0:
370,268,147502,6,0,P|364:327|262:293,1,191.999994140625,4|0,0:1|0:0,0:0:0:0:
483,238,147991,5,2,0:0:0:0:
283,200,148154,1,2,0:0:0:0:
360,236,148317,5,0,0:0:0:0:
123,257,148480,1,2,0:0:0:0:
212,261,148643,5,0,0:0:0:0:
20,217,148806,1,2,0:0:0:0:
243,349,148969,6,0,P|307:364|370:341,1,95.9999970703126,4|0,3:2|0:0,0:0:0:0:
416,186,149295,2,0,P|410:285|485:324,2,191.999994140625,8|2|8,0:0|3:2|0:0,0:0:0:0:
364,51,150110,1,0,0:0:0:0:
245,122,150273,6,0,L|134:111,1,95.9999970703126,2|0,3:2|0:0,0:0:0:0:
31,305,150600,2,0,P|96:328|155:315,1,95.9999970703126,8|0,0:0|0:0,0:0:0:0:
105,215,150926,1,2,3:2:0:0:
105,215,151089,1,0,3:0:0:0:
236,368,151252,1,8,0:0:0:0:
332,263,151415,1,0,0:0:0:0:
402,341,151578,6,0,L|510:345,1,95.9999970703126,2|0,3:2|0:0,0:0:0:0:
260,184,151904,1,8,0:0:0:0:
245,186,151985,1,0,0:0:0:0:
230,189,152067,1,0,0:0:0:0:
321,93,152230,1,2,3:2:0:0:
223,23,152393,1,0,3:0:0:0:
321,93,152556,2,0,L|426:87,1,95.9999970703126,8|0,0:0|0:0,0:0:0:0:
332,263,152882,5,2,3:2:0:0:
124,141,153045,1,0,0:0:0:0:
236,326,153208,2,0,B|212:272|212:272|233:171,1,143.999995605469,8|0,0:0|0:0,0:0:0:0:
310,174,153534,2,0,L|448:166,1,95.9999970703126,2|0,3:2|3:0,0:0:0:0:
141,327,153860,2,0,L|38:316,1,95.9999970703126,8|0,0:0|0:0,0:0:0:0:
135,68,154187,6,0,B|159:132|134:164|134:164|88:184|90:249,2,191.999994140625,6|8|2,3:2|0:0|3:2,0:0:0:0:
43,52,155002,1,0,3:0:0:0:
172,232,155165,2,0,L|277:217,1,95.9999970703126,8|0,0:0|0:0,0:0:0:0:
451,175,155491,6,0,L|461:69,1,95.9999970703126,2|0,3:2|0:0,0:0:0:0:
371,256,155817,2,0,P|375:317|402:351,1,95.9999970703126,8|0,0:0|0:0,0:0:0:0:
264,316,156143,1,2,3:2:0:0:
249,313,156225,1,0,0:0:0:0:
234,310,156306,1,0,3:0:0:0:
126,368,156469,1,8,0:0:0:0:
4,195,156632,1,0,0:0:0:0:
112,80,156795,6,0,B|117:146|117:146|92:211|92:211|99:278,1,191.999994140625,4|8,3:2|0:0,0:0:0:0:
97,266,157284,1,0,0:0:0:0:
192,226,157447,2,0,P|217:172|204:118,1,95.9999970703126,2|0,3:2|3:0,0:0:0:0:
438,28,157773,5,8,0:0:0:0:
389,113,157937,1,0,0:0:0:0:
423,204,158100,2,0,P|419:264|390:300,1,95.9999970703126,2|0,3:2|0:0,0:0:0:0:
192,0,158426,5,8,0:0:0:0:
284,117,158589,1,0,0:0:0:0:
192,226,158752,2,0,L|199:331,1,95.9999970703126,2|0,3:2|3:0,0:0:0:0:
198,321,158996,1,0,0:0:0:0:
198,321,159078,1,8,0:0:0:0:
107,280,159241,1,0,0:0:0:0:
303,366,159404,6,0,P|308:309|296:263,1,95.9999970703126,6|0,3:2|3:2,3:2:0:0:
100,179,159730,2,0,P|94:140|113:73,1,95.9999970703126,8|0,0:0|0:0,0:0:0:0:
296,165,160056,1,2,3:2:0:0:
206,49,160219,1,0,3:2:0:0:
192,226,160382,2,0,L|199:326,1,95.9999970703126,8|0,0:0|0:0,0:0:0:0:
470,207,160708,6,0,P|405:194|345:224,1,95.9999970703126,2|0,3:2|0:0,0:0:0:0:
124,278,161034,1,8,0:0:0:0:
283,311,161197,1,0,0:0:0:0:
198,321,161360,1,2,3:2:0:0:
353,261,161523,1,0,3:0:0:0:
283,311,161687,1,8,0:0:0:0:
439,271,161850,1,0,0:0:0:0:
214,152,162013,6,0,P|202:91|229:31,1,95.9999970703126,6|0,3:2|0:0,0:0:0:0:
304,13,162339,1,8,0:0:0:0:
278,217,162502,1,0,0:0:0:0:
278,217,162583,1,0,0:0:0:0:
278,217,162665,2,0,P|218:245|157:230,1,95.9999970703126,2|0,3:2|3:0,0:0:0:0:
375,347,162991,2,0,L|476:355,1,95.9999970703126,8|0,0:0|0:0,0:0:0:0:
245,334,163317,6,0,L|179:345,1,47.9999985351563,2|0,0:0|0:0,0:0:0:0:
69,257,163480,2,0,L|127:268,1,47.9999985351563,2|0,0:0|0:0,0:0:0:0:
278,217,163643,5,0,0:0:0:0:
290,191,163724,1,0,0:0:0:0:
295,162,163806,1,0,0:0:0:0:
293,134,163887,1,0,0:0:0:0:
284,107,163969,1,0,3:0:0:0:
268,83,164050,1,0,0:0:0:0:
249,61,164132,1,0,0:0:0:0:
221,50,164213,1,0,1:0:0:0:
192,48,164295,1,0,1:0:0:0:
109,115,164458,1,0,1:0:0:0:
116,124,164540,1,0,1:0:0:0:
122,134,164621,6,0,L|8:120,1,95.9999970703126,6|0,1:2|0:0,0:0:0:0:
215,278,164947,2,0,L|327:276,1,95.9999970703126,8|0,0:0|0:0,0:0:0:0:
449,54,165273,2,0,P|410:91|396:148,1,95.9999970703126,8|0,0:0|0:0,0:0:0:0:
465,228,165600,1,8,0:0:0:0:
465,228,165763,1,0,0:0:0:0:
278,161,165926,6,0,P|269:103|282:61,1,95.9999970703126,8|0,0:0|0:0,0:0:0:0:
398,334,166252,2,0,L|281:357,1,95.9999970703126,8|0,0:0|0:0,0:0:0:0:
0,283,166578,5,8,0:0:0:0:
78,226,166741,1,0,0:0:0:0:
243,304,166904,1,8,0:0:0:0:
319,249,167067,1,0,0:0:0:0:
159,265,167230,5,4,3:2:0:0:
159,265,167556,2,0,L|175:162,1,95.9999970703126,8|0,0:0|0:0,0:0:0:0:
345,76,167882,1,0,0:0:0:0:
251,102,168045,5,0,1:0:0:0:
258,124,168126,1,0,1:0:0:0:
271,144,168208,1,0,1:0:0:0:
290,159,168289,1,0,1:0:0:0:
312,168,168371,1,4,1:1:0:0:
44,137,169839,5,4,0:0:0:0:
109,267,170002,5,0,1:0:0:0:
130,257,170083,1,0,1:0:0:0:
148,241,170165,1,0,1:0:0:0:
160,220,170246,1,0,1:0:0:0:
167,197,170328,1,0,1:0:0:0:
166,173,170409,1,0,1:0:0:0:
157,151,170491,6,0,B|112:208|192:288|130:337,1,180.000006866455,6|8,0:0|0:0,0:0:0:0:
41,149,171306,1,0,0:0:0:0:
41,149,171469,2,0,P|46:90|108:46,1,120.000004577637,8|0,0:0|0:0,0:0:0:0:
292,149,172121,6,0,L|368:143,1,60.0000022888184,8|0,0:0|0:0,0:0:0:0:
450,202,172447,2,0,P|413:217|374:215,1,60.0000022888184,0|0,3:0|0:0,0:0:0:0:
242,342,172937,1,8,0:0:0:0:
453,309,173263,5,0,3:0:0:0:
453,309,173426,2,0,P|502:298|518:277,1,60.0000022888184,8|0,0:0|0:0,0:0:0:0:
242,342,173915,5,0,0:0:0:0:
151,229,174078,1,0,3:0:0:0:
160,313,174241,1,0,0:0:0:0:
236,140,174404,1,8,0:0:0:0:
235,223,174567,1,0,0:0:0:0:
184,69,174730,6,0,L|56:86,1,120.000004577637,2|0,3:2|0:0,0:0:0:0:
65,84,175219,1,8,0:0:0:0:
236,140,175545,5,0,0:0:0:0:
235,223,175708,1,8,0:0:0:0:
151,229,175871,1,0,0:0:0:0:
235,223,176197,5,0,0:0:0:0:
151,229,176360,1,8,0:0:0:0:
160,313,176523,1,0,0:0:0:0:
160,313,176605,1,0,0:0:0:0:
160,313,176687,6,0,B|94:289|22:327,1,120.000004577637,4|0,3:1|0:0,0:0:0:0:
282,352,177176,2,0,P|330:360|406:336,1,120.000004577637,8|0,0:0|0:0,0:0:0:0:
319,110,177828,6,0,L|332:169,1,60.0000022888184,0|0,0:0|3:0,0:0:0:0:
418,126,178154,1,0,0:0:0:0:
378,35,178317,1,0,3:0:0:0:
217,128,178480,5,0,0:0:0:0:
123,108,178643,1,8,0:0:0:0:
34,84,178806,1,0,0:0:0:0:
217,128,178969,6,0,P|274:104|303:31,1,120.000004577637,4|0,0:1|0:0,0:0:0:0:
208,34,179458,2,0,L|146:29,1,60.0000022888184,8|0,0:0|0:0,0:0:0:0:
150,194,179784,5,0,0:0:0:0:
239,217,179947,1,8,0:0:0:0:
333,193,180110,2,0,P|367:170|373:144,1,60.0000022888184,0|0,0:0|3:0,0:0:0:0:
433,77,180437,5,0,0:0:0:0:
478,163,180600,2,0,L|476:241,1,60.0000022888184,8|0,0:0|0:0,0:0:0:0:
385,321,180926,2,0,L|396:372,3,30.0000011444092,0|0|0|0,1:0|1:0|1:0|1:0,0:0:0:0:
385,321,181252,2,0,L|398:248,1,60.0000022888184,0|8,0:0|0:0,0:0:0:0:
258,74,181741,6,0,L|264:145,1,60.0000022888184,0|8,3:0|0:0,0:0:0:0:
96,157,182067,2,0,L|114:34,1,120.000004577637
90,256,182556,1,0,0:0:0:0:
90,345,182719,1,0,0:0:0:0:
184,211,182882,5,8,0:0:0:0:
261,259,183045,1,0,0:0:0:0:
261,259,183127,1,0,0:0:0:0:
261,259,183208,2,0,P|328:267|391:238,1,120.000004577637,4|0,0:1|0:0,0:0:0:0:
376,248,183697,1,8,0:0:0:0:
439,63,184023,6,0,L|454:119,1,30.0000011444092
385,138,184187,2,0,P|418:163|460:169,1,60.0000022888184
475,251,184513,2,0,P|465:298|447:320,1,60.0000022888184,0|0,3:0|0:0,0:0:0:0:
376,248,184839,5,0,0:0:0:0:
303,313,185002,1,0,0:0:0:0:
212,279,185165,1,8,0:0:0:0:
124,320,185328,1,0,0:0:0:0:
378,259,185491,5,4,1:0:0:0:
303,304,185654,1,0,0:0:0:0:
213,291,185817,1,2,0:0:0:0:
122,309,185980,1,0,3:0:0:0:
41,276,186143,1,2,0:0:0:0:
72,188,186306,1,0,3:0:0:0:
158,215,186469,5,0,1:0:0:0:
289,141,186632,1,0,0:0:0:0:
364,184,186795,1,0,0:0:0:0:
439,144,186958,1,0,1:0:0:0:
439,144,187040,1,0,1:0:0:0:
439,144,187121,1,0,1:0:0:0:
498,215,187284,2,0,L|504:264,2,30.0000011444092,0|0|0,1:0|1:0|1:0,1:0:0:0:
461,56,187610,6,0,L|466:14,2,30.0000011444092,0|0|0,1:0|1:0|1:0,1:0:0:0:
444,98,187855,1,0,1:0:0:0:
401,114,187937,1,0,1:0:0:0:
357,105,188018,1,0,1:0:0:0:
324,69,188100,6,0,P|266:67|208:153,1,160,4|8,0:1|0:0,0:0:0:0:
329,301,188589,2,0,P|352:232|273:157,1,160,2|2,0:0|3:2,0:0:0:0:
112,222,189078,1,8,0:0:0:0:
112,222,189241,6,0,P|170:266|255:237,1,160,2|0,0:0|3:0,0:0:0:0:
248,243,189730,1,8,0:0:0:0:
329,301,189893,2,0,L|428:297,1,80,0|0,0:0|3:0,0:0:0:0:
503,192,190219,2,0,L|409:189,2,80,2|8|0,0:0|0:0|0:0,0:0:0:0:
374,102,190708,6,0,P|312:118|236:93,1,120,4|0,3:1|0:0,0:0:0:0:
226,77,191034,2,0,L|110:90,1,80,10|0,0:0|0:0,0:0:0:0:
33,208,191360,2,0,L|120:223,1,80,0|0,3:0|0:0,0:0:0:0:
314,293,191687,5,10,0:0:0:0:
314,293,191850,2,0,P|264:278|241:222,2,80,2|0|0,3:2|0:0|0:0,0:0:0:0:
337,165,192339,2,0,L|162:178,1,160,8|0,0:0|3:0,0:0:0:0:
67,327,192828,1,0,0:0:0:0:
174,255,192991,1,8,0:0:0:0:
280,324,193154,1,0,0:0:0:0:
179,342,193317,5,6,3:2:0:0:
235,113,193480,1,2,0:0:0:0:
399,260,193643,1,10,0:0:0:0:
269,234,193806,5,0,0:0:0:0:
462,144,193969,1,2,3:2:0:0:
446,384,194132,1,2,3:2:0:0:
399,260,194295,1,8,0:0:0:0:
462,144,194458,6,0,L|472:197,2,40,2|0|0,0:0|0:0|0:0,0:0:0:0:
456,348,194784,1,0,3:0:0:0:
313,190,194947,1,8,0:0:0:0:
174,255,195110,5,2,0:0:0:0:
382,259,195273,1,2,3:2:0:0:
392,36,195437,1,0,3:0:0:0:
313,190,195600,5,8,0:0:0:0:
512,299,195763,1,0,0:0:0:0:
462,144,195926,1,6,0:0:0:0:
361,344,196089,1,0,0:0:0:0:
212,206,196252,2,0,L|227:119,1,80,10|0,3:2|0:0,0:0:0:0:
107,70,196578,1,2,0:0:0:0:
48,300,196741,6,0,P|108:340|144:340,1,80,0|8,0:0|0:0,0:0:0:0:
206,365,197067,2,0,L|254:357,1,40
333,375,197230,2,0,L|378:334,1,40
489,288,197393,5,0,3:0:0:0:
456,264,197474,1,0,0:0:0:0:
420,248,197556,1,8,0:0:0:0:
381,239,197637,1,0,0:0:0:0:
341,239,197719,1,0,0:0:0:0:
302,246,197800,1,0,0:0:0:0:
265,261,197882,1,8,0:0:0:0:
139,293,198045,6,0,B|135:264|135:264|190:217|167:127,1,160,6|0,0:0|0:0,0:0:0:0:
373,91,198534,2,0,B|377:120|377:120|322:167|345:257,1,160,4|0,0:1|0:0,0:0:0:0:
424,296,199023,1,0,0:0:0:0:
512,213,199187,2,0,L|431:201,1,80,8|0,0:0|0:0,0:0:0:0:
273,104,199513,5,2,0:0:0:0:
273,104,199676,2,0,P|222:112|184:108,1,80,2|0,0:0|0:0,0:0:0:0:
16,222,200002,2,0,L|113:210,1,80
258,320,200328,2,0,L|166:309,2,80,2|8|0,0:0|0:0|0:0,0:0:0:0:
96,344,200817,1,2,0:0:0:0:
204,231,200980,1,2,0:0:0:0:
352,368,201143,6,0,L|522:352,1,160,6|0,0:0|0:0,0:0:0:0:
496,233,201578,1,0,0:0:0:0:
496,233,201687,1,0,0:0:0:0:
496,233,201795,2,0,P|482:261|463:287,2,53.3333333333333,8|0|0,0:0|0:0|0:0,0:0:0:0:
408,172,202121,2,0,P|413:200|404:237,2,53.3333333333333,8|0|0,0:0|0:0|0:0,0:0:0:0:
305,151,202447,6,0,P|329:203|327:215,2,53.3333333333333
193,171,202773,2,0,L|240:198,1,53.3333333333333,0|0,3:0|0:0,0:0:0:0:
130,256,202991,2,0,L|196:255,1,53.3333333333333,0|0,0:0|1:0,0:0:0:0:
67,51,203426,5,0,1:0:0:0:
37,151,203589,1,0,1:0:0:0:
37,165,203670,1,0,1:0:0:0:
38,181,203752,1,4,1:0:0:0:
96,349,203915,1,0,0:0:0:0:
130,256,204078,1,8,0:0:0:0:
237,213,204241,2,0,P|302:211|362:144,1,160,2|0,0:0|3:0,0:0:0:0:
265,118,204730,1,8,0:0:0:0:
450,155,204893,6,0,L|443:64,2,80,2|0|0,3:2|0:0|3:0,0:0:0:0:
409,273,205382,2,0,L|424:228,1,40,8|0,0:0|0:0,0:0:0:0:
362,143,205545,2,0,B|342:103|342:103|344:234,1,160,2|0,0:0|3:0,0:0:0:0:
344,346,206034,1,8,0:0:0:0:
243,249,206197,1,0,1:0:0:0:
227,252,206279,1,0,1:0:0:0:
211,255,206360,5,4,1:0:0:0:
125,347,206523,1,0,0:0:0:0:
326,264,206687,1,8,0:0:0:0:
166,151,206850,2,0,L|176:55,1,80,2|0,0:0|0:0,0:0:0:0:
75,204,207176,1,0,3:0:0:0:
263,106,207339,1,8,0:0:0:0:
53,24,207502,2,0,P|57:79|79:115,1,80,2|0,0:0|0:0,0:0:0:0:
221,267,207828,5,0,3:0:0:0:
263,106,207991,1,10,0:0:0:0:
351,211,208154,2,0,P|405:218|461:203,1,80,2|0,0:0|0:0,0:0:0:0:
380,39,208480,2,0,P|382:97|399:127,1,80,0|8,0:0|0:0,0:0:0:0:
479,71,208806,1,0,0:0:0:0:
303,108,208969,6,0,L|137:89,1,160,6|8,0:0|0:0,0:0:0:0:
46,263,209458,5,0,0:0:0:0:
21,236,209540,1,0,0:0:0:0:
18,200,209621,1,0,3:0:0:0:
36,168,209703,1,0,0:0:0:0:
66,149,209784,1,0,3:0:0:0:
102,147,209866,1,0,0:0:0:0:
132,165,209947,1,8,0:0:0:0:
149,196,210029,1,0,0:0:0:0:
157,230,210110,1,0,3:0:0:0:
176,260,210192,1,0,0:0:0:0:
205,280,210273,5,0,0:0:0:0:
238,292,210355,1,0,0:0:0:0:
273,296,210437,1,0,3:0:0:0:
307,285,210518,1,0,0:0:0:0:
338,267,210600,1,8,0:0:0:0:
358,237,210681,1,0,0:0:0:0:
365,201,210763,1,0,0:0:0:0:
359,165,210844,1,0,0:2:0:0:
340,133,210926,1,0,3:2:0:0:
311,111,211007,1,0,0:2:0:0:
274,108,211089,1,0,3:2:0:0:
240,120,211170,1,0,0:2:0:0:
214,145,211252,6,0,L|237:200,1,40,8|0,0:0|0:0,0:0:0:0:
302,324,211415,2,0,L|308:266,1,40
176,260,211578,6,0,P|119:245|60:147,1,160,4|8,0:0|0:0,0:0:0:0:
188,23,212067,2,0,P|205:75|155:169,1,160,0|0,0:0|3:0,0:0:0:0:
340,133,212556,2,0,L|321:41,1,80,8|0,0:0|3:0,0:0:0:0:
313,4,212801,1,0,0:0:0:0:
313,4,212882,6,0,L|299:180,1,160,2|8,0:0|0:0,0:0:0:0:
471,164,213371,2,0,P|471:102|451:64,1,80,0|0,0:0|3:0,0:0:0:0:
315,324,213697,1,0,3:0:0:0:
422,270,213860,2,0,L|511:257,1,80,10|0,0:0|0:0,0:0:0:0:
315,324,214187,6,0,P|233:319|156:246,1,160,6|8,0:0|0:0,0:0:0:0:
36,200,214676,2,0,P|25:277|98:354,1,160,4|0,3:1|0:0,0:0:0:0:
249,137,215165,1,8,0:0:0:0:
121,24,215328,2,0,L|140:187,1,160,4|0,3:1|3:0,0:0:0:0:
139,182,215817,1,8,0:0:0:0:
249,137,215980,1,2,0:0:0:0:
246,121,216062,1,2,0:0:0:0:
242,105,216143,5,2,0:0:0:0:
325,55,216306,1,2,0:0:0:0:
290,216,216469,1,0,0:0:0:0:
410,110,216632,1,2,0:0:0:0:
394,205,216795,6,0,P|435:226|518:216,1,120.000004577637,4|0,0:0|0:0,0:0:0:0:
345,309,217284,2,0,L|212:296,1,120.000004577637
23,154,217937,1,0,0:0:0:0:
23,154,218100,2,0,L|105:151,1,60.0000022888184
151,95,218426,1,0,0:0:0:0:
92,325,218752,1,0,0:0:0:0:
189,277,219078,1,0,0:0:0:0:
276,340,219404,6,0,L|415:342,1,120.000004577637,2|0,0:0|0:0,0:0:0:0:
189,277,219893,2,0,P|138:283|65:258,1,120.000004577637
133,128,220382,2,0,L|143:194,1,60.0000022888184,2|0,0:0|0:0,0:0:0:0:
254,43,220708,2,0,L|242:171,1,120.000004577637,2|0,0:0|0:0,0:0:0:0:
370,252,221197,5,2,0:0:0:0:
442,209,221360,1,0,0:0:0:0:
463,127,221523,1,0,0:0:0:0:
411,59,221687,1,2,0:0:0:0:
302,203,222013,6,0,P|287:268|321:323,1,120.000004577637,2|0,0:0|0:0,0:0:0:0:
159,133,222665,2,0,L|176:276,1,120.000004577637
49,45,223317,2,0,P|54:94|40:169,1,120.000004577637
0,262,223969,1,0,0:0:0:0:
170,195,224295,1,0,0:0:0:0:
344,268,224621,6,0,P|353:315|320:403,1,120.000004577637,2|0,0:0|0:0,0:0:0:0:
260,317,225110,2,0,P|251:270|284:182,1,120.000004577637,2|0,0:0|0:0,0:0:0:0:
375,193,225600,1,0,0:0:0:0:
437,128,225763,1,0,0:0:0:0:
389,55,225926,2,0,L|326:44,1,60.0000022888184,2|0,0:0|0:0,0:0:0:0:
252,25,226252,1,0,0:0:0:0:
132,128,226415,6,0,L|195:118,1,60.0000022888184,2|0,0:0|0:0,0:0:0:0:
274,104,226741,1,0,0:0:0:0:
259,183,226904,1,2,0:0:0:0:
289,261,227067,1,0,0:0:0:0:
261,341,227230,6,0,L|393:360,1,120.000004577637,2|0,0:0|0:0,0:0:0:0:
475,351,227719,2,0,P|455:298|405:262,1,120.000004577637
160,329,228208,1,0,0:0:0:0:
289,261,228371,2,0,L|285:175,1,60.0000022888184
143,58,228860,5,0,0:0:0:0:
32,266,229187,1,0,0:0:0:0:
143,58,229513,2,0,L|147:137,1,60.0000022888184
160,329,229839,2,0,P|170:288|127:207,1,120.000004577637,2|0,0:0|0:0,0:0:0:0:
316,311,230328,2,0,L|235:321,1,60.0000022888184,2|0,0:0|0:0,0:0:0:0:
393,360,230654,1,0,0:0:0:0:
398,274,230817,1,0,0:0:0:0:
393,360,230980,6,0,P|441:371|517:344,1,120.000004577637,2|0,0:0|0:0,0:0:0:0:
304,78,231632,1,0,0:0:0:0:
231,120,231795,1,0,0:0:0:0:
147,121,231958,1,0,0:0:0:0:
69,89,232121,1,0,0:0:0:0:
25,17,232284,1,0,0:0:0:0:
147,121,232447,6,0,P|151:166|119:239,1,120.000004577637,4|0,0:1|0:0,0:0:0:0:
39,281,232937,1,0,0:0:0:0:
225,276,233100,5,2,0:0:0:0:
227,284,233181,1,2,0:0:0:0:
228,292,233263,1,2,0:0:0:0:
312,334,233426,1,2,0:0:0:0:
403,314,233589,1,2,0:0:0:0:
483,346,233752,5,2,0:0:0:0:
483,345,233833,1,2,0:0:0:0:
483,345,233915,1,2,0:0:0:0:
326,238,234078,1,0,0:0:0:0:
501,67,234404,1,0,0:0:0:0:
326,238,234730,1,0,0:0:0:0:
149,93,235056,5,2,0:0:0:0:
30,336,235382,2,0,P|80:354|146:330,1,120.000004577637,2|0,0:0|0:0,0:0:0:0:
193,319,235790,1,0,0:0:0:0:
193,319,235871,2,0,L|241:330,2,30.0000011444092,0|0|2,0:0|0:0|0:0,0:0:0:0:
301,248,236197,1,2,0:0:0:0:
301,248,236279,1,2,0:0:0:0:
301,248,236360,5,2,0:0:0:0:
245,159,236523,1,0,0:0:0:0:
167,148,236687,1,2,0:0:0:0:
89,137,236850,1,0,0:0:0:0:
21,35,237013,6,0,P|54:27|96:23,1,60.0000022888184,2|2,0:0|0:0,0:0:0:0:
172,132,237339,1,0,0:0:0:0:
282,122,237502,1,2,0:0:0:0:
392,112,237665,6,0,B|426:119|455:111|455:111|520:123|520:123,1,120.000004577637,10|0,3:2|0:0,0:0:0:0:
192,272,238317,2,0,B|158:265|129:273|129:273|64:261|64:261,1,120.000004577637,2|0,3:2|0:0,0:0:0:0:
172,132,238969,5,2,0:0:0:0:
275,237,239295,2,0,P|283:277|241:344,1,120.000004577637,0|2,0:0|0:0,0:0:0:0:
244,342,239703,1,0,0:0:0:0:
244,342,239784,1,0,0:0:0:0:
155,299,239947,2,0,L|71:302,1,60.0000022888184,2|0,0:0|0:0,0:0:0:0:
22,216,240273,6,0,P|39:156|38:138,1,60.0000022888184,10|0,0:0|0:0,0:0:0:0:
13,66,240600,1,0,0:0:0:0:
125,137,240763,2,0,L|196:135,1,60.0000022888184,2|0,0:0|0:0,0:0:0:0:
184,135,241007,1,0,0:0:0:0:
184,135,241089,1,0,0:0:0:0:
265,91,241252,1,0,0:0:0:0:
394,156,241415,1,0,0:0:0:0:
387,236,241578,5,2,0:0:0:0:
380,314,241741,1,2,0:0:0:0:
380,314,241822,1,2,0:0:0:0:
380,314,241904,1,2,0:0:0:0:
374,211,242067,1,10,0:0:0:0:
367,108,242230,1,0,0:0:0:0:
234,229,242393,1,8,0:0:0:0:
234,229,242475,1,0,0:0:0:0:
234,229,242556,2,0,L|159:227,1,60.0000022888184
95,128,242882,6,0,L|19:140,1,60.0000022888184,10|0,3:2|0:0,0:0:0:0:
190,138,243208,1,0,0:0:0:0:
277,101,243371,1,0,0:0:0:0:
362,148,243534,1,2,0:0:0:0:
362,148,243616,1,2,0:0:0:0:
362,148,243697,1,2,0:0:0:0:
370,236,243860,6,0,P|374:274|395:303,2,60.0000022888184
83,232,244513,2,0,L|14:226,1,60.0000022888184
222,293,244839,2,0,L|156:296,1,60.0000022888184
330,353,245165,2,0,L|393:346,1,60.0000022888184
480,240,245491,6,0,B|422:239|422:239|426:236|426:236|357:236,1,120.000004577637,2|0,0:0|0:0,0:0:0:0:
262,107,246143,2,0,L|329:107,1,60.0000022888184
92,145,246469,2,0,B|62:152|62:152|28:148,1,60.0000022888184
165,64,246795,5,2,0:0:0:0:
168,52,246877,1,0,0:0:0:0:
170,40,246958,1,0,0:0:0:0:
174,161,247121,1,0,0:0:0:0:
186,252,247284,1,0,0:0:0:0:
191,157,247447,5,8,0:0:0:0:
184,60,247610,1,2,0:0:0:0:
176,286,247773,5,12,0:0:0:0:
180,273,247937,1,0,0:0:0:0:
183,261,248100,6,0,L|182:177,1,80,0|0,3:0|0:0,0:0:0:0:
279,58,248426,2,0,P|294:109|286:148,1,80,0|0,3:0|0:0,0:0:0:0:
85,186,248752,2,0,L|-7:177,1,80,0|0,3:0|0:0,0:0:0:0:
280,338,249078,2,0,B|321:340|321:340|362:330,1,80,0|0,3:0|0:0,0:0:0:0:
488,179,249404,6,0,L|503:264,1,80,0|0,3:0|0:0,0:0:0:0:
293,247,249730,2,0,P|247:232|222:208,1,80,0|0,3:0|0:0,0:0:0:0:
91,142,250056,1,0,3:0:0:0:
91,142,250138,2,0,L|98:90,2,40,0|0|0,3:0|3:0|3:0,0:0:0:0:
39,222,250382,1,0,3:0:0:0:
39,222,250464,2,0,L|45:272,2,40,0|0|0,3:0|3:0|3:0,0:0:0:0:
103,319,250708,5,0,3:0:0:0:
145,308,250790,1,0,3:0:0:0:
188,308,250871,1,0,3:0:0:0:
230,318,250953,1,0,3:0:0:0:
269,336,251034,1,0,3:0:0:0:
310,351,251116,1,0,3:0:0:0:
353,351,251197,1,0,3:0:0:0:
396,345,251279,1,0,3:0:0:0:
438,333,251360,6,0,L|495:342,2,40,0|0|0,3:0|3:0|3:0,0:0:0:0:
378,244,251605,1,0,3:0:0:0:
378,244,251687,2,0,L|325:252,1,40,0|0,3:0|0:0,0:0:0:0:
487,229,251850,2,0,B|470:163|475:87|475:87|443:141,1,191.999994140625,4|0,0:0|0:0,0:0:0:0:
269,336,252502,5,0,0:0:0:0:
199,109,252665,1,0,1:0:0:0:
202,100,252746,1,0,1:0:0:0:
205,91,252828,1,0,1:0:0:0:
208,82,252909,1,0,1:0:0:0:
211,73,252991,1,0,1:0:0:0:
215,64,253072,1,0,1:0:0:0:
219,55,253154,1,0,1:0:0:0:
223,46,253235,1,0,1:0:0:0:
227,35,253317,5,4,1:0:0:0:
81,206,253643,2,0,P|104:272|65:386,2,191.999994140625,8|2|8,0:0|3:2|0:0,0:0:0:0:
186,346,254458,1,0,0:0:0:0:
186,346,254540,1,0,0:0:0:0:
186,346,254621,6,0,L|295:333,1,95.9999970703126,2|0,3:2|0:0,0:0:0:0:
496,243,254947,2,0,L|398:239,1,95.9999970703126,8|0,0:0|0:0,0:0:0:0:
239,180,255273,1,2,3:2:0:0:
381,325,255437,1,2,3:2:0:0:
383,338,255518,1,2,0:0:0:0:
385,352,255600,1,8,0:0:0:0:
301,246,255763,1,0,0:0:0:0:
461,152,255926,6,0,P|463:108|443:58,1,95.9999970703126,6|0,3:2|0:0,0:0:0:0:
268,91,256252,1,8,0:0:0:0:
361,125,256415,1,0,0:0:0:0:
53,220,256578,6,0,P|41:159|63:107,1,95.9999970703126,2|0,3:2|3:0,0:0:0:0:
239,180,256904,1,8,0:0:0:0:
145,173,257067,1,0,0:0:0:0:
330,219,257230,6,0,P|338:276|307:335,1,95.9999970703126,2|0,3:2|0:0,0:0:0:0:
182,269,257556,1,8,0:0:0:0:
239,180,257719,1,0,0:0:0:0:
411,344,257882,5,2,3:2:0:0:
485,278,258045,1,2,3:2:0:0:
499,281,258127,1,2,0:0:0:0:
512,286,258208,1,10,0:0:0:0:
411,344,258371,1,0,0:0:0:0:
408,157,258534,6,0,P|406:102|422:54,1,95.9999970703126,6|0,3:2|0:0,0:0:0:0:
505,173,258860,1,8,0:0:0:0:
482,0,259023,1,0,0:0:0:0:
325,78,259187,2,0,P|248:71|209:36,1,95.9999970703126,2|0,3:2|3:2,0:0:0:0:
160,8,259513,1,10,0:0:0:0:
160,8,259676,1,2,0:0:0:0:
394,34,259839,6,0,P|408:88|390:134,1,95.9999970703126,2|0,3:2|0:0,0:0:0:0:
277,228,260165,2,0,L|123:204,1,143.999995605469,8|0,0:0|0:0,0:0:0:0:
97,214,260491,1,2,3:2:0:0:
238,111,260654,1,0,3:0:0:0:
250,335,260817,1,8,0:0:0:0:
367,297,260980,1,2,0:0:0:0:
363,311,261062,1,2,0:0:0:0:
358,324,261143,6,0,L|458:304,1,95.9999970703126,6|0,3:2|0:0,0:0:0:0:
492,229,261469,1,8,0:0:0:0:
492,229,261632,1,0,0:0:0:0:
277,228,261795,2,0,P|195:237|157:219,1,95.9999970703126,2|0,3:2|3:2,0:0:0:0:
116,171,262121,1,8,0:0:0:0:
116,171,262284,1,0,0:0:0:0:
159,340,262447,5,2,3:2:0:0:
282,140,262610,1,0,0:0:0:0:
380,226,262773,1,8,0:0:0:0:
259,334,262937,1,0,0:0:0:0:
294,232,263100,2,0,P|295:171|274:128,1,95.9999970703126,2|2,3:2|3:2,0:0:0:0:
191,111,263344,1,2,0:0:0:0:
191,111,263426,2,0,L|189:2,1,95.9999970703126,10|0,0:0|0:0,0:0:0:0:
83,184,263752,6,0,B|60:206|60:206|222:194,1,191.999994140625,6|8,3:2|0:0,0:0:0:0:
437,67,264241,1,0,0:0:0:0:
437,67,264404,2,0,L|328:71,1,95.9999970703126,2|0,3:2|3:0,0:0:0:0:
219,194,264730,2,0,P|156:189|113:155,1,95.9999970703126,8|0,0:0|0:0,0:0:0:0:
99,110,264975,1,2,0:0:0:0:
99,110,265056,5,2,3:2:0:0:
228,57,265219,1,0,0:0:0:0:
306,188,265382,1,8,0:0:0:0:
386,182,265545,1,0,0:0:0:0:
467,176,265708,5,2,3:2:0:0:
346,169,265871,1,0,3:0:0:0:
237,169,266034,1,8,0:0:0:0:
237,169,266116,1,0,0:0:0:0:
237,169,266197,1,2,0:0:0:0:
237,169,266279,1,2,0:0:0:0:
237,169,266360,6,0,L|115:181,1,95.9999970703126,6|0,0:0|0:0,0:0:0:0:
9,284,266687,1,8,0:0:0:0:
69,121,266850,2,0,L|64:62,2,47.9999985351563,6|0|0,3:2|0:0|0:0,0:0:0:0:
181,260,267176,2,0,L|173:321,2,47.9999985351563,6|0|0,3:2|0:0|0:0,0:0:0:0:
250,86,267502,1,6,3:2:0:0:
342,229,267665,5,0,1:2:0:0:
379,224,267746,1,0,1:2:0:0:
417,222,267828,1,2,1:2:0:0:
454,218,267909,1,0,1:2:0:0:
492,213,267991,1,2,1:2:0:0:
448,133,268154,5,2,0:0:0:0:
398,309,268317,1,2,0:0:0:0:
373,68,268480,1,2,0:0:0:0:
263,196,268643,5,2,0:0:0:0:
225,203,268725,1,2,0:0:0:0:
187,195,268806,1,2,0:0:0:0:
152,177,268888,1,2,0:0:0:0:
129,145,268969,5,4,3:2:0:0:
492,213,269295,2,0,P|508:138|452:35,2,191.999994140625,8|2|8,0:0|3:2|0:0,0:0:0:0:
256,345,270110,5,0,0:0:0:0:
167,281,270273,2,0,L|67:280,1,95.9999970703126,2|0,3:2|3:2,0:0:0:0:
272,214,270600,2,0,P|332:218|380:199,1,95.9999970703126,8|0,0:0|0:0,0:0:0:0:
432,140,270926,1,2,3:2:0:0:
432,140,271089,1,0,3:0:0:0:
200,147,271252,1,10,0:0:0:0:
200,147,271333,1,2,0:0:0:0:
200,147,271415,1,2,0:0:0:0:
332,288,271578,5,2,3:2:0:0:
274,76,271741,1,0,0:0:0:0:
200,147,271904,2,0,P|144:147|97:127,1,95.9999970703126,8|0,0:0|0:0,0:0:0:0:
236,297,272230,2,0,L|336:287,1,95.9999970703126,2|0,3:2|3:0,0:0:0:0:
332,288,272556,1,8,0:0:0:0:
163,367,272719,1,0,0:0:0:0:
200,147,272882,5,2,3:2:0:0:
274,210,273045,1,0,3:2:0:0:
364,186,273208,1,10,0:0:0:0:
364,186,273290,1,2,0:0:0:0:
364,186,273371,2,0,P|424:184|459:164,1,95.9999970703126,0|2,0:0|3:2,0:0:0:0:
273,78,273697,1,0,0:0:0:0:
200,147,273860,2,0,P|150:155|104:142,1,95.9999970703126,8|0,0:0|0:0,0:0:0:0:
57,48,274187,6,0,B|79:107|70:144|70:144|26:174|40:246,2,191.999994140625,6|8|2,3:2|0:0|3:2,0:0:0:0:
124,213,275002,1,0,3:0:0:0:
200,146,275165,2,0,L|192:37,1,95.9999970703126,8|0,0:0|0:0,0:0:0:0:
432,224,275491,6,0,P|420:284|392:312,1,95.9999970703126,2|0,3:2|0:0,0:0:0:0:
228,352,275817,2,0,L|128:344,1,95.9999970703126,8|0,0:0|0:0,0:0:0:0:
56,288,276143,1,2,3:2:0:0:
56,288,276225,1,2,0:0:0:0:
56,288,276306,5,2,3:2:0:0:
228,352,276469,1,8,0:0:0:0:
307,170,276632,1,0,0:0:0:0:
324,328,276795,6,0,P|400:348|432:336,1,95.9999970703126,6|0,3:2|0:0,0:0:0:0:
332,216,277121,2,0,B|316:188|316:188|332:100,1,95.9999970703126,8|0,0:0|0:0,0:0:0:0:
207,23,277447,2,0,B|219:86|219:86|203:114,1,95.9999970703126,2|0,0:0|0:0,0:0:0:0:
0,189,277773,1,8,0:0:0:0:
94,263,277937,1,0,0:0:0:0:
204,228,278100,6,0,P|262:228|301:249,1,95.9999970703126,2|0,3:2|0:0,0:0:0:0:
457,196,278426,1,8,0:0:0:0:
396,57,278589,1,0,0:0:0:0:
457,196,278752,2,0,L|446:309,1,95.9999970703126,2|0,3:2|3:0,0:0:0:0:
352,360,279078,1,8,0:0:0:0:
247,318,279241,1,2,0:0:0:0:
247,318,279322,1,2,0:0:0:0:
247,318,279404,6,0,B|213:305|213:305|127:315,1,95.9999970703126,6|0,3:2|0:0,0:0:0:0:
61,321,279730,2,0,P|108:327|153:311,1,95.9999970703126,8|0,0:0|0:0,0:0:0:0:
89,146,280056,2,0,L|95:249,2,95.9999970703126,2|0|8,3:2|3:0|0:0,0:0:0:0:
201,72,280545,1,2,0:0:0:0:
196,91,280627,1,2,0:0:0:0:
192,109,280708,5,2,0:0:0:0:
293,30,280871,1,0,0:0:0:0:
227,198,281034,1,8,0:0:0:0:
293,30,281197,1,0,0:0:0:0:
356,107,281360,2,0,P|417:107|456:82,1,95.9999970703126,2|0,3:2|0:0,0:0:0:0:
512,217,281687,2,0,L|415:201,1,95.9999970703126,8|0,0:0|0:0,0:0:0:0:
192,336,282013,6,0,P|271:338|303:319,1,95.9999970703126,6|0,3:2|0:0,0:0:0:0:
343,258,282339,1,8,0:0:0:0:
211,199,282502,1,2,0:0:0:0:
110,302,282665,2,0,P|49:306|1:290,1,95.9999970703126,2|0,3:2|3:0,0:0:0:0:
368,358,282991,2,0,P|430:318|445:264,1,95.9999970703126,8|0,0:0|0:0,0:0:0:0:
364,133,283317,5,0,0:0:0:0:
343,258,283480,1,2,0:0:0:0:
337,266,283562,1,2,0:0:0:0:
331,273,283643,1,2,0:0:0:0:
326,281,283725,1,2,0:0:0:0:
296,318,283806,5,0,0:0:0:0:
253,340,283888,1,0,1:0:0:0:
205,341,283969,1,0,3:0:0:0:
162,318,284051,1,0,0:0:0:0:
153,271,284132,1,0,0:0:0:0:
178,230,284214,1,0,0:0:0:0:
216,201,284295,1,0,1:0:0:0:
231,155,284377,1,0,1:0:0:0:
219,108,284458,1,0,1:0:0:0:
189,69,284540,1,0,1:0:0:0:
142,58,284621,5,6,0:0:0:0:
96,152,284784,1,0,0:0:0:0:
231,155,284947,1,8,0:0:0:0:
232,256,285110,1,0,3:0:0:0:
349,226,285273,1,8,0:0:0:0:
340,341,285437,1,0,0:0:0:0:
349,226,285600,2,0,L|343:124,1,95.9999970703126,8|0,0:0|3:0,0:0:0:0:
447,297,285926,5,12,0:0:0:0:
447,297,286252,2,0,P|457:236|446:186,1,95.9999970703126,8|0,0:0|0:0,0:0:0:0:
232,256,286578,2,0,P|289:255|327:239,1,95.9999970703126,8|0,0:0|0:0,0:0:0:0:
97,169,286904,2,0,L|214:179,1,95.9999970703126,8|0,0:0|0:0,0:0:0:0:
0,82,287230,6,0,P|51:74|104:89,2,95.9999970703126,12|0|0,0:0|0:0|0:0,0:0:0:0:
16,200,287719,1,2,0:0:0:0:
16,200,287801,1,2,0:0:0:0:
16,200,287882,2,0,P|75:250|116:234,1,95.9999970703126,10|0,0:0|0:0,0:0:0:0:
200,208,288208,1,2,0:0:0:0:
319,332,288371,6,0,L|434:327,1,95.9999970703126,6|0,0:0|0:0,0:0:0:0:
232,372,288697,1,0,0:0:0:0:
232,372,288779,1,0,0:0:0:0:
232,372,288860,2,0,P|185:384|137:381,1,95.9999970703126,2|0,0:0|0:0,0:0:0:0:
47,299,289187,5,2,0:0:0:0:
92,284,289268,1,2,0:0:0:0:
139,275,289350,1,2,0:0:0:0:
187,273,289431,1,2,0:0:0:0:
235,276,289513,1,2,0:0:0:0:
282,287,289594,1,2,0:0:0:0:
327,303,289676,1,2,0:0:0:0:
370,329,289757,1,2,0:0:0:0:
412,362,289839,5,6,0:0:0:0:
263,161,290165,2,0,P|216:169|156:152,1,80,2|0,0:0|0:0,0:0:0:0:
367,55,290491,2,0,P|352:126|399:205,2,160,8|0|2,0:0|0:0|0:0,0:0:0:0:
263,161,291306,5,0,0:0:0:0:
127,215,291469,2,0,P|73:213|46:196,1,80,2|0,0:0|0:0,0:0:0:0:
85,60,291795,2,0,P|109:110|88:162,1,80,8|0,0:0|0:0,0:0:0:0:
3,273,292121,2,0,L|14:352,1,80
125,364,292447,1,2,0:0:0:0:
259,343,292610,5,0,1:0:0:0:
259,343,292692,1,0,1:0:0:0:
259,343,292773,1,0,1:0:0:0:
259,343,292855,1,0,1:0:0:0:
259,343,292937,1,0,1:0:0:0:
259,343,293018,1,0,1:0:0:0:
259,343,293100,1,0,1:0:0:0:
259,343,293181,1,0,1:0:0:0:
259,343,293263,1,0,1:0:0:0:
259,343,293344,1,0,1:0:0:0:
259,343,293426,1,0,1:0:0:0:
259,343,293507,1,0,1:0:0:0:
259,343,293589,1,4,1:1:0:0:
512,184,295708,5,0,0:0:0:0:
509,191,295790,1,0,0:0:0:0:
506,198,295871,1,0,0:0:0:0:
503,205,295953,1,0,0:0:0:0:
500,212,296034,1,8,0:0:0:0:
498,219,296116,1,2,0:0:0:0:
494,226,296197,1,2,0:0:0:0:
493,233,296279,1,2,0:0:0:0:
489,240,296360,5,6,1:2:0:0:
334,179,296523,1,0,0:0:0:0:
236,318,296687,1,0,0:0:0:0:
77,257,296850,2,0,L|88:318,2,40,2|0|0,3:2|0:0|0:0,0:0:0:0:
101,157,297176,1,0,3:0:0:0:
101,157,297339,1,0,0:0:0:0:
169,335,297502,5,4,3:2:0:0:
264,325,297665,1,0,0:0:0:0:
359,316,297828,1,0,3:0:0:0:
454,308,297991,1,8,0:0:0:0:
454,308,298317,5,4,1:0:0:0:
394,191,298480,1,0,0:0:0:0:
395,207,298562,1,0,0:0:0:0:
396,222,298643,1,0,0:0:0:0:
486,146,298806,1,0,3:0:0:0:
449,55,298969,1,0,0:0:0:0:
329,101,299132,2,0,L|340:43,2,40
272,228,299458,5,0,3:0:0:0:
189,178,299621,1,0,0:0:0:0:
169,83,299784,1,0,0:0:0:0:
218,0,299947,1,2,0:2:0:0:
222,7,300273,5,6,1:2:0:0:
256,94,300437,1,0,0:0:0:0:
253,109,300518,1,0,0:0:0:0:
249,124,300600,1,0,0:0:0:0:
183,195,300763,2,0,L|187:288,1,80,4|0,3:2|0:0,0:0:0:0:
106,330,301089,1,0,0:0:0:0:
266,329,301252,2,0,L|275:381,2,40,0|0|0,0:0|0:0|3:0,0:0:0:0:
382,258,301578,6,0,L|374:307,2,40,0|0|0,0:0|0:0|0:0,0:0:0:0:
465,343,301904,1,6,0:0:0:0:
497,217,302067,1,0,0:0:0:0:
500,233,302149,1,0,0:0:0:0:
502,249,302230,1,0,0:0:0:0:
412,166,302393,1,0,0:0:0:0:
476,88,302556,1,0,0:0:0:0:
412,166,302719,5,4,0:0:0:0:
309,187,302882,2,0,P|268:188|205:160,1,80
134,101,303208,2,0,L|73:109,2,40,4|0|0,0:0|0:0|0:0,0:0:0:0:
308,58,303534,1,0,0:0:0:0:
287,56,303616,1,0,0:0:0:0:
267,56,303697,1,0,0:0:0:0:
246,55,303779,1,0,0:0:0:0:
226,54,303860,1,0,0:0:0:0:
75,8,304023,5,6,0:0:0:0:
256,192,304105,12,0,305491,0:1:0:0:
428,156,305654,6,0,L|428:208,1,40
360,228,305817,2,0,L|364:320,1,80,4|0,0:0|0:0,0:0:0:0:
424,352,306062,1,0,1:0:0:0:
424,352,306143,1,0,1:0:0:0:
175,91,306469,5,2,0:0:0:0:
212,297,306632,1,6,0:0:0:0:
256,192,306714,12,0,312339,0:0:0:0:
