osu file format v14

[General]
AudioFilename: audio.mp3
AudioLeadIn: 0
PreviewTime: 649
Countdown: 1
SampleSet: Soft
StackLeniency: 0.2
Mode: 0
LetterboxInBreaks: 0
WidescreenStoryboard: 0

[Editor]
Bookmarks: 1573,12660,21138,31573,40377,42008,49834,55051,70703,91573,99399,109834,120268,133312,148964,162660,170486,188095,198529,203747,216790,232442,248095,253312,268964,289834,293747,296355,306464
DistanceSpacing: 0.3
BeatDivisor: 4
GridSize: 16
TimelineZoom: 2

[Metadata]
Title:Tsubomi (Long Version)
TitleUnicode:つぼみ (Long Version)
Artist:Tatsumi Megumi featured by Sano Hiroaki
ArtistUnicode:達見 恵 featured by 佐野宏晃
Creator:Meat Inspector
Version:Sakura
Source:GuitarFreaksXG3 & DrumManiaXG3
Tags:bor
BeatmapID:1217970
BeatmapSetID:575139

[Difficulty]
HPDrainRate:5
CircleSize:4.3
OverallDifficulty:7.6
ApproachRate:8.8
SliderMultiplier:1.4
SliderTickRate:1

[Events]
//Background and Video events
0,0,"re-lief-shin-ainaru-anata-e-sakura-tree-anime-1500.png",0,0
//Break Periods
//Storyboard Layer 0 (Background)
//Storyboard Layer 1 (Fail)
//Storyboard Layer 2 (Pass)
//Storyboard Layer 3 (Foreground)
//Storyboard Sound Samples

[TimingPoints]
269,326.086956521739,4,2,2,40,1,0
6790,-100,4,2,1,40,0,0
8747,-100,4,2,1,20,0,0
9807,-100,4,2,1,30,0,0
10051,-100,4,2,1,40,0,0
20812,-100,4,2,2,5,0,0
21138,-83.3333333333333,4,2,2,50,0,0
21953,-83.3333333333333,4,2,1,50,0,0
23584,-83.3333333333333,4,2,2,50,0,0
23747,-83.3333333333333,4,2,1,50,0,0
23910,-83.3333333333333,4,2,2,50,0,0
24562,-83.3333333333333,4,2,1,50,0,0
42008,-133.333333333333,4,2,2,40,0,0
43149,-133.333333333333,4,2,1,40,0,0
43638,-133.333333333333,4,2,2,40,0,0
44453,-133.333333333333,4,2,1,40,0,0
49018,-100,4,2,2,40,0,0
49834,-83.3333333333333,4,2,2,55,0,0
51301,-83.3333333333333,4,2,1,55,0,0
53747,-66.6666666666667,4,2,2,55,0,0
55051,-83.3333333333333,4,2,2,70,0,1
56355,-71.4285714285714,4,2,2,70,0,1
57334,-83.3333333333333,4,2,2,70,0,1
60268,-71.4285714285714,4,2,2,70,0,1
60758,-83.3333333333333,4,2,2,70,0,1
68665,-83.3333333333333,4,2,2,5,0,1
68910,-83.3333333333333,4,2,2,70,0,1
68991,-83.3333333333333,4,2,2,5,0,1
69236,-83.3333333333333,4,2,2,70,0,1
72008,-71.4285714285714,4,2,2,70,0,1
73312,-83.3333333333333,4,2,2,70,0,1
91573,-100,4,2,1,55,0,0
99236,-100,4,2,1,5,0,0
99399,-83.3333333333333,4,2,1,55,0,0
120268,-133.333333333333,4,2,1,35,0,0
121899,-133.333333333333,4,2,2,35,0,0
122714,-133.333333333333,4,2,1,35,0,0
127279,-100,4,2,1,35,0,0
128095,-83.3333333333333,4,2,1,55,0,0
132171,-66.6666666666667,4,2,2,55,0,0
133312,-83.3333333333333,4,2,1,70,0,1
134616,-71.4285714285714,4,2,1,70,0,1
135758,-83.3333333333333,4,2,1,70,0,1
146763,-83.3333333333333,4,2,2,70,0,1
146926,-83.3333333333333,4,2,2,5,0,1
147171,-83.3333333333333,4,2,2,70,0,1
147252,-83.3333333333333,4,2,2,5,0,1
147497,-83.3333333333333,4,2,2,70,0,1
150268,-71.4285714285714,4,2,2,70,0,1
151573,-83.3333333333333,4,2,2,70,0,1
169834,-83.3333333333333,4,2,1,55,0,0
181084,-83.3333333333333,4,2,2,55,0,0
181247,-83.3333333333333,4,2,1,55,0,0
184834,-83.3333333333333,4,2,2,55,0,0
185160,-83.3333333333333,4,2,1,55,0,0
198855,-100,4,2,1,55,0,0
203747,-83.3333333333333,4,2,2,55,0,0
203910,-83.3333333333333,4,2,1,55,0,0
210268,-83.3333333333333,4,2,2,55,0,0
216790,-133.333333333333,4,2,2,30,0,0
232442,-100,4,2,2,30,0,0
237660,-100,4,2,1,30,0,0
238964,-100,4,2,2,30,0,0
248095,-100,4,2,1,30,0,0
250051,-100,4,2,1,20,0,0
250703,-100,4,2,1,20,0,0
251355,-100,4,2,1,30,0,0
253312,-83.3333333333333,4,2,1,70,0,1
254616,-71.4285714285714,4,2,2,70,0,1
255595,-83.3333333333333,4,2,1,70,0,1
266845,-83.3333333333333,4,2,2,70,0,1
266926,-83.3333333333333,4,2,2,5,0,1
267171,-83.3333333333333,4,2,2,70,0,1
267252,-83.3333333333333,4,2,2,5,0,1
267497,-83.3333333333333,4,2,2,70,0,1
270268,-71.4285714285714,4,2,2,70,0,1
271573,-83.3333333333333,4,2,2,70,0,1
289834,-100,4,2,1,70,0,0
290486,-100,4,2,1,70,0,1
290567,-100,4,2,1,70,0,0
291138,-83.3333333333333,4,2,1,70,0,1
291220,-83.3333333333333,4,2,1,70,0,0
291790,-83.3333333333333,4,2,1,70,0,1
291872,-83.3333333333333,4,2,1,70,0,0
292442,-83.3333333333333,4,2,1,70,0,1
292524,-83.3333333333333,4,2,1,70,0,0
293584,-83.3333333333333,4,2,1,70,0,1
293665,-83.3333333333333,4,2,1,70,0,0
295703,-100,4,2,1,70,0,0
305486,-100,4,2,1,5,0,0
305649,-100,4,2,1,70,0,0
312334,-100,4,2,1,5,0,0

[Colours]
Combo1 : 215,125,208
Combo2 : 36,181,39
Combo3 : 32,196,208
Combo4 : 219,115,89

[HitObjects]
323,259,758,5,0,0:0:0:0:
256,287,921,1,0,0:0:0:0:
188,259,1084,1,0,0:0:0:0:
160,192,1247,1,0,0:0:0:0:
188,124,1410,1,0,0:0:0:0:
132,39,1573,6,0,B|149:105|149:105|194:45,1,140,4|0,0:0|0:0,0:0:0:0:
265,86,2062,2,0,B|338:65|390:114|390:114|359:151|316:135,1,210,2|0,0:0|0:0,0:0:0:0:
265,86,2714,1,0,3:0:0:0:
192,47,2877,6,0,B|149:105|149:105|132:39,1,140,0|0,3:0|3:0,0:0:0:0:
0,114,3529,2,0,B|43:171|43:171|60:105,1,140,0|0,3:0|3:0,0:0:0:0:
0,226,4182,6,0,B|26:210|26:210|142:220,1,140,2|0,0:0|0:0,0:0:0:0:
229,228,4671,2,0,P|259:173|204:117,1,140
135,219,5160,1,0,3:0:0:0:
175,289,5323,1,0,3:0:0:0:
135,219,5486,6,0,B|97:228|61:213|61:213|46:250|11:272,1,140,2|0,0:0|3:0,0:0:0:0:
21,132,6138,2,0,B|59:123|95:138|95:138|110:101|145:79,1,140,2|0,3:0|3:0,0:0:0:0:
173,24,6627,1,0,0:0:0:0:
245,35,6790,6,0,P|273:59|205:74,1,140,2|0,0:0|0:0,0:0:0:0:
210,88,7279,1,0,0:0:0:0:
154,166,7442,2,0,B|180:157|196:162|196:162|226:211|302:206,1,140,2|0,0:0|0:0,0:0:0:0:
277,206,7932,1,0,0:0:0:0:
345,271,8095,6,0,P|394:249|421:242,1,70,0|0,3:0|0:0,0:0:0:0:
486,125,8421,2,0,P|437:147|410:154,1,70,0|0,3:0|0:0,0:0:0:0:
293,111,8747,2,8,P|320:98|336:94,3,35
364,7,9073,2,8,P|336:19|320:23,3,35
304,16,9399,5,8,0:0:0:0:
294,20,9480,1,8,0:0:0:0:
284,24,9562,1,8,0:0:0:0:
274,28,9643,1,8,0:0:0:0:
264,33,9725,1,8,0:0:0:0:
254,38,9807,1,8,0:0:0:0:
244,43,9888,1,8,0:0:0:0:
234,48,9970,1,8,0:0:0:0:
224,53,10051,1,8,0:0:0:0:
214,58,10133,1,8,0:0:0:0:
204,63,10214,1,8,0:0:0:0:
194,68,10296,1,8,0:0:0:0:
184,73,10377,5,8,0:0:0:0:
81,30,10540,1,12,0:0:0:0:
95,24,12660,5,2,0:0:0:0:
129,30,12741,1,0,0:0:0:0:
163,36,12823,1,2,0:0:0:0:
197,42,12904,1,0,0:0:0:0:
231,48,12986,2,8,P|275:36|289:30,1,35,8|0,0:0|0:0,0:0:0:0:
174,115,13149,2,0,P|129:126|115:132,1,35,8|0,3:0|0:0,0:0:0:0:
268,164,13312,6,0,B|294:149|302:128|302:128|299:181|328:218,1,140,4|8,0:0|0:0,0:0:0:0:
324,212,13801,1,0,0:0:0:0:
396,163,13964,2,0,L|405:116,2,35,0|0|2,0:0|0:0|0:0,0:0:0:0:
324,212,14290,1,0,0:0:0:0:
417,280,14453,6,0,L|323:302,1,70,4|0,0:0|0:0,0:0:0:0:
340,302,14698,1,8,0:0:0:0:
332,308,14779,1,8,0:0:0:0:
215,241,14942,2,0,L|224:358,1,105,8|0,0:0|0:0,0:0:0:0:
214,355,15268,2,0,P|171:346|152:364,1,70,6|0,0:0|0:0,0:0:0:0:
29,290,15595,2,0,P|72:281|91:299,1,70,8|0,0:0|0:0,0:0:0:0:
193,219,15921,6,0,P|169:213|152:227,2,35,8|2|2,3:0|0:0|0:0,0:0:0:0:
261,246,16247,1,2,0:0:0:0:
328,216,16410,1,2,0:0:0:0:
355,149,16573,1,2,0:0:0:0:
326,81,16736,1,2,3:0:0:0:
416,0,16899,2,0,P|399:35|405:89,1,70,2|0,1:0|0:0,0:0:0:0:
401,74,17143,1,8,0:0:0:0:
407,82,17225,5,8,0:0:0:0:
457,198,17388,2,0,L|473:119,1,70,0|8,0:0|0:0,0:0:0:0:
471,129,17714,1,2,0:0:0:0:
382,211,17877,1,2,0:0:0:0:
373,217,17959,1,2,0:0:0:0:
364,222,18040,1,2,3:0:0:0:
247,158,18203,2,0,P|268:157|279:144,1,35,8|0,0:0|0:0,0:0:0:0:
229,151,18366,6,0,P|175:160|146:187,1,70,4|0,0:0|0:0,0:0:0:0:
159,177,18611,1,8,0:0:0:0:
156,187,18692,1,8,0:0:0:0:
121,293,18855,2,0,P|114:256|94:226,1,70,4|0,0:0|0:0,0:0:0:0:
68,161,19182,1,8,0:0:0:0:
96,94,19345,1,2,0:0:0:0:
164,66,19508,1,8,0:0:0:0:
267,156,19671,1,12,0:0:0:0:
256,192,19752,12,0,20812,0:0:0:0:
123,77,21138,6,0,B|154:71|154:71|314:95,1,167.999994873047,2|8,0:0|0:0,0:0:0:0:
412,92,21627,1,0,3:0:0:0:
402,100,21709,1,0,3:0:0:0:
393,108,21790,1,0,3:0:0:0:
316,269,21953,2,0,P|326:231|322:181,2,83.9999974365235,2|0|8,0:0|0:0|0:0,0:0:0:0:
308,276,22442,5,0,3:0:0:0:
152,283,22605,2,0,P|194:293|234:323,1,83.9999974365235,2|8,0:0|0:0,0:0:0:0:
367,359,22932,1,0,3:0:0:0:
377,351,23013,1,0,3:0:0:0:
386,343,23095,1,0,3:0:0:0:
473,264,23258,2,0,P|425:275|380:267,1,83.9999974365235,2|8,0:0|0:0,0:0:0:0:
308,276,23584,1,2,0:0:0:0:
227,315,23747,6,0,B|180:247|180:247|150:334,1,167.999994873047,2|8,0:0|0:0,0:0:0:0:
21,287,24236,1,0,3:0:0:0:
33,285,24317,1,0,3:0:0:0:
45,283,24399,1,0,3:0:0:0:
143,174,24562,2,0,P|112:199|52:212,2,83.9999974365235,2|0|8,0:0|0:0|0:0,0:0:0:0:
143,163,25051,5,0,0:0:0:0:
298,179,25214,2,0,P|260:166|219:120,1,83.9999974365235,2|8,0:0|0:0,0:0:0:0:
204,35,25540,1,0,3:0:0:0:
194,43,25622,1,0,3:0:0:0:
185,51,25703,1,0,3:0:0:0:
83,37,25866,2,0,B|89:60|89:60|79:132,1,83.9999974365235,2|8,0:0|0:0,0:0:0:0:
0,197,26192,1,0,3:0:0:0:
2,209,26274,1,2,0:0:0:0:
4,221,26355,6,0,B|28:209|46:181|46:181|31:247|65:289,1,167.999994873047,2|8,0:0|0:0,0:0:0:0:
165,271,26845,2,0,L|173:229,2,41.9999987182618,0|0|0,3:0|3:0|3:0,0:0:0:0:
118,350,27171,2,0,B|156:339|194:360|194:360|237:326|287:351,1,167.999994873047,2|8,0:0|0:0,0:0:0:0:
356,371,27660,5,0,0:0:0:0:
438,239,27823,2,0,P|437:290|409:320,1,83.9999974365235,2|8,0:0|0:0,0:0:0:0:
356,371,28149,1,0,3:0:0:0:
353,363,28230,1,0,3:0:0:0:
350,354,28312,1,0,3:0:0:0:
321,286,28475,2,0,L|288:196,1,83.9999974365235,2|8,0:0|0:0,0:0:0:0:
483,165,28964,6,0,B|479:137|446:131|446:131|426:154|401:156|401:156|361:150|331:106,1,167.999994873047,2|8,0:0|0:0,0:0:0:0:
302,25,29453,1,0,3:0:0:0:
305,33,29535,1,0,3:0:0:0:
308,42,29616,1,0,3:0:0:0:
182,161,29779,2,0,P|213:136|273:123,2,83.9999974365235,2|0|8,0:0|0:0|0:0,0:0:0:0:
182,172,30268,5,0,0:0:0:0:
126,102,30432,2,0,B|87:118|87:118|36:109,1,83.9999974365235,2|8,0:0|0:0,0:0:0:0:
0,187,30758,1,0,3:0:0:0:
3,195,30839,1,0,3:0:0:0:
6,204,30921,1,2,0:0:0:0:
72,265,31084,2,0,B|111:249|111:249|162:258,1,83.9999974365235,0|8,0:0|0:0,0:0:0:0:
152,256,31410,1,0,0:0:0:0:
219,305,31573,6,0,P|298:289|298:215,1,167.999994873047,4|8,0:0|0:0,0:0:0:0:
246,129,32062,1,0,3:0:0:0:
249,137,32143,1,0,3:0:0:0:
252,146,32225,1,2,0:0:0:0:
403,108,32388,2,0,P|362:119|330:145,2,83.9999974365235,2|0|8,0:0|0:0|0:0,0:0:0:0:
411,112,32877,5,0,0:0:0:0:
446,250,33040,2,0,L|465:156,1,83.9999974365235,2|8,0:0|0:0,0:0:0:0:
348,229,33366,1,0,3:0:0:0:
351,238,33448,1,0,3:0:0:0:
353,246,33529,1,0,3:0:0:0:
384,332,33692,2,0,B|365:325|365:325|285:323,1,83.9999974365235,0|8,0:0|0:0,0:0:0:0:
197,262,34018,1,0,3:0:0:0:
197,262,34100,1,0,3:0:0:0:
197,262,34182,6,0,B|182:223|143:197|143:197|190:211|225:194,1,167.999994873047,2|8,0:0|0:0,0:0:0:0:
324,146,34671,1,0,3:0:0:0:
315,150,34752,1,0,3:0:0:0:
307,153,34834,1,0,3:0:0:0:
188,48,34997,2,0,P|218:78|232:116,2,83.9999974365235,2|0|8,0:0|0:0|0:0,0:0:0:0:
179,47,35486,5,0,0:0:0:0:
99,91,35649,2,0,P|59:76|30:46,1,83.9999974365235,2|8,0:0|0:0,0:0:0:0:
0,141,35975,1,0,3:0:0:0:
3,153,36057,1,0,3:0:0:0:
6,165,36138,1,0,3:0:0:0:
34,235,36301,2,0,P|65:222|126:241,1,83.9999974365235,0|8,0:0|0:0,0:0:0:0:
212,288,36627,1,0,3:0:0:0:
200,293,36709,1,0,3:0:0:0:
188,298,36790,6,0,B|239:319|299:283|299:283|288:247|245:251,1,167.999994873047,4|8,0:0|0:0,0:0:0:0:
191,185,37279,2,0,L|181:138,2,41.9999987182618,0|0|0,3:0|3:0|3:0,0:0:0:0:
262,251,37605,1,2,0:0:0:0:
396,210,37768,2,0,B|379:197|379:197|313:188,1,83.9999974365235,0|8,0:0|0:0,0:0:0:0:
405,200,38258,6,0,B|388:187|388:187|322:178,1,83.9999974365235,2|8,0:0|0:0,0:0:0:0:
262,251,38584,1,0,0:0:0:0:
325,178,38747,2,0,L|305:84,1,83.9999974365235,2|0,3:0|0:0,0:0:0:0:
253,256,39073,2,0,P|278:311|376:277,1,167.999994873047,8|4,0:0|0:0,0:0:0:0:
369,292,39562,5,2,0:0:0:0:
472,248,39725,2,0,B|444:226|394:217|394:217|442:209|470:185,1,167.999994873047,8|0,0:0|0:0,0:0:0:0:
498,108,40214,1,2,0:0:0:0:
453,42,40377,2,0,B|437:3|437:3|414:49,1,83.9999974365235,0|8,0:0|0:0,0:0:0:0:
122,61,40866,6,0,P|178:76|222:106,1,83.9999974365235,0|8,0:0|0:0,0:0:0:0:
340,60,41192,1,0,3:0:0:0:
328,65,41274,1,0,3:0:0:0:
316,70,41355,1,0,3:0:0:0:
128,56,41518,2,0,P|184:71|228:101,1,83.9999974365235,2|2,0:0|3:0,0:0:0:0:
206,83,42008,6,0,L|83:104,2,105.000004005432,4|0|0,0:0|0:0|0:0,0:0:0:0:
220,89,42823,1,0,0:0:0:0:
234,95,42986,2,0,L|285:86,1,52.5000020027161,0|2,0:0|0:0,0:0:0:0:
285,85,43638,6,0,P|253:130|244:181,2,105.000004005432,2|0|0,0:0|0:0|0:0,0:0:0:0:
300,82,44453,1,2,0:0:0:0:
315,79,44616,6,0,B|339:68|355:40|355:40|347:99|374:148,1,157.500006008148,2|0,0:0|0:0,0:0:0:0:
378,151,45268,2,0,P|330:160|317:264,1,157.500006008148
251,285,45921,5,0,3:0:0:0:
186,276,46084,1,0,0:0:0:0:
148,225,46247,1,0,3:0:0:0:
156,162,46410,1,0,0:0:0:0:
207,123,46573,1,0,3:0:0:0:
156,162,46736,1,0,0:0:0:0:
92,154,46899,1,0,3:0:0:0:
64,42,47225,6,0,P|44:97|11:132,2,105.000004005432,4|0|0,0:0|0:0|0:0,0:0:0:0:
119,11,48040,1,2,0:0:0:0:
179,29,48203,2,0,L|230:20,1,52.5000020027161,0|2,0:0|0:0,0:0:0:0:
230,19,48855,5,0,0:0:0:0:
287,59,49018,2,0,P|302:100|338:145,1,70,0|2,0:0|3:0,0:0:0:0:
453,118,49345,1,8,0:0:0:0:
444,123,49426,1,8,0:0:0:0:
435,129,49508,1,8,0:0:0:0:
319,195,49671,1,8,0:0:0:0:
328,200,49752,1,8,0:0:0:0:
337,206,49834,6,0,B|370:203|383:195|383:195|414:245|347:296,1,167.999994873047,4|0,0:0|0:0,0:0:0:0:
280,368,50323,2,0,B|233:364|205:328|205:328|177:359|131:354,1,167.999994873047,4|0,3:0|0:0,0:0:0:0:
65,285,50812,6,0,B|46:318|9:325|9:325|1:223|95:181,1,251.999992309571,4|2,0:0|0:0,0:0:0:0:
206,160,51464,2,0,P|245:120|259:78,1,83.9999974365235,8|0,0:0|0:0,0:0:0:0:
251,82,51709,1,0,3:0:0:0:
246,70,51790,1,0,3:0:0:0:
118,117,51953,2,0,P|91:112|66:119,2,41.9999987182618,0|0|8,3:0|3:0|0:0,0:0:0:0:
201,169,52279,1,4,3:0:0:0:
284,221,52442,6,0,B|317:209|317:209|459:222,1,167.999994873047,4|0,0:0|0:0,0:0:0:0:
462,326,52932,2,0,P|410:322|378:307,1,83.9999974365235,4|0,0:0|0:0,0:0:0:0:
374,297,53176,1,8,0:0:0:0:
367,287,53258,1,8,0:0:0:0:
356,210,53421,2,0,P|360:188|379:162,1,41.9999987182618,8|8,3:0|3:0,0:0:0:0:
344,187,53584,2,0,P|352:166|376:144,1,41.9999987182618,4|4,3:0|3:0,0:0:0:0:
337,162,53747,2,0,L|227:185,1,105.000004005432,4|2,0:0|1:0,0:0:0:0:
234,183,54236,5,0,0:0:0:0:
184,237,54399,1,0,0:0:0:0:
111,248,54562,1,0,0:0:0:0:
49,208,54725,1,0,0:0:0:0:
26,139,54888,1,0,0:0:0:0:
119,36,55051,6,0,B|94:96|37:115|37:115|24:88|39:61,1,167.999994873047,4|8,1:0|0:1,0:0:0:0:
113,154,55540,1,8,0:3:0:0:
117,191,55622,1,8,3:0:0:0:
107,227,55703,1,4,3:0:0:0:
7,333,55866,2,0,P|13:289|45:239,1,83.9999974365235,4|8,3:0|0:0,0:0:0:0:
119,149,56192,1,0,0:0:0:0:
265,125,56355,6,0,P|219:160|149:174,1,97.9999970092774,2|0,0:1|0:0,0:0:0:0:
23,35,56682,2,0,P|76:56|122:110,1,97.9999970092774,10|0,0:1|0:0,0:0:0:0:
67,289,57008,2,0,P|58:230|81:163,1,97.9999970092774,2|0,0:1|0:0,0:0:0:0:
171,52,57334,1,8,0:0:0:0:
243,26,57497,1,0,0:0:0:0:
337,105,57660,6,0,B|401:114|446:75|446:75|430:50|399:49,1,167.999994873047,4|8,0:0|0:0,0:0:0:0:
255,101,58149,1,4,3:0:0:0:
220,116,58230,1,4,3:0:0:0:
194,142,58312,1,4,3:0:0:0:
166,306,58475,2,0,P|192:270|205:212,1,83.9999974365235,4|8,3:0|0:0,0:0:0:0:
193,135,58801,1,0,0:0:0:0:
203,232,58964,6,0,P|234:260|272:275,1,83.9999974365235,4|0,0:0|0:0,0:0:0:0:
410,280,59290,1,8,0:0:0:0:
457,221,59453,1,2,3:0:0:0:
460,208,59535,1,2,3:0:0:0:
463,196,59616,1,4,3:0:0:0:
403,49,59779,2,0,P|387:101|393:156,1,83.9999974365235,0|8,0:0|0:0,0:0:0:0:
410,280,60105,1,4,0:0:0:0:
357,332,60268,6,0,B|301:336|263:303|263:303|234:339|172:342,1,195.999994018555,4|8,0:0|0:0,0:0:0:0:
14,231,60758,1,4,3:0:0:0:
8,193,60839,1,4,3:0:0:0:
17,157,60921,1,8,3:0:0:0:
226,71,61084,2,0,P|212:111|186:143,1,83.9999974365235,4|8,3:0|0:0,0:0:0:0:
23,164,61410,1,0,0:0:0:0:
109,74,61573,6,0,B|138:64|152:40|152:40|150:111|191:148,1,167.999994873047,4|8,0:0|0:0,0:0:0:0:
324,246,62062,1,4,3:0:0:0:
361,245,62143,1,4,3:0:0:0:
398,231,62225,1,8,3:0:0:0:
499,99,62388,2,0,P|460:115|429:143,1,83.9999974365235,4|8,3:0|0:0,0:0:0:0:
395,237,62714,1,0,0:0:0:0:
476,356,62877,6,0,B|432:299|365:320|365:320|384:354|421:349,1,167.999994873047,4|8,1:0|0:0,0:0:0:0:
286,315,63366,1,4,3:0:0:0:
274,320,63448,1,4,3:0:0:0:
262,325,63529,1,4,3:0:0:0:
166,229,63692,1,4,3:0:0:0:
96,261,63855,2,0,B|84:299|85:342|85:342|66:304|26:271,1,167.999994873047,8|2,0:0|0:1,0:0:0:0:
31,275,64345,5,4,3:0:0:0:
4,160,64508,2,0,P|51:184|86:184,1,83.9999974365235,8|0,0:0|0:0,0:0:0:0:
211,98,64834,2,0,B|232:79|237:52|237:52|244:113|288:165,1,167.999994873047,4|8,3:0|0:0,0:0:0:0:
371,244,65323,1,0,0:0:0:0:
396,61,65486,6,0,B|416:130|359:171|359:171|343:136|369:109,1,167.999994873047,4|8,0:1|0:0,0:0:0:0:
473,202,65975,1,4,3:0:0:0:
477,239,66057,1,4,3:0:0:0:
467,275,66138,1,4,3:0:0:0:
312,384,66301,2,0,P|328:345|356:314,1,83.9999974365235,4|8,3:0|0:0,0:0:0:0:
473,273,66627,1,0,0:0:0:0:
355,314,66790,6,0,P|310:305|262:265,1,83.9999974365235,4|0,0:0|0:0,0:0:0:0:
131,169,67116,2,0,B|183:218|155:283|155:283|123:260|132:224,1,167.999994873047,8|2,0:0|0:1,0:0:0:0:
278,284,67605,1,2,3:0:0:0:
314,278,67687,1,2,3:0:0:0:
346,259,67768,2,0,P|375:255|422:267,1,41.9999987182618,8|0,0:0|0:0,0:0:0:0:
512,331,67932,2,0,P|485:327|458:314,1,41.9999987182618,8|4,3:0|3:0,0:0:0:0:
387,255,68095,6,0,B|366:185|423:144|423:144|439:179|413:206,1,167.999994873047,4|8,0:0|0:0,0:0:0:0:
345,367,68584,2,0,B|298:357,1,41.9999987182618,2|0,0:0|0:0,0:0:0:0:
392,261,68910,2,0,B|460:247,1,41.9999987182618,2|0,0:0|0:0,0:0:0:0:
345,155,69236,6,0,B|324:136|319:109|319:109|312:170|268:222,1,167.999994873047,2|0,1:0|0:0,0:0:0:0:
263,215,69643,1,0,3:0:0:0:
250,217,69725,1,0,3:0:0:0:
96,271,69888,2,0,P|141:274|198:249,1,83.9999974365235,2|8,0:1|0:0,0:0:0:0:
69,177,70214,1,8,3:0:0:0:
59,188,70296,1,8,3:0:0:0:
49,199,70377,2,0,P|34:220|30:244,1,41.9999987182618,4|0,3:0|0:0,0:0:0:0:
89,352,70540,2,0,P|113:355|137:352,1,41.9999987182618,4|0,3:0|0:0,0:0:0:0:
275,212,70703,6,0,B|235:274|280:328|280:328|305:298|287:265,1,167.999994873047,4|8,0:0|0:0,0:0:0:0:
221,170,71192,1,2,3:0:0:0:
201,136,71274,1,2,3:0:0:0:
172,113,71355,1,8,3:0:0:0:
10,27,71518,2,0,P|26:66|54:97,1,83.9999974365235,4|8,3:0|0:0,0:0:0:0:
175,117,71845,1,0,0:0:0:0:
123,257,72008,6,0,P|114:198|137:131,1,97.9999970092774,2|0,0:1|0:0,0:0:0:0:
321,93,72334,2,0,P|275:128|205:142,1,97.9999970092774,10|0,0:1|0:0,0:0:0:0:
79,3,72660,2,0,P|132:24|178:78,1,97.9999970092774,2|0,0:1|0:0,0:0:0:0:
189,211,72986,1,8,0:0:0:0:
155,281,73149,1,0,0:0:0:0:
47,364,73312,6,0,B|101:314|72:250|72:250|40:273|49:309,1,167.999994873047,4|8,0:0|0:0,0:0:0:0:
149,362,73801,1,0,3:0:0:0:
187,363,73883,1,0,3:0:0:0:
223,353,73964,1,8,3:0:0:0:
378,250,74127,2,0,P|335:249|296:263,1,83.9999974365235,4|8,3:0|0:0,0:0:0:0:
219,358,74453,1,0,0:0:0:0:
296,262,74616,6,0,P|268:230|232:211,1,83.9999974365235,2|0,0:0|0:0,0:0:0:0:
119,203,74942,1,8,0:0:0:0:
60,108,75105,1,0,3:0:0:0:
90,84,75187,1,0,3:0:0:0:
126,71,75268,1,8,3:0:0:0:
284,133,75432,2,0,P|243:146|203:145,1,83.9999974365235,4|8,3:0|0:0,0:0:0:0:
130,67,75758,1,0,0:0:0:0:
315,59,75921,6,0,B|345:126|293:173|293:173|272:140|295:110,1,167.999994873047,4|8,0:0|0:0,0:0:0:0:
419,75,76410,1,0,3:0:0:0:
449,97,76491,1,0,3:0:0:0:
471,127,76573,1,8,3:0:0:0:
402,303,76736,2,0,P|404:260|420:222,1,83.9999974365235,0|8,0:0|0:0,0:0:0:0:
476,121,77062,1,0,0:0:0:0:
419,222,77225,6,0,B|374:237|334:215|334:215|321:255|277:269,1,167.999994873047,2|8,0:0|0:0,0:0:0:0:
165,233,77714,1,0,0:0:0:0:
89,364,77877,2,0,P|105:311|106:250,1,83.9999974365235,4|0,3:0|0:0,0:0:0:0:
38,161,78203,2,0,B|13:92|69:49|69:49|86:84|62:112,1,167.999994873047,8|4,0:0|0:0,0:0:0:0:
165,233,78692,6,0,P|201:250|264:239,1,83.9999974365235,0|8,0:0|0:0,0:0:0:0:
419,84,79018,1,0,3:0:0:0:
383,93,79100,1,0,3:0:0:0:
351,113,79182,1,8,0:0:0:0:
244,247,79345,2,0,P|266:279|326:301,1,83.9999974365235,0|8,0:0|0:0,0:0:0:0:
428,309,79671,1,0,0:0:0:0:
512,176,79834,6,0,P|464:185|413:222,1,83.9999974365235,4|0,0:0|0:0,0:0:0:0:
246,131,80160,2,0,P|294:140|345:177,1,83.9999974365235,8|0,0:0|0:0,0:0:0:0:
439,86,80486,1,4,3:0:0:0:
374,63,80649,2,0,P|329:41|290:-7,1,83.9999974365235,4|8,3:0|0:0,0:0:0:0:
435,91,80975,1,0,0:0:0:0:
324,157,81138,6,0,B|259:191|208:141|208:141|241:120|272:140,1,167.999994873047,4|0,0:0|0:0,0:0:0:0:
365,219,81627,1,0,3:0:0:0:
388,247,81709,1,0,3:0:0:0:
402,282,81790,1,8,3:0:0:0:
284,384,81953,2,0,P|236:375|185:338,1,83.9999974365235,4|8,3:0|0:0,0:0:0:0:
113,255,82279,1,0,0:0:0:0:
245,211,82442,6,0,B|299:161|270:97|270:97|238:120|247:156,1,167.999994873047,4|8,0:0|0:0,0:0:0:0:
365,219,82932,1,0,3:0:0:0:
401,215,83013,1,0,3:0:0:0:
435,200,83095,1,8,3:0:0:0:
486,55,83258,2,0,P|438:64|387:101,1,83.9999974365235,4|8,3:0|0:0,0:0:0:0:
361,226,83584,1,0,0:0:0:0:
314,285,83747,6,0,B|291:274|276:248|276:248|266:314|214:347,1,167.999994873047,4|0,0:0|0:0,0:0:0:0:
219,343,84236,1,2,3:0:0:0:
145,348,84399,1,4,3:0:0:0:
84,306,84562,1,2,3:0:0:0:
66,235,84725,1,4,3:0:0:0:
96,168,84888,1,2,3:0:0:0:
238,148,85051,5,0,3:0:0:0:
178,204,85214,1,0,3:0:0:0:
104,206,85377,1,8,0:0:0:0:
47,159,85540,1,0,3:0:0:0:
51,153,85622,1,0,3:0:0:0:
55,147,85703,1,8,0:0:0:0:
140,45,85866,2,0,L|126:107,2,41.9999987182618,0|0|8,3:0|3:0|3:0,0:0:0:0:
238,148,86192,1,8,3:0:0:0:
239,186,86274,1,8,3:0:0:0:
229,222,86355,6,0,B|197:288|248:337|248:337|269:303|247:273,1,167.999994873047,4|8,1:3|0:0,0:0:0:0:
134,217,86845,2,0,P|86:226|35:263,1,83.9999974365235,0|8,0:0|0:0,0:0:0:0:
241,378,87171,2,0,P|257:331|250:269,1,83.9999974365235,0|8,0:0|0:0,0:0:0:0:
238,148,87497,1,0,0:0:0:0:
406,128,87660,6,0,B|383:117|368:91|368:91|358:157|306:190,1,167.999994873047,4|8,0:0|0:0,0:0:0:0:
110,172,88149,1,0,3:0:0:0:
91,139,88230,1,0,3:0:0:0:
83,104,88312,1,8,0:0:0:0:
225,17,88475,2,0,P|262:48|287:106,1,83.9999974365235,0|8,0:0|0:0,0:0:0:0:
234,222,88801,1,4,3:0:0:0:
133,358,88964,6,0,B|182:304|148:242|148:242|118:268|130:303,1,167.999994873047,4|8,0:0|0:0,0:0:0:0:
276,319,89453,1,0,3:0:0:0:
308,299,89535,1,0,3:0:0:0:
333,273,89616,1,8,0:0:0:0:
319,129,89779,2,0,P|295:145|280:179,2,41.9999987182618,0|0|0,3:0|3:0|3:0,0:0:0:0:
406,111,90105,1,4,0:0:0:0:
401,168,91573,6,0,B|357:173|329:154|329:154|291:161|272:207,1,140,4|8,0:0|0:0,0:0:0:0:
279,192,92062,1,0,0:0:0:0:
184,160,92225,2,0,L|174:113,2,35,0|0|2,0:0|0:0|3:2,0:0:0:0:
279,192,92551,1,0,0:0:0:0:
168,270,92714,6,0,L|264:285,1,70,4|2,0:0|0:0,0:0:0:0:
245,287,92959,1,0,3:0:0:0:
253,293,93040,1,0,3:0:0:0:
353,242,93203,2,0,L|371:359,1,105,8|2,0:0|0:0,0:0:0:0:
369,355,93529,2,0,P|412:346|431:364,1,70
507,261,93855,2,0,P|464:252|445:270,1,70,8|0,3:0|0:0,0:0:0:0:
320,243,94182,6,0,P|344:237|361:251,2,35,8|2|2,3:0|0:0|0:0,0:0:0:0:
252,270,94508,1,2,0:0:0:0:
185,240,94671,1,2,0:0:0:0:
158,173,94834,1,2,0:0:0:0:
187,105,94997,1,2,3:0:0:0:
97,24,95160,2,0,P|114:59|108:113,1,70,2|0,1:0|0:0,0:0:0:0:
110,98,95404,1,0,3:0:0:0:
104,107,95486,5,4,0:0:0:0:
34,213,95649,2,0,L|18:134,1,70,0|8,0:0|0:0,0:0:0:0:
20,144,95975,1,2,0:0:0:0:
109,226,96138,1,2,0:0:0:0:
118,232,96220,1,2,0:0:0:0:
127,237,96301,1,2,3:0:0:0:
244,173,96464,2,0,P|223:172|212:159,1,35,8|0,0:0|0:0,0:0:0:0:
262,166,96627,6,0,P|316:175|345:202,1,70,4|0,0:0|0:0,0:0:0:0:
332,192,96872,1,8,0:0:0:0:
335,202,96953,1,8,0:0:0:0:
370,308,97116,2,0,P|377:271|397:241,1,70,4|0,0:0|0:0,0:0:0:0:
423,176,97442,1,8,0:0:0:0:
395,109,97605,1,2,0:0:0:0:
327,81,97768,1,8,0:0:0:0:
260,109,97932,1,6,0:0:0:0:
256,192,98013,12,0,99236,0:0:0:0:
40,242,99399,6,0,B|76:279|73:316|73:316|85:280|138:254,1,167.999994873047,4|8,0:0|0:0,0:0:0:0:
236,295,99888,1,0,3:0:0:0:
227,288,99970,1,0,3:0:0:0:
218,281,100051,1,0,3:0:0:0:
194,194,100214,2,0,P|206:148|246:104,1,83.9999974365235,2|8,0:0|0:0,0:0:0:0:
385,82,100540,6,0,P|339:94|281:81,1,83.9999974365235,2|2,0:0|0:0,0:0:0:0:
242,41,100866,2,0,P|196:28|138:41,1,83.9999974365235,2|8,0:0|0:0,0:0:0:0:
91,69,101192,1,0,0:0:0:0:
63,145,101355,2,0,B|98:150|124:197|124:197|177:187|204:224,1,167.999994873047,2|8,0:0|0:0,0:0:0:0:
290,195,101845,1,0,0:0:0:0:
301,189,101926,1,0,0:0:0:0:
312,183,102008,6,0,B|341:181|358:155|358:155|343:222|374:275,1,167.999994873047,2|8,0:0|0:0,0:0:0:0:
460,257,102497,2,0,L|468:215,2,41.9999987182618,0|0|0,3:0|3:0|3:0,0:0:0:0:
419,339,102823,2,0,P|369:356|342:384,1,83.9999974365235,2|8,0:0|0:0,0:0:0:0:
346,376,103149,1,0,0:0:0:0:
241,384,103312,5,2,0:0:0:0:
259,315,103475,2,0,P|264:273|245:224,1,83.9999974365235,2|8,0:0|0:0,0:0:0:0:
100,180,103801,2,0,P|133:205|185:213,1,83.9999974365235,2|0,0:0|0:0,0:0:0:0:
296,109,104127,2,0,P|257:125|224:166,1,83.9999974365235,2|8,0:0|0:0,0:0:0:0:
323,356,104616,6,0,B|316:301|368:253|368:253|399:273|383:314,1,167.999994873047,4|8,0:0|0:0,0:0:0:0:
275,241,105105,1,0,0:0:0:0:
263,237,105187,1,0,0:0:0:0:
251,233,105268,1,0,0:0:0:0:
184,276,105432,2,0,P|142:270|102:282,1,83.9999974365235,2|8,0:0|0:0,0:0:0:0:
40,367,105758,6,0,B|73:322|52:255|52:255|15:257|9:300,1,167.999994873047,2|2,3:0|0:0,0:0:0:0:
184,276,106247,2,0,P|218:251|239:215,1,83.9999974365235,8|2,0:0|0:0,0:0:0:0:
206,133,106573,2,0,L|321:155,1,83.9999974365235,0|2,0:0|3:2,0:0:0:0:
470,27,107062,1,0,0:0:0:0:
462,36,107143,1,0,0:0:0:0:
453,45,107225,5,0,0:0:0:0:
398,90,107388,2,0,P|355:89|317:72,1,83.9999974365235,0|8,0:0|0:0,0:0:0:0:
214,91,107714,2,0,L|204:137,2,41.9999987182618
172,0,108040,2,0,P|139:25|118:61,1,83.9999974365235,2|8,0:0|0:0,0:0:0:0:
118,147,108366,6,0,B|79:176|37:173|37:173|82:171|120:196,1,167.999994873047,2|2,3:0|0:0,0:0:0:0:
181,222,108855,1,8,0:0:0:0:
208,289,109018,1,2,0:0:0:0:
179,357,109182,1,2,3:0:0:0:
208,289,109345,2,0,P|249:282|290:293,1,83.9999974365235,0|2,0:0|3:0,0:0:0:0:
297,302,109589,1,0,0:0:0:0:
304,312,109671,2,0,P|330:320|368:322,1,41.9999987182618
377,333,109834,6,0,B|375:279|337:263|337:263|375:244|378:172,1,167.999994873047,0|8,0:0|0:0,0:0:0:0:
370,78,110323,1,0,3:0:0:0:
366,90,110404,1,0,3:0:0:0:
362,102,110486,1,0,3:0:0:0:
284,162,110649,2,0,P|241:161|203:144,1,83.9999974365235,2|8,0:0|0:0,0:0:0:0:
145,81,110975,1,0,3:0:0:0:
77,138,111138,6,0,B|110:93|89:26|89:26|52:28|46:71,1,167.999994873047,2|8,0:0|0:0,0:0:0:0:
145,81,111627,1,0,3:0:0:0:
157,77,111709,1,0,3:0:0:0:
169,73,111790,1,0,3:0:0:0:
236,57,111953,2,0,P|274:40|316:39,1,83.9999974365235,2|8,0:0|0:0,0:0:0:0:
404,82,112279,1,0,3:0:0:0:
449,183,112442,6,0,B|428:130|466:71|466:71|501:83|496:126,1,167.999994873047,2|8,0:0|0:0,0:0:0:0:
372,180,112932,1,0,3:0:0:0:
360,184,113013,1,0,3:0:0:0:
348,188,113095,1,0,3:0:0:0:
280,224,113258,2,0,P|241:207|199:206,1,83.9999974365235,2|8,0:0|0:0,0:0:0:0:
114,237,113584,1,0,3:0:0:0:
48,173,113747,6,0,B|50:143|30:115|30:115|85:152|145:151,1,167.999994873047,2|4,0:0|0:0,0:0:0:0:
162,366,114399,1,8,3:0:0:0:
223,286,114562,1,0,3:0:0:0:
233,290,114643,1,0,3:0:0:0:
244,294,114725,2,0,P|268:297|290:294,1,41.9999987182618,8|0,3:0|0:0,0:0:0:0:
408,218,114888,2,0,P|383:214|361:217,1,41.9999987182618,8|0,0:0|0:0,0:0:0:0:
285,294,115051,6,0,P|304:368|381:363,1,167.999994873047,4|8,0:0|0:0,0:0:0:0:
441,299,115540,1,0,0:0:0:0:
408,218,115703,2,0,P|447:214|495:192,2,83.9999974365235,2|2|8,0:0|0:0|0:0,0:0:0:0:
354,133,116192,6,0,B|389:88|459:91|459:91|466:128|426:145,1,167.999994873047,2|2,0:0|0:0,0:0:0:0:
408,218,116682,2,0,P|372:234|319:238,1,83.9999974365235,8|2,0:0|0:0,0:0:0:0:
233,234,117008,2,0,P|196:220|155:186,1,83.9999974365235,2|2,0:0|0:0,0:0:0:0:
250,57,117334,2,0,P|276:89|291:128,1,83.9999974365235,2|2,0:0|0:0,0:0:0:0:
290,141,117578,1,0,0:0:0:0:
289,153,117660,6,0,B|263:195|278:262|278:262|261:236|232:234,1,167.999994873047,4|8,0:0|0:0,3:0:0:0:
97,258,118149,1,0,3:0:0:0:
109,262,118230,1,0,3:0:0:0:
121,266,118312,1,0,3:0:0:0:
166,323,118475,2,0,P|207:314|248:322,1,83.9999974365235,2|8,0:0|0:0,0:0:0:0:
343,285,118801,6,0,B|394:309|405:378|405:378|371:393|346:357,1,167.999994873047,4|2,0:0|0:0,0:0:0:0:
275,246,119290,2,0,P|320:208|372:214,1,83.9999974365235,8|0,0:0|0:0,0:0:0:0:
354,210,119535,2,0,P|380:214|401:189,1,41.9999987182618,8|8,3:0|0:0,0:0:0:0:
462,183,119779,1,8,3:0:0:0:
502,121,119942,1,0,3:0:0:0:
492,48,120105,1,0,3:0:0:0:
308,73,120268,6,0,L|431:94,2,105.000004005432,4|0|0,0:0|0:0|0:0,0:0:0:0:
294,79,121084,1,0,0:0:0:0:
280,85,121247,2,0,L|229:76,1,52.5000020027161,0|2,0:0|0:0,0:0:0:0:
229,75,121899,6,0,P|261:120|270:171,2,105.000004005432,2|0|0,0:0|0:0|0:0,0:0:0:0:
214,72,122714,1,2,0:0:0:0:
199,69,122877,6,0,B|175:58|159:30|159:30|167:89|140:138,1,157.500006008148,2|0,0:0|0:0,0:0:0:0:
136,141,123529,2,0,P|184:150|197:254,1,157.500006008148
263,275,124182,5,0,3:0:0:0:
328,266,124345,1,0,0:0:0:0:
366,215,124508,1,0,3:0:0:0:
358,152,124671,1,0,0:0:0:0:
307,113,124834,1,0,3:0:0:0:
358,152,124997,1,0,0:0:0:0:
422,144,125160,1,0,3:0:0:0:
450,32,125486,6,0,P|470:87|503:122,2,105.000004005432,4|0|0,0:0|0:0|0:0,0:0:0:0:
392,11,126301,1,2,0:0:0:0:
332,29,126464,2,0,L|281:20,1,52.5000020027161,0|2,0:0|0:0,0:0:0:0:
281,19,127116,5,0,0:0:0:0:
224,59,127279,2,0,P|209:100|173:145,1,70,0|2,0:0|3:0,0:0:0:0:
45,137,127605,1,8,0:0:0:0:
54,142,127687,1,8,0:0:0:0:
63,148,127768,1,8,0:0:0:0:
192,195,127932,1,8,0:0:0:0:
183,200,128013,1,8,0:0:0:0:
174,205,128095,6,8,B|126:236|123:306|123:306|159:316|179:278,1,167.999994873047,4|10,0:0|0:0,0:0:0:0:
263,354,128584,2,0,B|298:352|328:315|328:315|353:354|431:373,1,167.999994873047
437,262,129073,6,0,B|456:295|493:302|493:302|501:200|407:158,1,251.999992309571,4|2,0:0|0:0,0:0:0:0:
300,127,129725,2,0,P|261:87|247:45,1,83.9999974365235,8|0,0:0|0:0,0:0:0:0:
255,49,129970,1,0,3:0:0:0:
260,37,130051,1,0,3:0:0:0:
406,157,130214,2,0,P|429:170|446:182,1,41.9999987182618,0|0,3:0|3:0,0:0:0:0:
328,207,130377,1,0,0:0:0:0:
323,201,130459,1,0,0:0:0:0:
317,195,130540,1,0,3:0:0:0:
277,209,130622,1,8,0:0:0:0:
235,209,130703,6,0,B|212:199|197:173|197:173|197:240|148:285,1,167.999994873047,4|8,0:0|0:0,0:0:0:0:
2,332,131192,2,0,P|77:329|106:340,1,83.9999974365235,4|0,0:0|0:0,0:0:0:0:
89,337,131437,1,2,0:0:0:0:
94,343,131518,1,2,0:0:0:0:
205,366,131682,1,8,3:0:0:0:
205,366,131763,1,8,3:0:0:0:
205,366,131845,1,4,3:0:0:0:
315,53,132171,6,0,L|290:168,1,105.000004005432,4|4,0:0|0:0,0:0:0:0:
260,220,132497,1,0,0:0:0:0:
196,256,132660,1,0,0:0:0:0:
123,243,132823,1,0,0:0:0:0:
76,187,132986,1,8,3:0:0:0:
76,114,133149,1,4,3:0:0:0:
196,45,133312,6,8,B|155:85|86:73|86:73|84:36|125:24,1,167.999994873047,4|10,0:0|0:0,0:0:0:0:
205,131,133801,1,8,0:0:0:0:
227,160,133883,1,8,0:0:0:0:
237,196,133964,1,4,3:0:0:0:
191,351,134127,2,0,P|174:309|176:250,1,83.9999974365235,4|8,3:0|0:0,0:0:0:0:
209,125,134453,1,0,0:0:0:0:
63,101,134616,6,0,P|109:136|179:150,1,97.9999970092774,2|0,0:1|0:0,0:0:0:0:
305,11,134942,2,0,P|252:32|206:86,1,97.9999970092774,10|0,0:1|0:0,0:0:0:0:
261,262,135268,2,0,P|270:203|247:136,1,97.9999970092774,2|0,0:1|0:0,0:0:0:0:
128,53,135595,1,8,0:0:0:0:
57,105,135758,1,0,3:0:0:0:
45,226,135921,6,0,B|65:213|78:188|78:188|72:263|111:311,1,167.999994873047,4|8,0:0|0:0,0:0:0:0:
241,374,136410,1,0,3:0:0:0:
263,345,136491,1,0,3:0:0:0:
273,309,136573,1,4,3:0:0:0:
237,135,136736,2,0,P|220:177|222:236,1,83.9999974365235,4|8,3:0|0:0,0:0:0:0:
278,316,137062,1,0,0:0:0:0:
391,345,137225,6,8,B|432:305|501:317|501:317|503:354|462:366,1,167.999994873047,4|10,0:0|0:0,0:0:0:0:
359,267,137714,1,0,3:0:0:0:
337,238,137796,1,0,3:0:0:0:
327,202,137877,1,4,3:0:0:0:
368,38,138040,2,0,P|385:80|383:139,1,83.9999974365235,4|8,3:0|0:0,0:0:0:0:
319,207,138366,1,0,0:0:0:0:
208,226,138529,6,0,B|155:218|135:187|135:187|107:217|34:224,1,167.999994873047,4|8,0:0|0:0,0:0:0:0:
170,384,139018,1,0,3:0:0:0:
192,355,139100,1,0,3:0:0:0:
202,319,139182,1,4,3:0:0:0:
250,150,139345,2,0,P|219:183|199:238,1,83.9999974365235,4|8,3:0|0:0,0:0:0:0:
208,324,139671,1,0,0:0:0:0:
295,384,139834,6,0,P|337:382|385:367,1,83.9999974365235,4|0,0:0|0:0,0:0:0:0:
478,296,140160,1,8,0:0:0:0:
495,216,140323,1,2,3:0:0:0:
492,203,140404,1,2,3:0:0:0:
489,191,140486,1,4,3:0:0:0:
394,54,140649,2,0,P|378:106|384:161,1,83.9999974365235,0|8,0:0|0:0,0:0:0:0:
406,273,140975,1,4,0:0:0:0:
339,303,141138,6,0,B|297:298|269:257|269:257|241:297|162:306,1,167.999994873047,4|8,0:0|0:0,0:0:0:0:
55,239,141627,1,0,3:0:0:0:
50,202,141709,1,0,3:0:0:0:
59,166,141790,1,4,3:0:0:0:
209,53,141953,2,0,P|196:106|164:150,1,83.9999974365235,0|8,0:0|0:0,0:0:0:0:
62,171,142279,1,0,0:0:0:0:
104,61,142442,6,0,B|133:51|147:27|147:27|145:98|186:135,1,167.999994873047,4|8,0:0|0:0,0:0:0:0:
324,246,142932,1,4,3:0:0:0:
361,245,143013,1,4,3:0:0:0:
398,231,143095,1,8,3:0:0:0:
496,105,143258,2,0,P|452:118|407:155,1,83.9999974365235,4|8,3:0|0:0,0:0:0:0:
395,237,143584,1,0,0:0:0:0:
357,332,143747,6,0,P|305:344|201:280,1,167.999994873047,4|8,0:0|0:0,0:0:0:0:
191,127,144236,1,4,3:0:0:0:
210,95,144317,1,4,3:0:0:0:
240,70,144399,1,8,3:0:0:0:
413,69,144562,2,0,P|378:92|338:103,1,83.9999974365235,4|8,3:0|0:0,0:0:0:0:
234,70,144888,1,0,0:0:0:0:
125,82,145051,6,0,B|105:69|92:44|92:44|98:119|59:167,1,167.999994873047,4|8,0:0|0:0,0:0:0:0:
18,283,145540,1,0,3:0:0:0:
47,304,145622,1,0,3:0:0:0:
82,314,145703,1,4,3:0:0:0:
224,275,145866,1,0,3:0:0:0:
253,254,145948,1,0,3:0:0:0:
288,244,146029,2,0,L|340:254,1,41.9999987182618,8|0,3:0|0:0,0:0:0:0:
491,292,146192,2,0,L|439:302,1,41.9999987182618,8|4,3:0|3:0,0:0:0:0:
360,355,146355,6,8,P|348:303|412:199,1,167.999994873047,4|8,1:0|0:0,0:0:0:0:
359,94,146845,2,0,B|291:108,1,41.9999987182618,2|0,0:0|0:0,0:0:0:0:
406,200,147171,2,0,B|474:214,1,41.9999987182618,2|0,0:0|0:0,0:0:0:0:
317,298,147497,6,0,B|296:317|291:344|291:344|284:283|240:231,1,167.999994873047,4|8,1:0|0:0,0:0:0:0:
239,237,147904,1,0,3:0:0:0:
230,234,147986,1,0,3:0:0:0:
84,240,148149,2,0,P|119:263|159:274,1,83.9999974365235,2|8,0:1|0:0,0:0:0:0:
42,161,148475,1,8,3:0:0:0:
32,172,148557,1,8,3:0:0:0:
22,183,148638,2,0,P|7:204|3:228,1,41.9999987182618,4|0,3:0|0:0,0:0:0:0:
62,336,148801,2,0,P|86:339|110:336,1,41.9999987182618,4|0,3:0|0:0,0:0:0:0:
247,240,148964,6,0,B|207:302|252:356|252:356|277:326|259:293,1,167.999994873047,4|8,0:0|0:0,0:0:0:0:
210,182,149453,1,2,3:0:0:0:
190,148,149535,1,2,3:0:0:0:
161,125,149616,1,8,3:0:0:0:
0,31,149779,2,0,P|16:70|44:101,1,83.9999974365235,4|8,3:0|0:0,0:0:0:0:
165,121,150105,1,0,0:0:0:0:
113,261,150268,6,0,P|104:202|127:135,1,97.9999970092774,2|0,0:1|0:0,0:0:0:0:
311,97,150595,2,0,P|265:132|195:146,1,97.9999970092774,10|0,0:1|0:0,0:0:0:0:
69,7,150921,2,0,P|122:28|168:82,1,97.9999970092774,2|0,0:1|0:0,0:0:0:0:
179,215,151247,1,8,0:0:0:0:
145,285,151410,1,0,0:0:0:0:
37,368,151573,6,0,B|91:318|62:254|62:254|30:277|39:313,1,167.999994873047,4|8,0:0|0:0,0:0:0:0:
167,358,152062,1,2,3:0:0:0:
205,354,152143,1,2,3:0:0:0:
239,338,152225,1,8,3:0:0:0:
366,222,152388,2,0,P|323:229|288:251,1,83.9999974365235,4|8,3:0|0:0,0:0:0:0:
235,333,152714,1,0,0:0:0:0:
137,324,152877,6,0,P|108:287|91:246,1,83.9999974365235,4|0,0:0|0:0,0:0:0:0:
123,140,153203,1,8,0:0:0:0:
232,97,153366,1,2,3:0:0:0:
270,101,153448,1,2,3:0:0:0:
304,117,153529,1,8,3:0:0:0:
442,250,153692,2,0,P|399:243|364:221,1,83.9999974365235,4|8,3:0|0:0,0:0:0:0:
308,110,154018,1,0,0:0:0:0:
403,3,154182,6,8,P|415:55|351:159,1,167.999994873047,4|8,1:0|0:0,0:0:0:0:
227,221,154671,1,2,3:0:0:0:
189,217,154752,1,2,3:0:0:0:
154,202,154834,1,8,3:0:0:0:
34,72,154997,2,0,P|77:79|112:101,1,83.9999974365235,4|8,3:0|0:0,0:0:0:0:
148,206,155323,1,0,0:0:0:0:
192,310,155486,6,0,B|228:304|246:274|246:274|239:333|266:378,1,167.999994873047,4|8,0:0|0:0,0:0:0:0:
358,251,155975,1,2,3:0:0:0:
428,384,156138,2,0,P|412:345|413:303,1,83.9999974365235,4|8,3:0|0:0,0:0:0:0:
485,184,156464,2,0,B|510:115|454:72|454:72|437:107|461:135,1,167.999994873047,8|4,0:0|0:0,0:0:0:0:
358,251,156953,6,0,P|322:268|259:257,1,83.9999974365235,0|8,0:0|0:0,0:0:0:0:
128,128,157279,1,2,3:0:0:0:
166,132,157361,1,2,3:0:0:0:
201,147,157442,1,8,3:0:0:0:
278,265,157605,2,0,P|256:297|196:319,1,83.9999974365235,0|8,0:0|0:0,0:0:0:0:
105,309,157932,1,0,0:0:0:0:
0,185,158095,6,0,P|48:194|99:231,1,83.9999974365235,4|0,0:0|0:0,0:0:0:0:
243,119,158421,2,0,P|195:128|144:165,1,83.9999974365235,8|0,0:0|0:0,0:0:0:0:
46,80,158747,1,4,3:0:0:0:
111,57,158910,2,0,P|156:35|195:-13,1,83.9999974365235,4|8,3:0|0:0,0:0:0:0:
50,85,159236,1,0,0:0:0:0:
164,145,159399,6,0,B|229:179|280:129|280:129|247:108|216:128,1,167.999994873047,4|0,0:0|0:0,0:0:0:0:
199,256,159888,1,2,3:0:0:0:
221,286,159970,1,2,3:0:0:0:
251,309,160051,1,8,3:0:0:0:
431,322,160214,2,0,P|396:299|356:288,1,83.9999974365235,4|8,3:0|0:0,0:0:0:0:
247,315,160540,1,0,0:0:0:0:
130,358,160703,6,0,B|75:308|105:243|105:243|136:267|128:303,1,167.999994873047,4|0,0:0|0:0,0:0:0:0:
23,243,161192,1,2,3:0:0:0:
6,209,161274,1,2,3:0:0:0:
0,172,161355,1,8,3:0:0:0:
113,48,161518,2,0,P|110:89|95:128,1,83.9999974365235,4|8,3:0|0:0,0:0:0:0:
31,245,161845,1,0,0:0:0:0:
128,276,162008,6,0,B|164:270|182:240|182:240|175:299|202:344,1,167.999994873047,4|8,0:0|0:0,0:0:0:0:
198,337,162497,1,0,0:0:0:0:
272,342,162660,1,4,3:0:0:0:
333,300,162823,1,2,3:0:0:0:
351,229,162986,1,4,3:0:0:0:
321,162,163149,1,2,3:0:0:0:
179,142,163312,5,0,3:0:0:0:
239,198,163475,1,0,3:0:0:0:
313,200,163638,1,8,0:0:0:0:
370,153,163801,1,0,3:0:0:0:
366,147,163883,1,0,3:0:0:0:
362,141,163964,1,8,0:0:0:0:
277,39,164127,2,0,L|291:101,2,41.9999987182618,0|0|8,3:0|3:0|3:0,0:0:0:0:
179,142,164453,1,8,3:0:0:0:
178,180,164535,1,8,3:0:0:0:
188,216,164616,6,0,B|220:282|169:331|169:331|148:297|170:267,1,167.999994873047,4|8,1:3|0:0,0:0:0:0:
283,211,165105,2,0,P|331:220|382:257,1,83.9999974365235,0|8,0:0|0:0,0:0:0:0:
176,372,165432,2,0,P|160:325|167:263,1,83.9999974365235,0|8,0:0|0:0,0:0:0:0:
179,142,165758,1,0,0:0:0:0:
11,122,165921,6,0,B|34:111|49:85|49:85|59:151|111:184,1,167.999994873047,4|8,0:0|0:0,0:0:0:0:
307,166,166410,1,0,3:0:0:0:
326,133,166491,1,0,3:0:0:0:
334,98,166573,1,8,0:0:0:0:
192,11,166736,2,0,P|155:42|130:100,1,83.9999974365235,0|8,0:0|0:0,0:0:0:0:
183,216,167062,1,4,3:0:0:0:
284,352,167225,6,0,B|235:298|269:236|269:236|299:262|287:297,1,167.999994873047,4|8,0:0|0:0,0:0:0:0:
141,313,167714,1,0,3:0:0:0:
109,293,167796,1,0,3:0:0:0:
84,267,167877,1,8,0:0:0:0:
98,123,168040,2,0,P|122:139|137:173,2,41.9999987182618,0|0|0,3:0|3:0|3:0,0:0:0:0:
11,105,168366,1,4,0:0:0:0:
11,105,169834,5,2,3:0:0:0:
105,20,169997,1,0,3:0:0:0:
107,27,170078,1,0,3:0:0:0:
109,34,170160,1,8,0:0:0:0:
129,70,170241,1,8,3:0:0:0:
136,111,170323,1,8,3:0:0:0:
127,151,170404,1,4,3:0:0:0:
102,185,170486,6,0,B|53:239|87:301|87:301|117:275|105:240,1,167.999994873047,4|2,0:0|3:0,0:0:0:0:
191,321,170975,2,0,B|232:301|248:263|248:263|278:285|330:273,1,167.999994873047,8|2,0:0|0:0,0:0:0:0:
512,296,171464,6,0,P|460:308|356:244,2,167.999994873047,8|2|0,0:0|0:0|3:0,0:0:0:0:
512,210,172279,1,0,0:0:0:0:
473,134,172442,6,0,P|406:86|324:94,1,167.999994873047,2|0,0:0|3:0,0:0:0:0:
242,142,172932,2,0,P|225:95|232:33,1,83.9999974365235,8|2,0:0|0:0,0:0:0:0:
320,176,173258,2,0,P|336:222|329:284,1,83.9999974365235,2|8,0:0|0:0,0:0:0:0:
60,359,173747,5,2,0:0:0:0:
125,304,173910,2,0,L|216:316,1,83.9999974365235,0|2,0:0|0:0,0:0:0:0:
86,229,174236,2,0,L|-5:241,1,83.9999974365235,2|10,0:0|0:0,0:0:0:0:
125,154,174562,1,2,0:0:0:0:
86,79,174725,2,0,B|105:62|112:32|112:32|140:93|199:111,1,167.999994873047,2|2,0:0|3:0,0:0:0:0:
316,58,175214,6,0,P|268:125|276:207,1,167.999994873047,8|2,0:0|0:0,0:0:0:0:
362,223,175703,2,0,P|409:237|455:280,1,83.9999974365235,8|2,0:0|0:0,0:0:0:0:
304,285,176029,2,0,P|287:332|294:394,1,83.9999974365235,2|2,0:0|0:0,0:0:0:0:
175,384,176355,6,0,B|224:330|190:268|190:268|160:294|172:329,1,167.999994873047,4|0,0:0|3:0,0:0:0:0:
376,355,177008,1,0,0:0:0:0:
443,303,177171,2,0,P|480:317|521:362,2,83.9999974365235,10|2|2,0:0|3:0|0:0,0:0:0:0:
366,271,177660,6,0,P|346:220|345:176,1,83.9999974365235
277,228,177986,1,0,0:0:0:0:
203,215,178149,1,0,0:0:0:0:
154,157,178312,1,0,0:0:0:0:
154,82,178475,1,0,0:0:0:0:
203,24,178638,2,0,B|255:36|285:14|285:14|301:52|342:72,1,167.999994873047,2|6,3:0|0:0,0:0:0:0:
512,169,179290,5,0,0:0:0:0:
444,217,179453,2,0,P|437:256|456:314,2,83.9999974365235,10|2|2,0:0|3:0|0:0,0:0:0:0:
436,134,179942,2,0,P|405:108|345:95,1,83.9999974365235,8|2,0:0|3:0,0:0:0:0:
290,164,180268,6,0,P|223:212|141:204,1,167.999994873047,2|4,0:0|0:0,0:0:0:0:
41,60,180921,2,0,P|14:61|-11:64,2,41.9999987182618,4|8|2,0:3|0:3|0:0,0:0:0:0:
99,14,181247,1,0,0:0:0:0:
165,57,181410,6,0,B|189:51|211:29|211:29|204:96|246:141,1,167.999994873047,8|2,0:0|0:0,0:0:0:0:
388,221,181899,2,0,P|356:195|316:183,1,83.9999974365235,8|0,0:0|3:0,0:0:0:0:
234,227,182225,2,0,P|192:233|152:224,1,83.9999974365235,2|0,0:0|3:0,0:0:0:0:
41,186,182551,2,0,B|90:240|56:302|56:302|26:276|38:241,1,167.999994873047,2|8,0:0|0:0,0:0:0:0:
137,124,183203,6,0,B|189:113|207:81|207:81|237:109|283:111,1,167.999994873047,4|2,0:0|3:0,0:0:0:0:
403,59,183692,2,0,P|355:126|363:208,1,167.999994873047,8|2,0:0|0:0,0:0:0:0:
460,278,184182,6,0,P|482:272|504:270,2,41.9999987182618,0|0|0,3:0|3:0|3:0,3:0:0:0:
415,338,184508,1,2,0:0:0:0:
148,374,184834,1,2,0:0:0:0:
250,124,185160,2,0,B|269:107|276:77|276:77|304:138|363:156,1,167.999994873047,8|4,0:0|1:0,0:0:0:0:
244,227,185649,6,0,P|203:215|171:188,1,83.9999974365235,2|2,0:0|3:0,0:0:0:0:
334,228,185975,1,8,0:0:0:0:
238,231,186138,2,0,P|197:219|165:192,1,83.9999974365235,2|2,0:0|3:0,0:0:0:0:
77,50,186464,2,0,L|52:160,1,83.9999974365235,4|0,0:0|0:0,0:0:0:0:
0,193,186790,5,0,0:0:0:0:
44,300,186953,1,2,3:0:0:0:
77,294,187035,1,2,3:0:0:0:
109,288,187116,1,2,3:0:0:0:
238,231,187279,1,2,3:0:0:0:
271,237,187361,1,2,3:0:0:0:
303,243,187442,1,2,3:0:0:0:
423,340,187605,5,2,3:0:0:0:
408,309,187687,1,2,3:0:0:0:
408,275,187768,2,0,P|415:251|415:227,1,41.9999987182618,8|8,3:0|3:0,0:0:0:0:
342,134,187932,2,0,P|335:110|335:86,1,41.9999987182618,4|4,3:0|3:0,0:0:0:0:
467,35,188095,6,0,P|432:110|357:144,1,167.999994873047,6|8,0:1|0:0,0:0:0:0:
218,61,188584,1,0,0:0:0:0:
116,72,188747,2,0,P|79:94|55:128,1,83.9999974365235,2|2,0:0|0:0,0:0:0:0:
91,286,189073,1,0,0:0:0:0:
173,316,189236,6,0,B|225:305|243:273|243:273|273:301|319:303,1,167.999994873047,2|2,0:1|3:0,0:0:0:0:
468,218,189725,2,0,P|425:218|387:236,1,83.9999974365235,8|2,0:0|0:0,0:0:0:0:
420,335,190051,1,0,3:0:0:0:
420,335,190133,1,0,3:0:0:0:
420,335,190214,1,2,0:0:0:0:
472,222,190377,2,0,P|476:179|464:139,1,83.9999974365235,8|2,0:0|0:0,0:0:0:0:
355,0,190703,6,0,P|347:82|395:149,1,167.999994873047,6|8,0:1|0:0,0:0:0:0:
512,78,191192,1,2,0:0:0:0:
395,149,191355,1,0,3:0:0:0:
386,150,191437,1,0,3:0:0:0:
377,151,191518,1,0,3:0:0:0:
299,126,191682,1,8,0:0:0:0:
235,213,191845,6,0,B|189:211|159:183|159:183|141:215|89:226,1,167.999994873047,2|2,0:1|0:0,0:0:0:0:
0,302,192334,1,8,0:0:0:0:
106,334,192497,1,2,3:0:0:0:
113,338,192578,1,2,3:0:0:0:
120,342,192660,1,2,3:0:0:0:
191,310,192823,2,0,P|231:295|273:296,1,83.9999974365235,2|8,0:0|0:0,0:0:0:0:
409,358,193149,1,0,0:0:0:0:
426,274,193312,6,0,B|451:277|473:299|473:299|463:232|503:185,1,167.999994873047,4|8,0:0|1:0,0:0:0:0:
498,191,193801,1,0,0:0:0:0:
434,151,193964,1,2,0:0:0:0:
471,85,194127,1,2,0:0:0:0:
444,14,194290,1,8,0:0:0:0:
300,26,194453,6,0,P|342:31|379:52,2,83.9999974365235,4|2|2,0:0|0:0|0:0,0:0:0:0:
242,75,194942,1,2,3:0:0:0:
234,78,195024,1,2,3:0:0:0:
225,81,195105,1,2,3:0:0:0:
259,148,195268,1,2,0:0:0:0:
215,210,195432,1,2,0:0:0:0:
139,216,195595,2,0,P|113:183|101:142,1,83.9999974365235,0|0,1:0|0:0,0:0:0:0:
0,30,195921,6,0,P|28:107|0:184,1,167.999994873047,4|8,0:0|0:0,0:0:0:0:
0,184,196410,1,2,0:0:0:0:
25,254,196573,1,2,0:0:0:0:
90,286,196736,1,2,0:0:0:0:
159,264,196899,1,8,0:0:0:0:
236,171,197062,6,0,B|278:187|317:174|317:174|321:211|364:242,1,167.999994873047,4|2,0:1|0:0,0:0:0:0:
422,318,197470,1,2,0:0:0:0:
456,303,197551,2,0,P|470:283|475:251,1,41.9999987182618,10|4,0:0|3:0,0:0:0:0:
398,160,197714,2,0,P|395:136|407:105,1,41.9999987182618,8|8,3:0|0:0,0:0:0:0:
468,38,197877,1,10,0:0:0:0:
299,100,198040,2,0,B|266:89|224:8|224:8|217:95|172:137,1,251.999992309571,2|4,0:1|0:1,0:0:0:0:
179,128,198855,6,0,L|264:159,1,70,2|0,3:0|0:0,0:0:0:0:
356,146,199182,2,0,P|391:182|328:202,1,140,8|2,0:0|0:0,0:0:0:0:
249,246,199671,1,0,3:0:0:0:
243,250,199752,1,0,3:0:0:0:
237,254,199834,6,0,L|153:263,1,70,2|2,3:0|0:0,0:0:0:0:
102,321,200160,2,0,L|86:178,1,140,2|8,0:0|0:0,0:0:0:0:
87,181,200649,1,2,0:0:0:0:
38,121,200812,1,2,3:0:0:0:
79,57,200975,1,0,3:0:0:0:
160,11,201138,6,0,P|205:50|201:131,1,140,4|2,0:1|0:0,0:0:0:0:
333,47,201573,2,2,P|321:80|321:104,1,46.6666666666667,2|2,1:0|1:0,1:0:0:0:
383,148,201790,2,2,P|401:162|415:180,2,46.6666666666667,10|0|0,1:0|1:0|1:0,1:0:0:0:
302,174,202116,2,2,P|280:182|257:185,2,46.6666666666667,10|0|0,0:0|0:0|0:0,0:0:0:0:
320,91,202442,6,0,L|316:44,2,35,2|2|0,3:0|3:0|1:0,0:0:0:0:
302,174,202768,1,2,3:0:0:0:
306,183,202850,1,2,3:0:0:0:
310,192,202932,1,2,3:0:0:0:
370,237,203095,1,8,0:0:0:0:
412,313,203258,2,0,P|372:313|339:319,1,70,2|8,0:0|0:0,0:0:0:0:
216,348,203584,1,4,3:0:0:0:
205,350,203665,1,8,0:0:0:0:
194,353,203747,5,2,0:0:0:0:
127,309,203910,2,0,P|104:273|88:226,1,83.9999974365235,2|2,3:0|3:0,0:0:0:0:
184,100,204236,2,0,P|207:64|223:17,1,83.9999974365235,2|2,3:0|3:0,0:0:0:0:
104,70,204562,1,2,0:0:0:0:
117,153,204725,1,8,0:0:0:0:
196,182,204888,6,0,B|248:171|266:139|266:139|296:167|342:169,1,167.999994873047,2|2,0:1|0:0,0:0:0:0:
512,143,205377,1,8,0:0:0:0:
470,231,205540,2,0,P|424:160|437:79,1,167.999994873047,2|2,0:0|0:0,0:0:0:0:
512,6,206029,1,8,0:0:0:0:
392,24,206192,1,2,3:0:0:0:
383,32,206274,1,2,3:0:0:0:
374,40,206355,5,2,3:0:0:0:
316,102,206518,2,0,P|274:100|226:85,1,83.9999974365235,2|8,0:0|0:0,0:0:0:0:
146,7,206845,2,0,B|175:74|122:120|122:120|102:87|125:57,1,167.999994873047,2|2,0:0|0:0,0:0:0:0:
227,82,207334,1,0,0:0:0:0:
275,169,207497,6,0,B|325:185|357:166|357:166|369:206|407:230,1,167.999994873047,2|2,0:1|0:0,0:0:0:0:
423,312,207986,2,0,P|410:271|408:221,1,83.9999974365235,6|2,0:0|3:0,0:0:0:0:
429,166,208312,1,0,0:0:0:0:
407,103,208475,1,0,0:0:0:0:
348,70,208638,1,0,0:0:0:0:
239,133,208801,1,0,0:0:0:0:
189,64,208964,6,0,B|164:58|142:36|142:36|149:103|107:148,1,167.999994873047,4|8,0:1|0:0,0:0:0:0:
26,208,209453,1,0,3:0:0:0:
29,215,209535,1,0,3:0:0:0:
32,222,209616,1,2,1:0:0:0:
66,238,209698,1,2,3:0:0:0:
102,244,209779,1,2,3:0:0:0:
139,235,209861,1,2,3:0:0:0:
172,217,209942,2,0,P|206:217|238:225,1,41.9999987182618,8|0,0:0|0:0,0:0:0:0:
333,305,210105,6,0,P|345:264|347:214,1,83.9999974365235,6|2,0:0|0:1,0:0:0:0:
309,149,210350,1,4,3:0:0:0:
290,115,210432,2,0,P|299:94|328:54,1,41.9999987182618,8|2,0:3|0:0,0:0:0:0:
452,56,210595,2,0,P|466:34|474:-11,1,41.9999987182618,8|2,0:0|0:0,0:0:0:0:
399,111,210758,1,2,0:0:0:0:
422,140,210839,1,4,3:0:0:0:
438,174,210921,2,0,P|429:198|433:228,1,41.9999987182618,2|0,0:0|0:0,0:0:0:0:
457,323,211084,1,4,3:0:0:0:
419,316,211165,1,8,3:0:0:0:
381,323,211247,2,0,P|356:331|312:324,1,41.9999987182618,6|0,0:0|0:0,0:0:0:0:
204,278,211410,2,0,P|179:270|135:277,1,41.9999987182618,6|0,1:0|0:0,0:0:0:0:
253,350,211573,6,0,P|279:269|245:194,1,167.999994873047,2|2,0:1|0:0,0:0:0:0:
134,101,212062,2,0,P|118:61|113:11,1,83.9999974365235,2|2,0:0|3:0,0:0:0:0:
221,80,212388,1,2,0:0:0:0:
119,177,212551,1,0,0:0:0:0:
176,272,212714,6,0,B|201:266|223:244|223:244|216:311|258:356,1,167.999994873047,4|8,0:1|0:0,0:0:0:0:
404,384,213203,2,0,P|430:303|396:228,1,167.999994873047,4|12,0:1|0:0,0:0:0:0:
292,133,213692,1,2,2:0:0:0:
345,18,213855,1,8,0:0:0:0:
435,60,214018,1,4,3:0:0:0:
448,95,214100,1,4,3:0:0:0:
451,131,214182,6,0,P|409:201|330:226,1,167.999994873047,4|8,0:1|0:0,0:0:0:0:
176,267,214671,2,0,B|126:283|94:264|94:264|82:304|44:328,1,167.999994873047,4|2,0:1|0:0,0:0:0:0:
43,328,215160,1,0,0:0:0:0:
26,160,215323,6,0,P|79:131|134:209,1,167.999994873047,4|0,0:0|0:0,0:0:0:0:
135,203,215812,1,8,0:0:0:0:
223,180,215975,1,4,3:0:0:0:
235,183,216057,1,4,3:0:0:0:
246,186,216138,2,0,P|288:181|336:166,1,83.9999974365235,4|0,3:0|0:0,0:0:0:0:
412,119,216464,2,0,P|438:85|461:41,1,83.9999974365235,2|0,0:0|0:0,0:0:0:0:
458,49,216790,6,0,B|357:81|260:12|260:12|294:98|232:164,1,367.500014019013,6|0,0:1|0:0,0:0:0:0:
236,159,218095,6,0,L|121:149,1,105.000004005432,2|0,0:0|0:0,0:0:0:0:
268,250,218747,2,0,L|383:240,1,105.000004005432,2|0,0:0|0:0,0:0:0:0:
236,341,219399,6,0,L|77:327,2,157.500006008148,2|0|0,0:0|0:0|0:0,0:0:0:0:
287,315,220540,1,0,0:0:0:0:
338,289,220703,6,0,P|364:244|414:228,1,105.000004005432,2|0,0:0|0:0,0:0:0:0:
457,191,221192,1,0,0:0:0:0:
424,143,221355,1,2,0:0:0:0:
424,143,221682,2,0,P|406:118|400:94,1,52.5000020027161
384,41,222008,6,0,P|358:113|234:159,2,210.000008010865,2|0|2,0:1|0:0|0:0,0:0:0:0:
274,244,223964,2,0,L|159:234,1,105.000004005432,2|0,0:0|0:0,0:0:0:0:
81,309,224616,6,0,P|136:259|154:170,2,157.500006008148,2|0|0,0:0|0:0|0:0,0:0:0:0:
38,269,225758,1,0,0:0:0:0:
33,211,225921,6,0,P|43:186|61:160,1,52.5000020027161,2|0,0:0|0:0,0:0:0:0:
58,89,226247,2,0,P|79:72|107:58,1,52.5000020027161,2|0,0:0|0:0,0:0:0:0:
161,13,226573,1,0,0:0:0:0:
216,29,226736,1,0,0:0:0:0:
246,108,226899,1,0,0:0:0:0:
190,123,227062,1,0,0:0:0:0:
161,201,227225,6,0,P|204:231|277:235,1,105.000004005432,2|0,0:0|0:0,0:0:0:0:
320,189,227714,2,0,P|365:197|353:301,1,157.500006008148,2|0,0:0|0:0,0:0:0:0:
313,351,228366,2,0,P|277:347|257:339,1,52.5000020027161
63,218,228855,6,0,L|75:327,2,105.000004005432,2|0|0,0:0|0:0|0:0,0:0:0:0:
11,135,229834,2,0,B|104:148|104:148|132:132,1,105.000004005432,2|0,0:0|0:0,0:0:0:0:
221,57,230323,2,0,B|128:70|128:70|100:54,1,105.000004005432,2|0,0:0|0:0,0:0:0:0:
54,0,230812,2,0,P|37:26|26:53,1,52.5000020027161
272,18,231627,5,0,0:0:0:0:
312,59,231790,2,0,P|308:92|301:130,1,52.5000020027161,2|0,0:0|0:0,0:0:0:0:
337,176,232116,2,0,P|317:203|291:231,1,52.5000020027161,2|0,0:0|0:0,0:0:0:0:
237,282,232442,6,0,P|109:244|88:301,1,210,4|0,0:0|0:0,0:0:0:0:
88,284,233095,1,0,1:0:0:0:
0,160,233421,1,0,0:0:0:0:
91,38,233747,6,0,L|78:115,1,70,0|0,1:0|0:0,0:0:0:0:
79,107,234073,1,0,0:0:0:0:
219,156,234399,2,0,L|207:86,1,70,0|0,1:0|0:0,0:0:0:0:
207,86,234725,1,0,0:0:0:0:
306,8,235051,6,0,P|307:112|379:191,1,210,2|0,0:1|0:0,0:0:0:0:
374,188,235703,1,0,1:0:0:0:
129,222,236192,5,0,3:0:0:0:
129,222,236274,1,0,3:0:0:0:
129,222,236355,2,0,L|208:230,1,70,2|0,0:0|0:0,0:0:0:0:
198,229,236682,1,0,3:0:0:0:
351,293,237008,2,0,L|272:301,1,70,2|0,0:0|0:0,0:0:0:0:
281,300,237334,1,0,3:0:0:0:
184,361,237660,5,2,0:0:0:0:
5,239,237986,2,0,L|82:247,1,70
74,246,238312,1,0,1:0:0:0:
175,62,238638,2,0,L|140:203,1,140,0|2,0:0|0:0,0:0:0:0:
192,55,239290,5,0,0:0:0:0:
308,131,239616,1,0,0:0:0:0:
439,74,239942,2,0,P|438:149|416:225,1,140,0|2,0:0|0:0,0:0:0:0:
308,131,240595,5,0,0:0:0:0:
295,139,240758,2,0,P|287:189|457:297,1,280,2|0,0:1|0:0,0:0:0:0:
451,300,241573,5,2,0:0:0:0:
508,94,242062,1,2,0:0:0:0:
508,94,242388,1,2,0:0:0:0:
451,300,242877,6,0,B|377:249|308:302|308:302|335:330|370:312,1,210,4|0,0:0|0:0,0:0:0:0:
357,317,243529,1,0,0:0:0:0:
340,152,243855,2,0,P|322:183|306:230,1,70
239,268,244182,6,0,P|178:233|90:217,1,140,2|0,0:0|0:0,0:0:0:0:
0,94,244834,2,0,P|61:59|149:43,1,140,2|0,0:0|0:0,0:0:0:0:
304,48,245486,6,0,P|229:48|142:66,2,140
304,48,246464,2,0,P|297:83|293:124,1,70
360,164,246790,6,0,P|347:237|325:314,1,140
317,307,247279,1,0,0:0:0:0:
305,314,247442,2,0,P|270:315|223:293,1,70
329,300,247768,1,2,3:0:0:0:
329,300,248095,6,0,B|366:303|392:331|392:331|436:351|474:320,1,140,4|0,0:0|0:0,0:0:0:0:
457,330,248584,1,2,0:0:0:0:
479,248,248747,2,0,P|488:207|414:209,1,140
415,208,249236,1,2,0:0:0:0:
316,263,249399,6,0,P|281:254|238:234,1,70,2|0,0:0|0:0,0:0:0:0:
149,127,249725,2,0,P|182:135|215:149,1,70,2|0,0:0|0:0,0:0:0:0:
361,141,250051,2,8,P|334:128|318:124,3,35
290,37,250377,2,8,P|318:49|334:53,3,35
395,92,250703,5,0,3:0:0:0:
389,100,250785,1,0,3:0:0:0:
383,108,250866,1,0,3:0:0:0:
378,116,250948,1,0,3:0:0:0:
372,125,251029,1,0,3:0:0:0:
367,133,251111,1,0,3:0:0:0:
361,141,251192,1,0,3:0:0:0:
355,150,251274,1,0,3:0:0:0:
351,158,251355,1,8,0:0:0:0:
345,166,251437,1,8,0:0:0:0:
339,175,251518,1,8,0:0:0:0:
335,183,251600,1,8,0:0:0:0:
331,191,251682,5,8,0:0:0:0:
437,221,251845,1,4,0:0:0:0:
437,221,252660,5,8,0:0:0:0:
392,229,252741,1,8,0:0:0:0:
346,237,252823,1,8,0:0:0:0:
301,245,252904,1,8,3:0:0:0:
255,253,252986,2,0,P|228:248|195:238,1,35,8|8,3:0|3:0,0:0:0:0:
86,174,253149,2,0,P|103:170|120:167,1,35,8|4,3:0|3:0,0:0:0:0:
231,11,253312,6,8,P|217:62|279:167,1,167.999994873047,4|8,1:0|0:0,0:0:0:0:
457,196,253801,1,0,3:0:0:0:
422,206,253883,1,0,3:0:0:0:
392,229,253964,1,4,3:0:0:0:
276,374,254127,2,0,P|317:356|358:314,1,83.9999974365235,4|8,3:0|0:0,0:0:0:0:
388,223,254453,1,0,0:0:0:0:
353,154,254616,6,0,P|307:189|237:203,1,97.9999970092774,2|0,0:1|0:0,0:0:0:0:
111,64,254942,2,0,P|164:85|210:139,1,97.9999970092774,10|0,0:1|0:0,0:0:0:0:
155,318,255268,2,0,P|146:259|169:192,1,97.9999970092774,2|0,0:1|0:0,0:0:0:0:
345,158,255595,1,8,0:0:0:0:
279,198,255758,1,4,2:0:0:0:
111,64,255921,6,8,P|64:89|32:207,1,167.999994873047,4|8,1:0|0:0,0:0:0:0:
163,316,256410,1,0,3:0:0:0:
198,306,256491,1,0,3:0:0:0:
228,283,256573,1,4,3:0:0:0:
326,129,256736,2,0,P|285:147|244:189,1,83.9999974365235,4|8,3:0|0:0,0:0:0:0:
225,291,257062,1,0,0:0:0:0:
255,172,257225,6,0,P|223:144|184:128,1,83.9999974365235,4|0,0:0|0:0,0:0:0:0:
83,106,257551,1,8,0:0:0:0:
1,204,257714,1,0,3:0:0:0:
4,216,257796,1,0,3:0:0:0:
7,228,257877,1,0,3:0:0:0:
112,340,258040,2,0,P|119:298|114:257,1,83.9999974365235,4|8,3:0|0:0,0:0:0:0:
83,106,258366,1,0,3:0:0:0:
113,85,258448,1,0,3:0:0:0:
150,77,258529,6,0,B|170:64|183:39|183:39|177:114|216:162,1,167.999994873047,4|8,0:0|0:0,0:0:0:0:
375,229,259018,1,0,3:0:0:0:
410,219,259100,1,0,3:0:0:0:
440,196,259182,1,4,3:0:0:0:
512,34,259345,2,0,P|474:58|440:106,1,83.9999974365235,4|8,3:0|0:0,0:0:0:0:
443,204,259671,1,0,0:0:0:0:
478,324,259834,6,0,B|424:327|398:301|398:301|377:336|307:358,1,167.999994873047,4|8,0:0|0:0,0:0:0:0:
169,272,260323,1,0,3:0:0:0:
152,238,260404,1,0,3:0:0:0:
149,201,260486,1,4,3:0:0:0:
257,54,260649,2,0,P|254:98|230:152,1,83.9999974365235,4|8,3:0|0:0,0:0:0:0:
144,209,260975,1,0,0:0:0:0:
43,334,261138,6,8,B|84:284|69:225|69:225|37:222|23:249,1,167.999994873047,4|10,0:0|0:0,0:0:0:0:
167,337,261627,1,0,3:0:0:0:
202,327,261709,1,0,3:0:0:0:
232,304,261790,1,4,3:0:0:0:
305,148,261953,2,0,P|268:172|233:220,1,83.9999974365235,4|8,3:0|0:0,0:0:0:0:
236,310,262279,1,0,0:0:0:0:
332,361,262442,6,8,P|383:349|445:243,1,167.999994873047,4|8,1:0|0:0,3:0:0:0:
390,99,262932,1,0,3:0:0:0:
388,62,263013,1,0,3:0:0:0:
401,26,263095,1,4,3:0:0:0:
495,80,263258,1,0,0:0:0:0:
371,195,263421,6,0,B|326:182|305:147|305:147|279:173|225:170,1,167.999994873047,8|4,0:0|0:0,0:0:0:0:
69,178,263910,2,0,P|53:219|53:278,1,83.9999974365235,0|8,0:0|0:0,0:0:0:0:
192,326,264236,1,0,3:0:0:0:
225,312,264317,1,0,3:0:0:0:
253,286,264399,1,4,3:0:0:0:
256,92,264562,2,0,P|234:130|226:189,1,83.9999974365235,4|8,3:0|0:0,0:0:0:0:
260,292,264888,1,0,0:0:0:0:
407,328,265051,6,8,P|443:290|437:167,1,167.999994873047,4|8,1:0|0:0,3:0:0:0:
320,69,265540,1,2,3:0:0:0:
283,80,265622,1,2,3:0:0:0:
247,91,265703,1,8,3:0:0:0:
132,64,265866,1,0,0:0:0:0:
13,160,266029,2,0,L|68:171,1,41.9999987182618,8|2,0:0|3:0,0:0:0:0:
166,230,266192,2,0,L|111:241,1,41.9999987182618,2|2,3:0|3:0,0:0:0:0:
24,383,266355,6,0,P|97:313|187:328,1,167.999994873047,4|8,1:0|0:0,0:0:0:0:
295,374,266845,2,0,L|343:387,1,41.9999987182618,2|0,0:0|0:0,0:0:0:0:
489,283,267171,2,0,L|441:296,1,41.9999987182618,2|0,0:0|0:0,0:0:0:0:
356,152,267497,6,0,B|335:133|330:106|330:106|323:167|279:219,1,167.999994873047,4|8,1:0|0:0,0:0:0:0:
274,214,267904,1,0,0:0:0:0:
261,217,267986,1,0,0:0:0:0:
100,221,268149,2,0,P|142:236|204:227,1,83.9999974365235,2|8,0:1|0:0,0:0:0:0:
73,137,268475,1,8,3:0:0:0:
60,145,268557,1,8,3:0:0:0:
48,153,268638,2,0,P|28:170|19:192,1,41.9999987182618,4|0,3:0|0:0,0:0:0:0:
79,306,268801,2,0,P|101:314|125:316,1,41.9999987182618,4|0,3:0|0:0,0:0:0:0:
273,239,268964,6,0,B|233:301|278:355|278:355|303:325|285:292,1,167.999994873047,4|8,0:0|0:0,0:0:0:0:
236,181,269453,1,2,3:0:0:0:
216,147,269535,1,2,3:0:0:0:
187,124,269616,1,8,3:0:0:0:
26,30,269779,2,0,P|42:69|70:100,1,83.9999974365235,4|8,3:0|0:0,0:0:0:0:
191,120,270105,1,0,0:0:0:0:
139,260,270268,6,0,P|130:201|153:134,1,97.9999970092774,2|0,0:1|0:0,0:0:0:0:
337,96,270595,2,0,P|291:131|221:145,1,97.9999970092774,10|0,0:1|0:0,0:0:0:0:
95,6,270921,2,0,P|148:27|194:81,1,97.9999970092774,2|0,0:1|0:0,0:0:0:0:
242,221,271247,1,8,0:0:0:0:
134,169,271410,1,0,0:0:0:0:
63,367,271573,6,0,B|117:317|88:253|88:253|56:276|65:312,1,167.999994873047,4|8,0:0|0:0,0:0:0:0:
167,358,272062,1,2,3:0:0:0:
205,354,272143,1,2,3:0:0:0:
239,338,272225,1,8,3:0:0:0:
359,205,272388,2,0,P|316:212|281:234,1,83.9999974365235,4|8,3:0|0:0,0:0:0:0:
235,333,272714,1,0,0:0:0:0:
282,233,272877,6,0,P|253:195|218:168,1,83.9999974365235,4|0,0:0|0:0,0:0:0:0:
95,138,273203,1,8,0:0:0:0:
5,265,273366,1,2,3:0:0:0:
31,292,273448,1,2,3:0:0:0:
64,310,273529,1,8,3:0:0:0:
253,340,273692,2,0,P|221:309|182:295,1,83.9999974365235,4|8,3:0|0:0,0:0:0:0:
61,317,274018,1,0,0:0:0:0:
41,90,274182,6,8,P|29:142|93:246,1,167.999994873047,4|8,1:0|0:0,0:0:0:0:
289,211,274671,1,2,3:0:0:0:
303,176,274752,1,2,3:0:0:0:
308,138,274834,1,8,3:0:0:0:
227,0,274997,2,0,P|211:40|213:82,1,83.9999974365235,4|8,3:0|0:0,0:0:0:0:
319,141,275323,1,0,0:0:0:0:
429,92,275486,6,0,B|449:79|462:54|462:54|456:129|495:177,1,167.999994873047,4|8,0:0|0:0,0:0:0:0:
457,281,275975,1,2,3:0:0:0:
348,328,276138,2,0,P|309:311|280:281,1,83.9999974365235,4|8,3:0|0:0,0:0:0:0:
203,179,276464,2,0,B|157:190|121:170|121:170|112:205|64:230,1,167.999994873047,8|4,0:0|0:0,0:0:0:0:
84,383,276953,6,0,P|116:360|138:300,1,83.9999974365235,0|8,0:0|0:0,0:0:0:0:
203,179,277279,1,2,3:0:0:0:
218,144,277361,1,2,3:0:0:0:
243,115,277442,1,8,3:0:0:0:
414,64,277605,2,0,P|392:96|332:118,1,83.9999974365235,0|8,0:0|0:0,0:0:0:0:
234,117,277932,1,0,0:0:0:0:
142,44,278095,6,0,P|129:80|148:141,1,83.9999974365235,4|0,0:0|0:0,0:0:0:0:
86,273,278421,2,0,P|98:236|79:175,1,83.9999974365235,8|0,0:0|0:0,0:0:0:0:
1,231,278747,1,4,3:0:0:0:
28,339,278910,2,0,P|75:355|136:348,1,83.9999974365235,4|8,3:0|0:0,0:0:0:0:
1,237,279236,1,0,0:0:0:0:
90,192,279399,6,0,B|124:127|74:76|74:76|53:109|73:140,1,167.999994873047,4|8,0:0|0:0,0:0:0:0:
199,256,279888,1,2,3:0:0:0:
221,286,279970,1,2,3:0:0:0:
251,309,280051,1,8,3:0:0:0:
431,322,280214,2,0,P|396:299|356:288,1,83.9999974365235,4|8,3:0|0:0,0:0:0:0:
247,315,280540,1,0,0:0:0:0:
130,358,280703,6,0,B|75:308|105:243|105:243|136:267|128:303,1,167.999994873047,4|8,0:0|0:0,0:0:0:0:
23,243,281192,1,2,3:0:0:0:
6,209,281274,1,2,3:0:0:0:
0,172,281355,1,8,3:0:0:0:
113,48,281518,2,0,P|110:89|95:128,1,83.9999974365235,4|8,3:0|0:0,0:0:0:0:
31,245,281845,1,0,0:0:0:0:
128,276,282008,6,0,B|164:270|182:240|182:240|175:299|202:344,1,167.999994873047,4|8,0:0|0:0,0:0:0:0:
198,337,282497,1,0,0:0:0:0:
272,342,282660,1,4,3:0:0:0:
333,300,282823,1,2,3:0:0:0:
351,229,282986,1,4,3:0:0:0:
321,162,283149,1,2,3:0:0:0:
179,142,283312,5,0,3:0:0:0:
239,198,283475,1,0,3:0:0:0:
313,200,283638,1,8,0:0:0:0:
370,153,283801,1,0,3:0:0:0:
365,147,283883,1,0,3:0:0:0:
362,141,283964,1,8,0:0:0:0:
277,39,284127,2,0,L|291:101,2,41.9999987182618,0|0|8,3:0|3:0|3:0,0:0:0:0:
179,142,284453,1,8,3:0:0:0:
178,180,284535,1,8,3:0:0:0:
188,216,284616,6,0,B|220:282|169:331|169:331|148:297|170:267,1,167.999994873047,4|8,1:3|0:0,0:0:0:0:
283,211,285105,2,0,P|331:220|382:257,1,83.9999974365235,0|8,0:0|0:0,0:0:0:0:
176,372,285432,2,0,P|160:325|167:263,1,83.9999974365235,0|8,0:0|0:0,0:0:0:0:
179,142,285758,1,0,0:0:0:0:
11,122,285921,6,0,B|34:111|49:85|49:85|59:151|111:184,1,167.999994873047,4|8,0:0|0:0,0:0:0:0:
307,166,286410,1,0,3:0:0:0:
326,133,286491,1,0,3:0:0:0:
334,98,286573,1,8,0:0:0:0:
192,11,286736,2,0,P|155:42|130:100,1,83.9999974365235,0|8,0:0|0:0,0:0:0:0:
183,216,287062,1,4,3:0:0:0:
320,275,287225,6,0,L|299:396,1,83.9999974365235,4|0,0:0|0:0,0:0:0:0:
183,216,287551,2,0,L|204:337,1,83.9999974365235,8|2,0:0|3:0,0:0:0:0:
194,311,287796,1,2,3:0:0:0:
190,323,287877,1,8,0:0:0:0:
80,361,288040,2,0,P|43:330|18:272,1,83.9999974365235,0|8,0:0|0:0,0:0:0:0:
74,213,288366,6,0,B|37:203|20:169|20:169|117:135|182:215,1,251.999992309571,4|4,1:0|0:0,0:0:0:0:
281,321,289018,1,0,0:0:0:0:
417,265,289182,2,0,P|418:242|411:200,1,41.9999987182618,2|2,0:0|0:0,0:0:0:0:
432,239,289345,2,0,P|427:216|413:176,1,41.9999987182618,2|8,0:0|0:0,0:0:0:0:
441,210,289508,2,0,P|431:188|409:152,1,41.9999987182618,8|8,0:0|3:0,0:0:0:0:
443,179,289671,2,0,P|429:160|400:129,1,41.9999987182618,8|4,3:0|3:0,0:0:0:0:
432,132,289834,6,0,L|272:148,1,140,4|4,0:0|3:0,0:0:0:0:
292,146,290323,1,4,3:0:0:0:
194,53,290486,2,0,L|177:212,1,140,4|0,0:0|0:0,0:0:0:0:
179,192,290975,1,0,0:0:0:0:
84,296,291138,6,0,P|143:330|169:331,1,83.9999974365235,2|0,0:1|0:0,0:0:0:0:
349,298,291464,2,0,P|289:263|263:262,1,83.9999974365235,2|0,0:1|0:0,0:0:0:0:
66,257,291790,6,0,P|117:303|142:310,1,83.9999974365235,4|0,0:0|0:0,0:0:0:0:
324,315,292116,2,0,P|273:268|248:262,1,83.9999974365235,4|0,0:0|0:0,0:0:0:0:
76,184,292442,6,0,P|66:166|51:146,3,41.9999987182618,0|0|0|0,3:0|3:0|3:0|3:0,0:0:0:0:
84,54,292768,2,0,P|96:70|106:89,3,41.9999987182618,2|2|2|2,3:0|3:0|3:0|3:0,0:0:0:0:
141,82,293095,5,8,0:0:0:0:
185,59,293176,1,8,0:0:0:0:
221,95,293258,1,8,0:0:0:0:
198,139,293339,1,8,0:0:0:0:
149,132,293421,1,8,0:0:0:0:
0,57,293584,1,4,0:0:0:0:
95,24,295703,5,2,0:0:0:0:
129,30,295785,1,0,0:0:0:0:
163,36,295866,1,2,0:0:0:0:
197,42,295948,1,0,0:0:0:0:
231,48,296029,2,8,P|275:36|289:30,1,35,8|0,0:0|0:0,0:0:0:0:
174,115,296192,2,0,P|129:126|115:132,1,35,8|0,3:0|0:0,0:0:0:0:
268,164,296355,6,0,B|294:149|302:128|302:128|299:181|328:218,1,140,4|8,0:0|0:0,0:0:0:0:
324,212,296845,1,0,0:0:0:0:
396,163,297008,2,0,L|405:116,2,35,0|0|2,0:0|0:0|0:0,0:0:0:0:
324,212,297334,1,0,0:0:0:0:
417,280,297497,6,0,L|323:302,1,70,4|0,0:0|0:0,0:0:0:0:
340,302,297741,1,8,0:0:0:0:
332,308,297823,1,8,0:0:0:0:
215,241,297986,2,0,L|224:358,1,105,8|0,0:0|0:0,0:0:0:0:
214,355,298312,2,0,P|171:346|152:364,1,70,2|0,0:0|0:0,0:0:0:0:
29,290,298638,2,0,P|72:281|91:299,1,70,8|0,0:0|0:0,0:0:0:0:
193,219,298964,6,0,P|169:213|152:227,2,35,8|2|2,3:0|0:0|0:0,0:0:0:0:
261,246,299290,1,2,0:0:0:0:
328,216,299453,1,2,0:0:0:0:
355,149,299616,1,2,0:0:0:0:
326,81,299779,1,2,3:0:0:0:
416,0,299942,2,0,P|399:35|405:89,1,70,2|0,1:0|0:0,0:0:0:0:
401,74,300187,1,8,0:0:0:0:
407,82,300268,5,8,0:0:0:0:
457,198,300432,2,0,L|473:119,1,70,0|8,0:0|0:0,0:0:0:0:
471,129,300758,1,2,0:0:0:0:
382,211,300921,1,2,0:0:0:0:
373,217,301002,1,2,0:0:0:0:
364,222,301084,1,2,3:0:0:0:
247,158,301247,2,0,P|268:157|279:144,1,35,8|0,0:0|0:0,0:0:0:0:
229,151,301410,6,0,P|175:160|146:187,1,70,4|0,0:0|0:0,0:0:0:0:
159,177,301654,1,8,0:0:0:0:
156,187,301736,1,8,0:0:0:0:
121,293,301899,2,0,P|114:256|94:226,1,70,4|0,0:0|0:0,0:0:0:0:
31,185,302143,1,0,0:0:0:0:
22,178,302225,2,0,P|25:152|34:117,1,35
58,73,302388,2,0,P|73:51|98:26,1,35
148,5,302551,1,0,0:0:0:0:
253,88,302714,6,0,P|260:125|280:155,1,70,4|0,0:0|0:0,0:0:0:0:
287,154,302959,1,0,0:0:0:0:
297,156,303040,1,0,0:0:0:0:
425,212,303203,2,0,L|383:220,1,35,4|0,1:0|0:0,0:0:0:0:
388,244,303366,2,0,L|346:236,1,35,12|0,3:0|0:0,0:0:0:0:
259,253,303529,1,2,3:0:0:0:
251,260,303611,1,2,3:0:0:0:
244,267,303692,1,2,3:0:0:0:
237,274,303774,1,2,3:0:0:0:
230,281,303855,1,8,0:0:0:0:
128,288,304018,5,6,1:0:0:0:
256,192,304100,12,0,305486,0:0:0:0:
173,133,305649,5,0,0:0:0:0:
102,172,305812,2,0,L|106:264,1,70,2|4,3:0|3:0,0:0:0:0:
112,252,306057,1,4,3:0:0:0:
120,260,306138,1,8,0:0:0:0:
120,260,306464,5,6,1:0:0:0:
261,190,306627,1,6,1:0:0:0:
256,192,306709,12,0,312334,0:0:0:0:
