osu file format v14

[General]
AudioFilename: audio.mp3
AudioLeadIn: 0
PreviewTime:154188
Countdown: 0
SampleSet: Normal
StackLeniency: 0.7
Mode: 0
LetterboxInBreaks: 0
WidescreenStoryboard: 1

[Editor]
Bookmarks: 48048
DistanceSpacing: 1
BeatDivisor: 2
GridSize: 8
TimelineZoom: 3.399999

[Metadata]
Title:Floating Darkness...
TitleUnicode:Floating Darkness...
Artist:TatshMusicCircle feat. Tsukiko
ArtistUnicode:TatshMusicCircle feat. 月子
Creator:Luscent
Version:Normal
Source:東方星蓮船 ~ Undefined Fantastic Object.
Tags:平安のエイリアン Heian no Alien EvilElvis Jounzan Natteke desu Dailycare kowari 東方Project Touhou Project ZUN Team Shanghai Alice TH12 UFO extra stage Seirensen nue houjuu 封獣 ぬえ video game rock japanese tatsh
BeatmapID:4196965
BeatmapSetID:1996833

[Difficulty]
HPDrainRate:3
CircleSize:3
OverallDifficulty:4
ApproachRate:5
SliderMultiplier:1
SliderTickRate:1

[Events]
//Background and Video events
0,0,"nue.jpg",0,0
//Break Periods
2,79896,89046
2,111545,120694
//Storyboard Layer 0 (Background)
//Storyboard Layer 1 (Fail)
//Storyboard Layer 2 (Pass)
//Storyboard Layer 3 (Foreground)
//Storyboard Layer 4 (Overlay)
//Storyboard Sound Samples

[TimingPoints]
16400,329.67032967033,4,1,1,60,1,0
26949,-125,4,1,1,50,0,0
45410,-125,4,1,1,60,0,0
48048,-100,4,1,1,70,0,0
59916,-111.111111111111,4,1,1,60,0,0
69147,-111.111111111111,4,1,1,65,0,0
79696,-125,4,1,1,35,0,0
88927,-125,4,1,1,45,0,0
90246,-100,4,1,1,75,0,1
111345,-100,4,1,1,60,0,0
121894,-100,4,1,1,70,0,0
132443,-111.111111111111,4,1,1,70,0,0
132773,-111.111111111111,4,1,1,60,0,0
154202,329.67032967033,4,1,1,80,1,1
173817,-100,4,1,1,80,0,0
175300,-95.2380952380952,4,1,1,85,0,1
196399,-100,4,1,1,80,0,0
212223,-100,4,1,1,70,0,0
213542,-100,4,1,1,85,0,0
214202,-100,4,1,1,90,0,0
214531,-100,4,1,1,95,0,0
214861,-125,4,1,1,80,0,0
215026,-125,4,1,1,55,0,0

[Colours]
Combo1 : 128,0,255
Combo2 : 62,255,158
Combo3 : 36,146,255
Combo4 : 149,0,149

[HitObjects]
78,269,16399,6,0,B|125:298|186:278,1,100,4|0,1:0|0:0,0:0:0:0:
269,312,17059,2,0,B|293:254|276:198,1,100
245,120,17718,2,0,B|303:137|369:116,2,100,0|0|4,0:0|0:0|0:0,0:0:0:0:
154,77,18707,1,8,0:0:0:0:
71,133,19037,6,0,B|54:189|76:236,1,100
169,259,19696,1,0,0:0:0:0:
261,296,20026,1,0,0:0:0:0:
356,326,20356,2,0,B|408:346|464:335,2,100
324,230,21345,1,0,0:0:0:0:
280,140,21674,6,0,B|146:111|103:214,1,200,4|0,0:0|0:0,0:0:0:0:
168,283,22663,1,0,0:0:0:0:
236,355,22993,2,0,B|370:384|413:281,1,200,0|4,0:0|0:0,0:0:0:0:
471,213,23982,1,8,0:0:0:0:
440,117,24312,1,0,0:0:0:0:
256,192,24476,12,4,26290,0:0:0:0:
152,108,26949,6,0,B|104:117|54:106,2,80,4|2|0,0:0|2:0|0:0,0:0:0:0:
223,143,27938,1,2,2:0:0:0:
288,189,28268,2,0,B|336:180|386:191,2,80,0|2|0,0:0|2:0|0:2,0:0:0:0:
238,251,29257,1,0,0:0:0:0:
171,294,29586,2,0,B|141:242|146:184,1,80,4|2,0:0|2:0,0:0:0:0:
84,167,30246,2,0,B|124:122|130:76,1,80,0|2,0:0|2:0,0:0:0:0:
191,54,30905,1,0,0:0:0:0:
270,65,31235,1,2,2:0:0:0:
349,76,31564,1,4,0:2:0:0:
418,220,32224,6,0,B|407:166|426:116,2,80,4|2|0,0:0|2:0|0:0,0:0:0:0:
440,296,33213,1,2,2:0:0:0:
362,277,33542,2,0,B|320:296|272:290,1,80,0|2,0:0|2:0,0:0:0:0:
223,344,34202,2,0,B|172:304|126:301,1,80
73,299,34861,1,4,0:0:0:0:
35,228,35191,2,0,B|14:170|30:113,1,80,2|0,2:0|1:0,0:0:0:0:
90,106,35850,2,0,B|136:125|203:114,2,80,2|0|0,2:0|0:0|2:0,0:0:0:0:
61,31,36839,1,4,0:2:0:0:
219,50,37498,6,0,B|294:95|277:197,1,160,4|0,0:0|0:0,0:0:0:0:
226,249,38487,1,0,0:0:0:0:
146,237,38817,2,0,B|97:261|96:317,1,80,4|2,0:0|0:2,0:0:0:0:
170,331,39476,1,0,0:0:0:0:
249,341,39806,1,0,0:0:0:0:
328,351,40136,6,0,B|367:256|355:181,1,160,4|0,0:0|0:0,0:0:0:0:
295,143,41125,1,0,0:0:0:0:
232,91,41454,2,0,B|186:117|127:110|119:108,2,80,4|2|0,0:0|0:2|0:0,0:0:0:0:
389,62,42773,5,4,0:0:0:0:
427,132,43103,1,8,0:0:0:0:
448,208,43432,2,0,B|434:262|399:293,1,80,0|8,0:0|0:0,0:0:0:0:
366,344,44092,1,4,1:0:0:0:
299,299,44421,1,8,1:0:0:0:
225,268,44751,2,0,B|163:255|133:283,1,80,0|8,1:0|0:0,0:0:0:0:
80,227,45410,6,0,B|57:136|130:76,1,160,4|0,0:0|0:0,0:0:0:0:
202,92,46400,2,0,B|257:112|306:87,1,80,8|2,0:0|2:0,0:0:0:0:
480,157,48048,5,4,0:0:0:0:
442,249,48378,1,8,0:0:0:0:
358,303,48707,2,0,B|298:275|210:278,1,100,4|8,0:2|0:0,0:0:0:0:
172,231,49367,2,0,B|124:170|137:103,2,100,4|8|4,0:2|0:0|0:2,0:0:0:0:
175,331,50356,1,4,0:2:0:0:
260,279,50685,6,0,B|320:256|392:268,1,100,4|8,0:0|0:0,0:0:0:0:
457,281,51345,2,0,B|497:226|488:169,1,100,4|8,0:2|0:0,0:0:0:0:
468,90,52004,1,4,0:2:0:0:
375,51,52334,1,8,0:0:0:0:
289,103,52663,2,0,B|268:165|285:219,1,100,4|4,0:2|0:2,0:0:0:0:
340,282,53323,6,0,B|276:221|165:237,1,150,4|0,0:0|0:0,0:0:0:0:
152,239,53982,2,0,B|110:175|125:108,1,100,4|8,0:2|0:0,0:0:0:0:
197,81,54641,1,4,0:2:0:0:
295,99,54971,1,8,0:0:0:0:
393,118,55301,2,0,B|417:166|412:239,1,100,4|4,0:2|0:2,0:0:0:0:
406,314,55960,6,0,B|460:283|520:292,2,100,4|8|4,0:0|0:0|0:2,0:0:0:0:
318,265,56949,2,0,B|254:283|209:265,1,100,4|4,0:2|0:2,0:0:0:0:
123,297,57608,1,4,0:2:0:0:
60,218,57938,1,4,0:2:0:0:
101,127,58268,1,0,0:0:0:0:
200,126,58597,1,4,0:0:0:0:
200,126,59916,6,0,B|282:170|388:136,1,179.999994506836,4|0,0:0|0:0,0:0:0:0:
417,219,60905,1,8,0:0:0:0:
507,219,61235,2,0,B|520:272|505:330,2,89.999997253418,12|8|0,0:0|0:0|0:0,0:0:0:0:
464,139,62224,2,0,B|422:96|422:28,1,89.999997253418,8|4,0:0|0:0,0:0:0:0:
335,47,62883,1,8,0:0:0:0:
245,40,63213,1,8,0:0:0:0:
93,137,63872,6,0,B|107:196|160:230,1,89.999997253418,4|8,0:0|0:0,0:0:0:0:
194,283,64531,2,0,B|240:242|307:239,1,89.999997253418,0|8,0:0|0:0,0:0:0:0:
363,246,65191,1,0,0:0:0:0:
399,163,65520,1,8,0:0:0:0:
342,93,65850,1,0,0:0:0:0:
254,115,66180,2,0,B|203:136|133:127,1,89.999997253418,8|4,0:0|0:0,0:0:0:0:
85,169,66839,6,0,B|75:112|40:64,2,89.999997253418,8|0|8,0:0|0:0|0:0,0:0:0:0:
88,259,67828,1,4,0:2:0:0:
170,294,68158,1,4,0:2:0:0:
231,359,68487,1,4,0:2:0:0:
367,241,69147,6,0,B|416:257|488:249,2,89.999997253418,4|8|0,0:0|0:0|0:0,0:0:0:0:
295,186,70136,2,0,B|266:136|277:72,2,89.999997253418,8|0|8,0:0|0:0|0:0,0:0:0:0:
213,225,71125,1,0,0:0:0:0:
126,250,71454,1,8,0:0:0:0:
40,277,71784,6,0,B|19:215|29:158,1,89.999997253418,4|8,0:0|0:0,0:0:0:0:
95,130,72443,2,0,B|154:118|203:141,1,89.999997253418,0|8,0:0|0:0,0:0:0:0:
267,167,73103,1,4,0:2:0:0:
345,123,73432,1,4,0:2:0:0:
424,80,73762,1,4,0:2:0:0:
478,251,74421,6,0,B|439:251|426:241,1,44.999998626709,4|8,0:0|0:0,0:0:0:0:
398,273,74751,2,0,B|340:231|299:248,1,89.9999972534181,6|8,0:0|0:0,0:0:0:0:
233,205,75410,1,0,0:0:0:0:
145,225,75740,2,0,B|122:175|128:124,2,89.9999972534181,4|6|4,0:2|0:0|0:2,0:0:0:0:
183,307,76729,1,6,0:0:0:0:
268,278,77059,6,0,B|327:259|390:267,1,89.999997253418,4|4,0:2|0:2,0:0:0:0:
446,274,77718,2,0,B|483:218|477:153,1,89.999997253418,4|4,0:2|0:2,0:0:0:0:
438,108,78378,2,0,B|358:51|263:84,2,179.999994506836,4|4|4,0:2|0:2|1:0,0:0:0:0:
124,82,90246,6,0,B|108:146|146:196,1,100,4|8,0:0|0:0,0:0:0:0:
164,274,90905,2,0,B|135:305|92:303,2,75,4|8|8,0:2|0:0|0:0,0:0:0:0:
211,259,91564,2,0,B|267:243|315:266,1,100,4|8,0:0|0:0,0:0:0:0:
400,222,92224,2,0,B|421:179|415:133,2,75,4|8|8,0:2|0:0|0:0,0:0:0:0:
423,266,92883,1,4,0:0:0:0:
285,121,93542,6,0,B|267:81|279:45,2,75,4|8|8,0:2|0:0|0:0,0:0:0:0:
298,169,94202,2,0,B|294:223|241:251,1,100,4|0,0:2|0:0,0:0:0:0:
171,316,94861,1,4,0:2:0:0:
81,270,95191,1,4,0:2:0:0:
99,171,95520,1,4,0:0:0:0:
285,244,96180,6,0,B|325:258|373:246,2,75,4|8|8,0:2|0:0|0:0,0:0:0:0:
260,200,96839,1,4,0:0:0:0:
194,124,97169,1,8,0:0:0:0:
101,85,97498,2,0,B|64:107|16:96,2,75,4|0|8,0:2|0:0|0:0,0:0:0:0:
127,41,98158,1,4,0:0:0:0:
326,42,98817,6,0,B|352:90|340:152,1,100,4|0,0:2|0:0,0:0:0:0:
284,220,99476,2,0,B|232:240|182:223,2,100,4|0|4,0:2|0:0|0:2,0:0:0:0:
326,247,100301,1,0,0:0:0:0:
371,267,100465,1,0,0:0:0:0:
459,219,100795,6,0,B|489:163|470:106,1,100,6|8,0:0|0:0,0:0:0:0:
389,68,101454,2,0,B|325:86|275:66,1,100,0|10,0:0|0:0,0:0:0:0:
259,110,101949,1,0,0:0:0:0:
231,151,102114,2,0,B|205:206|223:259,1,100,6|8,0:0|0:0,0:0:0:0:
296,312,102773,2,0,B|340:294|379:301,2,75,0|0|8,0:0|0:0|0:0,0:0:0:0:
267,353,103432,1,6,0:0:0:0:
73,303,104092,6,0,B|38:266|34:229,2,75
122,298,104751,1,6,0:0:0:0:
175,213,105081,1,12,0:0:0:0:
272,191,105410,1,14,0:0:0:0:
315,100,105740,1,14,0:0:0:0:
412,121,106070,6,2,B|459:172|440:273,1,150,6|2,0:0|0:0,0:0:0:0:
418,307,106729,2,0,B|446:333|501:340,2,75,2|0|8,0:0|0:0|0:0,0:0:0:0:
368,297,107389,2,2,B|298:341|212:314,1,150,6|8,0:0|0:0,0:0:0:0:
178,295,108048,2,0,B|140:324|92:325,2,75,2|0|10,0:0|0:0|0:0,0:0:0:0:
201,250,108707,5,4,0:2:0:0:
223,152,109037,1,4,0:2:0:0:
169,67,109367,1,2,0:0:0:0:
70,51,109696,1,8,0:0:0:0:
2,125,110026,5,0,0:0:0:0:
256,192,110191,12,6,111345,0:0:0:0:
171,297,121894,6,0,B|229:287|287:311,1,100,4|10,0:0|1:0,0:0:0:0:
384,268,122553,2,0,B|433:215|426:152,1,100,4|10,0:0|0:0,0:0:0:0:
344,90,123213,1,4,0:0:0:0:
233,135,123542,1,10,0:0:0:0:
120,92,123872,1,4,0:0:0:0:
92,208,124202,1,10,0:0:0:0:
139,317,124531,6,0,B|206:296|270:302,1,100,4|10,0:0|0:0,0:0:0:0:
305,201,125191,2,0,B|281:137|281:77,1,100,4|10,0:0|0:0,0:0:0:0:
382,38,125850,1,4,0:2:0:0:
476,112,126180,1,10,0:0:0:0:
428,222,126509,1,10,0:0:0:0:
481,329,126839,1,14,0:0:0:0:
362,306,127169,6,0,B|311:322|234:308,1,100,4|2,0:0|0:0,0:0:0:0:
150,354,127828,2,0,B|115:290|126:230,1,100,4|2,0:0|0:0,0:0:0:0:
63,154,128487,1,4,0:0:0:0:
182,168,128817,1,2,0:0:0:0:
291,119,129147,1,4,0:0:0:0:
382,196,129476,1,10,0:0:0:0:
487,138,129806,6,0,B|476:75|490:10,1,100,4|10,0:0|0:0,0:0:0:0:
369,70,130465,2,0,B|305:93|244:72,1,100,4|10,0:0|0:0,0:0:0:0:
167,16,131125,2,0,B|35:16|37:145,1,200,4|0,0:0|0:0,0:0:0:0:
60,178,131949,1,4,0:0:0:0:
81,223,132114,1,0,0:0:0:0:
46,326,132443,6,0,B|119:300|172:314,1,89.9999972534181,4|8,0:0|0:0,0:0:0:0:
220,269,133103,2,0,B|265:308|332:303,2,89.9999972534181,4|8|4,0:0|0:0|0:0,0:0:0:0:
203,180,134092,1,8,0:0:0:0:
275,127,134421,2,0,B|333:113|388:139,1,89.9999972534181,4|8,0:0|0:0,0:0:0:0:
442,85,135081,5,4,0:0:0:0:
460,172,135410,2,0,B|476:215|459:270,1,89.9999972534181,8|4,0:0|0:0,0:0:0:0:
381,302,136070,2,0,B|365:259|382:204,2,89.9999972534181,8|4|8,0:0|0:0|0:0,0:0:0:0:
306,352,137059,1,4,0:2:0:0:
158,249,137718,6,0,B|103:265|41:256,2,89.9999972534181,4|8|4,0:0|0:0|0:0,0:0:0:0:
246,267,138707,1,8,0:0:0:0:
318,213,139037,2,0,B|344:176|333:128,1,89.9999972534181,4|4,0:2|0:2,0:0:0:0:
285,50,139696,1,4,0:2:0:0:
199,79,140026,1,8,0:0:0:0:
112,53,140356,6,0,B|85:116|100:175,1,89.9999972534181,4|8,0:0|0:0,0:0:0:0:
48,217,141015,2,0,B|97:252|113:318,1,89.9999972534181,4|8,0:0|0:0,0:0:0:0:
168,347,141674,1,4,0:0:0:0:
257,336,142004,1,12,0:0:0:0:
346,325,142334,1,4,0:0:0:0:
381,148,142993,6,0,B|430:161|487:153,2,89.9999972534181,6|8|2,0:0|0:0|0:0,0:0:0:0:
307,199,143982,1,10,0:0:0:0:
225,159,144312,2,0,B|206:101|221:40,1,89.9999972534181,6|8,0:0|0:0,0:0:0:0:
137,114,144971,2,0,B|96:150|43:149,1,89.9999972534181,2|10,0:0|0:0,0:0:0:0:
21,232,145630,5,6,0:0:0:0:
101,271,145960,1,10,0:0:0:0:
190,265,146290,1,6,0:0:0:0:
274,296,146619,2,0,B|277:240|308:197,2,89.9999972534181,10|6|12,0:0|0:0|0:0,0:0:0:0:
349,345,147608,1,12,0:0:0:0:
507,259,148268,5,4,0:0:0:0:
467,178,148597,1,14,0:0:0:0:
486,89,148927,2,0,B|472:26|439:5,1,89.9999972534181,4|14,0:2|0:0,0:0:0:0:
373,63,149586,1,4,0:2:0:0:
284,43,149916,1,14,0:0:0:0:
194,89,150246,2,0,B|173:144|194:211,1,89.9999972534181,4|4,0:2|0:2,0:0:0:0:
141,255,150905,6,0,B|246:251|305:322,1,179.999994506836,4|4,0:2|0:2,0:0:0:0:
369,259,151894,2,0,B|360:204|379:140,1,89.9999972534181,4|4,0:2|0:2,0:0:0:0:
285,142,152553,1,4,0:2:0:0:
199,115,152883,1,4,0:2:0:0:
111,93,153213,1,0,0:0:0:0:
53,246,154202,6,2,B|56:302|106:334,1,100,6|8,0:0|0:0,0:0:0:0:
197,305,154861,2,0,B|245:310|260:341,2,75
201,255,155520,2,0,B|236:199|224:152,1,100,6|8,0:0|0:0,0:0:0:0:
321,189,156180,1,2,0:0:0:0:
392,119,156509,1,10,0:0:0:0:
318,51,156839,6,2,B|242:75|162:55,1,150,6|2,0:0|0:0,0:0:0:0:
125,80,157498,2,0,B|123:35|99:2,2,75,4|8|8,0:2|0:0|0:0,0:0:0:0:
104,125,158158,1,4,0:2:0:0:
136,218,158487,1,0,0:0:0:0:
100,311,158817,2,0,B|153:290|216:299,1,100,4|4,0:2|0:2,0:0:0:0:
283,245,159476,6,0,B|328:269|392:269,1,100,6|8,0:0|0:0,0:0:0:0:
469,225,160136,2,2,B|501:253|492:301,2,75,2|10|10,0:0|0:0|0:0,0:0:0:0:
446,180,160795,2,0,B|413:129|439:65,1,100,6|8,0:0|0:0,0:0:0:0:
332,80,161454,2,0,B|310:41|316:3,2,75,4|0|0,0:2|0:0|0:0,0:0:0:0:
314,127,162114,2,0,B|265:160|206:143,1,100,6|8,0:0|0:0,0:0:0:0:
128,101,162773,6,0,B|144:159|119:207,1,100,0|10,0:0|0:0,0:0:0:0:
125,298,163432,2,0,B|80:270|14:274,2,100,4|8|4,0:2|0:0|0:2,0:0:0:0:
172,283,164256,1,8,0:0:0:0:
219,268,164421,1,12,0:0:0:0:
317,285,164751,6,0,B|353:229|341:175,1,100,6|8,0:0|0:0,0:0:0:0:
264,128,165410,2,0,B|238:89|248:44,2,75,2|0|8,0:0|0:0|0:0,0:0:0:0:
226,161,166070,1,6,0:0:0:0:
130,131,166399,1,10,0:0:0:0:
58,201,166729,2,0,B|49:245|71:276,2,75,2|0|8,0:0|0:0|0:0,0:0:0:0:
103,220,167388,1,6,0:0:0:0:
195,258,167718,1,8,0:0:0:0:
286,299,168048,6,0,B|342:273|406:288,1,100,4|0,0:2|0:0,0:0:0:0:
458,217,168707,2,0,B|488:169|475:118,1,100,4|0,0:2|0:0,0:0:0:0:
444,81,169202,1,4,0:2:0:0:
414,40,169366,2,0,B|352:65|286:48,1,100,8|8,0:0|0:0,0:0:0:0:
219,27,170026,6,0,B|188:80|199:150,1,100,6|8,0:0|0:0,0:0:0:0:
182,222,170685,2,0,B|140:229|110:207,2,75,2|0|8,0:0|2:0|0:0,0:0:0:0:
232,223,171344,2,0,B|285:257|291:323,1,100,6|8,0:0|0:0,0:0:0:0:
385,280,172004,2,0,B|429:297|465:284,2,75,2|0|0,0:0|0:0|0:0,0:0:0:0:
378,230,172663,6,2,B|434:125|372:36,1,200,6|6,0:0|0:2,0:0:0:0:
282,77,173652,1,8,0:0:0:0:
282,77,173817,2,0,B|204:91|162:59,1,100,0|0,0:2|0:0,0:0:0:0:
147,106,174311,1,0,0:0:0:0:
83,183,174641,1,4,0:0:0:0:
83,183,174806,2,0,B|119:234|109:309,1,100
165,297,175300,6,0,B|218:332|281:311,1,104.999996795654,6|8,0:0|0:0,0:0:0:0:
362,252,175960,2,0,B|409:270|423:317,2,78.7499975967408,4|0|2,0:2|0:0|0:0,0:0:0:0:
329,204,176619,1,6,0:0:0:0:
216,232,176949,1,8,0:0:0:0:
108,191,177278,2,0,B|89:154|102:109,2,78.7499975967408,4|0|10,0:2|0:0|0:0,0:0:0:0:
66,231,177938,2,2,B|133:283|118:377,1,157.499995193482,6|0,0:0|0:0,0:0:0:0:
173,347,178597,5,4,0:2:0:0:
173,347,178762,2,0,B|229:372|290:356,1,104.999996795654,2|8,0:0|0:0,0:0:0:0:
319,321,179256,1,4,0:2:0:0:
319,321,179421,2,0,B|368:255|447:275,1,104.999996795654,0|2,0:0|0:0,0:0:0:0:
389,214,179916,1,8,0:0:0:0:
349,105,180245,1,10,0:0:0:0:
260,29,180575,6,2,B|189:-9|100:39|110:119,1,209.999993591309,6|4,0:0|0:2,0:0:0:0:
35,201,181564,2,0,B|90:235|157:215,1,104.999996795654,10|4,0:0|0:0,0:0:0:0:
243,261,182223,2,0,B|216:190|242:134,2,104.999996795654,10|2|10,0:0|0:0|0:0,0:0:0:0:
347,311,183212,1,6,0:0:0:0:
439,241,183542,1,8,0:0:0:0:
439,241,183707,2,0,B|448:174|422:121,1,104.999996795654,2|2,0:0|0:0,0:0:0:0:
327,82,184366,1,10,0:0:0:0:
327,82,184531,6,0,B|264:105|189:89,1,104.999996795654,4|8,0:0|0:0,0:0:0:0:
127,159,185191,1,4,0:0:0:0:
154,209,185355,1,8,0:0:0:0:
182,259,185520,2,0,B|138:301|128:373,2,104.999996795654,8|6|8,0:0|0:0|0:0,0:0:0:0:
293,288,186509,2,0,B|327:313|382:305,2,78.7499975967408,4|0|8,0:2|0:0|0:0,0:0:0:0:
322,237,187169,2,0,B|297:182|316:127,1,104.999996795654,6|12,0:0|0:0,0:0:0:0:
237,47,187828,2,0,B|281:48|316:17,2,78.7499975967408,4|0|10,0:2|0:0|0:0,0:0:0:0:
181,29,188487,6,2,B|91:68|118:164,1,157.499995193482,6|0,0:2|0:0,0:0:0:0:
78,199,189147,1,0,0:0:0:0:
133,299,189476,1,8,0:0:0:0:
236,248,189806,2,0,B|293:263|350:255,2,104.999996795654,0|4|4,0:0|0:2|0:2,0:0:0:0:
295,148,190795,1,4,0:2:0:0:
389,81,191125,6,2,B|421:126|407:187,1,104.999996795654,6|8,0:0|0:0,0:0:0:0:
439,229,191619,2,0,B|390:274|401:330,2,104.999996795654,2|0|8,0:0|0:0|0:0,0:0:0:0:
323,233,192608,1,0,0:0:0:0:
219,182,192938,1,0,0:0:0:0:
110,219,193267,1,4,0:2:0:0:
8,176,193597,1,4,0:2:0:0:
8,176,193762,1,4,0:0:0:0:
256,192,193927,12,4,195740,0:0:0:0:
404,271,196399,6,2,B|451:199|416:120,2,150,6|2|10,0:0|0:0|0:0,0:1:0:0:
299,305,197718,2,0,B|359:325|371:382,2,100,6|8|2,0:0|0:0|0:0,0:0:0:0:
204,248,198707,1,10,0:0:0:0:
105,198,199037,6,0,B|192:209|256:171,1,150,6|8,0:0|0:0,0:0:0:0:
303,189,199696,2,0,B|277:135|303:74,1,100,10|10,0:0|0:0,0:0:0:0:
398,133,200355,2,0,B|424:187|398:248,1,100,0|10,0:0|0:0,0:0:0:0:
350,326,201015,1,8,0:0:0:0:
244,297,201344,1,10,0:0:0:0:
138,327,201674,6,2,B|92:260|113:179,1,150,6|0,0:0|0:0,0:0:0:0:
164,169,202333,2,0,B|192:111|163:60,1,100,2|8,0:0|0:0,0:0:0:0:
270,116,202993,2,2,B|340:161|442:125,1,150,6|2,0:0|0:0,0:0:0:0:
401,186,203652,1,4,0:2:0:0:
374,292,203982,1,10,0:0:0:0:
266,268,204311,6,0,B|188:239|88:262,2,150,4|2|10,0:2|0:0|0:0,0:0:0:0:
353,200,205630,2,0,B|394:145|372:71,1,100,4|8,0:0|0:0,0:0:0:0:
282,52,206289,1,4,0:0:0:0:
179,93,206619,1,8,0:0:0:0:
70,75,206949,6,0,B|37:154|72:233,1,150,6|0,0:0|0:0,0:0:0:0:
38,268,207608,2,0,B|109:266|143:318,1,100,6|10,0:0|0:0,0:0:0:0:
179,324,208103,1,10,0:0:0:0:
230,342,208267,2,0,B|290:304|292:242,1,100,6|10,0:0|0:0,0:0:0:0:
204,193,208927,2,0,B|166:134|185:76,1,100,8|10,0:0|0:0,0:0:0:0:
272,39,209586,6,2,B|365:5|428:80|391:161,1,200,6|10,0:0|0:0,0:0:0:0:
419,243,210575,1,8,0:0:0:0:
335,314,210905,2,0,B|278:286|217:305,1,100,0|8,0:0|0:0,0:0:0:0:
132,330,211564,2,0,B|110:293|118:257,1,50,6|10,0:0|0:0,0:0:0:0:
79,241,211894,1,14,0:0:0:0:
15,150,212223,6,0,B|154:205|114:74|262:84|215:208|362:155,1,350,14|0,0:0|0:0,0:0:0:0:
256,192,213542,12,2,214861,2:0:0:0:
