osu file format v14

[General]
AudioFilename: audio.mp3
AudioLeadIn: 0
PreviewTime: 154188
Countdown: 0
SampleSet: Normal
StackLeniency: 0.7
Mode: 0
LetterboxInBreaks: 0
WidescreenStoryboard: 1

[Editor]
Bookmarks: 48048
DistanceSpacing: 1.2
BeatDivisor: 4
GridSize: 8
TimelineZoom: 3.399999

[Metadata]
Title:Floating Darkness...
TitleUnicode:Floating Darkness...
Artist:TatshMusicCircle feat. Tsukiko
ArtistUnicode:TatshMusicCircle feat. 月子
Creator:Luscent
Version:Extra Stage
Source:東方星蓮船 ~ Undefined Fantastic Object.
Tags:平安のエイリアン Heian no Alien EvilElvis Jounzan Natteke desu Dailycare kowari 東方Project Touhou Project ZUN Team Shanghai Alice TH12 UFO extra stage Seirensen nue houjuu 封獣 ぬえ video game rock japanese tatsh
BeatmapID:4150202
BeatmapSetID:1996833

[Difficulty]
HPDrainRate:6
CircleSize:4
OverallDifficulty:9
ApproachRate:9.3
SliderMultiplier:1.7
SliderTickRate:1

[Events]
//Background and Video events
0,0,"nue.jpg",0,0
//Break Periods
//Storyboard Layer 0 (Background)
//Storyboard Layer 1 (Fail)
//Storyboard Layer 2 (Pass)
//Storyboard Layer 3 (Foreground)
//Storyboard Layer 4 (Overlay)
//Storyboard Sound Samples

[TimingPoints]
16400,329.67032967033,4,1,1,60,1,0
16400,-133.333333333333,4,1,1,60,0,0
26949,-111.111111111111,4,1,1,50,0,0
43185,-111.111111111111,4,1,1,25,0,0
43268,-111.111111111111,4,1,1,28,0,0
43350,-111.111111111111,4,1,1,31,0,0
43432,-111.111111111111,4,1,1,34,0,0
43515,-111.111111111111,4,1,1,37,0,0
43597,-111.111111111111,4,1,1,40,0,0
43680,-111.111111111111,4,1,1,43,0,0
43762,-111.111111111111,4,1,1,46,0,0
43845,-111.111111111111,4,1,1,49,0,0
43927,-111.111111111111,4,1,1,52,0,0
44009,-111.111111111111,4,1,1,55,0,0
44092,-111.111111111111,4,1,1,60,0,0
44586,-111.111111111111,4,1,1,65,0,0
45410,-90.9090909090909,4,1,1,70,0,0
46070,-76.9230769230769,4,1,1,70,0,0
46729,-76.9230769230769,4,1,1,30,0,0
48048,-100,4,1,1,70,0,0
58927,-100,4,1,1,33,0,0
59916,-76.9230769230769,4,1,1,60,0,0
60246,-100,4,1,1,60,0,0
69147,-100,4,1,1,65,0,0
79696,-166.666666666667,4,1,1,35,0,0
88927,-100,4,1,1,45,0,0
90246,-76.9230769230769,4,1,1,75,0,1
90575,-90.9090909090909,4,1,1,75,0,1
100136,-76.9230769230769,4,1,1,75,0,1
100301,-66.6666666666667,4,1,1,75,0,1
100465,-58.8235294117647,4,1,1,75,0,1
100795,-90.9090909090909,4,1,1,75,0,1
111345,-90.9090909090909,4,1,1,60,0,0
121894,-90.9090909090909,4,1,1,70,0,1
132443,-90.9090909090909,4,1,1,70,0,0
132773,-100,4,1,1,60,0,0
154202,329.67032967033,4,1,1,80,1,0
154202,-90.9090909090909,4,1,1,80,0,1
173817,-90.9090909090909,4,1,1,80,0,0
175300,-90.9090909090909,4,1,1,95,0,1
196399,-90.9090909090909,4,1,1,80,0,0
209586,-76.9230769230769,4,1,1,80,0,0
210245,-90.9090909090909,4,1,1,80,0,0
212223,-90.9090909090909,4,1,1,70,0,1
213542,-90.9090909090909,4,1,1,85,0,1
214202,-90.9090909090909,4,1,1,90,0,1
214531,-90.9090909090909,4,1,1,95,0,1
214861,-90.9090909090909,4,1,1,80,0,0
215026,-90.9090909090909,4,1,1,55,0,0
215191,-90.9090909090909,4,1,1,50,0,0
215355,-90.9090909090909,4,1,1,45,0,0
215520,-90.9090909090909,4,1,1,40,0,0
215685,-90.9090909090909,4,1,1,35,0,0
215850,-90.9090909090909,4,1,1,30,0,0
216015,-90.9090909090909,4,1,1,50,0,0
216180,-90.9090909090909,4,1,1,60,0,0
216344,-90.9090909090909,4,1,1,70,0,0
216509,-90.9090909090909,4,1,1,60,0,0
216674,-90.9090909090909,4,1,1,70,0,0
216839,-90.9090909090909,4,1,1,75,0,0
217004,-90.9090909090909,4,1,1,80,0,0
217169,-90.9090909090909,4,1,1,90,0,0

[Colours]
Combo1 : 128,0,255
Combo2 : 62,255,158
Combo3 : 36,146,255
Combo4 : 149,0,149

[HitObjects]
192,128,16399,6,0,L|295:113,1,85,4|0,1:0|2:0,0:0:0:0:
120,252,16729,2,0,L|50:242,1,63.7500024318696
264,231,17059,2,0,P|279:288|264:365,2,127.500004863739
414,33,18048,2,0,B|381:100|409:170,1,127.500004863739,0|4,0:0|0:0,0:0:0:0:
452,231,18542,1,0,0:0:0:0:
256,124,18707,2,0,L|186:134,1,63.7500024318696,8|0,0:0|0:0,0:0:0:0:
34,258,19037,6,0,L|104:248,1,63.7500024318696
216,367,19367,2,0,B|242:301|215:237,1,127.500004863739
194,84,19861,1,0,0:0:0:0:
63,115,20026,1,0,0:0:0:0:
97,248,20191,1,0,0:0:0:0:
300,204,20356,6,0,P|336:212|382:217,2,63.7500024318696,0|2|0,0:0|2:0|0:0,0:0:0:0:
376,66,20850,1,0,2:0:0:0:
376,66,20933,1,0,0:0:0:0:
376,66,21015,2,0,B|394:110|379:154,1,63.7500024318696,4|0,0:0|0:0,0:0:0:0:
461,285,21345,2,0,B|479:241|464:197,1,63.7500024318696
250,314,21674,5,4,0:0:0:0:
349,362,21839,1,0,2:0:0:0:
335,249,22004,1,0,0:0:0:0:
335,249,22169,1,0,0:0:0:0:
58,203,22334,5,0,0:0:0:0:
68,288,22498,1,0,0:0:0:0:
137,237,22663,1,0,0:0:0:0:
137,237,22828,1,0,0:0:0:0:
259,114,22993,6,0,B|215:112|184:120,1,63.7500024318696
371,188,23323,2,0,B|415:190|446:182,1,63.7500024318696
368,77,23652,1,4,0:0:0:0:
261,202,23817,1,0,0:0:0:0:
393,290,23982,1,8,0:0:0:0:
512,176,24147,1,0,0:0:0:0:
165,54,24312,6,0,B|135:124|166:183,1,127.500004863739
210,255,24806,1,0,2:0:0:0:
39,303,24971,2,0,B|86:286|117:291,1,63.7500024318696
297,345,25301,2,0,B|250:362|219:357,1,63.7500024318696
441,234,25630,5,4,1:0:0:0:
461,277,25713,1,0,0:0:0:0:
448,322,25795,1,0,0:0:0:0:
413,354,25878,1,0,0:0:0:0:
365,355,25960,1,4,1:2:0:0:
328,323,26042,1,0,0:0:0:0:
314,276,26125,1,0,0:0:0:0:
335,234,26207,1,0,0:0:0:0:
374,206,26290,1,4,0:0:0:0:
383,159,26372,1,0,0:0:0:0:
371,112,26454,1,0,0:0:0:0:
332,83,26537,1,0,0:0:0:0:
281,100,26619,5,0,0:0:0:0:
227,89,26702,5,0,0:0:0:0:
181,118,26784,5,0,0:0:0:0:
128,102,26867,5,0,0:0:0:0:
82,128,26949,6,0,B|61:68|61:68|79:2,1,114.749996498108,4|0,0:0|0:0,0:0:0:0:
108,0,27279,1,10,2:0:0:0:
187,263,27443,1,2,2:0:0:0:
0,228,27608,2,0,B|43:208|84:213,1,76.4999976654053,0|0,0:0|2:0,0:0:0:0:
295,125,27938,2,0,B|252:145|211:140,1,76.4999976654053,2|2,2:0|2:0,0:0:0:0:
413,60,28268,6,0,P|456:111|451:214,1,152.999995330811,0|2,0:0|2:0,0:0:0:0:
401,334,28762,1,2,2:0:0:0:
276,278,28927,2,0,P|268:232|284:173,1,76.4999976654053,0|0,0:2|2:0,0:0:0:0:
292,364,29257,5,0,0:0:0:0:
328,124,29421,1,0,0:0:0:0:
106,235,29586,2,0,P|146:243|190:241,1,76.4999976654053,4|0,0:0|0:0,0:0:0:0:
0,104,29916,2,0,P|25:151|29:200,1,76.4999976654053,2|2,2:0|2:0,0:0:0:0:
0,350,30246,2,0,P|58:323|135:324,1,114.749996498108,0|0,0:0|2:0,0:0:0:0:
107,319,30575,1,2,2:0:0:0:
328,260,30740,5,2,2:2:0:0:
328,260,30823,1,2,2:0:0:0:
328,260,30905,2,0,P|286:278|230:281,1,76.4999976654053
414,165,31235,2,0,B|472:162|500:181,1,76.4999976654053,2|0,2:0|0:0,0:0:0:0:
195,182,31564,2,0,B|147:106|190:26,1,152.999995330811,4|4,0:2|0:2,0:0:0:0:
300,61,32059,1,0,0:0:0:0:
21,187,32224,6,0,B|105:206|110:299,1,152.999995330811,4|2,0:0|2:0,0:0:0:0:
193,375,32718,1,2,2:0:0:0:
394,305,32883,2,0,P|357:295|309:293,1,76.4999976654053,0|0,0:0|2:0,0:0:0:0:
452,175,33213,2,0,P|465:217|487:264,1,76.4999976654053,2|2,2:0|2:0,0:0:0:0:
300,189,33542,6,0,P|334:158|361:110,1,76.4999976654053
121,221,33872,2,0,P|161:234|202:231,1,76.4999976654053,2|2,2:0|2:0,0:0:0:0:
25,50,34202,2,0,B|-16:115|21:197,1,152.999995330811
55,317,34696,1,0,0:0:0:0:
351,179,34861,6,0,B|416:157|465:219|450:264,1,152.999995330811,4|2,0:0|2:0,0:0:0:0:
372,360,35356,1,2,2:0:0:0:
137,259,35520,2,0,B|122:172|157:186|144:98,1,152.999995330811,0|2,1:0|2:0,0:0:0:0:
211,40,36015,1,2,2:0:0:0:
294,230,36180,5,0,0:0:0:0:
416,160,36345,2,0,B|377:143|337:149,1,76.4999976654053,0|0,0:0|2:0,0:0:0:0:
165,290,36674,2,0,B|204:307|244:301,1,76.4999976654053,0|4,1:0|0:2,0:0:0:0:
455,372,37169,1,4,0:2:0:0:
383,39,37498,6,0,B|310:78|232:57,1,152.999995330811,4|2,0:0|0:2,0:0:0:0:
209,167,37993,1,2,2:0:0:0:
47,16,38158,2,0,B|19:84|59:140,1,114.749996498108,0|0,0:0|2:0,0:0:0:0:
50,126,38487,1,0,0:0:0:0:
303,295,38652,5,0,1:0:0:0:
303,295,38735,1,0,0:0:0:0:
303,295,38817,2,0,B|359:231|331:138,1,152.999995330811,4|2,0:0|0:2,0:0:0:0:
218,369,39312,1,2,2:0:0:0:
414,267,39476,2,0,B|465:266|496:292,1,76.4999976654053,0|0,0:0|2:0,0:0:0:0:
198,201,39806,2,0,B|172:159|176:104,1,76.4999976654053
318,61,40136,5,4,0:0:0:0:
263,264,40301,1,0,0:0:0:0:
58,190,40465,2,0,B|47:152|52:99,1,76.4999976654053,2|2,0:2|2:0,0:0:0:0:
180,236,40795,2,0,B|260:274|239:369,1,152.999995330811
374,270,41290,1,0,0:0:0:0:
512,182,41454,6,0,B|470:186|430:176,1,76.4999976654053,4|0,0:0|0:0,0:0:0:0:
272,66,41784,2,0,B|314:62|354:72,1,76.4999976654053,2|0,0:2|0:0,0:0:0:0:
132,151,42114,2,0,B|57:98|84:7,1,152.999995330811,0|4,0:0|0:2,0:0:0:0:
196,23,42608,1,0,0:0:0:0:
132,151,42773,6,0,B|207:204|180:295,1,152.999995330811,4|8,0:0|0:0,0:0:0:0:
181,326,43185,1,0,1:2:0:0:
209,357,43268,1,2,1:2:0:0:
248,370,43350,1,0,1:2:0:0:
289,363,43432,1,0,1:2:0:0:
323,337,43515,1,0,1:2:0:0:
358,314,43597,1,0,1:2:0:0:
398,303,43680,1,0,1:2:0:0:
439,305,43762,1,8,1:0:0:0:
413,270,43845,1,0,1:2:0:0:
413,228,43927,1,0,1:2:0:0:
432,190,44009,1,0,1:2:0:0:
478,170,44092,5,4,1:0:0:0:
464,122,44174,1,0,1:0:0:0:
420,97,44257,1,0,1:0:0:0:
371,108,44339,1,0,1:0:0:0:
340,146,44421,1,8,1:0:0:0:
332,195,44504,1,0,1:0:0:0:
300,233,44586,1,2,1:2:0:0:
250,237,44669,1,0,1:0:0:0:
205,216,44751,1,0,1:0:0:0:
180,172,44834,1,0,1:0:0:0:
193,124,44916,1,8,1:0:0:0:
48,365,45081,5,8,0:0:0:0:
78,368,45163,1,0,0:0:0:0:
108,371,45246,1,0,0:0:0:0:
137,377,45328,1,0,0:0:0:0:
166,384,45410,2,0,B|167:328|182:268,1,93.5000028533936,4|0,0:0|0:0,0:0:0:0:
421,50,45740,5,8,1:0:0:0:
384,46,45822,1,0,1:2:0:0:
347,42,45905,1,2,1:2:0:0:
312,35,45987,1,0,1:2:0:0:
276,26,46070,2,0,B|278:96|260:168,1,110.499994941712,0|0,0:0|1:0,0:0:0:0:
407,346,46400,5,8,0:0:0:0:
456,326,46482,1,0,0:0:0:0:
485,281,46564,1,0,0:0:0:0:
486,227,46647,1,0,0:0:0:0:
459,180,46729,1,2,2:0:0:0:
464,176,48048,5,4,0:0:0:0:
324,298,48213,1,2,0:0:0:0:
159,201,48378,1,8,0:0:0:0:
306,72,48542,1,0,0:0:0:0:
115,302,48707,5,4,0:2:0:0:
24,245,48872,1,0,0:0:0:0:
24,245,48954,1,0,0:0:0:0:
24,245,49037,2,0,B|7:190|17:145,1,85,8|8,0:0|0:0,0:0:0:0:
139,78,49367,1,4,0:2:0:0:
231,331,49531,1,8,0:0:0:0:
465,180,49696,5,8,0:0:0:0:
356,190,49861,1,8,0:0:0:0:
465,180,50026,2,0,P|461:118|467:49,1,85,4|0,0:2|0:0,0:0:0:0:
228,189,50356,1,4,0:2:0:0:
419,357,50520,1,8,0:0:0:0:
376,52,50685,6,0,P|325:56|278:60,1,85,4|0,0:0|0:0,0:0:0:0:
291,58,50932,1,0,0:0:0:0:
291,58,51015,1,8,0:0:0:0:
134,207,51180,1,0,0:0:0:0:
171,47,51345,5,4,0:2:0:0:
284,312,51509,1,0,0:0:0:0:
15,258,51674,5,8,0:0:0:0:
297,151,51839,1,8,0:0:0:0:
79,68,52004,5,4,0:2:0:0:
219,253,52169,1,8,0:0:0:0:
219,253,52251,1,0,0:0:0:0:
219,253,52334,2,0,P|212:198|217:136,1,85,8|8,0:0|0:0,0:0:0:0:
314,118,52663,1,4,0:2:0:0:
259,363,52828,1,8,0:0:0:0:
314,118,52993,1,4,0:2:0:0:
21,284,53158,5,8,0:0:0:0:
21,284,53240,1,0,0:0:0:0:
20,284,53323,2,0,P|61:273|103:269,1,85,4|0,0:0|0:0,0:0:0:0:
103,269,53570,1,0,0:0:0:0:
103,269,53652,1,8,0:0:0:0:
223,186,53817,1,0,0:0:0:0:
140,75,53982,1,4,0:2:0:0:
294,250,54147,5,0,0:0:0:0:
501,187,54312,1,8,0:0:0:0:
344,143,54476,5,8,0:0:0:0:
499,292,54641,1,4,0:2:0:0:
439,101,54806,5,8,0:0:0:0:
439,101,54889,1,0,0:0:0:0:
439,101,54971,1,8,0:0:0:0:
386,344,55136,1,8,0:0:0:0:
36,200,55300,5,4,0:2:0:0:
188,179,55465,1,0,0:0:0:0:
457,197,55630,5,4,0:2:0:0:
338,209,55795,1,8,0:0:0:0:
233,19,55960,6,0,P|273:69|278:151,1,127.5,4|0,0:0|0:0,0:0:0:0:
282,130,56290,1,8,0:0:0:0:
85,295,56454,1,0,0:0:0:0:
85,295,56537,1,0,0:0:0:0:
85,295,56619,2,0,B|131:273|183:281,1,85,4|8,0:2|0:0,0:0:0:0:
305,350,56949,1,4,0:2:0:0:
376,110,57114,1,8,0:0:0:0:
33,176,57279,5,4,0:2:0:0:
72,199,57361,1,0,0:0:0:0:
116,211,57443,1,8,0:0:0:0:
163,208,57526,1,0,0:0:0:0:
207,194,57608,1,4,0:2:0:0:
251,179,57691,1,0,0:0:0:0:
298,174,57773,1,8,0:0:0:0:
344,179,57856,1,0,0:0:0:0:
387,195,57938,5,4,0:2:0:0:
433,163,58020,1,0,0:0:0:0:
450,109,58103,1,0,0:0:0:0:
428,57,58185,1,0,0:0:0:0:
382,23,58268,1,0,0:0:0:0:
326,34,58350,1,0,0:0:0:0:
299,85,58432,1,0,0:0:0:0:
299,85,58515,1,0,0:0:0:0:
299,85,58597,1,4,0:0:0:0:
365,354,58927,5,2,2:0:0:0:
367,342,59092,1,2,2:0:0:0:
370,330,59257,1,2,2:0:0:0:
373,318,59421,1,2,2:0:0:0:
376,306,59586,1,2,2:0:0:0:
378,294,59751,1,2,2:0:0:0:
60,273,59916,6,0,B|137:299|137:299|228:276,1,165.749992412568,4|0,0:0|2:0,0:0:0:0:
251,300,60246,2,0,P|262:239|242:176,1,85,8|2,0:0|2:0,0:0:0:0:
132,7,60575,1,0,0:0:0:0:
176,205,60740,1,2,2:0:0:0:
347,99,60905,2,0,L|247:91,1,85,8|8,0:0|0:0,0:0:0:0:
437,50,61235,6,0,P|379:125|392:218,1,170,12|8,0:0|0:0,0:0:0:0:
474,264,61729,1,2,2:0:0:0:
119,250,61894,2,0,P|195:267|236:313,1,127.5,0|0,0:0|2:0,0:0:0:0:
228,300,62224,1,8,0:0:0:0:
101,143,62389,1,8,0:0:0:0:
206,49,62553,6,0,P|215:108|205:158,1,85,4|2,0:0|2:0,0:0:0:0:
465,167,62883,2,0,P|422:178|368:177,1,85,8|4,0:0|0:2,0:0:0:0:
266,251,63213,1,8,0:0:0:0:
115,140,63378,1,8,0:0:0:0:
256,12,63542,1,8,0:0:0:0:
18,169,63707,5,4,0:2:0:0:
18,169,63790,1,0,0:0:0:0:
18,169,63872,2,0,P|58:157|123:164,1,85,4|2,0:0|2:0,0:0:0:0:
153,303,64202,2,0,P|95:317|55:308,1,85,8|2,0:0|2:0,0:0:0:0:
280,228,64531,1,0,0:0:0:0:
249,359,64696,1,2,2:0:0:0:
200,166,64861,1,8,0:0:0:0:
231,35,65026,1,0,0:0:0:0:
440,167,65191,6,0,P|397:176|348:178,1,85,0|2,0:0|2:0,0:0:0:0:
399,357,65520,2,0,P|388:302|389:245,1,85,8|2,0:0|2:0,0:0:0:0:
128,203,65850,1,0,0:0:0:0:
293,293,66015,1,2,2:0:0:0:
462,210,66180,1,8,0:0:0:0:
292,24,66345,5,8,0:0:0:0:
292,24,66427,1,8,0:0:0:0:
292,24,66509,2,0,P|370:76|368:180,1,170,4|8,0:0|0:0,0:0:0:0:
256,193,67004,1,2,2:0:0:0:
107,262,67169,2,0,P|101:222|107:177,1,85,0|2,0:0|2:0,0:0:0:0:
188,133,67498,5,8,0:0:0:0:
344,279,67663,1,2,2:0:0:0:
162,380,67828,1,4,0:2:0:0:
0,252,67993,1,2,2:0:0:0:
307,172,68158,5,4,0:2:0:0:
107,262,68323,1,2,2:0:0:0:
396,170,68487,5,4,0:2:0:0:
195,50,68652,1,8,0:0:0:0:
474,236,68817,5,8,0:0:0:0:
474,236,69147,2,0,B|501:151|501:151|476:59,1,170,4|8,0:0|0:0,0:0:0:0:
448,363,69641,1,2,2:0:0:0:
207,221,69806,2,0,P|248:211|290:208,1,85
388,74,70136,2,0,P|346:83|304:86,1,85,8|2,0:0|2:0,0:0:0:0:
100,195,70465,5,0,0:0:0:0:
186,136,70630,1,0,1:0:0:0:
100,195,70795,2,0,P|19:154|31:56,1,170,8|0,0:0|0:0,0:0:0:0:
13,82,71207,1,0,0:0:0:0:
13,82,71290,1,0,0:0:0:0:
235,105,71454,5,8,0:0:0:0:
384,254,71619,1,8,0:0:0:0:
235,105,71784,2,0,P|230:151|234:189,1,85,4|0,0:0|2:0,0:0:0:0:
479,252,72114,1,8,0:0:0:0:
325,42,72279,1,2,1:2:0:0:
479,252,72443,6,0,P|489:195|483:135,1,85,0|0,0:0|2:0,0:0:0:0:
319,297,72773,1,8,0:0:0:0:
101,166,72938,1,2,2:0:0:0:
225,354,73103,5,4,0:2:0:0:
192,95,73268,1,0,0:0:0:0:
0,272,73432,2,0,P|64:261|115:262,1,85,4|0,0:2|0:0,0:0:0:0:
378,159,73762,5,4,0:2:0:0:
466,271,73927,1,8,0:0:0:0:
234,177,74092,1,4,0:2:0:0:
423,38,74257,1,8,0:0:0:0:
385,357,74421,5,4,0:0:0:0:
160,266,74586,1,8,0:0:0:0:
160,266,74669,1,8,0:0:0:0:
160,266,74751,2,0,P|215:260|274:268,1,85,6|0,0:0|0:0,0:0:0:0:
150,39,75081,1,4,0:2:0:0:
244,262,75246,1,8,0:0:0:0:
320,10,75410,2,0,P|269:16|225:12,1,85,6|0,0:0|0:0,0:0:0:0:
0,249,75740,5,4,0:2:0:0:
252,170,75905,1,8,0:0:0:0:
80,51,76070,1,6,0:0:0:0:
244,262,76235,1,0,0:0:0:0:
469,205,76400,5,4,0:2:0:0:
377,337,76564,1,8,0:0:0:0:
194,115,76729,5,6,0:0:0:0:
324,93,76894,1,0,0:0:0:0:
100,218,77059,6,0,B|62:140|94:46,1,170,4|4,0:2|0:2,0:0:0:0:
215,355,77553,1,0,0:0:0:0:
0,247,77718,1,4,0:2:0:0:
255,129,77883,5,0,0:0:0:0:
280,258,78048,1,4,0:2:0:0:
166,211,78213,1,0,0:0:0:0:
398,29,78378,5,4,0:2:0:0:
411,68,78460,1,0,0:0:0:0:
414,110,78542,1,0,0:0:0:0:
408,152,78625,1,0,0:0:0:0:
396,192,78707,1,4,0:2:0:0:
389,234,78790,1,0,0:0:0:0:
391,276,78872,1,0,0:0:0:0:
404,316,78954,1,0,0:0:0:0:
415,330,79037,6,0,L|441:327,14,21.25,4|0|0|0|0|0|0|0|0|0|0|0|0|0|0,0:2|0:0|0:0|0:0|0:0|0:0|0:0|0:0|0:0|0:0|0:0|0:0|0:0|0:0|0:0,0:0:0:0:
337,378,79696,6,0,P|243:353|122:359,1,203.999993774414,4|2,1:0|0:2,2:0:0:0:
29,253,80685,2,0,P|25:216|28:188,1,50.9999984436036,0|0,0:2|0:0,0:0:0:0:
89,140,81015,1,0,0:0:0:0:
265,212,81345,1,2,2:2:0:0:
430,141,81674,1,0,0:0:0:0:
488,215,82004,5,2,0:2:0:0:
430,141,82169,1,0,0:0:0:0:
340,49,82334,2,0,P|344:116|338:165,2,101.999996887207,2|2|2,2:0|2:2|0:2,2:0:0:0:
241,73,83158,1,0,0:0:0:0:
200,165,83323,1,2,2:0:0:0:
261,247,83487,1,0,0:0:0:0:
432,195,83652,6,0,P|436:129|426:67,1,101.999996887207,4|0,2:0|0:2,0:0:0:0:
279,345,84312,1,4,2:0:0:0:
86,242,84641,2,0,P|54:247|27:247,2,50.9999984436036,2|0|4,0:2|2:0|2:2,0:0:0:0:
163,145,85301,1,0,0:0:0:0:
409,126,85630,5,2,0:2:0:0:
383,225,85795,1,0,0:0:0:0:
306,157,85960,1,0,0:0:0:0:
331,58,86125,1,0,0:0:0:0:
495,73,86290,6,0,P|503:148|490:218,1,101.999996887207,0|0,0:2|0:2,0:0:0:0:
483,266,86784,1,0,0:0:0:0:
483,266,86949,1,2,0:2:0:0:
272,215,87279,1,0,0:0:0:0:
53,259,87608,2,0,P|29:193|28:97,2,152.999995330811,2|0|2,0:2|0:0|2:0,0:0:0:0:
172,279,88762,1,2,2:0:0:0:
395,139,88927,6,0,L|340:146,3,42.5,4|0|2|0,0:2|0:0|0:2|0:0,0:0:0:0:
294,204,89257,6,0,L|244:190,3,42.5,2|0|0|0,0:2|0:0|0:0|0:0,0:0:0:0:
187,157,89586,6,0,L|135:166,5,42.5,4|0|2|0|2|0,0:2|0:0|0:2|0:0|0:2|0:0,0:0:0:0:
158,90,90082,5,0,0:0:0:0:
158,90,90164,1,0,0:0:0:0:
157,89,90246,2,0,P|77:92|40:162,1,165.749992412568,4|0,0:0|2:0,0:0:0:0:
40,161,90575,1,8,0:0:0:0:
258,306,90740,5,8,0:0:0:0:
361,243,90905,2,0,P|357:195|364:128,1,93.5000028533936,4|0,0:2|0:0,0:0:0:0:
360,149,91152,1,8,0:0:0:0:
360,149,91235,1,0,0:0:0:0:
476,245,91400,1,8,0:0:0:0:
258,306,91564,5,4,0:0:0:0:
305,71,91729,1,0,0:0:0:0:
76,170,91894,5,8,0:0:0:0:
214,373,92059,1,8,0:0:0:0:
208,91,92224,5,4,0:2:0:0:
9,268,92389,1,0,0:0:0:0:
9,268,92471,1,8,0:0:0:0:
9,268,92553,2,0,P|64:257|118:260,1,93.5000028533936,0|8,0:0|0:0,0:0:0:0:
455,103,92883,6,0,B|436:163|370:200|302:165,1,187.000005706787,4|8,0:0|0:0,0:0:0:0:
433,363,93378,1,8,0:0:0:0:
194,275,93542,2,0,P|240:263|302:260,1,93.5000028533936,4|0,0:2|0:0,0:0:0:0:
285,259,93790,1,8,0:0:0:0:
285,259,93872,1,0,0:0:0:0:
131,363,94037,1,8,0:0:0:0:
0,182,94202,5,4,0:2:0:0:
188,58,94367,1,0,0:0:0:0:
188,58,94449,1,8,0:0:0:0:
188,58,94531,1,0,0:0:0:0:
352,210,94696,1,8,0:0:0:0:
247,297,94861,5,4,0:2:0:0:
117,249,95026,1,8,0:0:0:0:
484,132,95191,5,4,0:2:0:0:
417,348,95356,1,8,0:0:0:0:
269,45,95520,6,0,P|347:83|370:158,1,140.25000428009,4|0,0:0|0:0,0:0:0:0:
368,128,95850,1,8,0:0:0:0:
38,260,96015,1,8,0:0:0:0:
38,260,96097,1,0,0:0:0:0:
38,260,96180,2,0,B|-6:185|35:115,2,140.25000428009,4|8|8,0:2|0:0|0:0,0:0:0:0:
232,215,96839,6,0,P|184:196|129:200,1,93.5000028533936,4|0,0:0|0:0,0:0:0:0:
369,336,97169,1,8,0:0:0:0:
303,117,97334,1,8,0:0:0:0:
303,117,97416,1,0,0:0:0:0:
303,117,97498,1,4,0:2:0:0:
161,273,97663,1,0,0:0:0:0:
442,121,97828,5,0,0:0:0:0:
201,107,97993,1,8,0:0:0:0:
477,214,98158,2,0,B|454:118|502:136|478:22,1,187.000005706787,4|8,0:0|0:0,0:0:0:0:
337,273,98652,5,8,0:0:0:0:
337,273,98735,1,0,0:0:0:0:
337,273,98817,2,0,P|283:291|222:285,1,93.5000028533936,4|0,0:2|0:0,0:0:0:0:
23,119,99147,2,0,P|74:122|120:145,1,93.5000028533936,0|8,0:0|0:0,0:0:0:0:
110,357,99476,5,4,0:2:0:0:
82,319,99559,1,0,0:0:0:0:
83,272,99641,1,0,0:0:0:0:
109,233,99724,1,0,0:0:0:0:
151,214,99806,1,0,0:0:0:0:
194,196,99889,1,0,0:0:0:0:
219,156,99971,1,0,0:0:0:0:
221,109,100053,1,0,0:0:0:0:
196,68,100136,6,0,L|139:73,1,55.2499974708558,4|0,0:2|0:0,0:0:0:0:
309,196,100301,6,0,L|383:191,1,63.7500024318696
512,113,100465,6,0,L|427:118,1,72.2500013780594
259,278,100630,5,0,0:0:0:0:
259,278,100713,1,0,0:0:0:0:
259,278,100795,1,6,0:0:0:0:
478,201,100960,1,0,0:0:0:0:
301,23,101125,5,8,0:0:0:0:
263,170,101290,1,2,0:0:0:0:
77,120,101454,5,0,0:0:0:0:
227,360,101619,1,0,0:0:0:0:
227,360,101702,1,0,0:0:0:0:
227,360,101784,1,10,0:0:0:0:
10,239,101949,5,0,0:0:0:0:
190,196,102114,1,6,0:0:0:0:
387,147,102279,1,0,0:0:0:0:
401,256,102443,5,8,0:0:0:0:
201,115,102608,1,2,0:0:0:0:
403,13,102773,1,0,0:0:0:0:
321,332,102938,5,0,0:0:0:0:
321,332,103020,1,0,0:0:0:0:
321,332,103103,1,10,0:0:0:0:
102,227,103268,1,8,0:0:0:0:
468,112,103432,6,0,P|482:181|466:255,1,140.25000428009,6|0,0:0|0:0,0:0:0:0:
468,248,103762,1,8,0:0:0:0:
329,190,103927,1,2,0:0:0:0:
58,146,104092,6,0,L|178:129,1,93.5000028533936
150,132,104339,1,0,0:0:0:0:
150,132,104421,1,10,0:0:0:0:
235,270,104586,1,0,0:0:0:0:
337,57,104751,5,6,0:0:0:0:
316,355,104916,1,0,0:0:0:0:
316,355,104998,1,2,0:0:0:0:
316,355,105081,1,12,0:0:0:0:
244,171,105246,1,10,0:0:0:0:
44,278,105410,5,14,0:0:0:0:
330,194,105575,1,4,0:2:0:0:
435,370,105740,5,14,0:0:0:0:
160,222,105905,1,4,0:2:0:0:
388,55,106070,6,2,P|479:99|482:201,1,187.000005706787,6|10,0:0|0:0,0:0:0:0:
255,360,106564,1,2,0:0:0:0:
255,360,106647,1,0,0:0:0:0:
255,360,106729,2,0,P|238:296|256:210,1,140.25000428009,2|0,0:0|0:0,0:0:0:0:
249,223,107059,1,10,0:0:0:0:
370,175,107224,1,8,0:0:0:0:
7,61,107389,6,2,P|65:123|179:105,1,187.000005706787,6|10,0:0|0:0,0:0:0:0:
398,194,107883,1,8,0:0:0:0:
398,194,107965,1,0,0:0:0:0:
398,194,108048,2,0,P|409:118|397:38,1,140.25000428009,2|0,0:0|0:0,0:0:0:0:
401,55,108378,1,10,0:0:0:0:
233,221,108542,1,10,0:0:0:0:
429,348,108707,1,4,0:2:0:0:
486,104,108872,5,0,0:0:0:0:
398,194,109037,1,4,0:2:0:0:
303,97,109202,5,0,0:0:0:0:
304,292,109367,1,2,0:0:0:0:
124,134,109531,5,10,0:0:0:0:
253,381,109696,1,8,0:0:0:0:
11,269,109861,6,0,P|51:272|87:266,1,46.7500014266968,4|0,0:2|0:0,0:0:0:0:
102,289,110026,1,0,0:0:0:0:
141,265,110108,1,0,0:0:0:0:
159,221,110191,1,0,0:0:0:0:
156,174,110273,1,0,0:0:0:0:
136,131,110356,1,0,0:0:0:0:
132,84,110438,1,0,0:0:0:0:
150,41,110520,1,0,0:0:0:0:
192,21,110603,1,0,0:0:0:0:
237,28,110685,5,4,0:0:0:0:
217,75,110768,1,0,0:0:0:0:
221,125,110850,1,0,0:0:0:0:
248,168,110932,1,0,0:0:0:0:
289,198,111015,1,0,0:0:0:0:
339,207,111097,1,0,0:0:0:0:
388,193,111180,1,0,0:0:0:0:
427,160,111262,1,0,0:0:0:0:
442,110,111345,1,6,0:0:0:0:
209,305,111509,5,0,0:0:0:0:
209,305,111592,1,0,1:0:0:0:
209,305,111674,2,0,P|267:290|323:290,1,93.5000028533936,10|0,0:0|0:0,0:0:0:0:
90,284,112004,1,4,0:2:0:0:
404,357,112169,2,0,P|418:300|409:226,1,93.5000028533936,2|0,0:0|0:0,0:0:0:0:
73,156,112498,6,2,B|139:147|139:147|196:169|196:169|259:157,1,187.000005706787,10|10,0:0|0:0,0:0:0:0:
384,44,112993,2,0,L|403:148,1,93.5000028533936,10|8,0:0|0:0,0:0:0:0:
337,336,113323,1,2,0:0:0:0:
156,263,113487,1,10,0:0:0:0:
467,168,113652,5,12,0:0:0:0:
281,272,113817,1,8,0:0:0:0:
70,197,113982,2,0,B|42:102|42:102|66:12,2,187.000005706787,6|10|4,0:0|0:0|0:2,0:0:0:0:
166,137,114806,2,0,L|270:144,1,93.5000028533936,2|0,0:0|0:0,0:0:0:0:
136,58,115136,6,2,B|123:118|123:118|148:183|148:183|134:243,1,187.000005706787,10|2,0:0|0:0,0:0:0:0:
30,288,115630,1,4,0:2:0:0:
238,243,115795,1,2,0:0:0:0:
393,366,115960,5,4,0:2:0:0:
393,366,116042,1,0,0:0:0:0:
393,366,116125,1,10,0:0:0:0:
437,80,116290,1,4,0:2:0:0:
315,69,116454,1,10,0:0:0:0:
460,39,116619,6,0,P|471:95|461:157,1,93.5000028533936,6|0,0:0|0:0,0:0:0:0:
330,203,116949,2,0,L|221:188,1,93.5000028533936,10|2,0:0|0:0,0:0:0:0:
139,276,117279,1,4,0:2:0:0:
60,77,117443,2,0,P|76:131|77:182,1,93.5000028533936,2|0,0:0|0:0,0:0:0:0:
21,332,117773,6,2,B|82:337|82:337|139:312|139:312|204:320,1,187.000005706787,10|10,0:0|0:0,0:0:0:0:
331,365,118268,1,10,0:0:0:0:
442,217,118432,1,8,0:0:0:0:
303,101,118597,1,2,0:0:0:0:
135,217,118762,5,10,0:0:0:0:
408,136,118927,1,12,0:0:0:0:
221,32,119092,1,8,0:0:0:0:
275,281,119257,6,0,P|271:231|272:187,1,93.5000028533936,6|0,0:0|0:0,0:0:0:0:
19,24,119586,2,2,P|86:67|108:147,1,140.25000428009,10|0,0:0|2:0,0:0:0:0:
107,121,119916,1,8,0:0:0:0:
386,92,120081,2,0,P|333:89|282:78,1,93.5000028533936,10|0,0:0|0:0,0:0:0:0:
363,294,120410,1,2,0:0:0:0:
512,206,120575,5,4,0:2:0:0:
494,284,120905,1,2,2:0:0:0:
476,362,121235,5,0,0:0:0:0:
272,209,121400,1,2,2:0:0:0:
28,169,121564,1,0,0:0:0:0:
10,195,121894,5,4,0:0:0:0:
229,283,122059,1,2,2:1:0:0:
71,92,122224,1,10,1:0:0:0:
150,349,122389,1,2,2:0:0:0:
419,202,122553,5,4,0:0:0:0:
245,125,122718,1,2,2:1:0:0:
110,255,122883,1,10,0:0:0:0:
292,335,123048,1,2,2:0:0:0:
490,143,123213,5,4,0:0:0:0:
276,209,123378,1,2,2:1:0:0:
141,37,123542,1,10,0:0:0:0:
93,161,123707,5,2,2:0:0:0:
2,225,123872,5,4,0:0:0:0:
267,134,124037,1,6,2:2:0:0:
460,300,124201,1,10,0:0:0:0:
380,355,124366,5,8,0:0:0:0:
261,315,124531,5,4,0:0:0:0:
466,181,124696,1,2,2:1:0:0:
337,24,124861,1,10,0:0:0:0:
403,240,125026,1,2,2:0:0:0:
173,127,125191,5,4,0:0:0:0:
318,106,125356,1,2,2:1:0:0:
183,303,125520,5,10,0:0:0:0:
0,233,125685,1,2,2:0:0:0:
256,192,125850,5,4,0:2:0:0:
334,266,126015,5,2,0:1:0:0:
173,127,126180,1,10,0:0:0:0:
276,350,126345,5,4,0:2:0:0:
246,29,126509,1,10,0:0:0:0:
12,194,126674,5,14,0:0:0:0:
254,113,126839,5,14,0:0:0:0:
488,196,127004,5,14,0:0:0:0:
439,282,127169,5,4,0:0:0:0:
334,175,127334,1,2,2:1:0:0:
435,75,127498,1,2,0:0:0:0:
435,75,127663,1,2,2:0:0:0:
209,314,127828,5,4,0:0:0:0:
251,150,127993,1,2,2:1:0:0:
114,207,128158,1,2,0:0:0:0:
348,257,128323,1,2,2:2:0:0:
147,90,128487,5,4,0:0:0:0:
319,376,128652,1,2,2:1:0:0:
78,325,128817,1,2,0:0:0:0:
384,136,128982,1,2,2:2:0:0:
223,286,129147,5,4,0:0:0:0:
253,174,129312,1,6,2:2:0:0:
234,314,129476,1,10,0:0:0:0:
243,152,129641,1,8,0:0:0:0:
147,21,129806,5,4,0:0:0:0:
355,65,129971,1,2,1:1:0:0:
355,65,130053,1,0,1:0:0:0:
355,65,130136,2,0,L|257:77,1,93.5000028533936,10|2,0:0|0:0,0:0:0:0:
476,228,130465,2,0,P|477:170|452:122,1,93.5000028533936,4|2,0:0|0:0,0:0:0:0:
268,266,130795,2,0,P|267:324|292:372,1,93.5000028533936,10|2,0:0|0:0,0:0:0:0:
4,167,131125,5,4,0:0:0:0:
33,207,131207,1,0,0:0:0:0:
79,229,131290,1,0,0:0:0:0:
129,234,131372,1,0,0:0:0:0:
179,223,131454,1,0,0:0:0:0:
221,195,131537,1,0,0:0:0:0:
264,167,131619,1,0,0:0:0:0:
311,147,131702,1,0,0:0:0:0:
361,142,131784,1,0,0:0:0:0:
410,153,131867,1,0,0:0:0:0:
453,180,131949,1,4,0:0:0:0:
108,41,132114,5,0,0:0:0:0:
135,37,132196,1,0,0:0:0:0:
163,33,132279,1,0,0:0:0:0:
190,29,132361,1,0,0:0:0:0:
217,26,132443,2,0,P|256:106|241:215,1,187.000005706787,4|8,0:0|0:0,0:0:0:0:
288,352,132938,1,2,2:0:0:0:
75,292,133103,2,0,P|129:273|176:272,1,85,4|0,0:0|0:0,0:0:0:0:
427,205,133432,2,0,P|384:203|336:189,1,85,8|2,0:0|2:2,0:0:0:0:
509,265,133762,5,4,0:0:0:0:
486,115,133927,1,2,2:0:0:0:
433,380,134092,2,0,P|420:339|418:297,1,85,8|2,0:0|2:0,0:0:0:0:
192,238,134421,2,0,P|234:237|275:247,1,85,4|2,0:0|2:0,0:0:0:0:
47,169,134751,1,8,0:0:0:0:
98,360,134916,1,8,0:0:0:0:
313,319,135081,6,0,B|331:227|288:249|307:142,1,170,4|8,0:0|0:0,0:0:0:0:
199,154,135575,1,2,2:0:0:0:
505,6,135740,2,0,P|470:67|372:65,1,170,4|8,0:0|0:0,0:0:0:0:
422,175,136235,1,2,2:0:0:0:
75,78,136400,6,0,P|138:69|193:78,1,85,4|2,0:0|2:0,0:0:0:0:
84,235,136729,2,0,P|21:244|-34:235,1,85,8|10,0:0|0:0,0:0:0:0:
303,221,137059,1,4,0:2:0:0:
266,357,137224,1,8,0:0:0:0:
170,271,137389,1,8,0:0:0:0:
207,135,137554,1,8,0:0:0:0:
467,274,137718,6,0,B|422:290|369:280,1,85,4|0,0:0|0:0,0:0:0:0:
373,114,138048,2,0,B|418:98|471:108,1,85,8|2,0:0|2:0,0:0:0:0:
52,128,138378,1,4,0:0:0:0:
180,278,138542,1,2,2:0:0:0:
164,88,138707,1,8,0:0:0:0:
51,233,138872,1,2,2:0:0:0:
265,177,139037,6,0,B|274:132|262:77,1,85,4|0,0:2|2:0,0:0:0:0:
265,177,139367,2,0,B|256:222|268:277,1,85,4|0,0:2|2:0,0:0:0:0:
512,204,139696,2,0,B|418:170|342:215,1,170,4|8,0:2|0:0,0:0:0:0:
349,328,140191,1,8,0:0:0:0:
89,261,140356,5,4,0:0:0:0:
218,219,140520,1,0,0:0:0:0:
237,95,140685,1,8,0:0:0:0:
237,95,140850,1,2,2:0:0:0:
204,325,141015,5,4,0:0:0:0:
125,140,141180,1,2,2:0:0:0:
330,174,141345,1,8,0:0:0:0:
204,325,141509,1,2,2:0:0:0:
36,260,141674,6,0,B|2:175|33:89,2,170,4|12|4,0:0|0:0|0:0,0:0:0:0:
259,211,142498,2,0,B|205:191|153:202,1,85,8|4,0:0|0:2,0:0:0:0:
319,299,142828,1,8,0:0:0:0:
499,178,142993,5,6,0:0:0:0:
328,47,143158,1,0,0:0:0:0:
328,47,143240,1,0,0:0:0:0:
328,47,143323,2,0,B|305:101|314:158,1,85,8|2,0:0|2:0,0:0:0:0:
156,309,143652,2,0,P|218:292|262:262,1,85,2|0,0:0|2:0,0:0:0:0:
475,274,143982,2,0,P|431:248|385:234,1,85,10|2,0:0|2:0,0:0:0:0:
201,208,144312,5,6,0:0:0:0:
398,350,144476,1,0,0:0:0:0:
407,102,144641,1,8,0:0:0:0:
407,102,144806,1,2,2:0:0:0:
97,153,144971,5,2,0:0:0:0:
231,108,145136,1,0,2:0:0:0:
159,276,145301,5,10,0:0:0:0:
0,213,145465,1,8,0:0:0:0:
346,156,145630,6,0,B|380:240|356:334,1,170,6|10,0:0|0:0,0:0:0:0:
218,141,146125,1,2,2:0:0:0:
298,47,146290,2,0,B|357:43|419:72,1,85,6|0,0:0|2:0,0:0:0:0:
263,248,146619,2,0,B|204:252|142:223,1,85,10|2,0:0|2:0,0:0:0:0:
10,210,146949,5,6,0:0:0:0:
150,359,147114,1,0,2:0:0:0:
278,123,147279,5,12,0:0:0:0:
180,142,147443,1,8,0:0:0:0:
411,208,147608,5,12,0:0:0:0:
485,45,147773,1,8,0:0:0:0:
321,193,147938,5,4,0:2:0:0:
492,325,148103,1,8,0:0:0:0:
137,230,148268,6,0,B|186:209|240:216,1,85,4|8,0:0|0:0,0:0:0:0:
237,62,148597,2,0,B|279:94|306:151,1,85,14|0,0:0|0:0,0:0:0:0:
424,97,148927,2,0,B|471:181|448:267,1,170,4|14,0:2|0:0,0:0:0:0:
382,358,149421,1,0,0:0:0:0:
144,273,149586,5,4,0:2:0:0:
220,189,149751,1,8,0:0:0:0:
220,189,149834,1,8,0:0:0:0:
220,189,149916,2,0,L|317:202,1,85,14|0,0:0|0:0,0:0:0:0:
48,214,150246,2,0,B|-3:142|29:45,1,170,4|4,0:2|0:2,0:0:0:0:
146,74,150740,1,8,0:0:0:0:
30,328,150905,6,0,B|101:275|194:298,1,170,4|4,0:2|0:2,0:0:0:0:
310,354,151400,1,0,0:0:0:0:
321,128,151564,2,0,B|296:166|306:220,1,85,4|0,0:2|0:0,0:0:0:0:
465,328,151894,2,0,B|490:290|480:236,1,85,4|0,0:2|0:0,0:0:0:0:
374,184,152224,5,4,0:2:0:0:
397,143,152306,1,0,0:0:0:0:
392,96,152389,1,0,0:0:0:0:
360,62,152471,1,0,0:0:0:0:
315,53,152553,1,4,0:2:0:0:
271,67,152636,1,0,0:0:0:0:
248,107,152718,1,0,0:0:0:0:
252,153,152801,1,0,0:0:0:0:
274,194,152883,1,4,0:2:0:0:
272,240,152965,1,0,0:0:0:0:
242,275,153048,1,0,0:0:0:0:
198,288,153130,1,0,0:0:0:0:
154,272,153213,1,0,0:0:0:0:
131,232,153295,1,0,0:0:0:0:
130,184,153378,1,0,0:0:0:0:
161,148,153460,1,0,0:0:0:0:
200,212,154202,6,2,P|178:138|205:38,1,140.25000428009,6|0,0:0|2:0,0:0:0:0:
186,76,154531,1,8,0:0:0:0:
282,313,154696,1,2,0:0:0:0:
8,257,154861,2,0,P|58:242|115:240,1,93.5000028533936
99,239,155108,1,0,0:0:0:0:
99,239,155191,1,10,0:0:0:0:
317,188,155355,1,0,0:0:0:0:
472,212,155520,5,6,0:0:0:0:
348,68,155685,1,0,0:0:0:0:
158,167,155850,1,8,0:0:0:0:
311,308,156015,1,0,0:0:0:0:
460,56,156180,5,2,0:0:0:0:
234,15,156344,1,0,0:0:0:0:
234,15,156427,1,0,0:0:0:0:
234,15,156509,2,0,P|231:74|242:131,1,93.5000028533936,10|0,0:0|0:0,0:0:0:0:
0,203,156839,6,2,P|59:248|79:320,1,140.25000428009,6|0,0:0|2:0,0:0:0:0:
79,308,157169,1,8,0:0:0:0:
242,263,157333,1,2,0:0:0:0:
512,185,157498,6,0,L|395:169,1,93.5000028533936,4|0,0:2|0:0,0:0:0:0:
419,172,157745,1,8,0:0:0:0:
419,172,157828,1,0,0:0:0:0:
372,352,157993,1,8,0:0:0:0:
78,161,158158,6,0,L|195:145,1,93.5000028533936,4|0,0:2|0:0,0:0:0:0:
170,148,158405,1,8,0:0:0:0:
170,148,158488,1,0,0:0:0:0:
245,64,158652,1,8,0:0:0:0:
196,295,158817,5,4,0:2:0:0:
0,232,158982,1,8,0:0:0:0:
376,71,159147,5,4,0:2:0:0:
314,338,159311,1,8,0:0:0:0:
186,26,159476,6,0,P|254:49|278:137,1,140.25000428009,6|0,0:0|2:0,0:0:0:0:
281,107,159806,1,8,0:0:0:0:
27,265,159971,1,2,0:0:0:0:
27,265,160053,1,0,0:0:0:0:
27,265,160136,2,2,P|11:193|26:114,2,140.25000428009,2|10|10,0:0|0:0|0:0,0:0:0:0:
249,176,160795,6,0,P|202:171|156:179,1,93.5000028533936,6|0,0:0|0:0,0:0:0:0:
393,351,161125,1,8,0:0:0:0:
487,282,161289,1,2,0:0:0:0:
487,282,161372,1,0,0:0:0:0:
487,282,161454,2,0,P|497:224|492:168,1,93.5000028533936,4|0,0:2|0:0,0:0:0:0:
337,102,161784,1,10,0:0:0:0:
199,259,161949,1,0,0:0:0:0:
393,351,162114,5,6,0:0:0:0:
363,186,162278,1,0,0:0:0:0:
363,186,162361,1,0,0:0:0:0:
363,186,162443,2,0,P|310:193|244:197,1,93.5000028533936,8|2,0:0|0:0,0:0:0:0:
20,150,162773,2,0,P|85:172|150:151,1,140.25000428009,0|0,0:0|2:0,0:0:0:0:
150,150,163103,1,10,0:0:0:0:
231,333,163267,1,0,0:0:0:0:
310,42,163432,5,4,0:2:0:0:
269,66,163515,1,0,0:0:0:0:
249,108,163597,1,0,0:0:0:0:
250,155,163680,1,0,0:0:0:0:
270,196,163762,1,8,0:0:0:0:
388,337,163927,1,0,0:0:0:0:
388,337,164009,1,0,0:0:0:0:
388,337,164092,1,4,0:2:0:0:
356,126,164256,5,8,0:0:0:0:
144,277,164421,1,12,0:0:0:0:
489,204,164586,1,0,0:0:0:0:
230,43,164751,5,6,0:0:0:0:
288,260,164916,1,0,0:0:0:0:
288,260,164998,1,0,0:0:0:0:
287,260,165081,2,0,P|292:213|288:167,1,93.5000028533936,8|2,0:0|0:0,0:0:0:0:
113,270,165410,1,2,0:0:0:0:
326,374,165575,1,0,0:0:0:0:
340,89,165740,5,10,0:0:0:0:
202,125,165905,1,8,0:0:0:0:
492,242,166070,6,2,P|511:153|487:36,1,187.000005706787,6|10,0:0|0:0,0:0:0:0:
439,345,166564,1,2,0:0:0:0:
439,345,166647,1,0,0:0:0:0:
439,345,166729,1,2,0:0:0:0:
291,171,166894,1,0,0:0:0:0:
139,255,167059,1,10,0:0:0:0:
0,198,167223,1,8,0:0:0:0:
169,61,167388,6,0,P|177:106|175:153,1,93.5000028533936,6|0,0:0|0:0,0:0:0:0:
175,153,167636,1,0,0:0:0:0:
175,153,167718,1,8,0:0:0:0:
257,351,167883,1,2,0:0:0:0:
276,64,168048,5,4,0:2:0:0:
74,295,168295,1,8,0:0:0:0:
430,211,168542,1,8,0:0:0:0:
103,138,168707,5,4,0:2:0:0:
353,350,168954,1,8,0:0:0:0:
271,51,169202,1,4,0:2:0:0:
271,51,169284,1,0,0:0:0:0:
271,51,169366,5,8,0:0:0:0:
251,247,169531,1,4,0:2:0:0:
103,140,169696,5,8,0:0:0:0:
230,383,169861,1,8,0:0:0:0:
471,139,170026,6,0,P|404:185|393:241,1,140.25000428009,6|0,0:0|2:0,0:0:0:0:
392,239,170355,1,8,0:0:0:0:
30,212,170520,1,2,0:0:0:0:
30,212,170603,1,0,0:0:0:0:
30,212,170685,2,0,B|104:196|96:228|172:210,1,140.25000428009,2|0,0:0|2:0,0:0:0:0:
168,210,171015,1,10,0:0:0:0:
336,127,171180,1,8,0:0:0:0:
242,344,171344,5,6,0:0:0:0:
128,74,171509,1,0,0:0:0:0:
128,74,171592,1,0,0:0:0:0:
128,74,171674,2,0,P|176:60|222:61,1,93.5000028533936,8|2,0:0|0:0,0:0:0:0:
355,248,172004,5,2,0:0:0:0:
180,199,172169,1,0,0:0:0:0:
502,136,172333,5,10,0:0:0:0:
357,335,172498,1,0,0:0:0:0:
106,259,172663,6,2,B|53:174|87:76,2,187.000005706787,6|10|6,0:0|0:0|0:2,0:0:0:0:
315,190,173487,2,0,B|270:165|209:180,1,93.5000028533936,0|8,0:0|0:0,0:0:0:0:
492,147,173817,5,0,0:2:0:0:
512,100,173899,1,0,0:0:0:0:
495,51,173982,1,4,0:2:0:0:
449,28,174064,1,0,0:0:0:0:
399,40,174147,1,0,0:0:0:0:
368,80,174229,1,0,0:0:0:0:
365,130,174311,1,0,0:0:0:0:
395,172,174394,1,0,0:0:0:0:
404,221,174476,1,0,0:0:0:0:
397,271,174559,1,0,0:0:0:0:
361,307,174641,1,4,0:0:0:0:
6,193,174806,5,0,0:0:0:0:
58,185,174888,1,0,0:0:0:0:
112,177,174971,1,0,0:0:0:0:
165,169,175053,1,0,0:0:0:0:
219,163,175136,1,0,0:0:0:0:
271,156,175218,1,0,0:0:0:0:
324,149,175300,5,6,0:0:0:0:
235,356,175465,2,0,B|208:309|223:248,1,93.5000028533936,0|8,0:0|0:0,0:0:0:0:
458,61,175795,2,0,B|485:108|470:169,1,93.5000028533936,2|4,0:0|0:2,0:0:0:0:
388,281,176125,1,0,0:0:0:0:
388,281,176208,1,0,0:0:0:0:
388,281,176290,1,10,0:0:0:0:
16,126,176454,5,2,0:0:0:0:
121,40,176619,1,6,0:0:0:0:
378,125,176784,2,0,B|332:153|277:144,1,93.5000028533936,0|8,0:0|0:0,0:0:0:0:
46,300,177114,2,0,B|92:272|147:281,1,93.5000028533936,2|4,0:0|0:2,0:0:0:0:
326,349,177443,1,0,0:0:0:0:
378,125,177608,1,10,0:0:0:0:
326,349,177773,1,10,0:0:0:0:
78,64,177938,6,2,B|150:33|219:97|205:161,1,187.000005706787,6|10,0:0|0:0,0:0:0:0:
16,280,178432,1,0,0:0:0:0:
16,280,178515,1,0,0:0:0:0:
16,280,178597,2,0,B|-8:232|10:179,1,93.5000028533936,4|2,0:2|0:0,0:0:0:0:
151,359,178927,1,8,0:0:0:0:
436,180,179092,5,8,0:0:0:0:
436,180,179174,1,2,0:0:0:0:
436,180,179256,2,0,B|380:200|336:190,1,93.5000028533936,4|0,0:2|0:0,0:0:0:0:
273,94,179586,1,8,0:0:0:0:
214,266,179751,5,2,0:0:0:0:
444,347,179916,1,8,0:0:0:0:
512,140,180081,1,4,0:2:0:0:
141,148,180245,5,10,0:0:0:0:
266,171,180410,1,4,0:2:0:0:
149,55,180575,6,2,P|57:63|20:228,1,280.500008560181,6|2,0:0|0:0,0:0:0:0:
194,341,181234,2,0,P|201:292|183:223,1,93.5000028533936,4|0,0:2|0:0,0:0:0:0:
193,248,181482,1,0,0:0:0:0:
193,248,181564,1,10,0:0:0:0:
88,299,181729,1,8,0:0:0:0:
430,258,181894,5,4,0:0:0:0:
182,151,182059,1,0,0:0:0:0:
338,337,182223,1,10,0:0:0:0:
278,64,182388,1,0,0:0:0:0:
496,184,182553,5,2,0:0:0:0:
256,288,182718,1,0,0:0:0:0:
16,200,182883,1,10,0:0:0:0:
100,23,183048,5,0,0:0:0:0:
100,23,183130,1,0,0:0:0:0:
100,23,183212,2,2,P|164:62|173:154,1,140.25000428009,6|2,0:0|1:1,0:0:0:0:
180,121,183542,1,8,0:0:0:0:
298,336,183707,1,2,0:0:0:0:
302,70,183872,5,0,0:0:0:0:
73,281,184037,1,2,0:0:0:0:
73,281,184119,1,0,0:0:0:0:
73,281,184202,2,0,P|131:265|189:262,1,93.5000028533936,8|10,0:0|0:0,0:0:0:0:
398,160,184531,5,4,0:0:0:0:
441,188,184614,1,0,0:0:0:0:
462,234,184696,1,0,0:0:0:0:
459,285,184778,1,0,0:0:0:0:
427,326,184861,1,8,0:0:0:0:
194,168,185026,5,0,0:0:0:0:
173,121,185108,1,8,0:0:0:0:
186,70,185191,1,4,0:0:0:0:
286,359,185355,5,8,0:0:0:0:
315,103,185520,1,8,0:0:0:0:
76,234,185685,1,0,0:0:0:0:
270,17,185850,5,6,0:0:0:0:
400,147,186015,1,8,0:0:0:0:
389,187,186097,1,0,0:0:0:0:
377,227,186180,1,8,0:0:0:0:
166,311,186344,1,10,0:0:0:0:
178,272,186426,1,8,0:0:0:0:
190,231,186509,1,4,0:2:0:0:
358,349,186674,1,0,0:0:0:0:
512,222,186839,1,10,0:0:0:0:
301,185,187004,5,8,0:0:0:0:
191,34,187169,1,6,0:0:0:0:
2,187,187333,1,8,0:0:0:0:
42,177,187416,1,0,0:0:0:0:
82,167,187498,1,12,0:0:0:0:
340,262,187663,1,2,0:0:0:0:
299,271,187746,1,0,0:0:0:0:
259,281,187828,1,4,0:2:0:0:
145,107,187993,1,0,0:0:0:0:
203,353,188158,1,10,0:0:0:0:
457,161,188322,5,10,0:0:0:0:
262,15,188487,2,2,B|211:110|267:195,1,187.000005706787,6|10,0:2|0:0,0:0:0:0:
236,285,188982,1,0,0:0:0:0:
236,285,189064,1,8,0:0:0:0:
236,285,189147,1,0,0:0:0:0:
430,345,189311,1,0,0:0:0:0:
478,150,189476,2,0,P|432:134|378:131,1,93.5000028533936,8|0,0:0|0:0,0:0:0:0:
120,285,189806,5,0,0:0:0:0:
297,213,189971,1,8,0:0:0:0:
297,213,190053,1,0,0:0:0:0:
297,213,190136,2,0,L|311:96,1,93.5000028533936,4|0,0:2|0:0,0:0:0:0:
59,127,190465,5,4,0:2:0:0:
230,281,190630,1,0,0:0:0:0:
253,22,190795,5,4,0:2:0:0:
284,360,190960,1,0,0:0:0:0:
0,233,191125,6,2,B|55:223|55:223|87:235|87:235|142:226,1,140.25000428009,6|2,0:0|2:1,0:0:0:0:
171,204,191454,1,8,0:0:0:0:
408,33,191619,1,2,0:0:0:0:
408,33,191702,1,0,0:0:0:0:
408,33,191784,2,0,L|429:144,1,93.5000028533936
388,218,192114,1,8,0:0:0:0:
116,126,192278,6,0,B|166:104|216:113,1,93.5000028533936,8|0,0:0|0:0,0:0:0:0:
98,298,192608,2,0,B|48:320|-2:311,1,93.5000028533936,0|8,0:0|0:0,0:0:0:0:
261,223,192938,1,0,0:0:0:0:
261,223,193020,1,0,0:0:0:0:
261,223,193103,1,8,0:0:0:0:
300,366,193267,1,4,0:2:0:0:
82,219,193432,1,8,0:0:0:0:
296,78,193597,1,4,0:2:0:0:
300,366,193762,5,4,0:0:0:0:
82,219,193927,2,0,L|197:204,1,93.5000028533936,0|8,0:0|0:0,0:0:0:0:
461,239,194256,1,0,0:0:0:0:
461,239,194339,1,0,0:0:0:0:
461,239,194421,2,0,B|483:181|473:136,1,93.5000028533936
372,46,194751,1,8,0:0:0:0:
47,153,194916,5,0,0:0:0:0:
47,153,194998,1,0,0:0:0:0:
47,153,195081,1,4,0:0:0:0:
216,255,195245,1,0,0:0:0:0:
404,172,195410,1,4,0:0:0:0:
355,383,195575,1,8,0:0:0:0:
216,84,195740,5,4,0:0:0:0:
383,54,195905,1,4,0:2:0:0:
237,289,196070,5,12,0:0:0:0:
53,230,196234,1,4,0:2:0:0:
466,84,196399,6,2,P|487:157|470:232,1,140.25000428009,6|2,0:0|2:0,0:1:0:0:
475,219,196729,1,8,0:0:0:0:
284,376,196894,1,2,0:0:0:0:
284,376,196976,1,0,0:0:0:0:
284,376,197059,2,0,P|266:325|270:245,1,93.5000028533936,2|0,0:0|0:0,0:0:0:0:
117,259,197388,1,10,0:0:0:0:
368,180,197553,1,8,0:0:0:0:
195,76,197718,1,6,0:0:0:0:
416,269,197883,5,0,0:0:0:0:
457,69,198048,2,0,L|358:88,1,93.5000028533936,8|0,0:0|0:0,0:0:0:0:
271,176,198377,1,2,0:0:0:0:
260,202,198460,1,0,0:0:0:0:
250,228,198542,1,0,0:0:0:0:
116,51,198707,1,10,0:0:0:0:
121,78,198789,1,0,0:0:0:0:
126,105,198872,1,2,0:0:0:0:
0,156,199037,6,0,B|50:214|43:292,1,140.25000428009,6|0,0:0|0:0,0:0:0:0:
43,285,199366,1,8,0:0:0:0:
168,219,199531,1,8,0:0:0:0:
168,219,199614,1,8,0:0:0:0:
168,219,199696,2,0,P|223:205|286:208,1,93.5000028533936,10|8,0:0|0:0,0:0:0:0:
347,345,200026,1,10,0:0:0:0:
168,219,200191,1,2,0:0:0:0:
495,81,200355,6,0,B|517:156|479:222,1,140.25000428009
481,216,200685,1,10,0:0:0:0:
332,170,200850,1,2,0:0:0:0:
157,324,201015,2,0,P|208:310|266:314,1,93.5000028533936,8|10,0:0|0:0,0:0:0:0:
66,256,201344,1,10,0:0:0:0:
386,357,201509,5,2,0:0:0:0:
386,357,201592,1,0,0:0:0:0:
386,357,201674,2,2,B|435:258|389:163,2,187.000005706787,6|10|2,0:0|0:0|0:0,0:0:0:0:
119,192,202498,2,0,B|166:213|219:203,1,93.5000028533936,2|8,0:0|0:0,0:0:0:0:
282,8,202828,5,2,0:0:0:0:
282,8,202910,1,0,0:0:0:0:
282,8,202993,2,2,B|338:60|326:141,1,140.25000428009,6|0,0:0|2:0,0:0:0:0:
326,135,203322,1,10,0:0:0:0:
66,322,203487,1,2,0:0:0:0:
66,322,203570,1,0,0:0:0:0:
66,322,203652,2,2,B|136:281|213:295,1,140.25000428009,4|0,0:2|2:0,0:0:0:0:
200,293,203982,1,10,0:0:0:0:
473,219,204147,1,10,0:0:0:0:
267,83,204311,5,4,0:2:0:0:
260,200,204476,1,0,0:0:0:0:
373,266,204641,2,0,B|382:212|372:161,1,93.5000028533936,10|2,0:0|0:0,0:0:0:0:
83,132,204971,5,0,0:0:0:0:
83,132,205054,1,0,0:0:0:0:
83,132,205136,1,2,0:0:0:0:
269,360,205300,1,10,0:0:0:0:
45,293,205465,5,2,0:0:0:0:
245,124,205630,1,4,0:0:0:0:
45,293,205795,2,0,B|101:294|163:274,1,93.5000028533936,0|8,0:0|0:0,0:0:0:0:
231,336,206125,1,0,0:0:0:0:
503,132,206289,5,4,0:0:0:0:
386,362,206454,1,4,0:2:0:0:
279,53,206619,5,8,0:0:0:0:
327,285,206784,1,4,0:2:0:0:
367,102,206949,6,0,P|406:100|440:108,2,62.3333352355958,6|2|0,0:0|0:0|0:0,0:0:0:0:
232,180,207278,2,0,P|193:182|159:174,2,62.3333352355958,10|2|0,0:0|0:0|0:0,0:0:0:0:
15,133,207608,2,0,B|73:184|66:262,1,140.25000428009,6|0,0:0|2:0,0:0:0:0:
112,329,207938,5,10,0:0:0:0:
154,348,208020,1,0,0:0:0:0:
200,356,208103,1,10,0:0:0:0:
245,344,208185,1,8,0:0:0:0:
290,332,208267,1,6,0:0:0:0:
329,306,208350,1,0,0:0:0:0:
372,288,208432,1,2,0:0:0:0:
417,283,208515,1,0,0:0:0:0:
463,291,208597,5,10,0:0:0:0:
436,252,208680,1,0,0:0:0:0:
436,205,208762,1,2,0:0:0:0:
452,161,208844,1,0,0:0:0:0:
489,132,208927,1,8,0:0:0:0:
314,178,209092,1,2,0:0:0:0:
303,193,209174,1,0,0:0:0:0:
292,208,209256,2,0,L|207:193,1,46.7500014266968,10|0,0:0|2:0,0:0:0:0:
120,101,209421,2,0,L|166:109,1,46.7500014266968,10|0,0:0|2:0,0:0:0:0:
273,314,209586,6,2,B|177:283|205:191|286:139|312:249|382:248|424:133|398:54|315:34|255:58|227:101|255:150|276:156,1,441.999979766847,6|10,0:0|0:0,0:0:0:0:
416,357,210410,1,2,0:0:0:0:
416,357,210493,1,0,0:0:0:0:
416,357,210575,1,8,0:0:0:0:
428,110,210740,1,2,0:0:0:0:
215,263,210905,6,0,B|263:242|319:246,1,93.5000028533936,0|2,0:0|0:0,0:0:0:0:
116,150,211234,2,0,B|68:171|12:167,1,93.5000028533936,8|2,0:0|0:0,0:0:0:0:
96,289,211564,1,6,0:0:0:0:
254,157,211729,1,10,0:0:0:0:
131,22,211894,1,14,0:0:0:0:
131,22,212223,5,14,0:0:0:0:
95,52,212306,1,0,0:0:0:0:
84,97,212388,1,0,0:0:0:0:
94,142,212471,1,0,0:0:0:0:
125,176,212553,1,0,0:0:0:0:
169,192,212636,1,0,0:0:0:0:
203,223,212718,1,0,0:0:0:0:
220,265,212800,1,0,0:0:0:0:
219,312,212883,1,0,0:0:0:0:
194,351,212965,1,0,0:0:0:0:
149,367,213048,1,0,0:0:0:0:
102,360,213130,1,0,0:0:0:0:
65,330,213212,1,0,0:0:0:0:
47,286,213295,1,0,0:0:0:0:
64,242,213377,2,0,P|105:233|139:234,1,46.7500014266968
109,145,213542,5,14,0:0:0:0:
154,120,213625,1,0,0:0:0:0:
204,114,213707,1,0,0:0:0:0:
254,123,213790,1,0,0:0:0:0:
298,148,213872,1,0,0:0:0:0:
345,167,213955,1,0,0:0:0:0:
395,176,214037,1,0,0:0:0:0:
446,173,214119,1,0,0:0:0:0:
494,153,214202,2,0,L|500:97,3,46.7500014266968,8|0|0|0,0:0|0:0|0:0|0:0,0:0:0:0:
473,75,214531,2,0,L|458:39,8,23.3750007133484,8|0|0|0|8|0|0|0|2,0:0|0:0|0:0|0:0|0:0|0:0|0:0|0:0|2:0,0:0:0:0:
379,21,215026,5,0,2:0:0:0:
347,89,215191,1,0,2:0:0:0:
384,152,215355,1,0,2:0:0:0:
461,156,215520,5,0,2:0:0:0:
503,78,215685,1,0,2:0:0:0:
456,6,215849,1,0,2:0:0:0:
364,9,216015,5,0,2:0:0:0:
306,92,216180,5,0,2:0:0:0:
345,185,216344,5,0,2:0:0:0:
388,278,216509,5,0,2:0:0:0:
322,361,216674,5,0,2:0:0:0:
219,315,216839,5,0,2:0:0:0:
232,227,217004,5,0,2:0:0:0:
258,202,217169,5,2,2:0:0:0:
