osu file format v14

[General]
AudioFilename: audio.mp3
AudioLeadIn: 0
PreviewTime: 5385
Countdown: 0
SampleSet: Normal
StackLeniency: 0.7
Mode: 1
LetterboxInBreaks: 0
WidescreenStoryboard: 1

[Editor]
Bookmarks: 5436,26535,37085,44997,55546,71370,92469,103019,114722
DistanceSpacing: 0.7
BeatDivisor: 2
GridSize: 32
TimelineZoom: 2

[Metadata]
Title:Moon Light Dance
TitleUnicode:Moon Light Dance
Artist:TatshMusicCircle
ArtistUnicode:TatshMusicCircle
Creator:sendol
Version:Futsuu
Source:東方永夜抄 ~ Imperishable Night.
Tags:Touhou 東方project Reisen Udongain Inaba 鈴仙 優曇華院 イナバ 狂気の瞳 ~ Invisible Full Moon Pump It Up 2017 Prime 2
BeatmapID:1963919
BeatmapSetID:940341

[Difficulty]
HPDrainRate:6.5
CircleSize:4
OverallDifficulty:4
ApproachRate:8
SliderMultiplier:1.4
SliderTickRate:1

[Events]
//Background and Video events
0,0,"wide.png",0,0
//Break Periods
//Storyboard Layer 0 (Background)
//Storyboard Layer 1 (Fail)
//Storyboard Layer 2 (Pass)
//Storyboard Layer 3 (Foreground)
//Storyboard Sound Samples

[TimingPoints]
151,329.67032967033,4,1,0,80,1,0
37074,329.67032967033,3,1,0,80,1,0
44986,329.67032967033,4,1,0,80,1,0
54876,-109.89010989011,4,1,0,80,0,0
55205,-121.951219512195,4,1,0,80,0,0
55535,-133.333333333333,4,1,0,80,0,0
56524,-133.333333333333,4,1,0,65,0,0
63447,-125,4,1,0,70,0,0
64766,-117.647058823529,4,1,0,75,0,0
66084,-111.111111111111,4,1,0,80,0,0
67403,-105.263157894737,4,1,0,80,0,0
68722,-100,4,1,0,80,0,0
71029,-90.9090909090909,4,1,0,80,0,0
71359,-95.2380952380952,4,1,0,80,0,1
71689,-100,4,1,0,80,0,1
92458,-100,4,1,0,80,0,0
108282,-100,4,1,0,80,0,1
114711,-100,4,1,0,80,0,0

[HitObjects]
243,189,151,5,4,0:0:0:0:
249,189,1469,1,4,0:0:0:0:
249,189,2623,1,4,0:0:0:0:
249,189,3282,1,12,0:0:0:0:
249,189,3942,1,4,0:0:0:0:
258,203,4931,1,0,0:0:0:0:
264,203,5096,5,12,0:0:0:0:
251,193,5425,1,4,0:0:0:0:
251,193,5755,1,0,0:0:0:0:
251,193,6085,1,8,0:0:0:0:
251,193,6414,1,0,0:0:0:0:
251,193,6579,1,8,0:0:0:0:
251,193,6744,1,0,0:0:0:0:
251,193,7074,1,0,0:0:0:0:
251,193,7403,1,8,0:0:0:0:
234,187,7898,1,4,0:0:0:0:
255,188,8392,1,8,0:0:0:0:
255,188,8722,1,8,0:0:0:0:
266,188,9216,1,4,0:0:0:0:
255,188,9711,1,0,0:0:0:0:
251,201,10041,1,8,0:0:0:0:
242,185,10700,1,4,0:0:0:0:
251,193,11030,1,0,0:0:0:0:
251,193,11359,1,8,0:0:0:0:
251,193,11689,1,0,0:0:0:0:
251,193,11854,1,8,0:0:0:0:
251,193,12019,1,0,0:0:0:0:
251,193,12348,1,8,0:0:0:0:
251,193,12678,1,8,0:0:0:0:
234,202,13172,1,4,0:0:0:0:
255,188,13667,1,8,0:0:0:0:
255,188,13997,1,0,0:0:0:0:
255,188,14326,1,8,0:0:0:0:
255,188,14491,1,4,0:0:0:0:
243,192,15315,1,8,0:0:0:0:
243,192,15480,1,8,0:0:0:0:
243,192,15645,1,8,0:0:0:0:
243,192,15975,1,12,0:0:0:0:
250,176,16304,1,0,0:0:0:0:
250,176,16634,1,8,0:0:0:0:
250,176,16964,1,0,0:0:0:0:
250,176,17129,1,8,0:0:0:0:
250,176,17293,1,0,0:0:0:0:
250,176,17623,1,0,0:0:0:0:
250,176,17953,1,8,0:0:0:0:
250,176,18447,1,4,0:0:0:0:
260,180,18942,1,8,0:0:0:0:
260,180,19271,1,8,0:0:0:0:
260,180,19766,1,4,0:0:0:0:
260,180,20260,1,0,0:0:0:0:
261,185,20590,1,8,0:0:0:0:
261,185,21249,1,12,0:0:0:0:
202,181,21579,1,0,0:0:0:0:
202,181,21909,1,8,0:0:0:0:
202,181,22238,1,0,0:0:0:0:
202,181,22403,1,8,0:0:0:0:
202,181,22568,1,0,0:0:0:0:
202,181,22898,1,8,0:0:0:0:
202,181,23227,1,8,0:0:0:0:
202,181,23722,1,4,0:0:0:0:
207,170,24052,1,0,0:0:0:0:
207,170,24216,1,8,0:0:0:0:
207,170,24546,1,8,0:0:0:0:
252,199,24876,5,8,0:0:0:0:
244,194,25041,1,0,0:0:0:0:
252,199,25370,1,0,0:0:0:0:
252,199,25535,1,8,0:0:0:0:
252,199,25865,1,8,0:0:0:0:
257,194,26524,1,12,0:0:0:0:
257,194,26854,1,0,0:0:0:0:
257,194,27019,1,8,0:0:0:0:
257,194,27843,1,0,0:0:0:0:
257,194,28172,1,0,0:0:0:0:
257,194,28502,1,8,0:0:0:0:
257,194,28832,1,8,0:0:0:0:
257,194,29161,1,4,0:0:0:0:
272,204,29491,1,8,0:0:0:0:
272,204,29656,1,0,0:0:0:0:
272,204,30151,1,8,0:0:0:0:
272,204,30315,1,4,0:0:0:0:
272,204,30810,1,8,0:0:0:0:
283,195,31140,1,0,0:0:0:0:
283,195,31304,1,0,0:0:0:0:
283,195,31469,1,8,0:0:0:0:
283,195,31799,1,12,0:0:0:0:
283,195,32129,1,0,0:0:0:0:
283,195,32293,1,8,0:0:0:0:
260,192,33118,1,0,0:0:0:0:
260,192,33447,1,0,0:0:0:0:
260,192,33777,1,8,0:0:0:0:
260,192,34107,1,8,0:0:0:0:
256,205,34436,1,4,0:0:0:0:
256,205,34931,1,4,0:0:0:0:
256,205,35425,1,12,0:0:0:0:
244,200,36085,1,0,0:0:0:0:
244,200,36414,1,8,0:0:0:0:
245,189,36579,1,8,0:0:0:0:
245,189,36744,1,8,0:0:0:0:
250,201,37074,1,4,0:0:0:0:
254,207,37403,1,0,0:0:0:0:
254,207,37568,1,8,0:0:0:0:
254,207,37733,1,8,0:0:0:0:
254,207,38063,1,0,0:0:0:0:
254,207,38392,1,8,0:0:0:0:
215,187,39052,1,12,0:0:0:0:
192,200,39381,1,0,0:0:0:0:
192,200,39546,1,8,0:0:0:0:
192,200,39711,1,8,0:0:0:0:
257,194,40041,1,0,0:0:0:0:
257,194,40370,1,0,0:0:0:0:
257,194,41030,1,4,0:0:0:0:
222,191,41359,1,0,0:0:0:0:
222,191,41524,1,8,0:0:0:0:
222,191,41689,1,8,0:0:0:0:
222,191,42019,1,0,0:0:0:0:
222,191,42348,1,8,0:0:0:0:
240,196,43008,1,4,0:0:0:0:
240,196,43337,1,8,0:0:0:0:
240,196,43502,1,8,0:0:0:0:
240,196,43667,1,0,0:0:0:0:
279,222,43997,1,8,0:0:0:0:
279,222,44326,1,0,0:0:0:0:
245,221,44986,1,4,0:0:0:0:
252,206,45315,1,8,0:0:0:0:
243,238,45480,1,8,0:0:0:0:
230,165,45810,1,0,0:0:0:0:
230,165,45975,1,8,0:0:0:0:
180,189,46469,1,0,0:0:0:0:
230,165,46634,1,0,0:0:0:0:
230,165,46964,1,8,0:0:0:0:
230,165,47293,1,8,0:0:0:0:
247,168,47623,1,12,0:0:0:0:
194,180,48282,1,0,0:0:0:0:
194,180,48612,1,0,0:0:0:0:
194,180,48942,1,8,0:0:0:0:
194,180,49271,1,0,0:0:0:0:
194,180,49436,1,8,0:0:0:0:
194,180,50260,1,4,0:0:0:0:
194,180,50590,1,8,0:0:0:0:
194,180,50920,1,8,0:0:0:0:
194,180,51249,1,0,0:0:0:0:
194,180,51579,1,0,0:0:0:0:
194,180,52074,1,8,0:0:0:0:
194,180,52403,1,0,0:0:0:0:
194,180,52568,1,8,0:0:0:0:
204,176,52898,1,4,0:0:0:0:
204,176,53392,1,0,0:0:0:0:
204,176,53887,1,8,0:0:0:0:
242,191,54216,1,0,0:0:0:0:
242,191,54381,1,8,0:0:0:0:
242,191,54546,1,8,0:0:0:0:
242,191,54876,1,8,0:0:0:0:
245,190,55205,1,8,0:0:0:0:
256,192,55535,5,4,0:0:0:0:
256,160,56524,1,8,0:0:0:0:
256,160,56854,1,0,0:0:0:0:
224,192,57513,1,8,0:0:0:0:
224,192,58172,1,0,0:0:0:0:
224,192,59491,1,0,0:0:0:0:
256,192,60810,1,4,0:0:0:0:
224,224,61799,1,8,0:0:0:0:
224,224,62129,1,0,0:0:0:0:
224,224,62788,1,8,0:0:0:0:
224,224,63447,1,4,0:0:0:0:
256,192,64107,1,0,0:0:0:0:
256,192,64766,1,0,0:0:0:0:
256,192,65425,1,8,0:0:0:0:
256,192,65755,1,8,0:0:0:0:
288,192,66085,1,8,0:0:0:0:
288,192,66414,1,8,0:0:0:0:
288,192,66579,1,0,0:0:0:0:
288,192,66744,1,8,0:0:0:0:
288,192,67074,1,8,0:0:0:0:
288,192,67403,1,8,0:0:0:0:
288,192,67733,1,8,0:0:0:0:
288,192,67898,1,0,0:0:0:0:
288,192,68063,1,8,0:0:0:0:
288,192,68392,1,8,0:0:0:0:
228,198,68722,5,12,0:0:0:0:
228,198,69052,1,0,0:0:0:0:
228,198,69216,1,8,0:0:0:0:
228,198,69546,1,0,0:0:0:0:
228,198,69711,1,8,0:0:0:0:
228,198,69876,1,8,0:0:0:0:
262,193,71030,1,12,0:0:0:0:
251,193,71359,1,4,0:0:0:0:
251,193,71689,1,0,0:0:0:0:
251,193,72019,1,8,0:0:0:0:
251,193,72348,1,0,0:0:0:0:
251,193,72513,1,8,0:0:0:0:
251,193,72678,1,0,0:0:0:0:
251,193,73008,1,0,0:0:0:0:
251,193,73337,1,8,0:0:0:0:
234,187,73832,1,4,0:0:0:0:
245,185,74326,1,0,0:0:0:0:
245,185,74491,1,0,0:0:0:0:
255,188,74656,1,8,0:0:0:0:
245,186,74986,1,8,0:0:0:0:
266,188,75151,1,4,0:0:0:0:
255,188,75645,1,0,0:0:0:0:
251,201,75975,1,8,0:0:0:0:
242,185,76634,1,4,0:0:0:0:
251,193,76964,1,0,0:0:0:0:
251,193,77293,1,8,0:0:0:0:
251,193,77623,1,0,0:0:0:0:
251,193,77788,1,8,0:0:0:0:
251,193,77953,1,0,0:0:0:0:
251,193,78282,1,8,0:0:0:0:
251,193,78612,1,8,0:0:0:0:
234,202,79107,1,4,0:0:0:0:
255,188,79601,1,8,0:0:0:0:
255,188,79931,1,0,0:0:0:0:
255,188,80260,1,8,0:0:0:0:
255,188,80425,1,4,0:0:0:0:
243,192,81249,1,8,0:0:0:0:
243,192,81414,1,8,0:0:0:0:
243,192,81579,1,8,0:0:0:0:
243,192,81909,1,12,0:0:0:0:
250,176,82238,1,0,0:0:0:0:
250,176,82568,1,8,0:0:0:0:
250,176,82898,1,0,0:0:0:0:
250,176,83063,1,8,0:0:0:0:
250,176,83227,1,0,0:0:0:0:
250,176,83557,1,0,0:0:0:0:
250,176,83887,1,8,0:0:0:0:
250,176,84381,1,4,0:0:0:0:
244,193,84876,1,0,0:0:0:0:
244,193,85041,1,0,0:0:0:0:
260,180,85205,1,8,0:0:0:0:
251,187,85535,1,8,0:0:0:0:
260,180,85700,1,4,0:0:0:0:
260,180,86194,1,0,0:0:0:0:
261,185,86524,1,8,0:0:0:0:
261,185,87183,1,12,0:0:0:0:
202,181,87513,1,0,0:0:0:0:
202,181,87843,1,8,0:0:0:0:
202,181,88172,1,0,0:0:0:0:
202,181,88337,1,8,0:0:0:0:
202,181,88502,1,0,0:0:0:0:
202,181,88832,1,8,0:0:0:0:
202,181,89161,1,8,0:0:0:0:
202,181,89656,1,4,0:0:0:0:
207,170,89986,1,0,0:0:0:0:
207,170,90151,1,8,0:0:0:0:
207,170,90480,1,8,0:0:0:0:
252,199,90810,5,8,0:0:0:0:
244,194,90975,1,0,0:0:0:0:
252,199,91304,1,0,0:0:0:0:
252,199,91469,1,8,0:0:0:0:
252,199,91799,5,8,0:0:0:0:
257,194,92458,1,12,0:0:0:0:
257,194,92788,1,0,0:0:0:0:
257,194,92953,1,8,0:0:0:0:
257,194,93777,1,0,0:0:0:0:
257,194,94107,1,0,0:0:0:0:
257,194,94436,1,8,0:0:0:0:
257,194,94766,1,8,0:0:0:0:
257,194,95096,1,4,0:0:0:0:
272,204,95425,1,8,0:0:0:0:
272,204,95590,1,0,0:0:0:0:
272,204,96085,1,8,0:0:0:0:
272,204,96249,1,4,0:0:0:0:
272,204,96744,1,8,0:0:0:0:
283,195,97074,1,0,0:0:0:0:
283,195,97238,1,0,0:0:0:0:
283,195,97403,1,8,0:0:0:0:
283,195,97733,1,12,0:0:0:0:
283,195,98063,1,0,0:0:0:0:
283,195,98227,1,8,0:0:0:0:
260,192,99052,1,0,0:0:0:0:
260,192,99381,1,0,0:0:0:0:
260,192,99711,1,8,0:0:0:0:
260,192,100041,1,8,0:0:0:0:
256,205,100370,1,4,0:0:0:0:
256,205,100865,1,4,0:0:0:0:
256,205,101359,1,12,0:0:0:0:
244,200,102019,1,0,0:0:0:0:
244,200,102348,1,8,0:0:0:0:
245,189,102513,1,8,0:0:0:0:
245,189,102678,1,8,0:0:0:0:
251,197,103008,1,4,0:0:0:0:
251,197,103337,1,8,0:0:0:0:
251,197,103502,1,0,0:0:0:0:
251,197,103667,1,8,0:0:0:0:
251,197,103997,1,0,0:0:0:0:
245,203,104326,1,8,0:0:0:0:
245,203,104656,1,0,0:0:0:0:
245,203,104821,1,0,0:0:0:0:
245,203,104986,1,8,0:0:0:0:
245,203,105645,1,4,0:0:0:0:
245,203,105975,1,8,0:0:0:0:
245,203,106140,1,0,0:0:0:0:
245,203,106304,1,8,0:0:0:0:
245,203,106634,1,0,0:0:0:0:
256,209,106964,1,0,0:0:0:0:
256,209,107129,1,0,0:0:0:0:
256,209,107293,1,8,0:0:0:0:
256,209,107623,1,8,0:0:0:0:
256,209,107788,1,8,0:0:0:0:
256,209,107953,1,0,0:0:0:0:
256,209,108282,1,8,0:0:0:0:
256,209,108612,1,0,0:0:0:0:
256,209,108777,1,8,0:0:0:0:
256,209,109107,1,0,0:0:0:0:
256,209,109271,1,8,0:0:0:0:
256,209,109601,1,0,0:0:0:0:
256,209,109766,1,8,0:0:0:0:
256,209,110096,1,0,0:0:0:0:
256,209,110260,1,8,0:0:0:0:
250,194,110590,1,8,0:0:0:0:
256,209,110920,1,12,0:0:0:0:
247,212,111249,1,0,0:0:0:0:
247,212,111414,1,8,0:0:0:0:
247,212,111744,1,0,0:0:0:0:
247,212,111909,1,8,0:0:0:0:
247,212,112238,1,8,0:0:0:0:
247,212,112403,1,0,0:0:0:0:
247,212,112568,1,0,0:0:0:0:
247,212,112898,1,8,0:0:0:0:
247,212,113227,1,8,0:0:0:0:
255,205,113557,5,4,0:0:0:0:
255,205,114052,1,4,0:0:0:0:
255,205,114546,1,4,0:0:0:0:
256,192,114711,12,0,118832,0:0:0:0:
