osu file format v14

[General]
AudioFilename: audio.mp3
AudioLeadIn: 0
PreviewTime: -1
Countdown: 1
SampleSet: None
StackLeniency: 0.7
Mode: 0
LetterboxInBreaks: 0
WidescreenStoryboard: 1

[Editor]
DistanceSpacing: 0.6
BeatDivisor: 4
GridSize: 8
TimelineZoom: 1

[Metadata]
Title:Floating Darkness
TitleUnicode:Floating Darkness
Artist:TatshMusicCircle
ArtistUnicode:TatshMusicCircle
Creator:Gryphon
Version:Easy
Source:
Tags:Nue, Darkness, TouHou, Video Games, Electronic
BeatmapID:1399294
BeatmapSetID:660656

[Difficulty]
HPDrainRate:4
CircleSize:3
OverallDifficulty:3
ApproachRate:3
SliderMultiplier:1.4
SliderTickRate:1

[Events]
//Background and Video events
0,0,"maxresdefault.jpg",0,0
//Break Periods
2,46362,55273
2,78014,86925
2,109666,118577
//Storyboard Layer 0 (Background)
//Storyboard Layer 1 (Fail)
//Storyboard Layer 2 (Pass)
//Storyboard Layer 3 (Foreground)
//Storyboard Sound Samples

[TimingPoints]
14676,659.413122321134,4,2,0,100,1,0

[Colours]
Combo1 : 251,163,30
Combo2 : 33,201,250
Combo3 : 35,248,237

[HitObjects]
256,192,14676,5,8,0:0:0:0:
256,192,15829,1,0,0:0:0:0:
256,192,17148,1,0,0:0:0:0:
256,192,18467,1,0,0:0:0:0:
80,200,19786,1,0,0:0:0:0:
80,200,21105,1,0,0:0:0:0:
256,192,22094,12,0,24732,0:0:0:0:
8,80,25226,6,0,L|288:80,3,280
448,96,30501,5,0,0:0:0:0:
320,200,31655,1,0,0:0:0:0:
160,152,32974,1,0,0:0:0:0:
304,248,34293,5,0,0:0:0:0:
64,160,35612,5,0,0:0:0:0:
240,168,36931,1,0,0:0:0:0:
72,232,38250,1,0,0:0:0:0:
216,176,39568,1,0,0:0:0:0:
104,88,40887,1,0,0:0:0:0:
272,112,42206,1,0,0:0:0:0:
224,272,43525,1,0,0:0:0:0:
368,184,44844,1,0,0:0:0:0:
256,192,46162,5,0,0:0:0:0:
256,200,56713,5,0,0:0:0:0:
424,200,58032,1,0,0:0:0:0:
416,32,59351,1,0,0:0:0:0:
288,152,60670,1,0,0:0:0:0:
368,296,61988,1,0,0:0:0:0:
320,136,63307,1,0,0:0:0:0:
440,264,64791,1,0,0:0:0:0:
288,288,65945,1,0,0:0:0:0:
152,176,67264,1,0,0:0:0:0:
56,40,68583,1,0,0:0:0:0:
88,192,69901,1,0,0:0:0:0:
224,80,71220,1,0,0:0:0:0:
152,216,72704,5,0,0:0:0:0:
240,320,73858,1,0,0:0:0:0:
240,152,75177,1,0,0:0:0:0:
400,240,76660,1,0,0:0:0:0:
248,192,77814,5,0,0:0:0:0:
248,192,88365,5,0,0:0:0:0:
88,120,89684,1,0,0:0:0:0:
184,264,91003,1,0,0:0:0:0:
360,216,92321,1,0,0:0:0:0:
368,64,93640,1,0,0:0:0:0:
472,192,94959,1,0,0:0:0:0:
304,200,96278,1,0,0:0:0:0:
136,200,97597,1,0,0:0:0:0:
296,296,99080,1,0,0:0:0:0:
192,96,100234,1,0,0:0:0:0:
320,192,101553,1,0,0:0:0:0:
304,32,102872,1,0,0:0:0:0:
464,72,104191,1,0,0:0:0:0:
440,248,105510,1,0,0:0:0:0:
288,320,106828,1,0,0:0:0:0:
120,296,108147,1,0,0:0:0:0:
256,200,109466,1,0,0:0:0:0:
256,200,120017,5,0,0:0:0:0:
96,136,121336,1,0,0:0:0:0:
256,72,122654,1,0,0:0:0:0:
376,184,123973,1,0,0:0:0:0:
256,304,125292,1,0,0:0:0:0:
248,128,126611,1,0,0:0:0:0:
136,256,127930,1,0,0:0:0:0:
128,80,129249,1,0,0:0:0:0:
272,176,130567,2,0,L|432:152,8,140
184,176,136502,1,0,0:0:0:0:
256,120,137161,1,0,0:0:0:0:
304,208,137821,1,0,0:0:0:0:
240,264,138480,1,0,0:0:0:0:
336,288,139140,1,0,0:0:0:0:
400,216,139799,1,0,0:0:0:0:
376,128,140459,1,0,0:0:0:0:
280,128,141118,1,0,0:0:0:0:
152,248,142437,1,0,0:0:0:0:
120,80,143756,1,0,0:0:0:0:
256,192,145074,1,0,0:0:0:0:
432,216,146393,5,0,0:0:0:0:
280,296,147712,1,0,0:0:0:0:
136,200,149031,1,0,0:0:0:0:
264,80,150350,1,0,0:0:0:0:
248,224,151669,5,0,0:0:0:0:
248,224,152493,1,0,0:0:0:0:
248,232,153647,1,0,0:0:0:0:
416,192,154966,1,0,0:0:0:0:
248,184,156284,1,0,0:0:0:0:
272,24,157603,1,0,0:0:0:0:
368,176,158922,1,0,0:0:0:0:
248,296,160241,1,0,0:0:0:0:
336,152,161560,1,0,0:0:0:0:
168,216,163043,1,0,0:0:0:0:
312,208,164197,5,0,0:0:0:0:
128,192,165516,1,0,0:0:0:0:
264,120,166835,1,0,0:0:0:0:
272,296,168154,1,0,0:0:0:0:
368,160,169473,1,0,0:0:0:0:
216,80,170792,1,0,0:0:0:0:
144,208,171946,1,0,0:0:0:0:
312,192,173264,5,0,0:0:0:0:
240,24,174748,1,0,0:0:0:0:
328,176,176067,1,0,0:0:0:0:
208,280,177386,1,0,0:0:0:0:
80,184,178705,1,0,0:0:0:0:
240,96,180023,1,0,0:0:0:0:
360,192,181342,1,0,0:0:0:0:
352,56,182661,1,0,0:0:0:0:
312,136,183320,1,0,0:0:0:0:
248,200,183980,1,0,0:0:0:0:
120,88,185299,1,0,0:0:0:0:
248,208,186617,5,0,0:0:0:0:
400,120,187936,1,0,0:0:0:0:
240,80,189255,1,0,0:0:0:0:
136,192,190409,1,0,0:0:0:0:
272,304,191728,1,0,0:0:0:0:
408,184,193212,1,0,0:0:0:0:
240,184,194530,1,0,0:0:0:0:
