osu file format v14

[General]
AudioFilename: TatshMusicCircle - FOUR SEASONS OF LONELINESS.mp3
AudioLeadIn: 1996
PreviewTime: 63985
Countdown: 0
SampleSet: Soft
StackLeniency: 0.7
Mode: 0
LetterboxInBreaks: 1
WidescreenStoryboard: 1

[Editor]
Bookmarks: 130053,140081,175811,175895
DistanceSpacing: 1.3
BeatDivisor: 4
GridSize: 8
TimelineZoom: 1.9

[Metadata]
Title:FOUR SEASONS OF LONELINESS
TitleUnicode:FOUR SEASONS OF LONELINESS
Artist:Tatsh feat. Sariyajin
ArtistUnicode:Tatsh feat. Sariyajin
Creator:Neptune
Version:Lotus
Source:Touhou
Tags:Emotional Skyscraper Cosmic Mind gowww FAR EAST OF EAST II
BeatmapID:1280730
BeatmapSetID:77806

[Difficulty]
HPDrainRate:5.5
CircleSize:4
OverallDifficulty:8
ApproachRate:9.3
SliderMultiplier:1.8
SliderTickRate:1

[Events]
//Background and Video events
0,0,"foursiesons.jpg",0,0
//Break Periods
2,108680,118329
2,293062,294621
//Storyboard Layer 0 (Background)
//Storyboard Layer 1 (Fail)
//Storyboard Layer 2 (Pass)
//Storyboard Layer 3 (Foreground)
//Storyboard Sound Samples

[TimingPoints]
615,337.078651685393,4,2,1,100,1,0
63227,-100,4,1,1,80,0,0
63648,-100,4,1,1,100,0,0
63985,-100,4,2,1,100,0,1
85558,-100,4,2,0,65,0,0
86907,-100,4,2,1,100,0,1
106794,-100,4,2,0,90,0,1
106963,-100,4,2,0,80,0,1
107131,-100,4,2,0,70,0,1
107300,-100,4,2,0,60,0,1
107468,-100,4,2,0,100,0,1
107637,-100,4,2,0,100,0,1
107806,-100,4,2,0,100,0,1
107974,-100,4,2,0,100,0,1
108143,-100,4,2,0,100,0,1
108311,-100,4,2,0,100,0,1
108480,-100,4,1,0,100,0,0
118929,-100,4,2,1,100,0,0
121111,-100,4,2,1,100,0,0
128620,-100,4,1,0,100,0,0
128789,-100,4,2,1,100,0,0
128957,-100,4,1,0,100,0,0
138058,-100,4,1,1,90,0,0
138227,-100,4,2,1,100,0,0
138395,-100,4,1,1,90,0,0
138564,-100,4,2,1,100,0,0
138732,-100,4,1,1,90,0,0
138901,-100,4,2,1,100,0,0
139070,-100,4,1,1,90,0,0
140755,-100,4,2,1,100,0,0
161064,-100,4,2,1,100,0,1
182300,-100,4,2,1,100,0,0
183985,-100,4,2,1,100,0,1
194013,-100,4,1,1,75,0,1
194435,-100,4,1,1,85,0,1
194772,-100,4,2,1,100,0,1
204379,-100,4,1,1,90,0,0
205558,-100,4,1,1,90,0,0
205811,-100,4,2,1,100,0,0
227121,-125,4,2,2,80,0,0
250053,-100,4,2,1,100,0,1
271289,-100,4,2,0,100,0,0
272974,-100,4,2,1,100,0,1
292862,-100,4,2,1,60,0,0
294884,-100,4,1,1,90,0,0
295895,-100,4,2,1,100,0,1
295980,-100,4,2,1,100,0,0
305923,-100,4,1,1,70,0,0
306682,-100,4,2,1,100,0,1
306766,-100,4,2,1,100,0,0
317468,-100,4,2,1,80,0,1
317553,-100,4,2,1,80,0,0

[Colours]
Combo1 : 119,182,3
Combo2 : 255,128,192
Combo3 : 51,153,255
Combo4 : 255,255,255

[HitObjects]
112,96,615,6,0,P|192:96|240:184,1,180
336,80,1120,1,0,0:0:0:0:
416,192,1289,2,0,B|360:192|360:192|312:216,1,90
224,256,1626,1,0,0:0:0:0:
184,144,1794,1,0,0:0:0:0:
184,144,2131,5,0,0:0:0:0:
256,48,2300,1,0,0:0:0:0:
376,160,2468,2,0,P|312:160|272:176,1,90
432,256,2805,2,0,L|432:368,2,90
336,304,3311,5,0,0:0:0:0:
240,232,3480,1,0,0:0:0:0:
152,320,3648,1,0,0:0:0:0:
152,320,3816,2,0,P|96:256|168:184,1,180
408,72,4322,1,0,0:0:0:0:
408,72,4491,6,0,P|336:72|208:144,1,180
160,224,4997,2,0,L|208:224|256:224,1,90
376,224,5334,1,0,0:0:0:0:
472,160,5502,1,0,0:0:0:0:
464,48,5671,2,0,L|304:160,1,180
184,296,6176,5,0,0:0:0:0:
280,232,6345,1,0,0:0:0:0:
184,192,6513,2,0,B|80:192|80:192|-32:232,1,180
208,344,7019,1,0,0:0:0:0:
304,280,7188,2,0,B|408:280|408:280|520:240,1,180
304,48,7694,5,0,0:0:0:0:
408,120,7862,2,0,B|400:184|344:160|376:120|224:168,1,180
144,120,8367,1,0,0:0:0:0:
96,224,8536,1,0,0:0:0:0:
186,300,8704,1,0,0:0:0:0:
352,256,8873,5,0,0:0:0:0:
264,184,9041,1,0,0:0:0:0:
240,80,9210,2,0,P|320:80|392:152,1,180
448,304,9716,1,0,0:0:0:0:
256,280,9884,1,0,0:0:0:0:
64,312,10053,5,0,0:0:0:0:
64,312,10137,1,0,0:0:0:0:
64,312,10221,1,0,0:0:0:0:
152,184,10389,1,0,0:0:0:0:
392,184,10558,1,0,0:0:0:0:
384,56,10727,5,0,0:0:0:0:
328,48,10811,1,0,0:0:0:0:
272,48,10895,1,0,0:0:0:0:
224,64,10980,1,0,0:0:0:0:
176,96,11064,1,0,0:0:0:0:
96,216,11232,1,0,0:0:0:0:
176,320,11401,5,0,0:0:0:0:
288,320,11570,1,0,0:0:0:0:
384,256,11738,2,0,P|430:200|443:159,1,90
280,32,12075,5,0,0:0:0:0:
208,136,12244,1,0,0:0:0:0:
353,136,12412,2,0,P|409:176|465:192,1,90
456,32,12749,5,0,0:0:0:0:
325,32,12918,2,0,L|269:32,2,45
353,136,13255,1,0,0:0:0:0:
248,136,13423,2,0,P|192:144|152:168,1,90
296,256,13761,2,0,P|344:256|416:288,1,90
120,304,14098,5,0,0:0:0:0:
120,304,14267,1,0,0:0:0:0:
160,192,14435,2,0,P|88:192|48:208,1,90
160,56,14772,5,0,0:0:0:0:
160,56,14941,1,0,0:0:0:0:
352,56,15109,2,0,P|280:56|240:40,1,90
104,168,15446,5,0,0:0:0:0:
216,112,15615,1,0,0:0:0:0:
216,160,15699,1,0,0:0:0:0:
216,208,15783,1,0,0:0:0:0:
320,168,15952,2,0,L|368:152|432:128,1,90
408,272,16289,1,0,0:0:0:0:
408,272,16457,2,0,L|360:272|304:272,1,90
320,48,16794,5,0,0:0:0:0:
400,104,16963,1,0,0:0:0:0:
432,200,17131,2,0,P|432:272|416:312,1,90
304,208,17468,5,0,0:0:0:0:
304,208,17637,1,0,0:0:0:0:
272,312,17805,2,0,P|344:312|384:296,1,90
336,128,18143,5,0,0:0:0:0:
120,240,18311,1,0,0:0:0:0:
120,240,18395,1,0,0:0:0:0:
120,240,18480,1,0,0:0:0:0:
384,256,18648,1,0,0:0:0:0:
160,88,18817,1,0,0:0:0:0:
224,336,18985,1,0,0:0:0:0:
336,128,19154,1,0,0:0:0:0:
112,232,19322,1,0,0:0:0:0:
112,232,19491,6,0,P|176:232|216:216,1,90
320,48,19828,1,0,0:0:0:0:
368,144,19997,1,0,0:0:0:0:
328,248,20165,1,0,0:0:0:0:
328,248,20334,5,0,0:0:0:0:
208,208,20502,1,0,0:0:0:0:
96,248,20671,1,0,0:0:0:0:
256,192,20839,12,0,22188,0:0:0:0:
400,72,22525,5,0,0:0:0:0:
296,128,22693,1,0,0:0:0:0:
176,136,22862,2,0,P|88:120|64:104,1,90
240,240,23199,1,0,0:0:0:0:
368,240,23367,2,0,L|424:240,2,45
264,312,23704,5,0,0:0:0:0:
128,216,23873,1,0,0:0:0:0:
304,216,24041,1,0,0:0:0:0:
160,312,24210,1,0,0:0:0:0:
216,144,24379,1,0,0:0:0:0:
216,144,24547,1,0,0:0:0:0:
264,312,24716,5,0,0:0:0:0:
320,208,24884,1,0,0:0:0:0:
320,208,24968,1,0,0:0:0:0:
320,208,25053,2,0,B|400:264|400:264|416:272,1,90
272,88,25390,2,0,B|216:168|216:168|168:240,1,180
56,320,25895,2,0,L|56:216,1,90
200,104,26232,6,0,B|144:58|144:58|90:45,1,90
40,104,26570,1,0,0:0:0:0:
80,200,26738,1,0,0:0:0:0:
184,272,26907,1,0,0:0:0:0:
312,312,27075,1,0,0:0:0:0:
456,288,27244,5,0,0:0:0:0:
344,248,27412,2,0,B|288:232|288:232|248:208,1,90
160,136,27749,1,0,0:0:0:0:
48,192,27917,6,0,L|48:288,1,90
160,80,28253,1,0,0:0:0:0:
160,192,28422,1,0,0:0:0:0:
472,144,28592,1,0,0:0:0:0:
384,72,28761,6,0,P|336:144|384:168,1,135
344,216,29098,2,0,P|272:224|232:256,1,90
152,304,29435,1,0,0:0:0:0:
56,128,29603,2,0,L|104:216,1,90
208,136,29940,1,0,0:0:0:0:
280,240,30109,1,0,0:0:0:0:
280,240,30193,1,0,0:0:0:0:
280,240,30277,6,0,P|376:248|400:344,1,180
264,360,30783,1,0,0:0:0:0:
184,288,30952,2,0,P|128:312|-8:272,1,180
136,152,31457,1,0,0:0:0:0:
248,88,31626,5,0,0:0:0:0:
344,176,31794,1,0,0:0:0:0:
296,280,31963,1,0,0:0:0:0:
168,288,32131,2,0,B|92:287|92:287|72:225,1,135
72,176,32468,1,0,0:0:0:0:
192,48,32637,1,0,0:0:0:0:
296,160,32806,1,0,0:0:0:0:
244,162,32890,1,0,0:0:0:0:
192,160,32974,5,0,0:0:0:0:
168,280,33143,1,0,0:0:0:0:
272,320,33311,1,0,0:0:0:0:
368,272,33480,1,0,0:0:0:0:
384,168,33648,1,0,0:0:0:0:
336,64,33817,2,0,P|275:127|187:133,1,180
72,56,34322,5,0,0:0:0:0:
40,192,34491,1,0,0:0:0:0:
64,232,34575,1,0,0:0:0:0:
104,264,34659,5,0,0:0:0:0:
216,184,34828,2,0,P|253:207|288:264,1,90
440,336,35165,1,0,0:0:0:0:
440,288,35249,1,0,0:0:0:0:
440,240,35334,2,0,P|440:192|440:120,1,90
320,240,35671,5,0,0:0:0:0:
200,176,35839,1,0,0:0:0:0:
129,300,36008,1,0,0:0:0:0:
24,168,36176,2,0,P|48:240|144:304,1,180
320,240,36682,6,0,P|264:240|216:248,1,90
256,88,37019,2,0,L|256:152,2,45
152,88,37356,1,0,0:0:0:0:
360,88,37525,1,0,0:0:0:0:
80,176,37693,1,0,0:0:0:0:
440,176,37862,1,0,0:0:0:0:
272,328,38029,5,0,0:0:0:0:
304,288,38114,1,0,0:0:0:0:
336,248,38199,1,0,0:0:0:0:
360,208,38283,1,0,0:0:0:0:
392,168,38367,5,0,0:0:0:0:
456,72,38536,1,0,0:0:0:0:
336,48,38704,2,0,P|272:32|200:120,1,180
104,320,39210,1,0,0:0:0:0:
136,280,39294,1,0,0:0:0:0:
168,240,39379,5,0,0:0:0:0:
128,144,39547,2,0,B|72:144|72:144|24:152,1,90
136,48,39884,2,0,P|192:48|296:152,2,180
128,328,40727,1,0,0:0:0:0:
368,192,40895,1,0,0:0:0:0:
264,192,41064,6,0,P|208:192|120:296,1,180
256,312,41570,1,0,0:0:0:0:
256,312,41738,2,0,L|376:312,1,90
480,96,42075,2,0,P|435:88|391:93,1,90
391,141,42328,1,0,0:0:0:0:
391,189,42412,5,0,0:0:0:0:
56,296,42581,2,0,P|112:312|144:312,1,90
256,48,42918,1,0,0:0:0:0:
256,96,43002,1,0,0:0:0:0:
256,144,43086,1,0,0:0:0:0:
256,192,43171,1,0,0:0:0:0:
256,248,43255,2,0,P|216:248|144:296,2,90
384,280,43761,5,0,0:0:0:0:
464,168,43929,1,0,0:0:0:0:
392,48,44098,1,0,0:0:0:0:
280,80,44266,2,0,P|224:96|176:128,1,90
80,264,44603,1,0,0:0:0:0:
80,264,44688,1,0,0:0:0:0:
80,264,44772,2,0,P|136:232|192:216,1,90
344,104,45109,5,0,0:0:0:0:
112,72,45277,2,0,L|208:112,1,90
448,200,45614,1,0,0:0:0:0:
448,200,45699,1,0,0:0:0:0:
448,200,45783,1,0,0:0:0:0:
448,200,45952,2,0,L|264:272,1,180
256,96,46457,6,0,P|176:96|64:152,1,180
128,240,46963,2,0,L|128:304,2,45
248,240,47300,1,0,0:0:0:0:
448,64,47637,6,0,L|384:96,1,45
72,72,47974,2,0,L|120:104,1,45
256,344,48311,2,0,L|256:288,1,45
256,80,48648,5,0,0:0:0:0:
416,136,48817,2,0,P|368:160|336:200,1,90
208,56,49154,2,0,L|328:56,1,90
160,192,49491,1,0,0:0:0:0:
160,192,49660,1,0,0:0:0:0:
400,144,49828,6,0,P|328:160|296:264,1,180
48,128,50334,1,0,0:0:0:0:
256,208,50502,1,0,0:0:0:0:
56,264,50671,1,0,0:0:0:0:
184,88,50839,1,0,0:0:0:0:
224,288,51008,1,0,0:0:0:0:
224,288,51176,6,0,P|288:296|392:240,1,180
208,88,51682,1,0,0:0:0:0:
160,96,51766,1,0,0:0:0:0:
120,128,51850,1,0,0:0:0:0:
272,176,52019,1,0,0:0:0:0:
56,240,52188,1,0,0:0:0:0:
112,16,52356,1,0,0:0:0:0:
160,128,52525,2,0,L|160:176,2,45
384,160,52862,5,0,0:0:0:0:
384,160,52946,1,0,0:0:0:0:
384,160,53030,2,0,P|336:160|280:176,1,90
224,320,53367,1,0,0:0:0:0:
160,208,53535,1,0,0:0:0:0:
224,320,53704,1,0,0:0:0:0:
112,344,53873,5,0,0:0:0:0:
64,320,53957,1,0,0:0:0:0:
40,272,54041,1,0,0:0:0:0:
48,224,54126,1,0,0:0:0:0:
88,184,54210,1,0,0:0:0:0:
144,184,54294,1,0,0:0:0:0:
192,216,54379,1,0,0:0:0:0:
240,224,54463,1,0,0:0:0:0:
296,224,54547,6,0,P|360:208|392:184,1,90
256,96,54884,2,0,P|184:96|136:112,1,90
208,232,55221,2,0,L|208:344,1,90
432,272,55558,1,0,0:0:0:0:
304,272,55727,1,0,0:0:0:0:
304,272,55895,6,0,P|240:248|112:288,1,180
80,160,56401,1,0,0:0:0:0:
80,112,56485,1,0,0:0:0:0:
80,64,56570,1,0,0:0:0:0:
200,136,56738,2,0,L|248:160,2,45
344,128,57075,1,0,0:0:0:0:
448,72,57244,2,0,L|448:160|448:288,2,180
344,160,58086,2,0,L|288:160|224:160,1,90
128,144,58423,1,0,0:0:0:0:
112,256,58592,5,0,0:0:0:0:
112,256,58676,1,0,0:0:0:0:
112,256,58761,1,0,0:0:0:0:
392,216,58929,5,0,0:0:0:0:
224,216,59098,1,0,0:0:0:0:
312,344,59266,1,0,0:0:0:0:
256,192,59603,12,0,61289,0:0:0:0:
256,48,61626,5,0,0:0:0:0:
256,184,61794,1,0,0:0:0:0:
56,192,62131,1,0,0:0:0:0:
448,192,62468,1,0,0:0:0:0:
272,280,62806,5,0,0:0:0:0:
352,208,62975,1,0,0:0:0:0:
296,88,63144,1,0,0:0:0:0:
184,112,63312,1,0,0:0:0:0:
176,224,63480,1,0,0:0:0:0:
176,224,63648,5,0,0:0:0:0:
136,200,63732,1,0,0:0:0:0:
112,152,63817,1,0,0:0:0:0:
104,104,63901,1,0,0:0:0:0:
104,56,63985,6,0,P|184:24|272:80,1,180
384,24,64491,2,0,P|416:104|360:192,1,180
360,304,64997,1,0,0:0:0:0:
240,256,65165,2,0,P|176:256|96:336,1,180
56,200,65671,5,0,0:0:0:0:
136,96,65839,1,0,0:0:0:0:
216,200,66007,1,0,0:0:0:0:
400,88,66176,2,0,P|355:86|310:91,1,90
384,216,66513,1,0,0:0:0:0:
384,216,66597,1,0,0:0:0:0:
384,216,66681,5,0,0:0:0:0:
240,288,66850,1,0,0:0:0:0:
384,352,67019,2,0,B|384:288|384:288|384:262,1,90
224,312,67356,2,0,P|168:312|128:312,2,90
72,184,67862,2,0,P|24:216|-8:256,1,90
48,48,68199,5,0,0:0:0:0:
64,56,68283,1,0,0:0:0:0:
80,64,68367,1,0,0:0:0:0:
96,288,68536,5,0,0:0:0:0:
120,272,68620,1,0,0:0:0:0:
144,256,68705,1,0,0:0:0:0:
368,320,68873,5,0,0:0:0:0:
368,272,68957,1,0,0:0:0:0:
368,224,69041,1,0,0:0:0:0:
368,176,69126,1,0,0:0:0:0:
368,128,69210,2,0,P|304:128|248:152,1,90
184,232,69547,5,0,0:0:0:0:
88,48,69716,2,0,P|88:104|88:168,1,90
336,320,70053,2,0,P|336:256|336:208,1,90
336,230,70306,1,0,0:0:0:0:
336,230,70390,1,0,0:0:0:0:
192,320,70558,5,0,0:0:0:0:
192,320,70727,2,0,L|192:224,1,90
48,264,71064,1,0,0:0:0:0:
224,112,71232,2,0,P|168:112|136:120,1,90
192,230,71570,1,0,0:0:0:0:
192,278,71654,1,0,0:0:0:0:
192,326,71738,1,0,0:0:0:0:
432,64,71907,6,0,P|368:64|312:64,1,90
384,184,72244,1,0,0:0:0:0:
384,184,72412,1,0,0:0:0:0:
272,304,72581,1,0,0:0:0:0:
152,184,72749,1,0,0:0:0:0:
272,64,72918,1,0,0:0:0:0:
272,64,73086,2,0,P|272:112|296:176,1,90
472,174,73423,6,0,P|424:174|368:190,1,90
208,32,73761,2,0,L|208:128,1,90
208,168,74013,1,0,0:0:0:0:
208,216,74097,1,0,0:0:0:0:
208,264,74181,1,0,0:0:0:0:
208,312,74266,2,0,L|280:312|336:312,1,90
424,256,74603,1,0,0:0:0:0:
304,160,74772,5,0,0:0:0:0:
440,104,74940,1,0,0:0:0:0:
440,104,75109,1,0,0:0:0:0:
256,32,75277,1,0,0:0:0:0:
72,104,75446,1,0,0:0:0:0:
256,192,75614,1,0,0:0:0:0:
256,192,75699,1,0,0:0:0:0:
256,192,75783,1,0,0:0:0:0:
464,304,75952,6,0,P|432:272|288:224,1,180
328,344,76457,2,0,L|224:344,1,90
232,224,76794,1,0,0:0:0:0:
112,176,76963,1,0,0:0:0:0:
80,296,77131,2,0,B|152:296|152:296|184:328,1,90
288,304,77468,5,0,0:0:0:0:
296,176,77637,1,0,0:0:0:0:
296,176,77722,1,0,0:0:0:0:
296,176,77806,1,0,0:0:0:0:
440,72,77974,2,0,P|384:72|312:72,1,90
40,200,78311,2,0,P|120:200|160:200,1,90
360,336,78648,2,0,L|360:144,1,180
240,264,79154,1,0,0:0:0:0:
24,72,79322,5,0,0:0:0:0:
184,104,79491,1,0,0:0:0:0:
152,280,79659,1,0,0:0:0:0:
0,248,79828,1,0,0:0:0:0:
184,104,79997,1,0,0:0:0:0:
184,104,80165,6,0,P|280:104|344:200,1,180
352,288,80671,1,0,0:0:0:0:
352,288,80755,1,0,0:0:0:0:
352,288,80839,2,0,P|272:288|224:304,1,90
88,208,81176,2,0,L|88:312,1,90
208,152,81513,6,0,L|208:48,1,90
216,160,81850,1,0,0:0:0:0:
368,70,82019,1,0,0:0:0:0:
216,160,82188,1,0,0:0:0:0:
368,246,82356,1,0,0:0:0:0:
216,160,82524,1,0,0:0:0:0:
216,342,82693,1,0,0:0:0:0:
216,240,82862,6,0,P|160:240|32:312,2,180
168,128,83704,1,0,0:0:0:0:
168,80,83789,1,0,0:0:0:0:
168,32,83873,1,0,0:0:0:0:
288,32,84041,2,0,L|288:104,2,45
256,192,84379,12,0,85558,0:0:0:0:
256,40,86232,5,0,0:0:0:0:
56,200,86907,5,0,0:0:0:0:
56,200,87075,2,0,P|136:200|168:304,1,180
296,152,87581,2,0,P|344:152|408:152,2,90
296,152,88086,1,0,0:0:0:0:
200,304,88255,6,0,B|288:272|288:272|384:312,1,180
416,200,88761,1,0,0:0:0:0:
416,200,88845,1,0,0:0:0:0:
416,200,88929,1,0,0:0:0:0:
296,152,89098,1,0,0:0:0:0:
240,264,89266,1,0,0:0:0:0:
128,336,89435,1,0,0:0:0:0:
24,248,89603,5,0,0:0:0:0:
88,120,89772,1,0,0:0:0:0:
224,144,89940,1,0,0:0:0:0:
240,264,90109,1,0,0:0:0:0:
240,264,90277,6,0,L|184:264,1,45
24,219,90445,2,0,L|24:264,1,45
144,165,90614,2,0,L|144:120,1,45
344,192,90783,2,0,L|344:240,1,45
176,112,90951,6,0,L|176:67,1,45
304,240,91120,2,0,L|304:296,1,45
208,152,91289,2,0,L|253:152,1,45
480,152,91457,2,0,L|480:96,1,45
480,56,91626,6,0,P|424:56|352:80,1,90
256,72,91963,2,0,L|256:176,1,90
256,162,92216,1,0,0:0:0:0:
256,162,92300,2,0,P|192:160|72:240,1,180
216,272,92806,2,0,P|216:328|216:384,1,90
448,168,93143,5,0,0:0:0:0:
448,272,93311,2,0,P|424:304|368:336,1,90
312,224,93648,1,0,0:0:0:0:
312,224,93732,1,0,0:0:0:0:
312,224,93817,1,0,0:0:0:0:
304,104,93985,1,0,0:0:0:0:
192,176,94154,1,0,0:0:0:0:
160,32,94322,5,0,0:0:0:0:
264,168,94491,1,0,0:0:0:0:
288,328,94659,1,0,0:0:0:0:
152,352,94828,5,0,0:0:0:0:
112,328,94912,1,0,0:0:0:0:
104,280,94997,1,0,0:0:0:0:
112,232,95081,1,0,0:0:0:0:
144,192,95165,1,0,0:0:0:0:
192,176,95249,1,0,0:0:0:0:
240,200,95334,1,0,0:0:0:0:
272,240,95418,5,0,0:0:0:0:
320,256,95502,1,0,0:0:0:0:
368,240,95586,1,0,0:0:0:0:
384,184,95671,1,0,0:0:0:0:
360,136,95755,1,0,0:0:0:0:
304,128,95839,1,0,0:0:0:0:
256,152,95923,1,0,0:0:0:0:
232,200,96008,5,0,0:0:0:0:
192,232,96092,1,0,0:0:0:0:
136,240,96176,1,0,0:0:0:0:
88,208,96261,1,0,0:0:0:0:
80,160,96345,1,0,0:0:0:0:
88,112,96429,1,0,0:0:0:0:
136,88,96513,1,0,0:0:0:0:
184,96,96598,5,0,0:0:0:0:
216,128,96682,1,0,0:0:0:0:
248,168,96766,1,0,0:0:0:0:
288,192,96850,1,0,0:0:0:0:
336,176,96935,1,0,0:0:0:0:
368,144,97019,2,0,L|440:72,1,90
240,208,97356,2,0,L|312:280,1,90
200,96,97693,6,0,P|144:96|8:256,1,270
312,312,98367,2,0,P|368:312|424:312,1,90
136,80,98704,2,0,L|24:80,1,90
40,192,99041,2,0,L|248:192,1,180
400,288,99547,2,0,P|288:288|216:288,1,180
208,64,100053,5,0,0:0:0:0:
208,64,100221,1,0,0:0:0:0:
128,168,100390,1,0,0:0:0:0:
200,272,100558,1,0,0:0:0:0:
328,272,100727,1,0,0:0:0:0:
392,96,100895,5,0,0:0:0:0:
264,96,101064,1,0,0:0:0:0:
328,200,101232,1,0,0:0:0:0:
264,96,101401,37,0,0:0:0:0:
128,104,101570,1,0,0:0:0:0:
88,272,101738,1,0,0:0:0:0:
216,360,101907,1,0,0:0:0:0:
352,256,102075,1,0,0:0:0:0:
400,128,102244,21,0,0:0:0:0:
160,64,102413,1,0,0:0:0:0:
94,301,102581,2,0,P|126:325|198:333,1,90
288,264,102918,2,0,B|295:231|299:184|316:131|362:98|401:69|419:33|419:33|473:86|481:137|485:179|485:215|460:273|435:312|393:352,1,630
176,272,104266,1,0,0:0:0:0:
176,272,104435,2,0,B|198:231|197:185|181:130|136:96|98:66|88:33|88:33|29:74|16:130|11:173|9:209|32:267|55:308|96:349,1,630
392,352,105783,6,0,P|304:332|216:348,1,180
160,224,106288,2,0,P|212:151|224:64,1,180
344,120,106794,6,0,P|293:201|288:304,1,180
416,320,107300,1,0,0:0:0:0:
464,192,107468,1,0,0:0:0:0:
416,193,107552,1,0,0:0:0:0:
368,192,107636,1,0,0:0:0:0:
320,192,107721,1,0,0:0:0:0:
272,192,107806,2,8,L|224:192,1,45
232,312,107974,2,8,L|202:277,1,45
112,336,108143,2,8,L|112:291,1,45
24,256,108311,2,8,L|56:208,1,45
88,160,108480,5,8,0:0:0:0:
32,96,118929,5,0,0:0:0:0:
80,96,119013,1,0,0:0:0:0:
128,96,119098,1,0,0:0:0:0:
176,96,119182,1,0,0:0:0:0:
224,96,119266,2,0,P|280:96|328:128,1,90
312,160,119519,2,0,L|312:232,1,45
360,304,119772,5,0,0:0:0:0:
234,310,119940,2,0,P|152:309|113:319,1,90
83,210,120277,1,0,0:0:0:0:
35,94,120446,2,0,P|108:91|149:104,1,90
267,48,120783,2,0,P|271:127|260:165,1,90
102,139,121120,5,6,0:0:0:0:
117,192,121204,1,0,0:0:0:0:
153,234,121289,1,0,0:0:0:0:
194,270,121373,1,0,0:0:0:0:
247,287,121457,1,0,0:0:0:0:
302,290,121541,1,0,0:0:0:0:
352,265,121626,1,0,0:0:0:0:
379,216,121710,5,0,0:0:0:0:
363,162,121794,1,0,0:0:0:0:
324,122,121879,1,0,0:0:0:0:
268,117,121963,1,0,0:0:0:0:
222,148,122047,1,0,0:0:0:0:
205,201,122131,1,0,0:0:0:0:
188,254,122216,1,0,0:0:0:0:
139,280,122300,5,0,0:0:0:0:
84,270,122384,1,0,0:0:0:0:
48,227,122468,1,0,0:0:0:0:
49,170,122553,1,0,0:0:0:0:
68,118,122637,1,0,0:0:0:0:
117,92,122721,1,0,0:0:0:0:
172,98,122806,1,0,0:0:0:0:
210,137,122890,1,0,0:0:0:0:
241,182,122974,1,0,0:0:0:0:
294,199,123058,1,0,0:0:0:0:
352,208,123143,6,0,L|352:256,1,45
360,88,123311,2,0,L|360:40,1,45
210,137,123480,2,0,L|162:137,1,45
32,200,123648,2,0,L|91:240,1,45
248,288,123817,2,0,L|213:260,1,45
320,56,123985,2,0,L|320:124,1,45
416,272,124154,2,0,L|417:202,1,45
424,192,124322,5,0,0:0:0:0:
424,192,124407,1,0,0:0:0:0:
424,192,124491,1,0,0:0:0:0:
424,192,124575,1,0,0:0:0:0:
424,192,124659,2,4,P|352:193|268:279,1,180
165,61,125165,2,0,P|214:59|259:69,2,90
174,300,125671,2,0,P|176:242|147:185,1,90
90,124,126008,5,0,0:0:0:0:
75,263,126176,1,0,0:0:0:0:
195,274,126345,1,0,0:0:0:0:
217,137,126513,1,0,0:0:0:0:
92,47,126682,5,0,0:0:0:0:
11,176,126850,1,0,0:0:0:0:
141,256,127019,1,0,0:0:0:0:
226,128,127188,1,0,0:0:0:0:
46,135,127356,5,0,0:0:0:0:
155,277,127524,1,0,0:0:0:0:
299,169,127693,1,0,0:0:0:0:
98,59,127862,5,0,0:0:0:0:
106,112,127946,1,0,0:0:0:0:
147,147,128031,1,0,0:0:0:0:
199,158,128115,1,0,0:0:0:0:
245,132,128199,1,0,0:0:0:0:
297,115,128284,1,0,0:0:0:0:
341,144,128368,1,0,0:0:0:0:
373,101,128452,5,0,0:0:0:0:
425,109,128536,1,0,0:0:0:0:
460,150,128621,1,0,0:0:0:0:
471,202,128705,1,4,0:0:0:0:
440,248,128789,1,0,0:0:0:0:
389,269,128874,1,0,0:0:0:0:
337,255,128958,1,0,0:0:0:0:
297,220,129041,5,4,0:0:0:0:
289,168,129125,1,0,0:0:0:0:
247,133,129210,1,0,0:0:0:0:
196,122,129294,1,0,0:0:0:0:
148,147,129378,1,0,0:0:0:0:
127,196,129463,1,0,0:0:0:0:
146,246,129547,1,0,0:0:0:0:
189,278,129632,5,8,0:0:0:0:
241,263,129716,1,8,0:0:0:0:
288,248,129800,1,8,0:0:0:0:
344,256,129884,1,8,0:0:0:0:
392,272,129969,1,8,0:0:0:0:
440,288,130053,2,0,P|475:205|409:128,1,180
296,112,130558,6,0,P|250:120|192:168,1,90
320,264,130895,1,0,0:0:0:0:
320,264,130980,1,0,0:0:0:0:
320,264,131064,1,0,0:0:0:0:
105,220,131232,6,0,P|94:273|112:329,1,90
312,258,131570,2,0,P|229:263|211:282,1,90
256,146,131907,1,0,0:0:0:0:
128,80,132075,1,0,0:0:0:0:
256,146,132244,1,0,0:0:0:0:
256,145,132328,1,0,0:0:0:0:
256,144,132412,1,0,0:0:0:0:
256,16,132581,1,0,0:0:0:0:
361,93,132749,6,0,P|405:91|436:227,1,180
354,255,133255,2,0,P|295:256|245:290,1,90
193,169,133592,1,0,0:0:0:0:
15,115,133761,1,0,0:0:0:0:
0,283,133929,1,0,0:0:0:0:
0,284,134098,2,0,P|61:285|85:292,1,90
224,208,134435,5,0,0:0:0:0:
79,156,134603,1,0,0:0:0:0:
0,284,134772,1,0,0:0:0:0:
0,284,134940,2,0,P|50:282|94:247,1,90
82,261,135193,1,0,0:0:0:0:
82,261,135277,1,0,0:0:0:0:
8,161,135446,1,0,0:0:0:0:
256,48,135783,6,0,P|216:144|136:160,1,180
448,128,136289,2,0,L|352:128,1,90
400,344,136626,2,0,L|400:248,1,90
280,224,136963,1,0,0:0:0:0:
232,232,137047,1,0,0:0:0:0:
200,272,137131,1,0,0:0:0:0:
56,128,137300,2,0,P|112:128|176:160,1,90
56,256,137637,2,0,P|128:296|232:224,1,180
128,56,138143,5,0,0:0:0:0:
288,88,138311,1,0,0:0:0:0:
128,216,138480,1,0,0:0:0:0:
432,104,138648,1,0,0:0:0:0:
168,352,138817,1,0,0:0:0:0:
496,248,138985,1,0,0:0:0:0:
290,317,139154,5,0,0:0:0:0:
339,289,139239,1,0,0:0:0:0:
353,233,139323,1,0,0:0:0:0:
339,185,139407,1,0,0:0:0:0:
285,161,139491,5,0,0:0:0:0:
96,312,139659,1,0,0:0:0:0:
224,56,139828,1,0,0:0:0:0:
328,320,139996,1,0,0:0:0:0:
80,192,140165,1,0,0:0:0:0:
416,192,140334,5,0,0:0:0:0:
360,192,140418,1,0,0:0:0:0:
304,192,140502,1,0,0:0:0:0:
248,192,140586,1,0,0:0:0:0:
192,192,140671,1,0,0:0:0:0:
136,192,140755,1,0,0:0:0:0:
80,192,140839,1,0,0:0:0:0:
456,320,141176,5,0,0:0:0:0:
320,280,141345,1,0,0:0:0:0:
312,168,141513,2,0,P|240:168|208:192,1,90
136,96,141850,2,0,P|96:168|96:192,1,90
16,248,142188,2,0,P|32:312|56:336,1,90
16,248,142525,1,0,0:0:0:0:
128,96,142693,1,0,0:0:0:0:
264,200,142862,1,0,0:0:0:0:
264,200,143030,2,0,P|392:184|440:240,1,180
344,320,143536,1,0,0:0:0:0:
176,184,143704,6,0,P|168:232|120:288,1,90
32,184,144041,1,0,0:0:0:0:
32,184,144126,1,0,0:0:0:0:
32,184,144210,1,0,0:0:0:0:
16,32,144379,2,0,P|80:32|128:64,1,90
208,152,144716,2,0,P|208:208|200:248,1,90
344,160,145053,1,0,0:0:0:0:
208,40,145221,1,0,0:0:0:0:
56,56,145390,5,0,0:0:0:0:
56,64,145474,1,0,0:0:0:0:
56,72,145558,1,0,0:0:0:0:
56,80,145643,1,0,0:0:0:0:
56,120,145727,1,0,0:0:0:0:
56,176,145811,1,0,0:0:0:0:
56,224,145895,1,0,0:0:0:0:
56,280,145980,1,0,0:0:0:0:
56,336,146064,1,0,0:0:0:0:
176,336,146232,5,0,0:0:0:0:
176,128,146401,1,0,0:0:0:0:
176,128,146570,2,0,P|120:128|80:144,1,90
296,72,146907,1,0,0:0:0:0:
344,192,147075,1,0,0:0:0:0:
296,208,147159,1,0,0:0:0:0:
248,192,147243,1,0,0:0:0:0:
80,296,147412,2,0,P|136:296|184:328,1,90
368,288,147749,2,0,P|304:288|272:272,1,90
464,192,148086,5,0,0:0:0:0:
256,192,148255,1,0,0:0:0:0:
40,192,148423,1,0,0:0:0:0:
464,192,148592,1,0,0:0:0:0:
408,88,148761,6,0,L|312:88,1,90
318,88,149014,1,0,0:0:0:0:
318,88,149098,1,0,0:0:0:0:
192,320,149266,2,0,L|192:216,1,90
192,230,149519,1,0,0:0:0:0:
192,230,149603,1,0,0:0:0:0:
48,232,149772,1,0,0:0:0:0:
168,56,149940,1,0,0:0:0:0:
256,192,150109,5,0,0:0:0:0:
304,192,150193,1,0,0:0:0:0:
352,192,150278,1,0,0:0:0:0:
448,320,150446,1,0,0:0:0:0:
256,320,150614,1,0,0:0:0:0:
56,320,150783,1,0,0:0:0:0:
56,320,150867,1,0,0:0:0:0:
56,320,150952,1,0,0:0:0:0:
64,184,151120,2,0,P|120:184|168:200,1,90
336,128,151457,2,0,P|264:128|224:96,1,90
249,120,151794,5,0,0:0:0:0:
96,192,151963,1,0,0:0:0:0:
249,120,152131,1,0,0:0:0:0:
256,296,152300,1,0,0:0:0:0:
249,120,152468,1,0,0:0:0:0:
384,80,152637,1,0,0:0:0:0:
384,80,152806,5,0,0:0:0:0:
176,264,152974,1,0,0:0:0:0:
384,80,153143,1,0,0:0:0:0:
392,336,153311,1,0,0:0:0:0:
392,192,153480,1,0,0:0:0:0:
392,192,153648,6,0,P|344:192|280:224,1,90
176,296,153985,1,0,0:0:0:0:
176,296,154154,1,0,0:0:0:0:
40,64,154322,2,0,P|24:144|48:264,1,180
160,120,154828,1,0,0:0:0:0:
288,208,154997,2,0,P|232:208|120:264,1,180
240,336,155502,1,0,0:0:0:0:
240,336,155586,1,0,0:0:0:0:
240,336,155671,1,0,0:0:0:0:
456,328,155839,5,0,0:0:0:0:
352,152,156008,1,0,0:0:0:0:
152,152,156176,1,0,0:0:0:0:
64,336,156345,1,0,0:0:0:0:
256,192,156429,12,0,158367,0:0:0:0:
256,56,158704,5,0,0:0:0:0:
472,184,158873,1,0,0:0:0:0:
472,184,159210,2,0,L|408:184,1,45
32,184,159547,1,0,0:0:0:0:
272,216,159884,6,0,L|272:261,1,45
320,184,160052,2,0,L|368:240,1,45
336,128,160221,2,0,L|384:128,1,45
320,72,160389,2,0,L|362:57,1,45
272,56,160558,5,0,0:0:0:0:
216,56,160643,1,0,0:0:0:0:
152,88,160727,1,0,0:0:0:0:
112,152,160811,1,0,0:0:0:0:
104,232,160895,1,0,0:0:0:0:
152,288,160980,1,0,0:0:0:0:
192,320,161064,6,0,B|144:328|144:328|88:360|88:344,1,90
288,224,161401,1,0,0:0:0:0:
456,336,161570,2,0,B|408:344|408:344|336:312|352:360,1,90
440,104,161907,1,0,0:0:0:0:
392,120,161991,1,0,0:0:0:0:
360,160,162075,1,0,0:0:0:0:
256,112,162244,5,0,0:0:0:0:
168,200,162412,1,0,0:0:0:0:
256,288,162581,1,0,0:0:0:0:
344,200,162749,1,0,0:0:0:0:
256,48,162918,5,0,0:0:0:0:
144,184,163086,1,0,0:0:0:0:
48,328,163255,1,0,0:0:0:0:
48,328,163339,1,0,0:0:0:0:
48,328,163423,6,0,P|104:320|152:336,1,90
80,160,163761,2,0,L|80:208,2,45
200,88,164098,1,0,0:0:0:0:
200,208,164266,1,0,0:0:0:0:
368,144,164435,2,0,B|328:136|328:136|280:160,1,90
328,264,164772,1,0,0:0:0:0:
440,328,164941,5,0,0:0:0:0:
440,280,165025,1,0,0:0:0:0:
440,232,165109,5,0,0:0:0:0:
216,72,165277,1,0,0:0:0:0:
176,112,165362,1,0,0:0:0:0:
176,168,165446,1,0,0:0:0:0:
200,216,165530,1,0,0:0:0:0:
248,240,165614,2,0,P|280:240|296:224,1,45
48,104,165783,5,0,0:0:0:0:
24,152,165867,1,0,0:0:0:0:
32,208,165952,1,0,0:0:0:0:
56,256,166036,1,0,0:0:0:0:
96,296,166120,1,0,0:0:0:0:
152,312,166205,1,0,0:0:0:0:
208,312,166289,1,0,0:0:0:0:
264,304,166373,1,0,0:0:0:0:
312,280,166457,5,0,0:0:0:0:
448,192,166626,2,0,P|448:256|432:288,2,90
304,160,167131,1,0,0:0:0:0:
256,160,167216,1,0,0:0:0:0:
208,160,167300,2,0,B|160:160|160:160|112:168,1,90
200,56,167637,5,0,0:0:0:0:
32,160,167806,1,0,0:0:0:0:
200,56,167974,2,0,B|248:56|248:56|264:64|264:64|328:64,1,90
280,344,168311,1,0,0:0:0:0:
280,296,168395,1,0,0:0:0:0:
280,248,168480,1,0,0:0:0:0:
280,56,168648,1,0,0:0:0:0:
416,288,168817,6,0,P|424:232|400:184,1,90
48,184,169154,2,0,P|104:184|152:216,1,90
80,344,169491,1,0,0:0:0:0:
80,344,169575,1,0,0:0:0:0:
80,344,169659,1,0,0:0:0:0:
80,344,169828,5,0,0:0:0:0:
360,184,169997,1,0,0:0:0:0:
64,72,170165,1,0,0:0:0:0:
64,72,170334,6,0,B|128:72|128:72|144:64|144:64|160:104|160:104|208:64|208:64|328:64,1,270
432,160,171008,1,0,0:0:0:0:
408,200,171092,1,0,0:0:0:0:
368,224,171176,1,0,0:0:0:0:
176,168,171344,1,0,0:0:0:0:
48,280,171513,1,0,0:0:0:0:
232,344,171682,2,0,P|280:344|320:320,1,90
408,184,172019,5,0,0:0:0:0:
264,88,172188,1,0,0:0:0:0:
264,256,172356,1,0,0:0:0:0:
408,184,172525,1,0,0:0:0:0:
264,88,172693,1,0,0:0:0:0:
264,88,172777,1,0,0:0:0:0:
264,88,172861,1,0,0:0:0:0:
264,88,173030,5,0,0:0:0:0:
88,184,173199,1,0,0:0:0:0:
264,256,173367,1,0,0:0:0:0:
264,88,173536,1,0,0:0:0:0:
264,256,173704,1,0,0:0:0:0:
264,88,173873,1,0,0:0:0:0:
88,184,174041,1,0,0:0:0:0:
88,184,174126,1,0,0:0:0:0:
88,184,174210,1,0,0:0:0:0:
264,88,174379,6,0,P|336:88|368:96,1,90
488,232,174716,1,0,0:0:0:0:
336,328,174884,1,0,0:0:0:0:
336,152,175052,1,0,0:0:0:0:
40,304,175221,21,0,0:0:0:0:
64,80,175390,1,0,0:0:0:0:
240,224,175558,1,0,0:0:0:0:
240,224,175727,2,0,B|252:264|281:293|326:318|377:310|421:306|449:321|449:321|460:256|433:211|408:181|387:157|334:134|293:123|256:144,1,540
56,96,176907,6,0,P|120:96|160:112,1,90
96,224,177244,1,0,0:0:0:0:
96,224,177328,1,0,0:0:0:0:
96,224,177412,1,0,0:0:0:0:
184,336,177581,1,0,0:0:0:0:
296,248,177749,1,0,0:0:0:0:
216,136,177918,1,0,0:0:0:0:
216,136,178086,2,0,L|216:32,1,90
448,112,178423,6,0,P|432:176|392:200,1,90
320,96,178761,1,0,0:0:0:0:
272,104,178845,1,0,0:0:0:0:
240,144,178929,1,0,0:0:0:0:
240,296,179098,1,0,0:0:0:0:
136,200,179266,1,0,0:0:0:0:
88,200,179350,1,0,0:0:0:0:
40,224,179435,1,0,0:0:0:0:
80,344,179603,5,0,0:0:0:0:
208,280,179772,2,0,P|256:280|304:240,1,90
64,112,180109,2,0,P|88:64|128:48,1,90
96,248,180445,1,0,0:0:0:0:
288,112,180614,2,0,P|232:120|192:136,1,90
96,248,180952,5,0,0:0:0:0:
152,248,181037,1,0,0:0:0:0:
208,256,181121,1,0,0:0:0:0:
256,280,181205,1,0,0:0:0:0:
296,320,181290,1,0,0:0:0:0:
424,344,181457,5,0,0:0:0:0:
456,216,181626,2,0,P|400:216|368:248,1,90
368,16,181963,2,0,P|384:64|408:120,1,90
256,88,182300,1,0,0:0:0:0:
200,88,182385,1,0,0:0:0:0:
144,96,182469,1,0,0:0:0:0:
96,120,182553,1,0,0:0:0:0:
56,160,182638,5,0,0:0:0:0:
56,296,182974,1,0,0:0:0:0:
264,248,183311,1,0,0:0:0:0:
296,248,183817,6,0,L|296:296|296:352,1,90
416,184,184154,1,0,0:0:0:0:
296,120,184322,2,0,P|264:88|208:80,2,90
80,328,184828,5,0,0:0:0:0:
208,224,184997,1,0,0:0:0:0:
56,152,185165,1,0,0:0:0:0:
56,152,185334,2,0,P|112:64|200:88,1,180
384,192,185839,1,0,0:0:0:0:
336,192,185923,1,0,0:0:0:0:
288,192,186008,1,0,0:0:0:0:
352,344,186176,5,0,0:0:0:0:
352,48,186345,1,0,0:0:0:0:
216,48,186513,6,0,B|160:48|160:48|120:64,1,90
192,184,186850,1,0,0:0:0:0:
240,184,186935,1,0,0:0:0:0:
288,184,187019,1,0,0:0:0:0:
408,184,187188,1,0,0:0:0:0:
16,184,187356,6,0,P|24:240|120:312,1,180,0|0,0:0|0:0,0:0:0:0:
176,320,187778,1,0,0:0:0:0:
232,320,187862,1,0,0:0:0:0:
280,288,187946,1,0,0:0:0:0:
296,232,188030,1,0,0:0:0:0:
272,176,188115,1,0,0:0:0:0:
224,152,188199,1,0,0:0:0:0:
168,176,188284,1,0,0:0:0:0:
120,216,188368,1,0,0:0:0:0:
64,208,188452,1,0,0:0:0:0:
40,160,188536,1,0,0:0:0:0:
64,104,188620,1,0,0:0:0:0:
112,80,188704,6,0,L|168:80|224:80,1,90
392,96,189041,2,0,P|392:167|360:216,1,90
304,304,189379,2,0,L|224:128,1,180
416,176,189884,1,0,0:0:0:0:
416,176,189968,1,0,0:0:0:0:
416,176,190053,1,0,0:0:0:0:
344,320,190221,5,0,0:0:0:0:
248,216,190390,1,0,0:0:0:0:
344,112,190558,1,0,0:0:0:0:
440,216,190727,1,0,0:0:0:0:
440,120,190895,5,0,0:0:0:0:
264,128,191064,1,0,0:0:0:0:
160,232,191232,1,0,0:0:0:0:
128,360,191401,1,0,0:0:0:0:
128,360,191570,5,0,0:0:0:0:
0,280,191738,1,0,0:0:0:0:
56,152,191907,1,0,0:0:0:0:
120,128,191991,1,0,0:0:0:0:
184,144,192075,1,0,0:0:0:0:
232,192,192159,1,0,0:0:0:0:
272,248,192244,1,0,0:0:0:0:
336,272,192328,1,0,0:0:0:0:
400,272,192412,1,0,0:0:0:0:
456,240,192497,1,0,0:0:0:0:
464,184,192581,2,0,L|464:112,2,45
424,88,192834,5,0,0:0:0:0:
360,88,192918,1,0,0:0:0:0:
304,128,193002,1,0,0:0:0:0:
264,184,193086,1,0,0:0:0:0:
200,184,193171,1,0,0:0:0:0:
144,144,193255,1,0,0:0:0:0:
144,80,193339,1,0,0:0:0:0:
200,40,193423,5,0,0:0:0:0:
272,40,193508,1,0,0:0:0:0:
320,88,193592,1,0,0:0:0:0:
336,152,193676,1,0,0:0:0:0:
312,216,193761,1,0,0:0:0:0:
272,272,193845,1,0,0:0:0:0:
208,296,193929,1,0,0:0:0:0:
136,320,194013,1,0,0:0:0:0:
64,320,194098,6,0,P|64:264|88:232,1,90,0|0,0:0|0:0,0:0:0:0:
448,48,194435,2,0,P|448:96|416:136,1,90
264,72,194772,2,0,P|200:72|80:144,1,180
144,272,195277,1,0,0:0:0:0:
312,320,195446,1,0,0:0:0:0:
256,152,195614,1,0,0:0:0:0:
144,272,195783,1,0,0:0:0:0:
392,240,195952,5,0,0:0:0:0:
144,360,196120,1,0,0:0:0:0:
152,120,196289,2,0,P|200:120|256:136,1,90
200,264,196626,2,0,L|200:320,2,45,0|0|0,0:0|0:0|0:0,0:0:0:0:
376,192,196963,6,0,B|320:208|320:208|296:240,1,90
88,328,197300,1,0,0:0:0:0:
440,240,197468,1,0,0:0:0:0:
88,152,197637,1,0,0:0:0:0:
440,64,197806,1,0,0:0:0:0:
160,64,197974,5,0,0:0:0:0:
376,152,198143,1,0,0:0:0:0:
160,240,198311,1,0,0:0:0:0:
160,240,198395,1,0,0:0:0:0:
160,240,198480,1,0,0:0:0:0:
464,328,198648,5,0,0:0:0:0:
64,328,198817,1,0,0:0:0:0:
392,264,198985,1,0,0:0:0:0:
136,272,199154,1,0,0:0:0:0:
256,120,199322,5,0,0:0:0:0:
256,224,199491,1,0,0:0:0:0:
256,328,199659,1,0,0:0:0:0:
256,328,199744,1,0,0:0:0:0:
256,328,199828,1,0,0:0:0:0:
256,192,199997,12,0,201176,0:0:0:0:
256,192,201261,12,0,202693,0:0:0:0:
0,48,202862,6,0,L|96:216,1,180
456,296,203367,2,0,L|368:120,1,180
256,192,203873,1,0,0:0:0:0:
200,64,204041,1,0,0:0:0:0:
72,112,204210,1,0,0:0:0:0:
112,256,204379,1,0,0:0:0:0:
248,280,204547,5,0,0:0:0:0:
304,312,204631,1,0,0:0:0:0:
368,328,204716,1,0,0:0:0:0:
432,304,204800,1,0,0:0:0:0:
472,248,204884,1,0,0:0:0:0:
456,184,204968,1,0,0:0:0:0:
392,160,205053,1,0,0:0:0:0:
336,200,205137,1,0,0:0:0:0:
280,232,205221,1,0,0:0:0:0:
216,216,205306,1,0,0:0:0:0:
184,152,205390,1,0,0:0:0:0:
216,96,205474,1,0,0:0:0:0:
280,104,205558,6,0,L|108:14|108:14,1,180
24,192,206064,1,0,0:0:0:0:
24,192,206148,1,0,0:0:0:0:
23,191,206232,2,0,P|95:191|135:207,1,90,0|0,0:0|0:0,0:0:0:0:
272,304,206570,2,0,P|212:298|174:310,1,90,0|0,0:0|0:0,0:0:0:0:
400,240,206907,1,0,0:0:0:0:
400,96,207075,2,0,L|307:148,1,90
208,56,207412,2,0,L|153:148,1,90,0|0,0:0|0:0,0:0:0:0:
231,230,207749,1,0,0:0:0:0:
184,259,207834,1,0,0:0:0:0:
155,312,207918,1,0,0:0:0:0:
361,255,208086,5,0,0:0:0:0:
322,123,208255,1,0,0:0:0:0:
188,110,208423,1,0,0:0:0:0:
103,216,208592,1,0,0:0:0:0:
224,322,208761,6,0,L|246:269,1,45
402,299,208929,2,0,L|369:255,1,45,0|0,0:0|0:0,0:0:0:0:
403,135,209098,2,0,L|331:106,1,45,0|0,0:0|0:0,0:0:0:0:
239,102,209266,2,0,L|164:119,1,45,0|0,0:0|0:0,0:0:0:0:
75,117,209435,2,0,B|11:128|-30:233|12:318|83:327,1,270
194,220,210109,5,0,0:0:0:0:
194,220,210193,1,0,0:0:0:0:
194,220,210277,2,0,B|245:217|245:218|245:218|307:235,1,90
312,288,210530,1,0,0:0:0:0:
376,296,210614,1,0,0:0:0:0:
440,264,210699,1,0,0:0:0:0:
464,200,210783,1,0,0:0:0:0:
456,136,210867,1,0,0:0:0:0:
408,88,210952,1,0,0:0:0:0:
352,56,211036,6,0,L|328:113,1,45
232,160,211204,2,0,L|256:112,1,45
216,64,211373,5,0,0:0:0:0:
152,64,211457,1,0,0:0:0:0:
96,96,211542,1,0,0:0:0:0:
72,160,211626,1,0,0:0:0:0:
88,224,211710,1,0,0:0:0:0:
144,264,211795,1,0,0:0:0:0:
208,264,211879,1,0,0:0:0:0:
264,232,211963,1,0,0:0:0:0:
280,168,212048,6,0,L|288:112,1,45
368,208,212216,2,0,L|360:256,1,45
320,304,212384,1,0,0:0:0:0:
256,328,212468,1,0,0:0:0:0:
192,328,212552,1,0,0:0:0:0:
136,288,212637,1,0,0:0:0:0:
120,224,212721,1,0,0:0:0:0:
144,160,212806,1,0,0:0:0:0:
192,120,212890,6,0,L|256:120,1,45
312,192,213058,2,0,L|264:192,1,45
208,224,213227,1,0,0:0:0:0:
224,288,213311,1,0,0:0:0:0:
280,320,213395,1,0,0:0:0:0:
344,312,213480,1,0,0:0:0:0:
376,256,213564,1,0,0:0:0:0:
360,192,213648,5,0,0:0:0:0:
312,144,213733,1,0,0:0:0:0:
248,136,213817,1,0,0:0:0:0:
184,160,213901,1,0,0:0:0:0:
160,224,213986,1,0,0:0:0:0:
168,288,214070,1,0,0:0:0:0:
208,344,214154,1,0,0:0:0:0:
272,360,214238,1,0,0:0:0:0:
336,336,214322,5,0,0:0:0:0:
376,280,214407,1,0,0:0:0:0:
376,216,214491,1,0,0:0:0:0:
344,160,214575,1,0,0:0:0:0:
288,128,214660,1,0,0:0:0:0:
224,120,214744,1,0,0:0:0:0:
160,136,214828,1,0,0:0:0:0:
120,192,214912,1,0,0:0:0:0:
136,256,214997,5,0,0:0:0:0:
200,240,215081,1,0,0:0:0:0:
264,232,215165,1,0,0:0:0:0:
328,248,215249,1,0,0:0:0:0:
376,296,215334,1,0,0:0:0:0:
256,192,215418,12,0,216261,0:0:0:0:
88,65,216345,5,0,0:0:0:0:
218,84,216513,1,0,0:0:0:0:
298,196,216682,1,0,0:0:0:0:
10,154,216850,5,0,0:0:0:0:
166,211,217019,1,0,0:0:0:0:
229,348,217188,1,0,0:0:0:0:
5,28,217356,5,0,0:0:0:0:
254,123,217525,1,0,0:0:0:0:
350,317,217693,1,0,0:0:0:0:
466,131,217862,1,0,0:0:0:0:
257,47,218030,5,0,0:0:0:0:
32,213,218199,1,0,0:0:0:0:
424,344,218367,1,0,0:0:0:0:
424,344,218452,1,0,0:0:0:0:
424,344,218536,1,0,0:0:0:0:
320,224,218704,1,0,0:0:0:0:
424,120,218873,1,0,0:0:0:0:
296,56,219041,6,0,L|199:56,1,90,0|0,0:0|0:0,0:0:0:0:
206,56,219379,1,0,0:0:0:0:
256,320,219547,2,0,L|256:217,1,90
256,320,219884,1,0,0:0:0:0:
57,221,220053,6,0,L|56:324,1,90,0|0,0:0|0:0,0:0:0:0:
56,310,220390,1,0,0:0:0:0:
64,80,220558,2,0,L|160:80,1,90,0|0,0:0|0:0,0:0:0:0:
64,80,220895,1,0,0:0:0:0:
160,208,221064,1,0,0:0:0:0:
200,240,221148,1,0,0:0:0:0:
248,264,221233,2,0,B|250:329|250:329|240:374,1,90,0|0,0:0|0:0,0:0:0:0:
424,280,221570,6,0,P|368:264|175:362,1,270,0|0,0:0|0:0,0:0:0:0:
79,150,222412,1,0,0:0:0:0:
64,264,222581,1,0,0:0:0:0:
78,151,222749,1,0,0:0:0:0:
78,151,222834,1,0,0:0:0:0:
78,151,222918,1,0,0:0:0:0:
78,151,223002,1,0,0:0:0:0:
78,151,223086,2,0,P|131:151|294:289,1,270,0|0,0:0|0:0,0:0:0:0:
480,64,223761,2,0,P|402:67|295:129,1,180,0|0,0:0|0:0,0:0:0:0:
256,192,224182,12,0,227131,0:0:0:0:
256,60,228480,5,0,0:0:0:0:
167,61,228648,2,0,L|90:61,1,72
84,139,228985,2,0,P|86:204|158:269,1,144
212,181,229491,2,0,L|285:181,1,72,0|0,0:0|0:0,0:0:0:0:
376,120,229828,2,0,P|377:185|362:208,1,72
391,312,230165,2,0,P|366:283|312:272,1,72,0|0,0:0|0:0,0:0:0:0:
250,291,230502,2,0,P|217:265|173:252,1,72,0|0,0:0|0:0,0:0:0:0:
158,347,230839,1,0,0:0:0:0:
158,347,231008,1,0,0:0:0:0:
72,284,231176,5,0,0:0:0:0:
71,183,231345,1,0,0:0:0:0:
153,114,231513,1,0,0:0:0:0:
259,134,231682,1,0,0:0:0:0:
335,209,231850,1,0,0:0:0:0:
440,234,232019,1,0,0:0:0:0:
488,137,232188,1,0,0:0:0:0:
410,61,232357,1,0,0:0:0:0:
32,73,232693,5,0,0:0:0:0:
52,197,232861,1,0,0:0:0:0:
139,297,233030,1,0,0:0:0:0:
148,29,233199,5,0,0:0:0:0:
233,135,233367,1,0,0:0:0:0:
359,223,233536,1,0,0:0:0:0:
312,48,233873,6,0,P|263:48|216:54,2,72,0|0|0,0:0|0:0|0:0,0:0:0:0:
392,124,234379,2,0,L|390:217,1,72,0|0,0:0|0:0,0:0:0:0:
224,208,234716,2,0,P|280:208|312:232,1,72
328,304,235053,1,0,0:0:0:0:
408,264,235221,1,0,0:0:0:0:
408,168,235390,5,0,0:0:0:0:
408,168,235558,2,0,P|363:168|327:177,1,72
224,176,235895,2,0,L|256:144,2,36
152,240,236232,5,0,0:0:0:0:
224,296,236401,2,0,P|280:288|321:249,1,108
352,224,236739,2,0,L|352:311,1,72
352,136,237075,1,0,0:0:0:0:
288,64,237244,2,0,P|248:64|192:96,1,72
128,112,237581,1,0,0:0:0:0:
128,208,237749,2,0,P|232:192|288:96,1,216
48,136,238423,6,0,L|48:224,1,72
48,32,238761,2,0,P|94:34|124:43,1,72
402,203,239098,2,0,P|358:206|330:217,1,72
358,108,239435,1,0,0:0:0:0:
240,143,239603,5,0,0:0:0:0:
180,244,239772,1,0,0:0:0:0:
292,245,239940,1,0,0:0:0:0:
239,143,240109,2,0,L|240:52,1,72,0|0,0:0|0:0,0:0:0:0:
353,170,240446,5,0,0:0:0:0:
428,247,240615,1,0,0:0:0:0:
354,325,240783,1,0,0:0:0:0:
277,248,240952,1,0,0:0:0:0:
277,248,241120,2,0,P|206:251|185:258,1,72
112,256,241457,2,0,L|113:345,2,72
112,160,241963,5,0,0:0:0:0:
112,160,242047,1,0,0:0:0:0:
112,160,242131,2,0,P|112:111|139:85,1,72
216,104,242468,2,0,P|254:85|289:82,1,72
368,120,242806,2,0,P|415:138|437:157,1,72,0|0,0:0|0:0,0:0:0:0:
352,263,243143,2,0,P|333:217|212:282,1,216
104,296,243817,5,0,0:0:0:0:
98,252,243902,1,0,0:0:0:0:
101,166,244070,1,0,0:0:0:0:
112,120,244154,1,0,0:0:0:0:
184,56,244322,6,0,P|228:54|266:77,1,72,0|0,0:0|0:0,0:0:0:0:
202,169,244659,1,0,0:0:0:0:
286,204,244828,1,0,0:0:0:0:
323,286,244997,1,0,0:0:0:0:
323,286,245165,2,0,P|369:285|400:293,1,72
444,212,245502,2,0,P|456:170|431:70,1,144,0|0,0:0|0:0,0:0:0:0:
85,77,246008,6,0,P|141:78|160:88,1,72,0|0,0:0|0:0,0:0:0:0:
104,168,246345,2,0,L|96:248,2,72
200,200,246850,2,0,L|240:232,1,36
256,121,247103,2,0,L|231:96,1,36
296,216,247356,5,0,0:0:0:0:
296,216,247525,2,0,P|331:212|367:214,1,72
472,216,247862,2,0,P|460:284|397:313,1,144
42,266,248367,6,0,L|46:179,1,72
120,64,248704,2,0,P|137:130|192:344,1,288
400,328,249716,5,0,0:0:0:0:
400,256,249799,1,0,0:0:0:0:
400,184,249884,1,0,0:0:0:0:
400,112,249968,1,0,0:0:0:0:
400,32,250053,6,0,P|328:24|224:72,1,180
304,200,250558,2,0,P|296:280|200:368,1,180
38,353,251064,1,0,0:0:0:0:
233,353,251232,2,0,P|201:273|121:201,1,180
32,344,251738,5,0,0:0:0:0:
0,176,251907,1,0,0:0:0:0:
184,120,252075,1,0,0:0:0:0:
112,280,252244,1,0,0:0:0:0:
280,320,252412,1,0,0:0:0:0:
280,136,252581,1,0,0:0:0:0:
280,136,252665,1,0,0:0:0:0:
280,136,252749,5,0,0:0:0:0:
64,288,252918,1,0,0:0:0:0:
64,120,253086,2,0,P|120:120|152:152,1,90
328,328,253423,5,0,0:0:0:0:
443,235,253592,2,0,P|444:191|424:152,1,90
264,264,253929,2,0,P|263:308|283:347,1,90
152,208,254266,5,0,0:0:0:0:
120,256,254350,1,0,0:0:0:0:
88,304,254435,1,0,0:0:0:0:
288,208,254603,5,0,0:0:0:0:
272,152,254687,1,0,0:0:0:0:
256,96,254772,1,0,0:0:0:0:
424,160,254940,5,0,0:0:0:0:
432,248,255025,1,0,0:0:0:0:
392,320,255109,1,0,0:0:0:0:
312,352,255193,1,0,0:0:0:0:
216,352,255277,2,0,P|152:352|120:328,1,90
64,88,255614,5,0,0:0:0:0:
176,200,255783,2,0,P|193:159|190:114,1,90
360,248,256120,2,0,P|342:288|345:333,1,90
345,333,256373,1,0,0:0:0:0:
345,333,256457,1,0,0:0:0:0:
112,304,256626,1,0,0:0:0:0:
144,136,256794,6,0,P|99:128|59:108,1,90
248,40,257131,1,0,0:0:0:0:
456,96,257300,2,0,P|392:96|360:112,1,90
344,272,257637,1,0,0:0:0:0:
344,272,257721,1,0,0:0:0:0:
344,272,257806,1,0,0:0:0:0:
216,112,257975,6,0,P|171:118|135:144,1,90
104,304,258311,1,0,0:0:0:0:
328,224,258480,1,0,0:0:0:0:
56,48,258648,1,0,0:0:0:0:
48,232,258817,1,0,0:0:0:0:
48,232,258985,2,0,P|112:232|152:256,1,90
384,248,259322,2,0,L|384:192|360:120,1,90
304,152,259575,5,0,0:0:0:0:
240,152,259659,1,0,0:0:0:0:
176,152,259744,1,0,0:0:0:0:
112,152,259828,2,0,L|48:152,1,45
72,280,259997,2,0,L|72:360,1,45
288,224,260165,2,0,L|344:224,1,45
456,96,260334,2,0,L|400:96,1,45
336,96,260502,6,0,P|288:48|216:24,1,135,0|0,0:0|0:0,0:0:0:0:
160,24,260839,1,0,0:0:0:0:
272,176,261008,1,0,0:0:0:0:
448,48,261176,1,0,0:0:0:0:
456,208,261345,2,0,L|456:304,1,90
216,296,261682,2,0,P|304:296|336:208,1,180
336,160,262103,1,0,0:0:0:0:
336,96,262188,1,0,0:0:0:0:
176,128,262356,5,0,0:0:0:0:
72,208,262525,1,0,0:0:0:0:
208,312,262693,1,0,0:0:0:0:
392,160,262862,1,0,0:0:0:0:
456,344,263030,1,0,0:0:0:0:
232,192,263199,1,0,0:0:0:0:
408,192,263367,6,0,L|456:176|494:195,2,90
224,328,263873,1,0,0:0:0:0:
88,160,264041,2,0,P|56:200|56:240,1,90
224,328,264379,1,0,0:0:0:0:
392,216,264547,1,0,0:0:0:0:
241,118,264716,5,0,0:0:0:0:
182,96,264800,1,0,0:0:0:0:
123,111,264884,1,0,0:0:0:0:
79,155,264969,1,0,0:0:0:0:
80,216,265053,1,0,0:0:0:0:
117,267,265137,1,0,0:0:0:0:
176,296,265221,1,0,0:0:0:0:
241,298,265305,1,0,0:0:0:0:
305,290,265389,1,0,0:0:0:0:
353,250,265473,1,0,0:0:0:0:
385,194,265558,1,0,0:0:0:0:
432,56,265727,6,0,P|360:56|320:56,1,90
272,200,266064,1,0,0:0:0:0:
192,64,266232,2,0,B|152:104|152:104|96:224,1,180
328,304,266738,2,0,P|272:296|224:288,1,90
64,256,267075,1,0,0:0:0:0:
192,144,267244,1,0,0:0:0:0:
160,304,267412,1,0,0:0:0:0:
96,128,267581,1,0,0:0:0:0:
248,240,267749,1,0,0:0:0:0:
256,96,267918,5,0,0:0:0:0:
464,184,268086,1,0,0:0:0:0:
248,272,268255,1,0,0:0:0:0:
400,56,268423,1,0,0:0:0:0:
400,296,268592,1,0,0:0:0:0:
400,296,268676,1,0,0:0:0:0:
400,296,268761,6,0,P|464:296|528:280,1,90,0|0,0:0|0:0,0:0:0:0:
400,168,269098,1,0,0:0:0:0:
272,120,269266,2,0,P|224:104|192:112,1,45,0|0,0:0|0:0,0:0:0:0:
112,120,269435,2,0,P|56:152|-8:280,1,180,0|0,0:0|0:0,0:0:0:0:
152,280,269940,1,0,0:0:0:0:
240,176,270109,2,0,P|352:120|384:56,1,180,0|0,0:0|0:0,0:0:0:0:
432,64,270530,5,0,0:0:0:0:
456,120,270615,1,0,0:0:0:0:
464,184,270699,1,0,0:0:0:0:
440,248,270783,1,0,0:0:0:0:
376,272,270867,1,0,0:0:0:0:
312,256,270952,1,0,0:0:0:0:
264,208,271036,1,0,0:0:0:0:
200,200,271120,1,0,0:0:0:0:
136,224,271205,1,0,0:0:0:0:
120,288,271289,1,0,0:0:0:0:
256,40,271626,5,0,0:0:0:0:
256,336,271963,1,0,0:0:0:0:
256,224,272131,2,0,L|256:168,1,45
256,128,272299,1,0,0:0:0:0:
48,104,272468,2,0,P|112:112|160:144,1,90
80,240,272806,1,0,0:0:0:0:
416,216,272974,6,0,P|344:184|232:176,1,180
328,328,273480,1,0,0:0:0:0:
328,328,273564,1,0,0:0:0:0:
328,328,273648,1,0,0:0:0:0:
336,80,273817,1,0,0:0:0:0:
336,80,273985,2,0,P|264:80|224:96,1,90
112,24,274322,6,0,P|72:48|0:176,1,180
168,168,274828,1,0,0:0:0:0:
168,168,274912,1,0,0:0:0:0:
168,168,274997,1,0,0:0:0:0:
408,152,275165,1,0,0:0:0:0:
240,256,275334,1,0,0:0:0:0:
472,344,275502,1,0,0:0:0:0:
304,344,275671,6,0,P|368:336|448:248,1,180
304,192,276176,1,0,0:0:0:0:
304,192,276345,2,0,P|280:128|248:88,1,90,0|0,0:0|0:0,0:0:0:0:
96,64,276682,6,0,L|96:120,1,45
72,328,276851,2,0,L|56:280,1,45,0|0,0:0|0:0,0:0:0:0:
176,184,277020,2,0,L|216:224,1,45,0|0,0:0|0:0,0:0:0:0:
328,328,277188,2,0,L|272:304,1,45
272,56,277356,2,0,L|288:112,1,45,0|0,0:0|0:0,0:0:0:0:
448,152,277525,2,0,L|472:112,1,45
477,48,277693,6,0,P|421:48|349:72,1,90
254,58,278030,2,0,L|254:162,1,90
258,352,278283,1,0,0:0:0:0:
258,352,278367,2,0,P|257:309|257:245,1,90
113,133,278704,2,0,P|77:215|75:304,1,180
358,311,279210,1,0,0:0:0:0:
307,183,279379,2,0,P|263:175|220:186,1,90
53,210,279716,1,0,0:0:0:0:
204,341,279884,1,0,0:0:0:0:
56,336,280053,5,0,0:0:0:0:
168,232,280221,1,0,0:0:0:0:
320,224,280390,1,0,0:0:0:0:
488,192,280558,1,0,0:0:0:0:
424,80,280727,1,0,0:0:0:0:
304,40,280895,6,0,L|256:64,1,45
296,176,281064,2,0,L|280:224,1,45
160,128,281232,2,0,L|104:112,1,45
96,232,281401,6,0,L|64:288,1,45
216,288,281570,2,0,L|256:344,1,45
384,328,281738,2,0,L|376:272,1,45
112,128,281906,2,0,L|160:152,1,45
264,104,282075,6,0,L|320:80,1,45
432,56,282244,2,0,L|464:112,1,45
480,184,282412,1,0,0:0:0:0:
480,184,282497,1,0,0:0:0:0:
480,184,282581,1,0,0:0:0:0:
480,184,282665,1,0,0:0:0:0:
480,184,282749,2,0,P|416:184|352:224,1,135
312,160,283086,6,0,L|264:160|200:136,1,90,0|0,0:0|0:0,0:0:0:0:
440,120,283423,2,0,P|440:176|424:232,1,90,0|0,0:0|0:0,0:0:0:0:
352,320,283761,2,0,P|304:272|224:184,1,180
248,368,284266,1,0,0:0:0:0:
248,368,284350,1,0,0:0:0:0:
248,368,284435,1,0,0:0:0:0:
104,224,284603,1,0,0:0:0:0:
24,352,284772,5,0,0:0:0:0:
40,80,284940,1,0,0:0:0:0:
288,208,285109,1,0,0:0:0:0:
352,64,285277,2,0,P|288:64|248:88,1,90
256,296,285615,1,0,0:0:0:0:
256,296,285699,1,0,0:0:0:0:
256,296,285783,1,0,0:0:0:0:
256,296,285952,2,0,P|184:296|104:320,1,135
88,256,286289,5,0,0:0:0:0:
160,136,286457,1,0,0:0:0:0:
288,176,286626,1,0,0:0:0:0:
296,328,286794,1,0,0:0:0:0:
168,360,286963,1,0,0:0:0:0:
120,64,287131,5,0,0:0:0:0:
272,104,287300,1,0,0:0:0:0:
288,272,287468,1,0,0:0:0:0:
112,336,287637,1,0,0:0:0:0:
16,192,287806,1,0,0:0:0:0:
120,64,287974,5,0,0:0:0:0:
280,160,288143,1,0,0:0:0:0:
256,304,288311,2,0,P|192:304|144:288,2,90,0|0|0,0:0|0:0|0:0,0:0:0:0:
256,192,288817,12,0,290165,0:0:0:0:
256,192,290249,12,0,291513,0:0:0:0:
160,40,291682,5,0,0:0:0:0:
160,40,291850,2,0,P|96:56|0:128,1,180
304,352,292356,2,0,P|384:344|472:280,1,180,0|0,0:0|0:0,0:0:0:0:
248,192,292862,1,0,0:0:0:0:
40,48,295221,5,0,0:0:0:0:
64,96,295305,1,0,0:0:0:0:
96,144,295390,1,0,0:0:0:0:
144,176,295474,1,0,0:0:0:0:
200,192,295558,1,0,0:0:0:0:
256,184,295642,1,0,0:0:0:0:
312,160,295727,1,0,0:0:0:0:
360,120,295811,1,0,0:0:0:0:
400,80,295895,6,0,P|432:152|408:264,1,180
120,176,296401,2,0,P|176:168|320:192,1,180
216,344,296907,1,0,0:0:0:0:
112,232,297075,1,0,0:0:0:0:
232,136,297244,1,0,0:0:0:0:
112,32,297412,1,0,0:0:0:0:
112,32,297497,1,0,0:0:0:0:
112,32,297581,2,0,L|216:32,1,90,0|0,0:0|0:0,0:0:0:0:
336,112,297918,1,0,0:0:0:0:
240,208,298086,2,0,P|200:168|168:88,1,135
168,40,298423,5,0,0:0:0:0:
432,200,298592,1,0,0:0:0:0:
152,328,298761,1,0,0:0:0:0:
152,328,298929,2,0,P|144:272|112:208,1,90
392,288,299266,2,0,L|328:288|280:288,1,90
302,288,299519,1,0,0:0:0:0:
302,288,299603,1,0,0:0:0:0:
304,176,299772,2,0,P|304:88|32:176,1,495
80,168,300783,5,0,0:0:0:0:
40,216,300868,1,0,0:0:0:0:
48,280,300952,1,0,0:0:0:0:
96,320,301036,1,0,0:0:0:0:
160,320,301120,1,0,0:0:0:0:
200,272,301204,1,0,0:0:0:0:
208,208,301289,6,0,P|288:256|320:376,1,180
328,24,301794,2,0,P|376:104|496:136,1,180
456,328,302300,2,0,P|376:376|312:232,1,270
288,64,302974,6,0,P|243:66|200:81,1,90
200,112,303227,1,0,0:0:0:0:
200,128,303311,1,0,0:0:0:0:
200,144,303395,1,0,0:0:0:0:
200,176,303480,1,0,0:0:0:0:
200,208,303564,1,0,0:0:0:0:
192,240,303648,1,0,0:0:0:0:
168,264,303732,1,0,0:0:0:0:
120,272,303817,5,0,0:0:0:0:
56,256,303901,1,0,0:0:0:0:
16,208,303985,1,0,0:0:0:0:
16,144,304070,1,0,0:0:0:0:
48,88,304154,1,0,0:0:0:0:
112,64,304238,1,0,0:0:0:0:
176,64,304322,1,0,0:0:0:0:
216,112,304407,5,0,0:0:0:0:
240,168,304491,1,0,0:0:0:0:
280,216,304575,1,0,0:0:0:0:
336,240,304660,1,0,0:0:0:0:
400,224,304744,1,0,0:0:0:0:
432,168,304828,1,0,0:0:0:0:
416,104,304912,1,0,0:0:0:0:
368,64,304997,5,0,0:0:0:0:
304,80,305081,1,0,0:0:0:0:
272,136,305165,2,0,P|280:176|296:248,4,90
144,344,306008,5,0,0:0:0:0:
88,320,306092,1,0,0:0:0:0:
48,272,306176,1,0,0:0:0:0:
48,216,306261,1,0,0:0:0:0:
88,168,306345,1,0,0:0:0:0:
144,152,306429,1,0,0:0:0:0:
184,112,306513,1,0,0:0:0:0:
176,56,306598,1,0,0:0:0:0:
128,24,306682,5,0,0:0:0:0:
208,280,306850,1,0,0:0:0:0:
408,96,307019,1,0,0:0:0:0:
224,96,307188,5,0,0:0:0:0:
472,200,307356,1,0,0:0:0:0:
240,344,307525,1,0,0:0:0:0:
240,344,307609,1,0,0:0:0:0:
240,344,307693,2,0,P|328:344|368:328,1,90
192,160,308030,6,0,P|128:160|72:176,1,90,0|0,0:0|0:0,0:0:0:0:
192,160,308367,1,0,0:0:0:0:
416,320,308536,1,0,0:0:0:0:
416,192,308704,2,0,L|320:192,1,90
326,192,308957,1,0,0:0:0:0:
326,192,309041,1,0,0:0:0:0:
72,192,309210,6,0,P|144:224|171:227,1,90
72,192,309547,1,0,0:0:0:0:
456,192,309716,2,0,P|405:212|360:208,1,90
72,192,310053,5,0,0:0:0:0:
256,32,310221,1,0,0:0:0:0:
256,360,310390,1,0,0:0:0:0:
456,192,310559,1,0,0:0:0:0:
256,192,310727,12,0,317468,0:0:0:0:
