osu file format v14

[General]
AudioFilename: FOUR SEASONS OF LONELINESS.mp3
AudioLeadIn: 0
PreviewTime: 63732
Countdown: 1
SampleSet: None
StackLeniency: 0.7
Mode: 0
LetterboxInBreaks: 0
WidescreenStoryboard: 0

[Editor]
DistanceSpacing: 0.5
BeatDivisor: 4
GridSize: 8
TimelineZoom: 1.7

[Metadata]
Title:FOUR SEASONS OF LONELINESS
TitleUnicode:FOUR SEASONS OF LONELINESS
Artist:Tatsh feat. Sariyajin
ArtistUnicode:Tatsh feat. Sariyajin
Creator:Cuenquero
Version:Cuenquextra!
Source:Touhou
Tags:Emotional Skyscraper FAR EAST OF EAST II
BeatmapID:1469232
BeatmapSetID:694460

[Difficulty]
HPDrainRate:7
CircleSize:5
OverallDifficulty:8
ApproachRate:9
SliderMultiplier:1.6
SliderTickRate:1

[Events]
//Background and Video events
0,0,"maxresdefault.jpg",0,0
//Break Periods
2,108679,129790
//Storyboard Layer 0 (Background)
//Storyboard Layer 1 (Fail)
//Storyboard Layer 2 (Pass)
//Storyboard Layer 3 (Foreground)
//Storyboard Sound Samples

[TimingPoints]
615,337.078651685393,4,2,0,90,1,0
1120,-133.333333333333,4,2,0,70,0,0
3311,-100,4,2,0,90,0,0
3817,-133.333333333333,4,2,0,70,0,0
6008,-100,4,2,0,90,0,0
6513,-133.333333333333,4,2,0,70,0,0
8704,-100,4,2,0,90,0,0
54547,-66.6666666666667,4,2,0,90,0,0
63985,-66.6666666666667,4,2,0,90,0,1
67862,-133.333333333333,4,2,0,90,0,1
69379,-100,4,2,0,90,0,1
78648,-133.333333333333,4,2,0,90,0,1
79828,-100,4,2,0,90,0,1
85390,-100,4,2,0,90,0,0
99041,-133.333333333333,4,2,0,90,0,0
103423,-100,4,2,0,90,0,0
108143,-100,4,2,0,60,0,0
133761,-133.333333333333,4,2,0,90,0,0
153985,-100,4,2,0,60,0,0
160221,-100,4,2,0,30,0,0
161064,-66.6666666666667,4,2,0,90,0,0
163592,-76.9230769230769,4,2,0,90,0,0

[Colours]
Combo1 : 240,128,131
Combo2 : 111,140,210

[HitObjects]
72,88,615,6,0,P|144:72|256:96,1,160
416,168,1120,2,0,P|336:224|312:248,1,120.000004577637
208,312,1626,1,0,0:0:0:0:
208,312,1794,1,0,0:0:0:0:
200,176,1963,2,0,P|160:152|128:136,2,60.0000022888184
316,248,2468,2,0,L|256:248,1,60.0000022888184
184,344,2806,2,0,L|264:344,1,60.0000022888184
400,320,3143,1,0,0:0:0:0:
392,168,3311,6,0,P|320:128|224:136,1,160
80,208,3817,2,0,L|144:208,1,60.0000022888184
224,256,4154,2,0,P|192:288|160:296,2,60.0000022888184
384,224,4659,1,0,0:0:0:0:
432,128,4828,2,0,L|352:128,1,60.0000022888184
248,56,5165,2,0,L|320:56,1,60.0000022888184
432,200,5502,1,0,0:0:0:0:
360,272,5671,2,0,L|288:272,1,60.0000022888184
88,240,6008,6,0,P|136:184|224:160,1,160
352,136,6513,2,0,L|392:72,1,60.0000022888184
464,176,6850,1,0,0:0:0:0:
356,264,7019,2,0,L|416:264,2,60.0000022888184
272,272,7525,1,0,0:0:0:0:
184,304,7693,1,0,0:0:0:0:
104,240,7862,1,0,0:0:0:0:
104,240,8030,2,0,P|152:216|184:208,2,60.0000022888184
32,184,8536,1,0,0:0:0:0:
168,72,8704,6,0,P|224:96|280:184,1,160
376,208,9210,1,0,0:0:0:0:
448,288,9379,2,0,P|400:320|344:320,2,80
480,192,9884,1,0,0:0:0:0:
448,72,10053,1,0,0:0:0:0:
409,61,10137,1,0,0:0:0:0:
370,65,10221,1,0,0:0:0:0:
335,84,10305,1,0,0:0:0:0:
309,114,10390,1,0,0:0:0:0:
296,152,10474,1,0,0:0:0:0:
298,191,10558,1,0,0:0:0:0:
272,248,10643,6,0,L|256:296,1,40
160,328,10811,2,0,L|96:304,1,40
80,224,10980,2,0,L|104:176,1,40
192,136,11148,2,0,L|248:160,1,40
248,32,11401,5,0,0:0:0:0:
416,64,11570,1,0,0:0:0:0:
368,184,11738,2,0,P|320:232|304:264,1,80
192,296,12075,1,0,0:0:0:0:
368,336,12244,1,0,0:0:0:0:
456,240,12412,1,0,0:0:0:0:
360,112,12581,2,0,P|296:144|280:176,1,80
328,264,12918,2,0,P|288:296|232:296,2,80
448,144,13423,1,0,0:0:0:0:
224,192,13592,1,0,0:0:0:0:
56,56,13761,1,0,0:0:0:0:
136,128,13929,1,0,0:0:0:0:
280,304,14098,6,0,L|392:288,1,80
432,216,14435,1,0,0:0:0:0:
344,184,14603,1,0,0:0:0:0:
272,264,14772,2,0,P|224:288|184:280,1,80
80,216,15109,2,0,L|160:152,1,80
296,112,15446,1,0,0:0:0:0:
416,192,15614,1,0,0:0:0:0:
312,288,15783,2,0,P|248:264|208:264,1,80
80,288,16120,1,0,0:0:0:0:
104,144,16289,6,0,P|160:112|200:112,1,80
248,184,16626,2,0,P|288:240|320:248,2,80
224,56,17131,1,0,0:0:0:0:
392,152,17300,1,0,0:0:0:0:
304,272,17468,2,0,P|264:304|240:336,1,80
128,304,17806,2,0,P|88:248|88:208,1,80
72,112,18143,1,0,0:0:0:0:
256,184,18311,1,0,0:0:0:0:
376,80,18480,2,0,P|416:128|416:176,1,80
352,280,18817,5,0,0:0:0:0:
192,184,18985,2,0,P|152:232|144:280,2,80
272,104,19491,1,0,0:0:0:0:
400,168,19659,1,0,0:0:0:0:
416,312,19828,1,0,0:0:0:0:
288,272,19997,2,0,P|208:264|176:272,1,80
96,272,20334,2,0,P|64:224|72:176,1,80
144,72,20671,5,0,0:0:0:0:
320,208,20839,1,0,0:0:0:0:
152,288,21008,1,0,0:0:0:0:
360,56,21176,1,0,0:0:0:0:
208,144,21345,1,0,0:0:0:0:
320,232,21513,1,0,0:0:0:0:
432,312,21682,1,0,0:0:0:0:
432,312,21850,1,0,0:0:0:0:
104,240,22188,6,0,P|128:208|184:176,1,80
232,80,22525,1,0,0:0:0:0:
408,168,22693,1,0,0:0:0:0:
272,200,22862,1,0,0:0:0:0:
368,32,23030,1,0,0:0:0:0:
456,248,23199,2,0,P|416:288|296:320,1,160
112,264,23704,1,0,0:0:0:0:
232,168,23873,2,0,P|280:144|320:144,2,80
96,104,24379,1,0,0:0:0:0:
256,304,24547,1,0,0:0:0:0:
432,160,24716,6,0,L|376:80,1,80
272,64,25053,2,0,L|176:64,2,80
360,216,25558,1,0,0:0:0:0:
144,192,25727,1,0,0:0:0:0:
248,288,25895,1,0,0:0:0:0:
272,136,26064,2,0,L|344:80,2,80
168,224,26570,1,0,0:0:0:0:
400,216,26738,2,0,P|416:160|360:56,1,160
377,69,27159,1,0,0:0:0:0:
377,69,27244,1,0,0:0:0:0:
168,96,27412,6,0,L|88:96,1,80
80,192,27749,2,0,L|152:224,2,40
48,96,28086,1,0,0:0:0:0:
192,48,28255,1,0,0:0:0:0:
248,176,28423,1,0,0:0:0:0:
160,288,28592,2,0,L|88:336,2,80
352,296,29098,1,0,0:0:0:0:
440,144,29266,1,0,0:0:0:0:
248,72,29435,2,0,P|176:88|152:112,1,80
80,184,29772,2,0,L|96:296,1,80
232,320,30109,5,0,0:0:0:0:
440,224,30277,2,0,P|376:192|264:200,1,160
128,80,30783,1,0,0:0:0:0:
304,272,30952,1,0,0:0:0:0:
400,152,31120,2,0,P|368:120|320:112,1,80
160,168,31457,2,0,L|96:224,2,80
160,168,31963,1,0,0:0:0:0:
320,64,32131,2,0,P|360:96|376:224,1,160
304,288,32637,2,0,L|208:328,2,80
432,280,33143,5,0,0:0:0:0:
416,136,33311,1,0,0:0:0:0:
256,208,33480,1,0,0:0:0:0:
88,176,33648,2,0,P|112:112|136:88,2,80
112,328,34154,1,0,0:0:0:0:
288,312,34322,2,0,L|360:256,2,80
128,248,34828,2,0,P|168:192|248:144,1,160
376,208,35334,6,0,L|448:256,2,80
192,72,35839,1,0,0:0:0:0:
296,288,36008,1,0,0:0:0:0:
136,320,36176,2,0,P|88:264|88:160,1,160
360,112,36682,2,0,P|408:192|416:280,1,160
296,328,37188,2,0,P|216:304|200:296,1,80
104,176,37525,2,0,P|200:128|224:184,1,160
217,148,37946,1,0,0:0:0:0:
217,148,38030,1,0,0:0:0:0:
395,289,38199,6,0,P|355:281|320:264,1,80
144,248,38536,1,0,0:0:0:0:
312,112,38704,1,0,0:0:0:0:
312,112,38789,1,0,0:0:0:0:
312,112,38873,2,0,P|352:168|352:216,1,80
248,304,39210,2,0,L|160:304,1,80
168,304,39547,1,0,0:0:0:0:
72,128,39716,2,0,P|128:96|176:88,2,80
152,240,40221,2,0,L|328:240,1,160
464,112,40727,2,0,P|408:80|296:72,1,160
112,80,41232,5,0,0:0:0:0:
296,184,41401,1,0,0:0:0:0:
120,240,41570,1,0,0:0:0:0:
256,288,41738,2,0,P|304:312|344:320,2,80
232,272,42159,1,0,0:0:0:0:
208,240,42243,1,0,0:0:0:0:
203,201,42327,1,0,0:0:0:0:
219,165,42411,1,0,0:0:0:0:
456,144,42749,5,0,0:0:0:0:
128,64,42918,1,0,0:0:0:0:
328,128,43255,1,0,0:0:0:0:
128,296,43592,1,0,0:0:0:0:
128,296,43676,1,0,0:0:0:0:
128,296,43761,2,0,P|96:248|88:192,1,80
152,104,44098,2,0,L|248:112,2,80
48,232,44603,1,0,0:0:0:0:
320,160,44772,1,0,0:0:0:0:
248,320,44940,1,0,0:0:0:0:
184,168,45109,6,0,L|104:136,2,80
328,80,45614,1,0,0:0:0:0:
424,200,45783,2,0,P|440:256|432:296,1,80
336,336,46120,1,0,0:0:0:0:
176,256,46289,1,0,0:0:0:0:
16,352,46457,1,0,0:0:0:0:
40,152,46626,2,0,P|96:112|144:112,1,80
320,216,46963,1,0,0:0:0:0:
256,72,47131,2,0,P|216:96|184:136,2,80
456,88,47637,5,0,0:0:0:0:
144,312,47974,2,0,P|120:256|112:216,1,80
176,48,48311,2,0,L|264:104,1,80
416,192,48648,1,0,0:0:0:0:
409,230,48732,1,0,0:0:0:0:
383,260,48816,1,0,0:0:0:0:
345,270,48900,1,0,0:0:0:0:
307,257,48985,1,0,0:0:0:0:
272,232,49069,1,0,0:0:0:0:
232,208,49153,1,0,0:0:0:0:
264,56,49491,6,0,P|304:88|320:128,2,80
112,96,49997,1,0,0:0:0:0:
208,200,50165,1,0,0:0:0:0:
360,232,50334,2,0,P|336:288|224:304,1,160
80,176,50839,1,0,0:0:0:0:
136,312,51008,1,0,0:0:0:0:
240,240,51176,2,0,P|296:200|328:192,1,80
448,128,51513,2,0,P|416:96|376:80,2,80
376,240,52019,1,0,0:0:0:0:
272,320,52188,6,0,L|192:304,1,80
272,176,52525,1,0,0:0:0:0:
133,110,52693,2,0,L|64:72,2,80
288,112,53199,2,0,P|368:128|408:208,1,160
160,96,53704,2,0,P|112:183|212:183,1,240
432,208,54547,6,0,P|360:256|304:264,1,120.000004577637
240,160,54884,2,0,P|168:208|136:256,1,120.000004577637
368,312,55221,2,0,P|389:257|368:192,1,120.000004577637
128,192,55558,2,0,P|96:120|120:48,1,120.000004577637
288,80,55895,1,0,0:0:0:0:
408,136,56064,1,0,0:0:0:0:
368,280,56232,1,0,0:0:0:0:
224,216,56401,1,0,0:0:0:0:
96,312,56570,1,0,0:0:0:0:
96,152,56738,6,0,L|160:120,2,60.0000022888184
296,208,57075,2,0,L|336:264,2,60.0000022888184
88,248,57412,2,0,P|136:296|192:304,1,120.000004577637
328,304,57749,1,0,0:0:0:0:
248,144,57918,1,0,0:0:0:0:
440,224,58086,1,0,0:0:0:0:
352,32,58255,1,0,0:0:0:0:
168,96,58423,1,0,0:0:0:0:
168,96,58508,1,0,0:0:0:0:
168,96,58592,1,0,0:0:0:0:
136,240,58761,6,0,P|208:264|376:216,1,240.000009155274
432,64,59266,2,0,P|336:56|296:80,1,120.000004577637
264,88,59519,1,0,0:0:0:0:
220,128,59603,1,0,0:0:0:0:
205,185,59687,1,0,0:0:0:0:
222,241,59771,1,0,0:0:0:0:
268,279,59856,1,0,0:0:0:0:
326,287,59940,1,0,0:0:0:0:
440,208,60109,6,0,P|376:176|328:168,1,120.000004577637
208,88,60446,2,0,P|256:32|320:32,2,120.000004577637
208,88,60867,1,0,0:0:0:0:
208,88,60952,1,0,0:0:0:0:
328,168,61120,1,0,0:0:0:0:
328,168,61204,1,0,0:0:0:0:
328,168,61289,1,0,0:0:0:0:
80,96,61794,1,0,0:0:0:0:
336,320,62131,1,0,0:0:0:0:
256,192,62553,12,0,63817,0:0:0:0:
112,64,63985,6,0,P|176:96|248:88,1,120.000004577637
400,160,64322,1,0,0:0:0:0:
256,240,64491,1,0,0:0:0:0:
272,104,64659,1,0,0:0:0:0:
136,160,64828,2,0,P|96:232|96:280,1,120.000004577637
344,320,65165,2,0,P|408:280|336:136,1,240.000009155274
256,184,65671,1,0,0:0:0:0:
176,256,65839,1,0,0:0:0:0:
80,176,66008,2,0,P|120:128|176:112,2,120.000004577637
208,304,66513,5,0,0:0:0:0:
400,184,66682,1,0,0:0:0:0:
232,152,66850,1,0,0:0:0:0:
360,48,67019,2,0,P|408:96|408:144,1,120.000004577637
312,176,67356,2,0,P|320:256|384:288,2,120.000004577637
224,80,67862,2,0,P|184:128|280:336,1,300.000011444092
432,320,68873,1,0,0:0:0:0:
368,152,69041,1,0,0:0:0:0:
160,80,69379,5,0,0:0:0:0:
56,160,69547,2,0,P|96:216|104:264,1,80
40,304,69884,1,0,0:0:0:0:
200,200,70053,1,0,0:0:0:0:
168,312,70221,1,0,0:0:0:0:
72,176,70390,2,0,L|32:64,2,80
144,248,70895,1,0,0:0:0:0:
240,176,71064,2,0,P|328:184|344:192,2,80
104,88,71570,1,0,0:0:0:0:
336,88,71738,6,0,L|384:160,1,80
304,272,72075,2,0,L|240:224,1,80
96,248,72412,1,0,0:0:0:0:
64,128,72581,1,0,0:0:0:0:
176,88,72749,1,0,0:0:0:0:
208,216,72918,1,0,0:0:0:0:
288,280,73086,1,0,0:0:0:0:
376,224,73255,2,0,P|440:176|312:24,1,320
80,168,74098,6,0,P|96:224|112:248,2,80
144,80,74603,1,0,0:0:0:0:
200,144,74772,2,0,P|240:200|352:240,1,160
424,160,75277,1,0,0:0:0:0:
337,334,75446,2,0,L|416:320,2,80
232,208,75952,1,0,0:0:0:0:
88,168,76120,2,0,P|112:128|152:104,1,80
192,40,76457,1,0,0:0:0:0:
272,136,76626,1,0,0:0:0:0:
200,224,76794,2,0,P|232:256|288:256,2,80
96,248,77300,5,0,0:0:0:0:
224,72,77468,1,0,0:0:0:0:
344,264,77637,1,0,0:0:0:0:
112,192,77806,1,0,0:0:0:0:
280,80,77974,1,0,0:0:0:0:
288,280,78143,1,0,0:0:0:0:
184,240,78311,1,0,0:0:0:0:
344,160,78480,1,0,0:0:0:0:
224,160,78648,2,0,P|200:104|368:32,1,300.000011444092
392,216,79828,6,0,L|288:216,1,80
200,96,80165,1,0,0:0:0:0:
200,96,80334,1,0,0:0:0:0:
88,216,80502,1,0,0:0:0:0:
88,216,80671,1,0,0:0:0:0:
208,296,80839,2,0,L|296:304,2,80
152,192,81345,2,0,P|208:144|312:144,1,160
280,264,81850,1,0,0:0:0:0:
408,224,82019,1,0,0:0:0:0:
320,176,82188,1,0,0:0:0:0:
368,312,82356,1,0,0:0:0:0:
192,328,82525,5,0,0:0:0:0:
192,328,82609,1,0,0:0:0:0:
192,328,82693,1,0,0:0:0:0:
192,328,82777,1,0,0:0:0:0:
192,328,82862,2,0,L|128:168,1,160
280,64,83367,2,0,L|432:136,1,160
440,160,83789,1,0,0:0:0:0:
440,199,83873,1,0,0:0:0:0:
424,235,83957,1,0,0:0:0:0:
393,260,84041,1,0,0:0:0:0:
355,270,84126,1,0,0:0:0:0:
316,261,84210,1,0,0:0:0:0:
256,208,84379,5,0,0:0:0:0:
232,176,84463,1,0,0:0:0:0:
197,156,84547,1,0,0:0:0:0:
158,150,84631,1,0,0:0:0:0:
120,160,84716,1,0,0:0:0:0:
88,185,84800,1,0,0:0:0:0:
69,219,84884,1,0,0:0:0:0:
144,296,84968,2,0,L|144:352,1,40
224,216,85137,2,0,L|296:216,1,40
176,128,85306,2,0,L|224:88,1,40
352,80,85558,6,0,P|400:136|360:296,1,240
264,240,86148,1,0,0:0:0:0:
264,240,86232,2,0,P|200:200|184:48,1,240
288,56,86822,1,0,0:0:0:0:
288,56,86907,2,0,P|344:80|368:112,1,80
400,208,87244,2,0,L|288:208,1,80
120,72,87581,1,0,0:0:0:0:
216,256,87749,1,0,0:0:0:0:
64,248,87918,1,0,0:0:0:0:
248,144,88086,2,0,L|336:144,1,80
432,248,88423,6,0,L|352:248,1,80
208,328,88761,2,0,L|296:328,2,80
72,296,89266,1,0,0:0:0:0:
48,160,89435,1,0,0:0:0:0:
192,200,89603,1,0,0:0:0:0:
304,120,89772,1,0,0:0:0:0:
432,200,89940,2,0,P|416:264|304:288,1,160
272,240,90446,1,0,0:0:0:0:
192,176,90614,2,0,P|104:192|96:200,2,80
344,56,91289,5,0,0:0:0:0:
432,208,91457,1,0,0:0:0:0:
304,280,91626,2,0,L|208:280,1,80
104,256,91963,2,0,P|128:200|168:176,1,80
264,184,92300,2,0,L|368:184,2,80
240,88,92806,1,0,0:0:0:0:
136,48,92974,1,0,0:0:0:0:
72,168,93143,2,0,P|96:216|144:232,1,80
224,224,93480,2,0,L|336:224,1,80
304,128,93817,1,0,0:0:0:0:
376,64,93985,1,0,0:0:0:0:
456,144,94154,1,0,0:0:0:0:
440,232,94322,1,0,0:0:0:0:
336,248,94491,1,0,0:0:0:0:
232,200,94659,1,0,0:0:0:0:
256,192,94828,12,0,96345,0:0:0:0:
104,184,96513,5,0,0:0:0:0:
136,160,96598,1,0,0:0:0:0:
168,136,96682,1,0,0:0:0:0:
344,112,97019,5,0,0:0:0:0:
380,127,97103,1,0,0:0:0:0:
399,161,97187,1,0,0:0:0:0:
392,200,97271,1,0,0:0:0:0:
364,226,97356,1,0,0:0:0:0:
320,232,97440,1,0,0:0:0:0:
280,236,97524,1,0,0:0:0:0:
252,263,97608,1,0,0:0:0:0:
245,302,97692,1,0,0:0:0:0:
104,280,97862,6,0,P|144:232|184:208,1,80
96,120,98199,1,0,0:0:0:0:
320,248,98367,1,0,0:0:0:0:
280,96,98536,1,0,0:0:0:0:
152,224,98704,2,0,P|176:272|208:296,1,80
352,232,99041,2,0,P|304:184|296:176,1,60.0000022888184
192,160,99379,2,0,P|232:104|288:80,1,120.000004577637
432,184,100053,5,0,0:0:0:0:
407,215,100137,1,0,0:0:0:0:
383,247,100221,1,0,0:0:0:0:
359,279,100305,1,0,0:0:0:0:
334,311,100390,1,0,0:0:0:0:
192,288,100727,5,0,0:0:0:0:
80,120,100895,1,0,0:0:0:0:
296,80,101232,1,0,0:0:0:0:
416,168,101401,1,0,0:0:0:0:
296,256,101570,1,0,0:0:0:0:
168,160,101907,1,0,0:0:0:0:
139,165,101991,1,0,0:0:0:0:
144,128,102075,1,0,0:0:0:0:
160,312,102244,5,0,0:0:0:0:
288,256,102412,1,0,0:0:0:0:
256,152,102581,2,0,P|304:120|328:112,1,60.0000022888184
384,176,102918,2,0,P|368:232|288:256,1,120.000004577637
216,96,103423,2,0,P|168:144|160:256,1,160
312,272,104098,1,0,0:0:0:0:
424,184,104266,2,0,L|360:144,1,40
352,144,104435,2,0,P|288:128|192:176,1,160
144,264,104940,1,0,0:0:0:0:
56,176,105109,2,0,P|96:128|192:88,1,160
328,208,105614,5,0,0:0:0:0:
192,272,105783,1,0,0:0:0:0:
232,96,106120,1,0,0:0:0:0:
376,128,106289,2,0,L|424:304,1,160
416,320,106710,1,0,0:0:0:0:
392,344,106794,2,0,P|344:368|168:280,1,240
181,306,107468,1,0,0:0:0:0:
112,192,107806,1,0,0:0:0:0:
112,144,107890,1,0,0:0:0:0:
136,104,107974,1,0,0:0:0:0:
176,72,108058,6,0,L|208:32,1,40
264,128,108227,2,0,L|296:96,1,40
344,200,108395,2,0,L|384:176,1,40
96,80,130390,6,0,L|176:80,1,80
336,184,130727,1,0,0:0:0:0:
336,184,130895,1,0,0:0:0:0:
176,176,131064,2,0,P|144:216|136:272,2,80
288,96,131570,2,0,L|368:96,2,80
144,88,132075,1,0,0:0:0:0:
208,200,132244,2,0,L|264:280,1,80
384,256,132581,1,0,0:0:0:0:
304,120,132749,2,0,L|248:32,2,80
440,224,133255,2,0,P|344:272|272:240,1,160
240,160,133761,6,0,P|184:128|104:136,1,120.000004577637
48,224,134266,1,0,0:0:0:0:
192,288,134435,1,0,0:0:0:0:
192,136,134603,1,0,0:0:0:0:
320,72,134772,2,0,P|376:96|392:112,1,60.0000022888184
374,94,135025,1,0,0:0:0:0:
374,94,135109,1,0,0:0:0:0:
408,208,135277,1,0,0:0:0:0:
320,280,135446,2,0,L|240:280,2,60.0000022888184
408,152,135952,6,0,P|352:128|280:128,1,120.000004577637
152,192,136457,2,0,P|160:240|232:224,1,120.000004577637
232,104,136963,1,0,0:0:0:0:
376,192,137131,1,0,0:0:0:0:
173,315,137300,2,0,P|213:271|272:264,1,120.000004577637
328,328,137806,2,0,P|368:328|400:304,1,60.0000022888184
400,192,138143,1,0,0:0:0:0:
240,64,138311,1,0,0:0:0:0:
256,224,138480,1,0,0:0:0:0:
392,160,138648,1,0,0:0:0:0:
208,72,138817,1,0,0:0:0:0:
272,200,138985,1,0,0:0:0:0:
168,176,139154,5,0,0:0:0:0:
152,201,139238,1,0,0:0:0:0:
144,230,139322,1,0,0:0:0:0:
144,260,139406,1,0,0:0:0:0:
152,289,139491,1,0,0:0:0:0:
416,296,139828,1,0,0:0:0:0:
296,136,139997,1,0,0:0:0:0:
272,256,140165,1,0,0:0:0:0:
272,256,140249,1,0,0:0:0:0:
272,256,140334,2,0,P|224:224|112:264,1,180.000006866455
40,176,141008,5,0,0:0:0:0:
104,96,141176,2,0,L|176:96,1,60.0000022888184
320,128,141513,2,0,P|344:168|352:200,2,60.0000022888184
208,80,142019,2,0,P|176:136|184:208,1,120.000004577637
264,256,142525,2,0,L|304:192,1,60.0000022888184
424,128,142862,5,0,0:0:0:0:
352,24,143030,1,0,0:0:0:0:
296,128,143199,1,0,0:0:0:0:
368,224,143367,1,0,0:0:0:0:
280,304,143536,2,0,P|216:328|160:312,1,120.000004577637
88,240,144041,1,0,0:0:0:0:
80,120,144210,1,0,0:0:0:0:
192,192,144379,1,0,0:0:0:0:
296,112,144547,1,0,0:0:0:0:
424,176,144716,6,0,P|408:248|352:280,1,120.000004577637
248,184,145221,1,0,0:0:0:0:
88,208,145390,2,0,P|104:264|160:312,1,120.000004577637
184,288,145811,1,0,0:0:0:0:
200,248,145895,1,0,0:0:0:0:
240,224,145980,1,0,0:0:0:0:
256,184,146064,1,0,0:0:0:0:
296,160,146148,1,0,0:0:0:0:
304,120,146232,1,0,0:0:0:0:
40,160,146570,6,0,P|56:200|72:232,2,60.0000022888184
96,48,147075,1,0,0:0:0:0:
288,144,147244,1,0,0:0:0:0:
96,216,147412,1,0,0:0:0:0:
184,128,147581,2,0,P|232:96|256:88,1,60.0000022888184
304,48,147918,1,0,0:0:0:0:
360,104,148086,1,0,0:0:0:0:
272,184,148255,1,0,0:0:0:0:
408,240,148423,2,0,B|352:288|360:280,1,60.0000022888184
256,272,148761,2,0,L|200:240,1,60.0000022888184
128,136,149098,6,0,P|168:120|192:120,2,60.0000022888184
376,96,149603,1,0,0:0:0:0:
446,254,149772,2,0,P|419:265|400:288,2,60.0000022888184
280,336,150277,1,0,0:0:0:0:
112,224,150446,1,0,0:0:0:0:
312,152,150614,1,0,0:0:0:0:
208,64,150783,2,0,P|176:88|160:120,1,60.0000022888184
216,240,151120,5,0,0:0:0:0:
240,208,151204,1,0,0:0:0:0:
280,208,151289,1,0,0:0:0:0:
304,176,151373,1,0,0:0:0:0:
336,160,151457,1,0,0:0:0:0:
352,128,151541,1,0,0:0:0:0:
384,112,151626,1,0,0:0:0:0:
248,64,151794,2,0,P|192:80|176:96,1,60.0000022888184
192,264,152131,2,0,P|224:280|256:288,1,60.0000022888184
448,144,152468,2,0,P|408:128|368:128,1,60.0000022888184
240,64,152806,5,0,0:0:0:0:
352,248,152974,1,0,0:0:0:0:
184,208,153143,1,0,0:0:0:0:
424,104,153311,1,0,0:0:0:0:
320,272,153480,2,0,L|280:304,2,30.0000011444092
312,168,153817,1,0,0:0:0:0:
312,168,153901,1,0,0:0:0:0:
312,168,153985,2,0,P|288:128|248:96,1,80
64,208,154322,5,0,0:0:0:0:
176,48,154491,1,0,0:0:0:0:
304,216,154659,1,0,0:0:0:0:
64,176,154828,1,0,0:0:0:0:
208,32,154997,1,0,0:0:0:0:
272,240,155165,1,0,0:0:0:0:
72,152,155334,1,0,0:0:0:0:
288,112,155502,2,0,L|336:112,2,40
128,88,155839,1,0,0:0:0:0:
192,240,156176,1,0,0:0:0:0:
128,312,156344,1,0,0:0:0:0:
328,304,156513,5,0,0:0:0:0:
366,295,156597,1,0,0:0:0:0:
399,272,156681,1,0,0:0:0:0:
421,239,156765,1,0,0:0:0:0:
428,200,156850,1,0,0:0:0:0:
421,161,156934,1,0,0:0:0:0:
399,127,157018,1,0,0:0:0:0:
184,64,157188,2,0,P|128:112|120:144,1,80
247,317,157525,2,0,P|230:281|200:256,1,80
88,192,157862,6,0,L|152:160,2,40
336,48,158367,1,0,0:0:0:0:
400,264,158873,1,0,0:0:0:0:
112,176,159210,1,0,0:0:0:0:
336,16,159547,1,0,0:0:0:0:
384,256,159884,5,0,0:0:0:0:
384,256,160053,1,0,0:0:0:0:
320,160,160221,2,0,P|264:152|232:160,1,80
216,176,160474,1,0,0:0:0:0:
190,206,160558,1,0,0:0:0:0:
181,244,160642,1,0,0:0:0:0:
190,283,160726,1,0,0:0:0:0:
216,313,160811,1,0,0:0:0:0:
252,329,160895,1,0,0:0:0:0:
432,72,161064,6,0,L|312:72,1,120.000004577637
88,104,161401,1,0,0:0:0:0:
264,216,161570,1,0,0:0:0:0:
80,256,161738,1,0,0:0:0:0:
232,112,161907,2,0,L|352:64,1,120.000004577637
424,208,162244,2,0,L|416:336,1,120.000004577637
280,312,162581,1,0,0:0:0:0:
160,200,162749,1,0,0:0:0:0:
288,192,162918,1,0,0:0:0:0:
168,328,163086,2,0,L|56:264,2,120.000004577637
312,256,163592,6,0,P|360:224|408:216,1,103.999995239258
448,120,163929,2,0,L|336:120,1,103.999995239258
224,56,164266,2,0,P|192:120|208:176,1,103.999995239258
296,136,164603,1,0,0:0:0:0:
424,232,164772,1,0,0:0:0:0:
304,336,164940,1,0,0:0:0:0:
