osu file format v14

[General]
AudioFilename: audio.mp3
AudioLeadIn: 0
PreviewTime: 63774
Countdown: 0
SampleSet: Soft
StackLeniency: 0.6
Mode: 0
LetterboxInBreaks: 0
WidescreenStoryboard: 0

[Editor]
Bookmarks: 10010,130010
DistanceSpacing: 0.6
BeatDivisor: 4
GridSize: 32
TimelineZoom: 2

[Metadata]
Title:FOUR SEASONS OF LONELINESS
TitleUnicode:FOUR SEASONS OF LONELINESS
Artist:Tatsh feat. Sariyajin
ArtistUnicode:Tatsh feat. Sariyajin
Creator:Bellicose
Version:Promise
Source:東方星蓮船 ~ Undefined Fantastic Object.
Tags:th12 Seirensen 東方Project 感情の摩天楼 Kanshou no Matenrou Hijiri Byakuren 聖 白蓮 touhou 清水達也 Tatsuya Shimizu Emotional Skyscraper Cosmic Mind FAR EAST OF EAST II japanese rock pop
BeatmapID:2730358
BeatmapSetID:1317849

[Difficulty]
HPDrainRate:6
CircleSize:4.2
OverallDifficulty:9
ApproachRate:9.2
SliderMultiplier:1.8
SliderTickRate:1

[Events]
//Background and Video events
0,0,"bg2.jpg",0,0
//Break Periods
//Storyboard Layer 0 (Background)
//Storyboard Layer 1 (Fail)
//Storyboard Layer 2 (Pass)
//Storyboard Layer 3 (Foreground)
//Storyboard Layer 4 (Overlay)
//Storyboard Sound Samples

[TimingPoints]
572,337.078651685393,4,2,1,50,1,0
10010,-100,4,2,1,55,0,0
11358,-100,4,2,1,60,0,0
21639,-83.3333333333333,4,2,1,70,0,0
22145,-111.111111111111,4,2,1,50,0,0
41021,-111.111111111111,4,2,1,60,0,0
42369,-100,4,2,1,60,0,0
42706,-166.666666666666,4,2,1,60,0,0
43212,-83.3333333333333,4,2,1,60,0,0
43718,-105.263157894737,4,2,1,55,0,0
47594,-100,4,2,1,55,0,0
48268,-90.9090909090909,4,2,1,55,0,0
49111,-105.263157894737,4,2,1,55,0,0
54504,-105.263157894737,4,2,1,60,0,0
57201,-90.9090909090909,4,2,1,65,0,0
61246,-90.9090909090909,4,2,1,65,0,0
61751,-76.9230769230769,4,2,1,70,0,0
62425,-83.3333333333333,4,2,1,70,0,0
62931,-90.9090909090909,4,2,1,65,0,0
63942,-83.3333333333333,4,2,1,75,0,1
73718,-76.9230769230769,4,2,1,75,0,1
74055,-83.3333333333333,4,2,1,75,0,1
85515,-149.253731343284,4,2,1,60,0,0
86189,-120.481927710843,4,2,1,70,0,0
86864,-71.4285714285714,4,2,1,80,0,1
87201,-83.3333333333333,4,2,1,75,0,1
107763,-83.3333333333333,4,2,1,70,0,1
108437,-105.263157894737,4,2,1,65,0,0
108605,-105.263157894737,4,2,1,55,0,0
113830,-105.263157894737,4,2,1,60,0,0
116864,-90.9090909090909,4,2,1,65,0,0
119223,-90.9090909090909,4,2,1,70,0,0
124616,-83.3333333333333,4,2,1,70,0,0
124954,-90.9090909090909,4,2,1,70,0,0
127313,-90.9090909090909,4,2,1,75,0,0
127819,-83.3333333333333,4,2,1,75,0,0
130010,-111.111111111111,4,2,1,50,0,0
138100,-111.111111111111,4,2,1,60,0,0
139448,-100,4,2,1,60,0,0
139954,-142.857142857143,4,2,1,60,0,0
140122,-83.3333333333333,4,2,1,60,0,0
140796,-105.263157894737,4,2,1,55,0,0
144673,-100,4,2,1,55,0,0
145347,-90.9090909090909,4,2,1,55,0,0
146189,-105.263157894737,4,2,1,55,0,0
151583,-105.263157894737,4,2,1,60,0,0
154279,-90.9090909090909,4,2,1,65,0,0
158830,-76.9230769230769,4,2,1,70,0,0
159504,-83.3333333333333,4,2,1,70,0,0
160010,-90.9090909090909,4,2,1,65,0,0
161021,-83.3333333333333,4,2,1,75,0,1
170796,-76.9230769230769,4,2,1,75,0,1
171133,-83.3333333333333,4,2,1,75,0,1
182594,-149.253731343284,4,2,1,60,0,0
183268,-120.481927710843,4,2,1,70,0,0
183942,-71.4285714285714,4,2,1,80,0,1
184279,-83.3333333333333,4,2,1,75,0,1
205515,-90.9090909090909,4,2,1,70,0,0
209560,-83.3333333333333,4,2,1,70,0,0
210909,-90.9090909090909,4,2,1,70,0,0
214616,-83.3333333333333,4,2,1,70,0,0
216302,-90.9090909090909,4,2,1,70,0,0
218998,-83.3333333333333,4,2,1,70,0,0
220347,-76.9230769230769,4,2,1,72,0,0
221021,-71.4285714285714,4,2,1,72,0,0
222032,-71.4285714285714,4,2,1,75,0,0
222706,-83.3333333333333,4,2,1,75,0,0
223043,-71.4285714285714,4,2,1,80,0,0
223380,-83.3333333333333,4,2,1,80,0,0
223718,-76.9230769230769,4,2,1,80,0,0
224392,-66.6666666666667,4,2,1,85,0,0
225403,-76.9230769230769,4,2,1,85,0,0
228437,-166.666666666667,4,2,1,30,0,0
248661,-250.000000000001,4,2,1,30,0,0
250010,-83.3333333333333,4,2,1,75,0,1
259785,-76.9230769230769,4,2,1,75,0,1
260122,-83.3333333333333,4,2,1,75,0,1
271583,-149.253731343284,4,2,1,60,0,0
272257,-120.481927710843,4,2,1,70,0,0
272931,-71.4285714285714,4,2,1,80,0,1
273268,-83.3333333333333,4,2,1,75,0,1
292819,-166.666666666667,4,2,1,75,0,0
295094,-166.666666666667,4,2,1,5,0,0
295178,-83.3333333333333,4,2,1,65,0,0
295852,-83.3333333333333,4,2,1,75,0,1
300909,-76.9230769230769,4,2,1,75,0,1
301077,-71.4285714285714,4,2,1,75,0,1
301246,-66.6666666666667,4,2,1,75,0,0
301751,-83.3333333333333,4,2,1,75,0,0
302257,-83.3333333333333,4,2,1,75,0,0
306639,-83.3333333333333,4,2,1,75,0,1
312032,-83.3333333333333,4,2,1,75,0,0
317425,-90.9090909090909,4,2,2,70,0,0
317468,-90.9090909090909,4,2,1,70,0,0
320122,-90.9090909090909,4,2,1,60,0,0
321302,-90.9090909090909,4,2,1,50,0,0
322819,-100,4,2,1,40,0,0
324167,-100,4,2,1,35,0,0
325515,-111.111111111111,4,2,1,30,0,0
325852,-125,4,2,1,30,0,0
326189,-142.857142857143,4,2,1,30,0,0
326695,-111.111111111111,4,2,1,25,0,0
328296,-111.111111111111,4,2,1,5,0,0

[Colours]
Combo1 : 140,149,251
Combo2 : 254,192,224
Combo3 : 202,186,250
Combo4 : 252,146,146

[HitObjects]
256,192,572,5,4,1:0:0:0:
256,192,656,12,0,3100,0:0:0:0:
256,192,3268,5,4,1:2:0:0:
256,192,3352,12,0,5459,1:0:0:0:
121,44,5628,5,8,0:0:0:0:
256,192,5965,5,4,1:0:0:0:
256,192,6049,12,0,8493,0:0:0:0:
256,192,8661,5,4,1:2:0:0:
256,192,8746,12,0,9841,0:0:0:0:
404,22,10010,6,0,L|389:86,1,45,4|0,1:2|1:0,0:0:0:0:
467,214,10178,1,8,0:0:0:0:
475,178,10263,1,8,0:0:0:0:
484,143,10347,2,0,L|499:79,1,45,8|8,0:3|0:3,0:0:0:0:
306,152,10515,2,0,L|349:163,1,45,4|4,0:3|0:3,0:0:0:0:
459,346,10684,5,8,1:2:0:0:
440,304,10768,1,8,0:0:0:0:
402,279,10852,1,8,0:0:0:0:
354,278,10937,1,8,0:0:0:0:
316,302,11021,1,8,1:2:0:0:
202,384,11189,1,8,0:3:0:0:
202,384,11274,1,8,0:3:0:0:
202,384,11358,5,4,1:2:0:0:
185,258,11527,1,0,1:0:0:0:
327,126,11695,5,10,0:0:0:0:
310,0,11864,2,0,L|203:21,1,90,2|0,0:0|1:0,0:0:0:0:
51,162,12201,5,2,0:0:0:0:
206,119,12369,1,10,0:0:0:0:
345,239,12538,2,0,P|446:254|482:176,1,180,2|0,1:2|1:0,0:0:0:0:
310,352,13043,2,0,L|118:320,1,180,8|0,0:0|1:0,0:0:0:0:
304,242,13549,1,0,1:0:0:0:
211,136,13718,1,8,0:0:0:0:
39,216,13886,1,0,1:0:0:0:
14,131,14055,6,0,L|27:42,1,90,6|0,1:2|1:0,0:0:0:0:
153,199,14392,1,10,0:0:0:0:
309,80,14560,2,0,P|356:76|401:124,1,90,2|0,0:0|1:0,0:0:0:0:
512,257,14897,5,2,0:0:0:0:
356,376,15066,1,10,0:0:0:0:
190,269,15234,2,0,L|386:301,1,180,2|0,1:2|1:0,0:0:0:0:
494,99,15740,2,0,B|465:132|465:132|479:192,1,90,8|2,0:0|1:2,0:0:0:0:
316,180,16077,5,0,1:0:0:0:
341,44,16246,1,0,1:0:0:0:
206,17,16414,1,8,0:0:0:0:
180,153,16583,1,0,1:0:0:0:
260,97,16751,5,4,1:0:0:0:
345,215,16920,1,0,1:0:0:0:
183,373,17088,1,10,0:0:0:0:
98,255,17257,2,0,L|207:274,1,90,2|0,0:0|1:0,0:0:0:0:
426,373,17594,5,2,0:0:0:0:
443,209,17763,1,10,0:0:0:0:
460,45,17931,2,0,P|394:104|298:77,1,180,2|0,1:2|1:0,0:0:0:0:
130,3,18437,1,10,0:0:0:0:
24,79,18605,2,0,L|46:262,1,180,2|0,1:2|1:0,0:0:0:0:
185,384,19111,2,0,P|209:334|194:290,1,90,8|0,0:0|1:0,0:0:0:0:
378,182,19448,6,0,L|361:276,1,90,6|0,1:2|1:0,0:0:0:0:
218,127,19785,1,10,0:0:0:0:
45,257,19954,1,2,0:0:0:0:
181,218,20122,1,0,1:0:0:0:
141,67,20291,1,2,0:0:0:0:
5,106,20459,1,10,0:0:0:0:
181,218,20628,6,2,B|246:199|246:199|258:161|258:161|344:133,1,180,2|0,1:2|1:0,0:1:0:0:
478,341,21133,2,0,L|372:320,1,90,8|0,0:0|1:0,0:0:0:0:
257,378,21470,1,0,1:0:0:0:
317,191,21639,6,0,L|331:109,1,53.9999983520508,8|0,0:0|0:0,0:0:0:0:
170,9,21807,2,0,P|108:14|91:132,1,161.999995056153,8|0,0:0|0:0,0:0:0:0:
109,166,22145,6,0,L|205:146,1,80.9999975280763,4|0,1:2|1:0,0:0:0:0:
287,284,22482,1,10,0:0:0:0:
145,379,22650,1,2,1:2:0:0:
195,265,22819,1,2,0:0:0:0:
195,265,22987,2,0,L|115:281,1,80.9999975280763,2|8,1:2|0:0,0:0:0:0:
8,132,23324,6,0,L|24:52,1,80.9999975280763,2|0,0:0|1:0,0:0:0:0:
177,0,23661,2,0,L|161:80,1,80.9999975280763,2|8,1:2|0:0,0:0:0:0:
309,145,23998,2,0,L|325:65,1,80.9999975280763,2|0,0:0|0:0,0:0:0:0:
481,19,24336,2,0,L|465:99,1,80.9999975280763,2|8,1:2|0:0,0:0:0:0:
449,176,24673,1,2,1:2:0:0:
289,110,24841,6,0,L|305:30,1,80.9999975280763,2|0,1:2|1:0,0:0:0:0:
154,167,25178,1,10,0:0:0:0:
269,252,25347,2,0,B|368:264|301:317|443:322,1,161.999995056153,2|0,1:2|1:0,0:0:0:0:
410,319,25852,2,0,P|436:284|430:233,1,80.9999975280763,8|2,0:0|0:0,0:0:0:0:
263,347,26189,5,2,1:2:0:0:
263,347,26358,1,0,1:0:0:0:
375,185,26527,1,10,0:0:0:0:
295,91,26695,2,0,L|117:115,1,161.999995056153,2|2,1:2|1:2,0:0:0:0:
59,154,27116,1,0,1:0:0:0:
35,169,27201,2,0,B|16:134|16:134|31:87,1,80.9999975280763,8|0,0:0|1:0,0:0:0:0:
223,2,27538,6,0,L|205:116,1,80.9999975280763,4|0,1:0|1:0,0:0:0:0:
317,234,27875,2,0,L|299:348,1,80.9999975280763,10|0,0:0|1:0,0:0:0:0:
204,374,28212,1,2,0:0:0:0:
204,374,28380,2,0,B|167:355|167:355|125:365,1,80.9999975280763,2|8,1:2|0:0,0:0:0:0:
12,200,28718,6,0,L|92:212,1,80.9999975280763,2|0,0:0|1:0,0:0:0:0:
228,128,29055,2,0,L|308:140,1,80.9999975280763,2|8,1:2|0:0,0:0:0:0:
173,334,29392,2,0,L|253:346,1,80.9999975280763,2|0,1:2|0:0,0:0:0:0:
386,263,29729,2,0,L|466:275,1,80.9999975280763,2|8,1:2|0:0,0:0:0:0:
512,213,30066,1,2,0:0:0:0:
368,36,30234,6,0,P|418:69|415:182,1,161.999995056153,2|8,1:2|0:0,0:0:0:0:
268,232,30740,1,2,1:2:0:0:
268,232,30909,2,0,P|218:199|221:86,1,161.999995056153,2|8,1:2|0:0,0:0:0:0:
317,137,31414,1,0,1:0:0:0:
107,218,31583,6,0,L|90:391,1,161.999995056153,2|10,1:2|0:0,0:0:0:0:
282,338,32088,2,0,L|176:318,1,80.9999975280763,2|0,1:2|0:0,0:0:0:0:
0,207,32425,5,6,1:0:0:0:
91,379,32594,1,8,0:0:0:0:
310,256,32763,1,0,1:0:0:0:
256,187,32931,6,0,L|268:95,1,80.9999975280763,4|0,1:2|1:0,0:0:0:0:
428,0,33268,1,10,0:0:0:0:
512,139,33437,1,2,1:2:0:0:
396,77,33605,1,2,0:0:0:0:
396,77,33774,2,0,L|385:157,1,80.9999975280763,2|8,1:2|0:0,0:0:0:0:
457,374,34111,6,0,L|469:286,1,80.9999975280763,2|0,0:0|1:0,0:0:0:0:
307,354,34448,2,0,L|226:364,1,80.9999975280763,2|8,1:2|0:0,0:0:0:0:
57,239,34785,2,0,L|44:327,1,80.9999975280763,2|0,1:2|0:0,0:0:0:0:
206,254,35122,2,0,L|286:243,1,80.9999975280763,2|8,1:2|0:0,0:0:0:0:
355,282,35459,1,0,1:0:0:0:
476,134,35628,6,0,B|498:168|498:168|479:221,1,80.9999975280763,2|0,1:2|1:0,0:0:0:0:
347,104,35965,1,10,0:0:0:0:
238,162,36133,2,0,L|256:-8,1,161.999995056153,2|0,1:2|1:0,0:0:0:0:
255,0,36639,2,0,L|341:17,1,80.9999975280763,8|0,0:0|0:0,0:0:0:0:
135,72,36976,5,2,1:2:0:0:
135,72,37145,1,0,1:0:0:0:
270,190,37313,1,10,0:0:0:0:
212,295,37482,2,0,B|107:299|168:348|29:348,1,161.999995056153,2|2,1:2|1:2,0:0:0:0:
14,276,37903,1,0,1:0:0:0:
0,248,37987,2,0,P|3:204|47:181,1,80.9999975280763,8|0,0:0|1:0,0:0:0:0:
175,198,38324,6,0,L|188:97,1,80.9999975280763,4|0,1:0|1:0,0:0:0:0:
322,339,38661,2,0,L|332:258,1,80.9999975280763,10|0,0:0|1:0,0:0:0:0:
436,180,38998,1,2,0:0:0:0:
436,180,39167,2,0,B|474:166|474:166|515:194,1,80.9999975280763,2|8,1:2|0:0,0:0:0:0:
409,60,39504,6,0,L|328:70,1,80.9999975280763,2|0,0:0|1:0,0:0:0:0:
190,0,39841,2,0,L|179:80,1,80.9999975280763,2|8,1:2|0:0,0:0:0:0:
28,212,40178,2,0,L|108:201,1,80.9999975280763,2|0,1:2|0:0,0:0:0:0:
247,272,40515,2,0,L|257:191,1,80.9999975280763,2|8,1:0|0:0,0:0:0:0:
321,150,40852,1,2,0:0:0:0:
479,215,41021,5,14,0:0:0:0:
332,359,41189,1,0,1:0:0:0:
329,224,41358,5,8,0:0:0:0:
482,350,41527,1,2,1:2:0:0:
493,201,41695,5,10,0:0:0:0:
318,373,41864,1,0,1:0:0:0:
111,273,42032,2,0,L|120:208,1,40.4999987640381,8|8,0:3|0:3,0:0:0:0:
237,294,42201,1,8,1:2:0:0:
237,294,42285,1,8,0:0:0:0:
237,294,42369,6,0,P|290:256|268:137,1,180,6|10,1:0|0:0,0:0:0:0:
193,0,42875,6,0,L|178:102,1,80.9999975280763,6|0,1:0|0:0,0:0:0:0:
108,134,43212,6,0,B|162:157|220:112|189:80|247:43|316:68,1,215.999993408203,6|8,1:2|0:0,0:0:0:0:
379,106,43633,1,8,0:0:0:0:
409,85,43718,6,0,L|422:-2,1,85.4999977169037,4|0,1:2|0:0,0:0:0:0:
282,150,44055,1,10,0:0:0:0:
382,268,44223,1,2,0:0:0:0:
509,203,44392,1,2,1:2:0:0:
509,203,44560,2,0,L|422:190,1,85.4999977169037,2|8,0:0|0:0,0:0:0:0:
319,367,44897,6,0,P|270:310|165:330,1,170.999995433807,2|2,1:2|1:2,0:0:0:0:
180,316,45403,2,0,P|221:286|223:229,1,85.4999977169037,8|2,0:0|0:0,0:0:0:0:
328,134,45740,5,0,1:0:0:0:
310,15,45909,1,2,1:2:0:0:
191,31,46077,1,8,0:0:0:0:
209,146,46246,1,0,1:0:0:0:
120,229,46414,6,0,L|3:246,1,85.4999977169037,0|0,1:0|0:0,0:0:0:0:
35,241,46751,2,0,B|93:260|93:260|111:303|111:303|200:329,1,170.999995433807,10|2,0:0|1:2,0:0:0:0:
323,373,47257,1,2,0:0:0:0:
452,291,47425,1,8,0:0:0:0:
307,237,47594,2,0,L|292:88,1,135,6|0,1:0|0:0,0:0:0:0:
339,40,47931,2,0,L|389:29,1,45,2|0,1:2|0:0,0:0:0:0:
469,101,48100,2,0,L|519:90,1,45,8|0,0:0|0:0,0:0:0:0:
391,203,48268,6,0,B|264:210|333:138|186:149,1,198.000006042481,6|4,1:2|0:3,0:0:0:0:
93,0,48774,1,8,0:0:0:0:
113,45,48858,1,8,0:0:0:0:
155,69,48942,1,8,0:0:0:0:
204,66,49027,1,8,0:0:0:0:
242,33,49111,1,4,1:0:0:0:
17,301,49448,6,0,P|3:217|55:151,1,170.999995433807,10|2,0:0|1:2,0:0:0:0:
139,293,49954,2,0,L|159:183,1,85.4999977169037,2|8,0:0|0:0,0:0:0:0:
265,371,50291,2,0,L|295:195,1,170.999995433807,6|2,1:2|1:2,0:0:0:0:
228,74,50796,1,8,0:0:0:0:
401,19,50965,1,2,1:2:0:0:
401,19,51133,1,0,3:0:0:0:
466,147,51302,2,0,L|368:119,1,85.4999977169037,2|8,1:2|0:0,0:0:0:0:
509,266,51639,1,2,1:2:0:0:
389,224,51807,6,0,B|330:309|423:298|361:395,1,170.999995433807,6|8,1:0|0:0,0:0:0:0:
244,306,52313,2,0,P|212:353|100:347,1,170.999995433807,2|0,1:2|1:0,0:0:0:0:
32,297,52819,1,8,0:0:0:0:
112,193,52987,5,2,1:2:0:0:
112,193,53156,2,0,L|131:68,1,85.4999977169037,2|0,1:2|0:0,0:0:0:0:
255,16,53493,1,10,0:0:0:0:
386,121,53661,2,0,P|468:110|479:16,1,170.999995433807,2|8,1:2|0:3,0:0:0:0:
292,121,54167,1,8,0:0:0:0:
296,154,54251,1,8,0:0:0:0:
301,188,54336,2,0,L|306:241,1,42.7499988584519,4|4,0:3|0:3,0:0:0:0:
268,363,54504,5,14,0:1:0:0:
268,363,54673,1,0,1:0:0:0:
65,212,54841,5,10,0:0:0:0:
65,212,55010,1,2,1:2:0:0:
241,26,55178,5,8,0:0:0:0:
241,26,55347,1,2,1:2:0:0:
443,177,55515,5,8,0:0:0:0:
443,177,55684,1,2,1:2:0:0:
172,145,55852,5,8,0:0:0:0:
346,255,56021,1,0,1:0:0:0:
325,128,56189,5,8,0:0:0:0:
193,272,56358,1,0,1:0:0:0:
144,125,56527,5,10,0:0:0:0:
374,275,56695,1,0,1:0:0:0:
374,275,56779,1,0,1:0:0:0:
374,275,56864,1,10,0:0:0:0:
508,65,57032,1,8,0:3:0:0:
451,1,57201,5,14,0:0:0:0:
474,145,57369,1,0,1:0:0:0:
345,196,57538,5,8,0:0:0:0:
322,52,57706,1,2,1:2:0:0:
169,9,57875,5,10,0:0:0:0:
192,153,58043,1,0,1:0:0:0:
63,204,58212,5,8,0:0:0:0:
40,60,58380,1,2,1:2:0:0:
40,60,58465,1,0,1:0:0:0:
40,60,58549,1,14,0:1:0:0:
0,303,58718,6,0,P|54:244|193:262,1,198.000006042481,0|10,1:0|0:0,0:0:0:0:
292,368,59223,1,2,1:2:0:0:
472,311,59392,1,8,0:3:0:0:
490,265,59476,1,8,0:3:0:0:
465,222,59560,2,0,L|480:139,1,49.5000015106202,8|8,0:0|0:0,0:0:0:0:
375,13,59729,2,0,L|360:96,1,49.5000015106202,8|8,0:0|0:0,0:0:0:0:
256,192,59897,5,0,1:0:0:0:
256,192,60066,1,0,1:0:0:0:
395,137,60234,1,8,0:0:0:0:
117,247,60403,1,0,1:0:0:0:
117,247,60571,1,0,3:0:0:0:
165,75,60740,5,0,1:0:0:0:
165,75,60824,1,0,1:0:0:0:
165,75,60909,1,8,0:0:0:0:
347,309,61077,1,8,0:3:0:0:
347,309,61161,1,8,0:3:0:0:
347,309,61246,2,0,B|392:368|392:368|480:342|480:342|428:309,1,198.000006042481,14|0,0:1|1:0,0:0:0:0:
434,125,61751,6,0,B|393:166|393:166|426:245,1,116.999994644165,14|0,1:2|1:0,0:0:0:0:
256,110,62088,2,0,B|263:65|263:65|249:43|249:43|260:-5,1,116.999994644165,14|0,1:2|1:0,0:0:0:0:
168,223,62425,2,0,B|119:232|81:256|81:256|5:229|-2:156,1,215.999993408203,14|0,1:0|1:0,0:0:0:0:
24,89,62847,1,0,1:0:0:0:
43,67,62931,2,0,P|94:79|84:139,1,99.0000030212403,8|0,0:0|0:0,0:0:0:0:
54,281,63268,5,0,1:0:0:0:
262,197,63437,1,8,0:3:0:0:
262,197,63521,1,8,0:3:0:0:
262,197,63605,1,4,0:3:0:0:
425,365,63774,2,0,L|355:354,1,49.5000015106202,8|8,0:0|0:0,0:0:0:0:
277,358,63942,6,0,B|280:254|350:328|350:181,1,161.999995056153,6|0,1:2|0:0,0:0:0:0:
348,193,64279,1,10,0:0:0:0:
477,49,64448,1,2,0:0:0:0:
477,49,64616,1,0,1:0:0:0:
256,8,64785,1,2,1:2:0:0:
256,8,64954,1,8,0:0:0:0:
127,152,65122,6,0,P|188:207|168:341,1,215.999993408203,2|2,1:2|1:2,0:0:0:0:
16,177,65628,1,10,0:0:0:0:
16,177,65796,1,2,0:0:0:0:
181,54,65965,1,2,1:2:0:0:
341,208,66133,1,2,1:2:0:0:
468,191,66302,1,8,0:0:0:0:
395,118,66470,5,2,1:2:0:0:
414,281,66639,1,2,1:2:0:0:
261,384,66807,5,2,0:0:0:0:
242,221,66976,1,10,0:0:0:0:
223,58,67145,1,2,0:0:0:0:
52,6,67313,5,2,1:2:0:0:
38,120,67482,1,2,1:2:0:0:
25,234,67651,1,8,0:0:0:0:
165,359,67819,6,0,B|312:341|212:280|380:273,1,215.999993408203,6|0,1:2|1:0,0:0:0:0:
206,63,68324,2,0,P|180:114|35:117,1,215.999993408203,8|0,0:0|1:0,0:0:0:0:
286,8,68830,1,8,1:2:0:0:
452,236,68998,1,8,1:2:0:0:
452,236,69167,1,0,1:0:0:0:
508,151,69336,5,6,1:0:0:0:
363,192,69504,1,2,1:2:0:0:
324,338,69673,1,10,0:0:0:0:
179,379,69841,1,2,0:0:0:0:
72,271,70010,1,2,1:2:0:0:
218,233,70178,1,2,1:2:0:0:
218,233,70347,1,8,0:0:0:0:
322,14,70515,6,0,P|391:96|338:211,1,215.999993408203,6|2,1:0|1:2,0:0:0:0:
200,49,71021,1,10,0:0:0:0:
200,49,71189,1,2,0:0:0:0:
12,136,71358,1,2,1:2:0:0:
64,11,71527,1,2,1:2:0:0:
148,174,71695,1,8,0:0:0:0:
232,337,71864,6,0,B|194:201|299:257|258:129,1,215.999993408203,2|2,1:2|1:2,0:0:0:0:
85,320,72369,1,10,0:0:0:0:
85,320,72538,1,2,0:0:0:0:
53,232,72706,5,2,1:2:0:0:
256,262,72875,1,0,1:0:0:0:
457,295,73043,1,8,0:0:0:0:
409,204,73212,6,0,P|388:98|464:39,1,215.999993408203,6|0,1:2|1:0,0:0:0:0:
256,262,73718,6,0,L|236:85,1,175.499991966248,12|0,0:0|0:0,0:0:0:0:
238,11,74055,2,0,P|178:10|146:54,1,107.999996704102,0|0,1:0|1:0,0:0:0:0:
359,121,74392,1,10,0:0:0:0:
359,121,74560,1,2,0:0:0:0:
91,280,74729,5,6,1:0:0:0:
138,153,74897,1,2,0:0:0:0:
223,257,75066,1,10,0:0:0:0:
6,175,75234,5,2,0:0:0:0:
175,384,75403,1,2,1:2:0:0:
271,131,75572,1,2,1:2:0:0:
271,131,75740,1,8,0:0:0:0:
91,280,75909,6,0,B|228:282|167:210|307:226,1,215.999993408203,6|2,1:2|1:2,0:0:0:0:
506,176,76414,1,10,0:0:0:0:
371,50,76583,1,2,0:0:0:0:
427,350,76751,1,2,1:2:0:0:
497,283,76920,1,2,1:2:0:0:
407,246,77088,1,8,0:0:0:0:
336,312,77257,1,2,1:2:0:0:
184,375,77425,5,6,1:0:0:0:
196,256,77594,1,2,1:2:0:0:
207,137,77763,1,10,0:0:0:0:
219,18,77932,1,2,0:0:0:0:
105,79,78100,6,0,P|45:80|19:38,1,107.999996704102,2|0,1:2|1:0,0:0:0:0:
219,18,78437,1,10,0:0:0:0:
348,215,78605,6,0,P|478:214|512:132,1,215.999993408203,6|0,1:2|1:0,0:0:0:0:
295,91,79111,2,0,P|357:9|458:25,1,215.999993408203,8|0,0:0|1:0,0:0:0:0:
402,120,79616,1,0,1:0:0:0:
295,91,79785,1,14,0:0:0:0:
511,149,79954,1,2,1:2:0:0:
458,25,80122,5,6,1:2:0:0:
346,215,80291,1,2,0:0:0:0:
131,161,80459,1,10,0:0:0:0:
352,231,80628,1,2,0:0:0:0:
262,11,80796,5,2,1:2:0:0:
359,248,80965,1,2,1:2:0:0:
122,345,81133,1,8,0:0:0:0:
44,378,81302,6,0,P|-3:308|48:188,1,215.999993408203,6|2,1:0|1:2,0:0:0:0:
312,130,81807,1,10,0:0:0:0:
148,33,81976,1,2,0:0:0:0:
204,290,82145,1,2,1:2:0:0:
40,193,82314,1,2,1:2:0:0:
352,124,82482,1,8,0:0:0:0:
352,124,82566,1,8,0:0:0:0:
352,124,82650,1,10,1:2:0:0:
480,32,82819,5,6,1:0:0:0:
465,149,82987,1,2,0:0:0:0:
337,241,83156,1,10,0:0:0:0:
322,358,83324,2,0,P|397:372|474:235,1,215.999993408203,6|0,1:2|1:0,0:0:0:0:
492,177,83746,1,0,1:0:0:0:
465,149,83830,2,0,L|391:161,1,53.9999983520508,10|8,0:0|0:0,0:0:0:0:
337,241,83998,2,0,L|263:253,1,53.9999983520508,8|8,1:2|0:0,0:0:0:0:
194,360,84167,5,6,1:2:0:0:
38,286,84336,1,8,0:0:0:0:
40,248,84420,1,8,0:0:0:0:
43,210,84504,1,8,0:0:0:0:
47,172,84588,1,8,0:0:0:0:
50,133,84673,1,8,0:3:0:0:
256,44,84841,5,8,1:3:0:0:
287,87,84925,1,8,0:3:0:0:
284,141,85010,1,4,0:3:0:0:
243,176,85094,1,4,0:3:0:0:
205,214,85178,1,8,0:0:0:0:
202,268,85263,1,8,0:0:0:0:
233,311,85347,1,0,1:0:0:0:
186,108,85515,6,0,B|101:157|102:79|7:130,1,180.899991443024,6|0,1:0|1:0,0:0:0:0:
0,165,86105,1,0,1:0:0:0:
0,165,86189,2,0,B|130:114|86:197|223:141,1,224.10000324852,6|0,1:0|1:0,0:0:0:0:
259,51,86779,1,0,1:0:0:0:
272,29,86864,6,0,P|358:133|286:234,1,251.999992309571,6|8,1:2|0:0,0:0:0:0:
137,371,87369,1,0,3:0:0:0:
19,273,87538,1,0,1:0:0:0:
19,273,87706,1,0,3:0:0:0:
285,317,87875,1,10,0:0:0:0:
167,219,88044,1,2,1:2:0:0:
371,381,88212,6,0,B|417:249|302:296|369:143,2,215.999993408203,2|8|0,1:2|0:0|1:0,0:0:0:0:
497,74,89223,1,10,0:0:0:0:
497,74,89392,1,2,1:2:0:0:
415,0,89560,6,0,P|353:75|219:40,1,215.999993408203,2|8,1:2|0:0,0:0:0:0:
68,4,90066,1,2,0:0:0:0:
3,179,90234,2,0,P|55:234|57:383,1,215.999993408203,2|8,1:2|0:0,0:0:0:0:
179,165,90740,1,0,1:0:0:0:
261,241,90909,6,0,L|497:283,1,215.999993408203,0|8,1:0|0:0,0:0:0:0:
444,119,91414,1,0,1:0:0:0:
444,119,91498,1,0,1:0:0:0:
444,119,91583,2,0,L|412:-17,1,107.999996704102,2|0,1:2|1:0,0:0:0:0:
347,231,91920,2,0,L|315:95,1,107.999996704102,10|0,0:0|1:0,0:0:0:0:
182,295,92257,6,0,P|165:347|19:343,2,215.999993408203,6|8|0,1:2|0:0|1:0,0:0:0:0:
79,67,93268,1,10,0:0:0:0:
79,67,93437,1,0,1:0:0:0:
11,118,93605,5,2,1:2:0:0:
32,0,93774,1,2,0:0:0:0:
148,23,93942,1,10,0:0:0:0:
127,132,94111,1,2,0:0:0:0:
256,192,94279,5,2,1:2:0:0:
256,192,94448,1,2,0:0:0:0:
385,252,94616,1,8,0:0:0:0:
200,384,94785,6,0,P|120:321|172:205,1,215.999993408203,6|0,1:0|1:0,0:0:0:0:
312,0,95291,2,0,P|392:63|340:179,1,215.999993408203,8|0,0:0|1:0,0:0:0:0:
145,221,95796,1,0,1:0:0:0:
219,38,95965,5,12,0:0:0:0:
292,345,96133,2,0,B|428:347|344:276|500:276,1,215.999993408203,0|0,1:0|1:0,0:0:0:0:
452,361,96555,1,0,1:0:0:0:
422,335,96639,2,0,P|398:294|420:227,1,107.999996704102,12|0,1:2|0:0,0:0:0:0:
368,14,96976,5,10,1:2:0:0:
375,60,97060,1,8,0:0:0:0:
408,96,97145,1,8,0:3:0:0:
455,105,97229,1,8,0:3:0:0:
501,88,97313,1,4,0:3:0:0:
207,198,97482,1,8,0:0:0:0:
207,198,97566,1,8,0:0:0:0:
207,198,97650,6,0,B|166:155|110:170|110:170|61:230|-20:164,2,215.999993408203,6|8|0,1:0|0:0|1:0,0:0:0:0:
458,372,98661,1,10,0:0:0:0:
458,372,98830,1,0,1:0:0:0:
403,259,98998,6,0,P|406:133|480:60,1,215.999993408203,2|8,1:2|0:0,0:0:0:0:
462,69,99504,2,0,P|382:94|332:-17,1,215.999993408203,2|0,0:0|0:0,0:0:0:0:
192,162,100010,1,8,0:0:0:0:
150,169,100094,1,8,0:0:0:0:
108,177,100179,1,10,1:2:0:0:
66,184,100263,1,8,0:0:0:0:
25,191,100347,5,6,1:0:0:0:
256,224,100515,1,2,0:0:0:0:
487,257,100684,1,10,0:0:0:0:
451,171,100852,5,6,1:2:0:0:
373,240,101021,1,2,0:0:0:0:
292,310,101189,1,2,1:2:0:0:
292,310,101358,1,8,0:0:0:0:
122,381,101527,6,0,B|112:236|15:342|16:166,1,215.999993408203,6|2,1:0|1:2,0:0:0:0:
58,118,101948,1,0,1:0:0:0:
82,92,102032,2,0,P|126:127|124:191,1,107.999996704102,14|2,0:0|0:0,0:0:0:0:
238,355,102369,5,6,1:0:0:0:
238,355,102538,1,8,1:3:0:0:
274,29,102706,5,4,1:3:0:0:
274,29,102875,2,0,L|305:292,1,215.999993408203,6|0,1:2|1:0,0:0:0:0:
464,161,103380,2,0,P|505:93|421:2,1,215.999993408203,8|0,0:0|1:0,0:0:0:0:
54,184,104055,1,10,0:0:0:0:
54,184,104223,1,2,1:2:0:0:
143,110,104392,6,0,L|378:145,1,215.999993408203,2|8,1:2|0:0,0:0:0:0:
490,306,104897,2,0,B|348:307|431:375|243:380,1,215.999993408203,0|0,1:0|1:0,0:0:0:0:
468,191,105403,1,10,1:2:0:0:
256,36,105571,1,8,1:2:0:0:
169,90,105740,6,0,P|125:171|6:128,1,215.999993408203,6|8,1:0|0:0,0:0:0:0:
370,7,106246,2,0,L|340:246,1,215.999993408203,6|0,1:0|1:0,0:0:0:0:
377,325,106667,1,0,1:0:0:0:
363,358,106751,2,0,P|288:301|97:342,1,269.999991760254,14|0,1:2|0:0,0:0:0:0:
108,346,107257,5,8,0:0:0:0:
256,68,107425,1,8,1:2:0:0:
256,68,107763,5,8,1:2:0:0:
235,117,107847,1,8,0:0:0:0:
190,147,107931,1,8,0:0:0:0:
136,152,108015,1,8,0:0:0:0:
88,124,108100,2,0,L|104:45,1,53.9999983520508,8|8,0:3|0:3,0:0:0:0:
241,211,108268,2,0,L|225:290,1,53.9999983520508,4|4,0:3|0:3,0:0:0:0:
108,346,108437,6,0,B|73:321|73:321|22:337,1,85.4999977169037,4|0,1:0|1:0,0:0:0:0:
209,272,108774,1,8,0:0:0:0:
303,369,108942,2,0,L|333:180,1,170.999995433807,0|0,1:0|0:0,0:0:0:0:
329,200,109448,2,0,B|364:225|364:225|415:209,1,85.4999977169037,8|0,0:0|1:0,0:0:0:0:
512,119,109785,5,0,1:0:0:0:
512,119,109954,1,0,1:0:0:0:
404,10,110122,1,8,0:0:0:0:
339,56,110291,2,0,L|157:81,1,170.999995433807,0|0,1:0|1:0,0:0:0:0:
169,79,110796,2,0,L|180:-19,1,85.4999977169037,8|0,0:0|1:0,0:0:0:0:
259,179,111133,5,4,1:2:0:0:
259,179,111302,1,0,1:0:0:0:
112,267,111470,1,8,0:0:0:0:
33,271,111639,2,0,P|13:201|91:147,1,170.999995433807,0|0,1:0|0:0,0:0:0:0:
213,318,112145,2,2,L|318:333,1,85.4999977169037,8|0,0:0|1:0,0:1:0:0:
512,252,112482,6,0,L|329:227,1,170.999995433807,0|8,1:0|0:0,0:0:0:0:
439,321,112987,2,0,B|450:255|450:255|482:240|482:240|497:155,1,170.999995433807,0|0,1:0|1:0,0:0:0:0:
364,2,113493,1,12,0:1:0:0:
496,42,113661,1,0,1:0:0:0:
285,104,113830,6,0,B|310:138|310:138|285:208,1,85.4999977169037,6|0,1:0|1:0,0:0:0:0:
212,324,114167,1,8,0:0:0:0:
109,272,114336,2,0,P|29:294|9:373,1,170.999995433807,2|2,1:2|0:0,0:0:0:0:
187,187,114841,2,0,L|173:70,1,85.4999977169037,8|2,0:0|1:2,0:0:0:0:
5,189,115178,6,0,L|26:10,1,170.999995433807,0|8,1:0|0:0,0:0:0:0:
187,187,115684,2,0,B|251:173|251:173|268:140|268:140|347:122,1,170.999995433807,2|2,1:2|1:2,0:0:0:0:
506,199,116189,1,8,0:0:0:0:
327,255,116358,1,0,1:0:0:0:
499,330,116527,5,0,1:0:0:0:
334,124,116695,1,0,1:0:0:0:
334,124,116779,1,0,1:0:0:0:
334,124,116864,2,0,L|347:-6,1,99.0000030212403,12|0,0:1|0:0,0:0:0:0:
86,26,117201,5,8,0:0:0:0:
103,193,117369,1,4,1:0:0:0:
125,356,117538,1,8,0:0:0:0:
125,356,117622,1,8,0:0:0:0:
125,356,117706,1,14,1:2:0:0:
40,333,117875,5,14,1:2:0:0:
66,290,117959,1,8,0:0:0:0:
112,271,118043,1,8,0:3:0:0:
160,280,118128,1,8,0:3:0:0:
196,312,118212,2,0,L|208:230,1,49.5000015106202,4|4,1:3|0:3,0:0:0:0:
317,373,118380,5,8,0:3:0:0:
324,323,118465,1,8,0:3:0:0:
331,274,118549,1,4,0:3:0:0:
484,53,118718,5,8,0:0:0:0:
458,96,118802,1,8,0:0:0:0:
412,115,118886,1,8,0:0:0:0:
364,106,118971,1,8,0:0:0:0:
328,74,119055,2,0,L|316:156,1,49.5000015106202,8|8,0:0|0:0,0:0:0:0:
163,100,119223,6,2,B|143:58|143:58|171:12,1,99.0000030212403,6|0,1:0|1:0,0:1:0:0:
56,177,119560,2,2,L|-11:190,1,49.5000015106202,10|0,0:0|0:0,0:1:0:0:
0,212,119729,2,2,B|69:229|69:229|85:275|85:275|174:295,1,198.000006042481,2|0,0:0|0:0,0:1:0:0:
376,362,120234,1,8,0:0:0:0:
437,309,120403,6,2,L|457:101,1,198.000006042481,0|0,1:0|1:0,0:1:0:0:
300,17,120909,2,0,P|228:56|230:136,1,148.50000453186,8|0,0:0|0:0,0:0:0:0:
238,145,121246,1,2,1:2:0:0:
396,44,121414,1,0,1:0:0:0:
497,202,121583,1,8,0:0:0:0:
339,303,121751,1,0,1:0:0:0:
402,366,121920,6,0,L|516:350,1,99.0000030212403,4|0,1:2|1:0,0:0:0:0:
245,271,122257,2,0,L|82:294,1,148.50000453186,8|0,0:0|0:0,0:0:0:0:
83,317,122594,2,2,P|28:298|39:164,1,198.000006042481,2|8,1:2|0:0,0:1:0:0:
175,0,123100,2,2,B|158:67|158:67|194:106|194:106|175:205,1,198.000006042481,2|0,1:2|1:0,0:1:0:0:
179,180,123605,2,0,L|286:160,1,99.0000030212403,8|0,0:0|1:0,0:0:0:0:
61,51,123942,5,0,1:0:0:0:
182,296,124111,1,8,0:0:0:0:
217,87,124279,2,2,L|230:15,1,49.5000015106202,8|0,0:0|0:0,0:1:0:0:
26,260,124448,2,2,L|39:188,1,49.5000015106202,8|0,0:3|0:0,0:1:0:0:
176,207,124616,6,2,P|243:225|249:357,2,215.999993408203,6|8|0,1:0|0:0|1:0,0:1:0:0:
6,371,125459,2,2,B|150:357|38:301|220:292,1,198.000006042481,2|0,0:0|1:0,0:1:0:0:
366,378,125965,2,2,L|385:258,1,99.0000030212403,2|0,0:0|1:0,0:1:0:0:
510,144,126302,1,10,0:0:0:0:
364,4,126470,2,2,P|289:9|263:136,1,198.000006042481,2|2,1:2|1:2,0:1:0:0:
492,25,126976,1,10,0:0:0:0:
492,25,127060,2,2,L|476:122,1,99.0000030212403,2|0,0:0|0:0,0:1:0:0:
463,204,127313,6,2,L|383:186,1,49.5000015106202,6|2,1:2|0:0,0:1:0:0:
334,83,127482,1,2,1:2:0:0:
208,284,127650,2,2,L|288:302,1,49.5000015106202,10|0,0:0|0:0,0:1:0:0:
397,280,127819,6,2,B|303:263|369:209|248:198,1,161.999995056153,2|0,0:0|0:0,0:1:0:0:
236,200,128156,2,2,L|249:125,1,53.9999983520508,2|0,0:0|0:0,0:1:0:0:
117,321,128324,2,2,L|107:374,1,53.9999983520508,10|0,0:0|0:0,0:1:0:0:
23,237,128493,1,2,1:2:0:0:
23,237,128577,1,2,1:2:0:0:
23,237,128661,5,10,0:0:0:0:
256,294,128830,1,0,1:0:0:0:
312,60,128998,1,8,0:0:0:0:
79,3,129167,1,8,0:3:0:0:
79,3,129251,1,4,0:3:0:0:
79,3,129336,1,8,1:2:0:0:
121,6,129420,1,8,0:0:0:0:
163,13,129504,1,8,0:0:0:0:
476,70,129673,5,8,1:2:0:0:
476,70,130010,6,0,L|457:184,1,80.9999975280763,4|0,1:2|1:0,0:0:0:0:
324,239,130347,1,10,0:0:0:0:
475,343,130515,1,2,1:2:0:0:
413,248,130684,1,2,0:0:0:0:
413,248,130852,2,0,L|492:234,1,80.9999975280763,2|8,1:2|0:0,0:0:0:0:
354,358,131189,6,0,L|274:371,1,80.9999975280763,2|0,0:0|1:0,0:0:0:0:
154,311,131527,1,2,1:2:0:0:
297,206,131695,1,8,0:0:0:0:
230,166,131864,2,0,B|221:63|290:115|266:-3,1,161.999995056153,2|2,1:2|1:2,0:0:0:0:
269,15,132369,2,0,L|282:121,1,80.9999975280763,8|0,0:0|1:0,0:0:0:0:
431,178,132706,6,0,L|444:284,1,80.9999975280763,2|0,1:2|1:0,0:0:0:0:
311,384,133043,1,10,0:0:0:0:
200,332,133212,2,0,L|39:353,1,161.999995056153,2|0,1:2|1:0,0:0:0:0:
40,353,133718,2,0,L|124:361,1,80.9999975280763,8|0,0:0|0:0,0:0:0:0:
256,232,134055,5,2,1:2:0:0:
256,232,134223,1,0,1:0:0:0:
136,86,134392,1,10,0:0:0:0:
0,123,134560,2,0,B|101:121|41:180|147:182,1,161.999995056153,2|2,1:2|1:2,0:0:0:0:
219,142,134982,1,0,1:0:0:0:
228,114,135066,2,0,P|235:60|201:16,1,80.9999975280763,8|0,0:0|1:0,0:0:0:0:
60,180,135403,6,0,L|73:281,1,80.9999975280763,4|0,1:0|1:0,0:0:0:0:
210,379,135740,1,10,0:0:0:0:
282,254,135909,1,0,1:0:0:0:
184,292,136077,1,2,0:0:0:0:
184,292,136246,2,0,L|173:211,1,80.9999975280763,2|8,1:2|0:0,0:0:0:0:
254,22,136583,6,0,L|334:32,1,80.9999975280763,2|0,0:0|1:0,0:0:0:0:
429,111,136920,1,2,1:2:0:0:
305,231,137088,1,8,0:0:0:0:
379,204,137257,2,0,P|424:213|458:317,1,161.999995056153,2|2,1:2|1:0,0:0:0:0:
460,312,137763,2,0,L|379:322,1,80.9999975280763,8|2,0:0|0:0,0:0:0:0:
96,220,138100,5,14,0:0:0:0:
243,364,138268,1,0,1:0:0:0:
246,229,138437,5,8,0:0:0:0:
93,355,138606,1,2,1:2:0:0:
82,206,138774,5,10,0:0:0:0:
257,378,138943,1,0,1:0:0:0:
464,278,139111,2,0,L|457:338,1,40.4999987640381,8|8,0:3|0:3,0:0:0:0:
338,298,139280,1,8,1:2:0:0:
338,298,139364,1,8,0:0:0:0:
338,298,139448,6,0,P|288:241|345:133,1,180,6|10,1:0|0:0,0:0:0:0:
475,196,139954,6,0,L|487:106,1,62.9999980773926,6|0,1:0|1:0,0:0:0:0:
460,36,140206,5,0,1:0:0:0:
445,0,140291,2,0,P|390:80|205:65,1,269.999991760254,6|0,1:2|0:0,0:0:0:0:
206,4,140796,6,0,P|242:-2|291:24,1,85.4999977169037,4|0,1:2|0:0,0:0:0:0:
325,184,141133,1,10,0:0:0:0:
159,230,141302,1,2,0:0:0:0:
119,63,141471,1,2,1:2:0:0:
119,63,141639,2,0,L|11:84,1,85.4999977169037,2|8,0:0|0:0,0:0:0:0:
215,165,141976,6,0,B|321:168|264:226|392:222,1,170.999995433807,2|2,1:2|1:2,0:0:0:0:
370,222,142482,2,0,P|336:265|345:317,1,85.4999977169037,8|2,0:0|0:0,0:0:0:0:
159,384,142819,5,0,1:0:0:0:
159,384,142987,1,2,1:2:0:0:
48,279,143156,1,8,0:0:0:0:
230,243,143324,1,0,1:0:0:0:
119,138,143493,2,0,L|107:46,1,85.4999977169037,0|0,1:0|0:0,0:0:0:0:
107,53,143830,6,0,P|35:59|24:163,1,170.999995433807,10|2,0:0|1:2,0:0:0:0:
222,108,144336,1,2,0:0:0:0:
137,259,144504,1,8,0:0:0:0:
348,225,144673,2,0,L|335:363,1,135,6|0,1:0|0:0,0:0:0:0:
260,355,145010,2,0,L|252:291,1,45,2|0,1:2|0:0,0:0:0:0:
424,331,145178,2,0,L|403:389,1,45,8|0,0:0|0:0,0:0:0:0:
273,219,145347,6,0,B|312:168|370:187|370:187|391:250|482:228,1,198.000006042481,6|4,1:2|0:3,0:0:0:0:
254,310,145852,1,8,0:0:0:0:
204,315,145937,1,8,0:0:0:0:
155,321,146021,1,8,0:0:0:0:
105,325,146105,1,8,0:0:0:0:
55,331,146189,1,4,1:0:0:0:
256,124,146527,5,10,0:0:0:0:
256,124,146695,1,2,0:0:0:0:
178,0,146864,1,2,1:2:0:0:
178,0,147032,2,0,L|168:85,1,85.4999977169037,2|8,0:0|0:0,0:0:0:0:
0,251,147369,2,0,P|13:182|120:152,1,170.999995433807,6|2,1:2|1:2,0:0:0:0:
243,215,147875,5,8,0:0:0:0:
207,355,148043,1,2,1:2:0:0:
207,355,148212,1,0,3:0:0:0:
350,383,148380,1,2,1:2:0:0:
386,243,148549,1,8,0:0:0:0:
296,300,148718,1,2,1:2:0:0:
439,328,148886,6,0,L|422:139,1,170.999995433807,6|8,1:0|0:0,0:0:0:0:
493,10,149392,2,0,B|385:23|460:73|341:81,1,170.999995433807,2|0,1:2|1:0,0:0:0:0:
256,20,149897,1,8,0:0:0:0:
141,121,150066,5,2,1:2:0:0:
141,121,150234,2,0,L|151:21,1,85.4999977169037,2|0,1:2|0:0,0:0:0:0:
260,133,150571,1,10,0:0:0:0:
129,226,150740,2,0,P|67:249|-3:173,1,170.999995433807,2|8,1:2|0:3,0:0:0:0:
112,360,151246,1,8,0:0:0:0:
145,364,151330,1,8,0:0:0:0:
180,369,151415,2,0,L|232:376,1,42.7499988584519,4|4,0:3|0:3,0:0:0:0:
372,348,151583,5,14,0:1:0:0:
372,348,151751,1,0,1:0:0:0:
410,73,151920,5,10,0:0:0:0:
410,73,152088,1,2,1:2:0:0:
138,34,152257,5,8,0:0:0:0:
138,34,152425,1,2,1:2:0:0:
99,308,152594,5,8,0:0:0:0:
99,308,152762,1,2,1:2:0:0:
346,177,152931,5,8,0:0:0:0:
167,204,153100,1,0,1:0:0:0:
153,126,153268,5,8,0:0:0:0:
359,254,153437,1,0,1:0:0:0:
332,99,153605,5,10,0:0:0:0:
186,288,153774,1,0,1:0:0:0:
186,288,153858,1,0,1:0:0:0:
186,288,153942,1,10,0:0:0:0:
2,173,154111,1,8,0:3:0:0:
62,256,154279,5,14,0:0:0:0:
183,80,154448,1,0,1:0:0:0:
285,225,154616,5,8,0:0:0:0:
109,104,154785,1,2,1:2:0:0:
254,2,154954,5,10,0:0:0:0:
133,177,155123,1,0,1:0:0:0:
31,32,155291,5,8,0:0:0:0:
211,157,155460,1,2,1:2:0:0:
211,157,155543,1,0,1:0:0:0:
211,157,155628,1,14,0:1:0:0:
391,282,155796,6,0,B|264:278|335:363|163:328,1,198.000006042481,0|10,1:0|0:0,0:0:0:0:
349,188,156302,1,2,1:2:0:0:
208,49,156470,1,8,0:3:0:0:
253,27,156555,1,8,0:3:0:0:
293,54,156639,2,0,L|280:135,1,49.5000015106202,8|8,0:0|0:0,0:0:0:0:
108,286,156807,2,0,L|121:205,1,49.5000015106202,8|8,0:0|0:0,0:0:0:0:
256,192,156976,5,0,1:0:0:0:
256,192,157145,1,0,1:0:0:0:
99,130,157313,1,8,0:0:0:0:
412,253,157482,1,0,1:0:0:0:
412,253,157650,1,0,3:0:0:0:
358,60,157819,5,0,1:0:0:0:
358,60,157903,1,0,1:0:0:0:
358,60,157988,1,8,0:0:0:0:
153,323,158156,1,8,0:3:0:0:
153,323,158240,1,8,0:3:0:0:
153,323,158324,2,0,B|88:319|36:360|36:360|-16:337|29:261,1,198.000006042481,14|0,0:1|1:0,0:0:0:0:
181,152,158830,6,0,B|215:167|215:167|234:213|195:264,1,116.999994644165,14|0,1:2|1:0,0:0:0:0:
42,131,159167,2,0,B|41:53|82:99|78:-18,1,116.999994644165,14|0,1:2|1:0,0:0:0:0:
208,243,159504,2,0,B|261:294|319:268|319:268|322:212|377:202,1,215.999993408203,14|0,1:0|1:0,0:0:0:0:
459,227,159925,1,0,1:0:0:0:
475,255,160010,2,0,P|486:301|449:358,1,99.0000030212403,8|0,0:0|0:0,0:0:0:0:
236,384,160347,5,0,1:0:0:0:
260,192,160515,1,8,0:3:0:0:
260,192,160600,1,8,0:3:0:0:
260,192,160684,1,4,0:3:0:0:
283,0,160852,2,0,L|292:73,1,49.5000015106202,8|8,0:0|0:0,0:0:0:0:
367,99,161021,6,0,P|301:140|210:99,1,161.999995056153,6|0,1:2|0:0,0:0:0:0:
203,99,161358,1,10,0:0:0:0:
14,215,161527,1,2,0:0:0:0:
14,215,161695,1,0,1:0:0:0:
159,362,161864,1,2,1:2:0:0:
159,362,162032,1,8,0:0:0:0:
348,246,162201,6,0,B|211:284|276:189|115:239,1,215.999993408203,2|2,1:2|1:2,0:0:0:0:
308,363,162706,1,10,0:0:0:0:
308,363,162875,1,2,0:0:0:0:
255,143,163043,1,2,1:2:0:0:
429,289,163212,1,2,1:2:0:0:
391,147,163380,1,8,0:0:0:0:
324,239,163549,5,2,1:2:0:0:
496,197,163718,1,2,1:2:0:0:
452,19,163886,5,2,0:0:0:0:
280,61,164055,1,10,0:0:0:0:
108,103,164223,1,2,0:0:0:0:
1,240,164392,5,2,1:2:0:0:
125,270,164561,1,2,1:2:0:0:
249,300,164729,1,8,0:0:0:0:
408,373,164897,6,0,P|480:329|432:192,1,215.999993408203,6|0,1:2|1:0,0:0:0:0:
307,28,165403,2,0,L|333:269,1,215.999993408203,8|0,0:0|1:0,0:0:0:0:
453,24,165909,1,8,1:2:0:0:
148,149,166077,1,8,1:2:0:0:
148,149,166246,1,0,1:0:0:0:
55,218,166414,5,6,1:0:0:0:
82,57,166583,1,2,1:2:0:0:
264,122,166751,1,10,0:0:0:0:
237,283,166920,1,2,0:0:0:0:
416,355,167088,1,2,1:2:0:0:
443,195,167257,1,2,1:2:0:0:
443,195,167425,1,8,0:0:0:0:
293,379,167594,6,0,P|215:315|279:192,1,215.999993408203,6|2,1:0|1:2,0:0:0:0:
393,107,168100,1,10,0:0:0:0:
393,107,168268,1,2,0:0:0:0:
358,229,168437,1,2,1:2:0:0:
295,13,168605,1,2,1:2:0:0:
512,67,168774,1,8,0:0:0:0:
358,229,168942,6,0,B|230:248|304:158|151:181,1,215.999993408203,2|2,1:2|1:2,0:0:0:0:
336,328,169448,1,10,0:0:0:0:
336,328,169616,1,2,0:0:0:0:
239,365,169785,5,2,1:2:0:0:
256,192,169954,1,0,1:0:0:0:
272,18,170122,1,8,0:0:0:0:
161,3,170291,6,0,P|117:93|-6:59,1,215.999993408203,6|0,1:2|1:0,0:0:0:0:
256,192,170796,6,0,L|238:377,1,175.499991966248,12|0,0:0|0:0,0:0:0:0:
166,384,171133,2,0,P|130:348|149:291,1,107.999996704102,0|0,1:0|1:0,0:0:0:0:
338,373,171470,1,10,0:0:0:0:
338,373,171639,1,2,0:0:0:0:
427,170,171807,5,6,1:0:0:0:
295,147,171975,1,2,0:0:0:0:
380,43,172144,1,10,0:0:0:0:
343,274,172312,5,2,0:0:0:0:
512,65,172481,1,2,1:2:0:0:
247,21,172650,1,2,1:2:0:0:
247,21,172819,1,8,0:0:0:0:
9,148,172987,6,0,B|123:198|104:95|221:156,1,215.999993408203,6|2,1:2|1:2,0:0:0:0:
357,292,173493,1,10,0:0:0:0:
40,243,173661,1,2,0:0:0:0:
182,382,173830,1,2,1:2:0:0:
215,153,173998,1,2,1:2:0:0:
201,270,174167,1,8,0:0:0:0:
201,270,174336,1,2,1:2:0:0:
101,324,174504,5,6,1:0:0:0:
126,162,174673,1,2,1:2:0:0:
301,190,174841,1,10,0:0:0:0:
275,351,175010,1,2,0:0:0:0:
413,360,175178,6,0,P|473:358|496:312,1,107.999996704102,2|0,1:2|1:0,0:0:0:0:
301,190,175515,1,10,0:0:0:0:
164,215,175684,6,0,P|34:214|0:132,1,215.999993408203,6|0,1:2|1:0,0:0:0:0:
217,91,176190,2,0,P|155:9|54:25,1,215.999993408203,8|0,0:0|1:0,0:0:0:0:
110,120,176695,1,0,1:0:0:0:
217,91,176864,1,14,0:0:0:0:
0,149,177032,1,2,1:2:0:0:
53,25,177201,5,6,1:2:0:0:
166,215,177370,1,2,0:0:0:0:
356,102,177538,5,10,0:0:0:0:
166,215,177706,1,2,0:0:0:0:
0,237,177875,5,2,1:2:0:0:
190,124,178044,1,2,1:2:0:0:
303,314,178212,1,8,0:0:0:0:
462,378,178380,6,0,B|421:251|537:304|477:161,1,215.999993408203,6|2,1:0|1:2,0:0:0:0:
262,0,178886,1,10,0:0:0:0:
235,249,179055,1,2,0:0:0:0:
405,61,179223,1,2,1:2:0:0:
157,114,179392,1,2,1:2:0:0:
388,217,179560,1,8,0:0:0:0:
388,217,179645,1,8,0:0:0:0:
388,217,179729,1,10,1:2:0:0:
424,307,179897,5,6,1:0:0:0:
344,123,180066,1,2,0:0:0:0:
483,175,180234,1,10,0:0:0:0:
285,255,180403,2,0,P|192:266|130:159,1,215.999993408203,6|0,1:2|1:0,0:0:0:0:
63,98,180824,1,0,1:0:0:0:
34,116,180908,2,0,L|22:190,1,53.9999983520508,10|8,0:0|0:0,0:0:0:0:
159,61,181077,2,0,L|171:-13,1,53.9999983520508,8|8,1:2|0:0,0:0:0:0:
235,166,181246,5,6,1:2:0:0:
365,46,181414,1,8,0:0:0:0:
399,31,181498,1,8,0:0:0:0:
437,35,181583,1,8,0:0:0:0:
468,54,181667,1,8,0:0:0:0:
486,87,181751,1,8,0:3:0:0:
467,307,181920,5,8,1:3:0:0:
424,338,182004,1,8,0:3:0:0:
370,335,182089,1,4,0:3:0:0:
335,294,182173,1,4,0:3:0:0:
297,256,182257,1,8,0:0:0:0:
243,253,182342,1,8,0:0:0:0:
200,284,182426,1,0,1:0:0:0:
408,239,182594,6,0,B|437:134|353:178|388:57,1,180.899991443024,6|0,1:0|1:0,0:0:0:0:
417,51,183184,1,0,1:0:0:0:
417,51,183268,2,0,B|373:178|473:133|437:266,1,224.10000324852,6|0,1:0|1:0,0:0:0:0:
363,340,183858,1,0,1:0:0:0:
344,356,183942,6,0,P|258:381|172:262,1,251.999992309571,6|8,1:2|0:0,0:0:0:0:
349,127,184448,1,0,3:0:0:0:
172,162,184616,1,0,1:0:0:0:
172,162,184785,1,0,3:0:0:0:
281,266,184954,1,10,0:0:0:0:
239,22,185122,1,2,1:2:0:0:
8,182,185291,6,0,B|142:199|68:118|209:134,2,215.999993408203,2|8|0,1:2|0:0|1:0,0:0:0:0:
311,371,186302,1,10,0:0:0:0:
311,371,186470,1,2,1:2:0:0:
429,358,186639,6,0,L|457:131,1,215.999993408203,2|8,1:2|0:0,0:0:0:0:
349,10,187145,1,2,0:0:0:0:
208,99,187313,2,0,P|116:111|77:5,1,215.999993408203,2|8,1:2|0:0,0:0:0:0:
294,172,187819,1,0,1:0:0:0:
245,276,187987,6,0,L|9:318,1,215.999993408203,0|8,1:0|0:0,0:0:0:0:
78,145,188492,1,0,1:0:0:0:
78,145,188576,1,0,1:0:0:0:
78,145,188661,2,0,L|110:9,1,107.999996704102,2|0,1:2|1:0,0:0:0:0:
162,258,188998,2,0,L|194:122,1,107.999996704102,10|0,0:0|1:0,0:0:0:0:
353,14,189336,6,0,P|456:4|509:109,2,215.999993408203,6|8|0,1:2|0:0|1:0,0:0:0:0:
298,276,190347,1,10,0:0:0:0:
298,276,190515,1,0,1:0:0:0:
351,384,190684,5,2,1:2:0:0:
475,365,190853,1,2,0:0:0:0:
495,242,191021,1,10,0:0:0:0:
383,184,191190,1,2,0:0:0:0:
403,290,191358,5,2,1:2:0:0:
403,290,191527,1,2,0:0:0:0:
367,78,191695,1,8,0:0:0:0:
127,200,191864,6,0,B|111:62|209:138|186:-18,1,215.999993408203,6|0,1:0|1:0,0:0:0:0:
385,184,192369,2,0,B|401:322|303:246|326:402,1,215.999993408203,8|0,0:0|1:0,0:0:0:0:
188,4,193043,5,12,0:0:0:0:
5,230,193212,2,0,P|109:209|198:300,1,215.999993408203,0|0,1:0|1:0,0:0:0:0:
216,361,193633,1,0,1:0:0:0:
181,367,193718,2,0,L|60:387,1,107.999996704102,12|0,1:2|0:0,0:0:0:0:
304,228,194055,5,10,1:2:0:0:
351,234,194139,1,8,0:0:0:0:
398,241,194223,1,8,0:3:0:0:
445,249,194307,1,8,0:3:0:0:
493,258,194392,1,4,0:3:0:0:
324,4,194560,1,8,0:0:0:0:
324,4,194645,1,8,0:0:0:0:
324,4,194729,6,0,B|319:64|254:71|254:71|209:125|239:189,2,215.999993408203,6|8|0,1:0|0:0|1:0,0:0:0:0:
460,348,195740,1,10,0:0:0:0:
460,348,195909,1,0,1:0:0:0:
356,305,196077,6,0,P|321:348|172:353,1,215.999993408203,2|8,1:2|0:0,0:0:0:0:
171,352,196583,2,0,P|101:265|9:296,1,215.999993408203,2|0,0:0|0:0,0:0:0:0:
178,174,197088,1,8,0:0:0:0:
183,132,197172,1,8,0:0:0:0:
189,90,197256,1,10,1:2:0:0:
195,48,197341,1,8,0:0:0:0:
201,6,197425,5,6,1:0:0:0:
256,192,197594,1,2,0:0:0:0:
311,378,197763,1,10,0:0:0:0:
237,299,197931,5,6,1:2:0:0:
256,192,198100,1,2,0:0:0:0:
282,86,198268,1,2,1:2:0:0:
282,86,198437,1,8,0:0:0:0:
430,16,198605,6,0,B|433:145|518:51|512:236,1,215.999993408203,6|2,1:0|1:2,0:0:0:0:
465,282,199027,1,0,1:0:0:0:
432,292,199111,2,0,P|399:252|408:179,1,107.999996704102,14|2,0:0|0:0,0:0:0:0:
309,4,199448,5,6,1:0:0:0:
309,4,199616,1,8,1:3:0:0:
203,380,199785,5,4,1:3:0:0:
203,380,199954,2,0,L|229:121,1,215.999993408203,6|0,1:2|1:0,0:0:0:0:
11,241,200459,2,0,P|3:149|111:101,1,215.999993408203,8|0,0:0|1:0,0:0:0:0:
389,350,201133,1,10,0:0:0:0:
389,350,201302,1,2,1:2:0:0:
315,271,201470,6,0,L|99:298,1,215.999993408203,2|8,1:2|0:0,0:0:0:0:
256,188,201976,2,0,B|270:55|169:136|194:-6,1,215.999993408203,0|0,1:0|1:0,0:0:0:0:
397,126,202482,1,10,1:2:0:0:
196,300,202650,1,8,1:2:0:0:
280,372,202819,6,0,P|350:307|485:334,1,215.999993408203,6|8,1:0|0:0,0:0:0:0:
512,7,203324,2,0,L|271:46,1,215.999993408203,6|0,1:0|1:0,0:0:0:0:
216,13,203746,1,0,1:0:0:0:
184,8,203830,2,0,P|274:20|243:223,1,323.999990112305,14|0,1:2|1:0,0:0:0:0:
133,132,204504,2,0,L|140:74,1,53.9999983520508,8|8,0:3|0:3,0:0:0:0:
7,180,204673,2,0,L|0:233,1,53.9999983520508,4|4,0:3|0:3,0:0:0:0:
88,347,204841,5,8,0:0:0:0:
141,340,204925,1,8,0:0:0:0:
195,335,205010,1,8,0:0:0:0:
248,330,205094,1,8,0:0:0:0:
262,348,205178,1,8,1:2:0:0:
315,353,205262,1,8,0:0:0:0:
369,358,205347,1,8,0:0:0:0:
422,365,205431,1,8,0:0:0:0:
436,383,205515,6,2,B|444:306|444:306|488:281|488:281|498:198,2,198.000006042481,6|8|0,1:2|0:0|1:0,0:1:0:0:
414,221,206358,1,0,1:0:0:0:
394,59,206527,1,8,0:0:0:0:
322,124,206695,6,2,B|225:100|225:100|127:166,1,198.000006042481,0|0,1:0|1:0,0:1:0:0:
143,154,207201,2,0,L|157:37,1,99.0000030212403,8|0,0:0|0:0,0:0:0:0:
248,216,207538,1,0,1:0:0:0:
248,216,207706,1,0,1:0:0:0:
99,296,207875,2,0,L|-17:282,1,99.0000030212403,8|0,0:0|1:0,0:0:0:0:
196,384,208212,6,2,B|295:377|224:318|355:314,1,148.50000453186,2|0,1:2|0:0,0:1:0:0:
351,327,208549,1,10,0:0:0:0:
248,216,208718,2,2,L|260:100,1,99.0000030212403,2|0,0:0|1:0,0:1:0:0:
149,254,209055,5,2,1:2:0:0:
10,113,209223,1,10,0:0:0:0:
203,31,209392,1,2,0:0:0:0:
342,172,209560,6,2,P|457:181|498:85,2,215.999993408203,6|8|0,1:2|0:0|1:0,0:1:0:0:
203,31,210403,1,8,1:2:0:0:
20,191,210571,2,2,L|38:104,1,53.9999983520508,10|0,0:0|0:0,0:1:0:0:
203,31,210740,2,2,L|192:83,1,53.9999983520508,2|0,1:2|0:0,0:1:0:0:
297,247,210909,5,4,1:0:0:0:
293,266,210993,1,0,3:0:0:0:
289,285,211077,1,0,1:0:0:0:
285,304,211161,1,0,3:0:0:0:
280,323,211246,2,0,L|228:313,1,49.5000015106202,8|0,0:0|3:0,0:0:0:0:
83,384,211414,5,2,0:0:0:0:
59,340,211498,1,2,0:0:0:0:
69,291,211583,1,2,1:2:0:0:
109,262,211667,1,2,0:0:0:0:
158,262,211751,2,0,L|167:213,1,49.5000015106202,2|2,1:2|0:0,0:0:0:0:
231,76,211920,5,8,0:0:0:0:
192,83,212004,1,0,3:0:0:0:
153,90,212088,1,0,3:0:0:0:
113,97,212173,1,0,3:0:0:0:
74,104,212257,6,0,L|83:55,3,49.5000015106202,6|0|0|0,1:0|3:0|1:0|3:0,0:0:0:0:
167,213,212594,2,0,L|176:164,3,49.5000015106202,10|0|0|0,0:0|3:0|3:0|3:0,0:0:0:0:
231,76,212931,2,0,L|241:28,3,49.5000015106202,2|0|0|0,1:2|3:0|1:0|3:0,0:0:0:0:
323,184,213268,2,0,L|333:136,3,49.5000015106202,10|0|0|0,0:0|3:0|1:0|3:0,0:0:0:0:
485,89,213605,5,2,0:0:0:0:
503,122,213689,1,2,0:0:0:0:
497,161,213774,1,2,1:0:0:0:
467,186,213858,1,2,0:0:0:0:
436,210,213942,1,10,0:0:0:0:
429,249,214027,1,2,0:0:0:0:
446,284,214111,2,0,L|494:293,1,49.5000015106202,2|2,0:0|0:0,0:0:0:0:
367,367,214279,5,2,1:2:0:0:
345,321,214364,1,2,0:2:0:0:
302,296,214448,1,2,0:2:0:0:
252,299,214532,1,2,0:2:0:0:
209,324,214616,6,2,L|154:313,1,53.9999983520508,14|0,0:0|0:0,0:1:0:0:
285,377,214785,2,2,B|301:291|301:291|265:251|265:251|285:162,1,215.999993408203,2|0,1:2|1:0,0:1:0:0:
90,0,215291,6,2,L|80:54,1,53.9999983520508,14|0,0:0|0:0,0:1:0:0:
5,134,215459,2,2,P|89:77|219:97,1,215.999993408203,2|0,0:0|1:0,0:1:0:0:
199,85,215965,2,0,L|181:197,1,107.999996704102,8|0,0:0|0:0,0:0:0:0:
146,371,216302,5,6,1:0:0:0:
47,384,216470,1,2,0:0:0:0:
3,294,216639,1,10,0:0:0:0:
74,226,216807,1,2,0:0:0:0:
162,272,216976,1,2,1:2:0:0:
325,232,217145,1,2,1:2:0:0:
335,63,217313,1,10,0:0:0:0:
179,0,217482,1,2,0:0:0:0:
70,128,217650,2,2,L|152:107,1,49.5000015106202,6|0,1:2|0:0,0:1:0:0:
232,164,217819,5,2,1:2:0:0:
232,164,217903,1,2,1:2:0:0:
232,164,217987,2,2,L|347:139,1,99.0000030212403,10|2,0:0|0:0,0:1:0:0:
477,28,218324,5,2,1:2:0:0:
467,181,218492,1,2,1:2:0:0:
460,334,218661,1,10,0:0:0:0:
460,334,218830,1,0,1:0:0:0:
343,384,218998,6,2,P|284:327|208:329,1,161.999995056153,6|0,1:0|0:0,0:1:0:0:
145,378,219336,2,2,P|109:320|145:266,1,107.999996704102,10|0,0:0|0:0,0:1:0:0:
256,239,219588,2,2,L|268:160,1,53.9999983520508,2|0,0:0|1:0,0:1:0:0:
196,122,219757,2,2,L|73:139,1,107.999996704102,2|0,0:0|0:0,0:1:0:0:
8,89,220010,2,2,L|20:10,1,53.9999983520508,10|0,0:0|0:0,0:1:0:0:
115,0,220178,2,2,L|106:53,1,53.9999983520508,2|0,0:0|0:0,0:1:0:0:
0,212,220347,6,2,B|65:201|65:201|90:168|90:168|160:158,1,175.499991966248,6|0,1:2|0:0,0:1:0:0:
281,214,220684,2,2,L|270:278,1,58.4999973220826,10|0,0:0|0:0,0:1:0:0:
148,360,220852,2,2,L|157:302,1,58.4999973220826,2|0,0:0|0:0,0:1:0:0:
350,384,221021,5,2,1:2:0:0:
164,263,221189,1,2,1:2:0:0:
360,139,221358,1,14,0:0:0:0:
452,178,221527,5,2,1:2:0:0:
452,178,221611,1,2,1:2:0:0:
452,178,221695,2,2,P|504:145|453:7,1,188.999994232178,6|0,1:2|0:0,0:1:0:0:
394,19,222032,6,2,B|310:80|363:234|449:147|502:303|392:395,1,377.999988464356,10|0,0:0|1:0,0:1:0:0:
434,363,222622,1,0,1:0:0:0:
434,363,222706,2,0,P|365:349|365:298,1,107.999996704102,10|0,0:0|1:0,0:0:0:0:
186,209,222959,5,2,0:0:0:0:
186,209,223043,2,2,L|-10:239,1,188.999994232178,6|0,1:0|0:0,0:1:0:0:
0,205,223380,2,0,L|99:220,1,53.9999983520508,10|0,0:0|0:0,0:0:0:0:
139,226,223549,2,0,L|238:241,1,53.9999983520508,2|0,0:0|0:0,0:0:0:0:
286,362,223718,6,2,B|294:315|294:315|314:302|314:302|322:257,1,116.999994644165,2|0,1:2|1:0,0:1:0:0:
168,51,224055,1,8,0:0:0:0:
134,83,224139,1,8,0:0:0:0:
138,129,224223,2,0,L|240:144,1,58.4999973220826,8|0,1:2|0:0,0:0:0:0:
322,258,224392,6,2,B|452:302|463:149|350:134|240:188|338:366|141:313|141:313|184:326|202:371,1,540.000020599366,6|0,1:0|1:0,0:1:0:0:
215,384,225150,1,2,1:2:0:0:
215,384,225234,1,2,1:2:0:0:
215,384,225319,1,2,1:2:0:0:
215,384,225403,2,0,L|227:293,1,58.4999973220826,10|8,0:0|0:0,0:0:0:0:
8,213,225571,2,0,L|0:270,1,58.4999973220826,8|8,0:0|0:0,0:0:0:0:
176,119,225740,6,0,L|188:28,1,58.4999973220826,2|2,1:2|0:0,0:0:0:0:
107,186,225909,1,10,0:0:0:0:
149,217,225993,1,10,0:0:0:0:
201,218,226077,1,10,0:0:0:0:
244,189,226161,1,10,0:0:0:0:
269,142,226246,2,0,L|326:149,1,58.4999973220826,10|6,0:3|0:3,0:0:0:0:
416,271,226414,5,10,1:2:0:0:
398,220,226498,1,10,0:3:0:0:
420,172,226583,1,6,0:3:0:0:
467,146,226667,1,2,1:2:0:0:
505,111,226751,1,10,0:0:0:0:
512,58,226836,1,10,0:0:0:0:
483,13,226920,2,0,L|424:5,1,58.4999973220826,2|0,1:2|0:0,0:0:0:0:
340,374,228437,5,6,1:2:0:0:
356,299,228774,1,0,0:0:0:0:
356,299,228942,1,2,0:0:0:0:
369,221,229279,1,2,0:0:0:0:
290,194,229616,5,2,0:0:0:0:
274,119,229953,1,0,0:0:0:0:
274,119,230121,1,2,0:0:0:0:
259,44,230458,1,2,0:0:0:0:
259,44,230628,1,2,0:0:0:0:
335,10,230965,5,0,0:0:0:0:
335,10,231133,1,2,0:0:0:0:
410,26,231470,1,2,0:0:0:0:
488,46,231807,1,2,0:0:0:0:
488,46,231977,1,2,0:0:0:0:
446,120,232313,6,0,B|430:243|528:175|500:331,1,215.999993408203,2|2,0:0|0:0,0:0:0:0:
460,376,233156,1,2,0:0:0:0:
388,356,233324,1,2,0:0:0:0:
384,281,233493,1,2,0:0:0:0:
256,192,233830,5,2,0:0:0:0:
181,208,234167,1,2,0:0:0:0:
109,226,234504,1,2,0:0:0:0:
109,226,234672,1,2,0:0:0:0:
23,200,235010,5,2,0:0:0:0:
38,276,235347,1,0,0:0:0:0:
38,276,235515,1,2,0:0:0:0:
56,351,235852,1,2,0:0:0:0:
56,351,236021,1,2,0:0:0:0:
138,381,236358,5,2,0:0:0:0:
153,305,236695,1,0,0:0:0:0:
153,305,236863,1,2,0:0:0:0:
171,230,237200,1,2,0:0:0:0:
233,173,237538,5,0,0:0:0:0:
233,173,237706,2,0,P|248:68|142:36,1,215.999993408203,2|0,0:0|0:0,0:0:0:0:
161,29,238886,1,0,0:0:0:0:
12,82,239223,5,2,0:0:0:0:
87,98,239560,1,2,0:0:0:0:
163,115,239897,1,2,0:0:0:0:
163,115,240065,1,2,0:0:0:0:
163,194,240403,5,2,0:0:0:0:
238,178,240740,1,2,0:0:0:0:
238,178,240909,1,2,0:0:0:0:
314,161,241245,1,2,0:0:0:0:
314,161,241414,1,2,0:0:0:0:
384,208,241751,5,0,0:0:0:0:
384,208,241920,1,2,0:0:0:0:
400,133,242257,1,2,0:0:0:0:
417,57,242593,1,2,0:0:0:0:
352,13,242931,5,0,0:0:0:0:
352,13,243100,2,0,P|249:25|259:180,1,269.999991760254,2|2,0:0|0:0,0:0:0:0:
242,167,244279,1,0,0:0:0:0:
302,239,244616,5,2,0:0:0:0:
227,255,244954,1,2,0:0:0:0:
151,272,245291,1,2,0:0:0:0:
151,272,245459,1,2,0:0:0:0:
182,346,245796,5,2,0:0:0:0:
257,362,246134,1,0,0:0:0:0:
257,362,246302,1,2,0:0:0:0:
332,379,246639,1,2,0:0:0:0:
332,379,246807,1,2,0:0:0:0:
430,369,247145,5,0,0:0:0:0:
430,369,247313,1,2,0:0:0:0:
414,294,247650,1,0,0:0:0:0:
414,294,247819,1,2,0:0:0:0:
396,220,248156,1,0,0:0:0:0:
396,220,248324,1,2,0:0:0:0:
420,131,248661,6,0,B|290:122|357:209|216:196,1,216,2|0,0:0|0:0,0:0:0:0:
2,90,250010,6,0,P|37:21|125:11,1,161.999995056153,6|0,1:2|0:0,0:0:0:0:
141,25,250347,1,10,0:0:0:0:
311,175,250515,1,2,0:0:0:0:
311,175,250684,1,0,1:0:0:0:
195,374,250852,1,2,1:2:0:0:
195,374,251021,1,8,0:0:0:0:
25,224,251189,6,0,B|158:172|101:284|254:210,1,215.999993408203,2|2,1:2|1:2,0:0:0:0:
49,110,251695,1,10,0:0:0:0:
49,110,251864,1,2,0:0:0:0:
86,375,252032,1,2,1:2:0:0:
222,141,252201,1,2,1:2:0:0:
244,303,252369,1,8,0:0:0:0:
153,233,252538,5,2,1:2:0:0:
313,211,252706,1,2,1:2:0:0:
423,382,252875,5,2,0:0:0:0:
445,222,253043,1,10,0:0:0:0:
467,62,253212,1,2,0:0:0:0:
287,5,253380,5,2,1:2:0:0:
302,118,253548,1,2,1:2:0:0:
318,231,253717,1,8,0:0:0:0:
201,363,253886,6,0,B|70:367|141:291|-1:296,1,215.999993408203,6|0,1:2|1:0,0:0:0:0:
218,131,254392,2,0,P|106:148|-2:170,1,215.999993408203,8|0,0:0|1:0,0:0:0:0:
286,359,254897,1,8,1:2:0:0:
486,125,255066,1,8,1:2:0:0:
486,125,255234,1,0,1:0:0:0:
442,219,255403,5,6,1:0:0:0:
416,45,255571,1,2,1:2:0:0:
242,106,255740,1,10,0:0:0:0:
269,281,255908,1,2,0:0:0:0:
98,349,256077,1,2,1:2:0:0:
71,175,256245,1,2,1:2:0:0:
71,175,256414,1,8,0:0:0:0:
229,22,256583,6,0,P|300:47|265:192,1,215.999993408203,6|2,1:0|1:2,0:0:0:0:
117,63,257088,1,10,0:0:0:0:
117,63,257257,1,2,0:0:0:0:
0,221,257425,1,2,1:2:0:0:
169,159,257594,1,2,1:2:0:0:
277,292,257763,1,8,0:0:0:0:
108,354,257931,6,0,B|91:223|199:289|164:138,1,215.999993408203,2|2,1:2|1:2,0:0:0:0:
356,41,258437,1,10,0:0:0:0:
356,41,258605,1,2,0:0:0:0:
236,12,258774,5,2,1:2:0:0:
256,192,258942,1,0,1:0:0:0:
276,372,259111,1,8,0:0:0:0:
382,333,259279,6,0,P|441:351|488:207,1,215.999993408203,6|0,1:2|1:0,0:0:0:0:
256,192,259785,6,0,L|66:220,1,175.499991966248,12|0,0:0|0:0,0:0:0:0:
10,225,260122,2,0,P|-14:170|38:110,1,107.999996704102,0|0,1:0|1:0,0:0:0:0:
205,0,260459,1,10,0:0:0:0:
205,0,260628,1,2,0:0:0:0:
437,220,260796,5,6,1:0:0:0:
291,195,260965,1,2,0:0:0:0:
343,335,261133,1,10,0:0:0:0:
384,80,261301,5,2,0:0:0:0:
197,311,261470,1,2,1:2:0:0:
489,359,261639,1,2,1:2:0:0:
489,359,261807,1,8,0:0:0:0:
291,195,261976,6,0,B|164:174|230:262|69:234,1,215.999993408203,6|2,1:2|1:2,0:0:0:0:
256,8,262482,1,10,0:0:0:0:
399,278,262650,1,2,0:0:0:0:
123,143,262819,1,2,1:2:0:0:
425,90,262987,1,2,1:2:0:0:
212,310,263156,1,8,0:0:0:0:
212,310,263324,1,2,1:2:0:0:
313,384,263493,5,6,1:0:0:0:
294,259,263661,1,2,1:2:0:0:
275,133,263830,1,10,0:0:0:0:
256,8,263998,1,2,0:0:0:0:
382,92,264167,6,0,P|438:79|452:9,1,107.999996704102,2|0,1:2|1:0,0:0:0:0:
256,8,264504,1,10,0:0:0:0:
164,169,264673,6,0,P|34:170|0:252,1,215.999993408203,6|0,1:2|1:0,0:0:0:0:
217,293,265179,2,0,P|155:375|54:359,1,215.999993408203,8|0,0:0|1:0,0:0:0:0:
110,264,265684,1,0,1:0:0:0:
217,293,265853,1,14,0:0:0:0:
0,234,266021,1,2,1:2:0:0:
53,358,266190,5,6,1:2:0:0:
164,169,266358,1,2,0:0:0:0:
409,230,266527,1,10,0:0:0:0:
160,153,266696,1,2,0:0:0:0:
254,384,266864,5,2,1:2:0:0:
154,135,267033,1,2,1:2:0:0:
401,35,267201,1,8,0:0:0:0:
500,6,267369,6,0,B|439:120|554:91|479:223,1,215.999993408203,6|2,1:0|1:2,0:0:0:0:
214,273,267875,1,10,0:0:0:0:
319,102,268044,1,2,0:0:0:0:
380,380,268213,1,2,1:2:0:0:
486,210,268380,1,2,1:2:0:0:
182,283,268550,1,8,0:0:0:0:
182,283,268634,1,8,0:0:0:0:
182,283,268718,1,10,1:2:0:0:
83,352,268886,5,6,1:0:0:0:
112,181,269055,1,2,0:0:0:0:
283,210,269223,1,10,0:0:0:0:
254,381,269392,1,6,1:2:0:0:
19,142,269729,5,0,1:0:0:0:
19,142,269813,1,0,1:0:0:0:
19,142,269897,2,0,L|27:222,1,53.9999983520508,10|8,0:0|0:0,0:0:0:0:
182,283,270066,2,0,L|176:229,1,53.9999983520508,8|8,1:2|0:0,0:0:0:0:
295,100,270234,5,6,1:2:0:0:
462,200,270403,1,8,0:0:0:0:
467,162,270487,1,8,0:0:0:0:
472,124,270572,1,8,0:0:0:0:
477,87,270656,1,8,0:0:0:0:
482,49,270740,1,8,0:3:0:0:
237,38,270909,5,8,1:3:0:0:
206,81,270993,1,8,0:3:0:0:
209,135,271078,1,4,0:3:0:0:
250,170,271162,1,4,0:3:0:0:
288,208,271246,1,8,0:0:0:0:
291,262,271331,1,8,0:0:0:0:
260,305,271415,1,0,1:0:0:0:
295,100,271583,6,0,B|362:109|362:109|398:88|398:88|478:99,1,180.899991443024,6|0,1:0|1:0,0:0:0:0:
493,133,272173,1,0,1:0:0:0:
493,133,272257,2,0,B|402:120|402:120|366:141|366:141|265:127,1,224.10000324852,6|0,1:0|1:0,0:0:0:0:
248,35,272847,1,0,1:0:0:0:
240,13,272931,6,0,P|137:100|190:212,1,251.999992309571,6|8,1:2|0:0,0:0:0:0:
382,367,273437,1,0,3:0:0:0:
500,269,273606,1,0,1:0:0:0:
500,269,273774,1,0,3:0:0:0:
234,313,273943,1,10,0:0:0:0:
352,215,274112,1,2,1:2:0:0:
128,381,274279,6,0,B|82:249|197:296|130:143,2,215.999993408203,2|8|0,1:2|0:0|1:0,0:0:0:0:
0,89,275291,1,10,0:0:0:0:
0,89,275459,1,2,1:2:0:0:
67,13,275628,6,0,B|146:84|146:84|260:51,1,215.999993408203,2|8,1:2|0:0,0:0:0:0:
431,0,276133,1,2,0:0:0:0:
512,167,276302,2,0,L|483:409,1,215.999993408203,2|8,1:2|0:0,0:0:0:0:
308,192,276807,1,0,1:0:0:0:
227,277,276976,6,0,L|-15:306,1,215.999993408203,0|8,1:0|0:0,0:0:0:0:
172,151,277482,1,0,1:0:0:0:
172,151,277566,1,0,1:0:0:0:
172,151,277650,2,0,P|178:98|148:55,1,107.999996704102,2|0,1:2|1:0,0:0:0:0:
42,185,277987,2,0,P|11:141|18:89,1,107.999996704102,10|0,0:0|1:0,0:0:0:0:
252,0,278324,6,0,P|295:98|268:201,2,215.999993408203,6|8|0,1:2|0:0|1:0,0:0:0:0:
104,290,279336,1,10,0:0:0:0:
104,290,279505,1,0,1:0:0:0:
124,184,279673,5,2,1:2:0:0:
209,276,279842,1,2,0:0:0:0:
32,365,280010,1,10,0:0:0:0:
156,384,280179,1,2,0:0:0:0:
12,242,280347,1,2,1:2:0:0:
12,242,280515,1,2,0:0:0:0:
209,276,280684,1,8,0:0:0:0:
312,384,280852,6,0,P|392:321|340:205,1,215.999993408203,6|0,1:0|1:0,0:0:0:0:
200,0,281358,2,0,P|120:63|172:179,1,215.999993408203,8|0,0:0|1:0,0:0:0:0:
367,221,281863,1,0,1:0:0:0:
293,38,282032,5,12,0:0:0:0:
220,345,282200,2,0,B|84:347|168:276|12:276,1,215.999993408203,0|0,1:0|1:0,0:0:0:0:
60,361,282622,1,0,1:0:0:0:
90,335,282706,2,0,P|114:294|92:227,1,107.999996704102,12|0,1:2|0:0,0:0:0:0:
144,14,283043,5,10,1:2:0:0:
137,60,283127,1,8,0:0:0:0:
104,96,283212,1,8,0:3:0:0:
57,105,283296,1,8,0:3:0:0:
11,88,283380,1,4,0:3:0:0:
320,187,283549,1,8,0:0:0:0:
320,187,283633,1,8,0:0:0:0:
320,187,283718,6,0,B|360:158|404:166|404:166|428:195|428:195|480:207|519:172,2,215.999993408203,6|8|0,1:0|0:0|1:0,0:0:0:0:
59,380,284729,1,10,0:0:0:0:
59,380,284897,1,0,1:0:0:0:
104,266,285066,6,0,P|101:140|27:67,1,215.999993408203,2|8,1:2|0:0,0:0:0:0:
45,76,285572,2,0,P|125:101|175:-10,1,215.999993408203,2|0,0:0|0:0,0:0:0:0:
343,101,286077,1,8,0:0:0:0:
385,110,286161,1,8,0:0:0:0:
426,120,286246,1,10,1:2:0:0:
468,129,286330,1,8,0:0:0:0:
509,139,286414,5,6,1:0:0:0:
256,194,286582,1,2,0:0:0:0:
2,248,286751,1,10,0:0:0:0:
107,160,286920,5,6,1:2:0:0:
256,194,287089,1,2,0:0:0:0:
402,231,287257,1,2,1:2:0:0:
402,231,287425,1,8,0:0:0:0:
468,382,287594,6,0,B|435:271|542:305|498:178,1,215.999993408203,6|2,1:0|1:2,0:0:0:0:
465,80,288015,1,0,1:0:0:0:
434,60,288100,2,0,P|381:104|387:157,1,107.999996704102,14|2,0:0|0:0,0:0:0:0:
312,384,288437,5,6,1:0:0:0:
312,384,288605,1,8,1:3:0:0:
200,0,288774,5,4,1:3:0:0:
200,0,288942,2,0,L|231:265,1,215.999993408203,6|0,1:2|1:0,0:0:0:0:
76,378,289448,2,0,P|6:321|39:207,1,215.999993408203,8|0,0:0|1:0,0:0:0:0:
439,359,290122,1,10,0:0:0:0:
439,359,290291,1,2,1:2:0:0:
363,275,290459,6,0,L|99:316,1,215.999993408203,2|8,1:2|0:0,0:0:0:0:
317,188,290965,2,0,B|325:59|226:136|246:0,1,215.999993408203,0|0,1:0|1:0,0:0:0:0:
486,161,291470,1,10,1:2:0:0:
276,371,291639,1,8,1:2:0:0:
184,292,291807,6,0,P|165:334|15:339,1,215.999993408203,6|8,1:0|0:0,0:0:0:0:
267,76,292313,2,0,P|193:3|94:30,1,215.999993408203,6|0,1:0|1:0,0:0:0:0:
67,147,292734,1,0,1:0:0:0:
82,179,292819,2,0,B|149:216|229:207|285:165|285:165|395:94|554:206|490:393|343:416|268:335,1,728.999977752686,14|0,1:2|0:0,0:0:0:0:
304,254,295178,5,8,1:2:0:0:
352,262,295263,1,8,0:0:0:0:
399,270,295347,1,8,0:0:0:0:
446,277,295431,1,8,0:0:0:0:
493,285,295515,2,0,L|480:210,1,53.9999983520508,8|4,0:3|0:3,0:0:0:0:
322,45,295684,1,8,0:0:0:0:
322,45,295768,1,8,0:0:0:0:
322,45,295852,6,0,P|394:86|373:179,1,161.999995056153,6|0,1:2|0:0,0:0:0:0:
375,177,296189,1,10,0:0:0:0:
197,106,296358,2,0,L|173:-19,1,107.999996704102,2|0,0:0|1:0,0:0:0:0:
53,207,296695,2,0,P|26:156|48:100,1,107.999996704102,2|8,1:2|0:0,0:0:0:0:
211,284,297032,6,0,B|106:288|169:345|35:346,1,161.999995056153,2|0,1:2|0:0,0:0:0:0:
40,339,297369,1,2,1:2:0:0:
239,192,297538,1,10,0:0:0:0:
239,192,297875,1,2,1:2:0:0:
346,337,298043,2,0,L|455:356,1,107.999996704102,2|8,1:2|0:0,0:0:0:0:
239,192,298380,1,2,1:2:0:0:
239,192,298549,6,0,B|205:138|251:82|251:82|319:83|331:5,1,215.999993408203,2|10,1:2|0:0,0:0:0:0:
133,125,299055,1,2,0:0:0:0:
249,0,299223,5,2,1:2:0:0:
388,169,299392,2,0,P|457:169|483:130,1,107.999996704102,2|8,1:2|0:0,0:0:0:0:
311,360,299729,6,0,B|235:329|235:329|70:376,1,215.999993408203,6|0,1:2|0:0,0:0:0:0:
106,365,300234,2,0,P|17:323|68:213,1,215.999993408203,8|0,0:0|1:0,0:0:0:0:
195,301,300740,6,2,L|212:221,1,53.9999983520508,10|0,1:2|0:0,0:1:0:0:
315,185,300909,6,2,L|333:105,1,58.4999973220826,10|0,0:0|0:0,0:1:0:0:
177,62,301077,6,2,L|194:-20,1,62.9999980773926,2|0,1:2|0:0,0:1:0:0:
25,120,301246,6,2,L|160:152,1,135.000005149842,6|2,1:0|1:2,0:1:0:0:
333,31,301583,1,8,0:0:0:0:
497,205,301751,2,2,B|363:209|451:287|294:290,1,215.999993408203,2|0,0:0|1:0,0:1:0:0:
459,127,302257,1,8,0:0:0:0:
310,290,302425,6,2,B|356:260|406:291|406:291|435:360|507:341,1,215.999993408203,4|0,1:0|1:0,0:1:0:0:
336,186,302931,2,0,L|353:58,1,107.999996704102,8|0,0:0|0:0,0:0:0:0:
205,209,303268,1,0,1:0:0:0:
205,209,303437,1,0,1:0:0:0:
350,78,303605,1,10,0:0:0:0:
180,5,303774,6,2,P|131:86|15:71,1,215.999993408203,2|0,1:2|1:0,0:1:0:0:
254,146,304279,2,0,L|222:390,1,215.999993408203,8|0,0:0|1:0,0:0:0:0:
225,360,304785,1,0,1:0:0:0:
28,228,304954,1,8,0:0:0:0:
0,322,305122,6,2,B|150:317|48:249|236:251,1,215.999993408203,6|0,1:2|1:0,0:1:0:0:
432,384,305628,2,0,L|460:169,1,215.999993408203,12|8,0:0|1:2,0:0:0:0:
485,135,306049,1,8,0:0:0:0:
492,92,306133,1,8,1:2:0:0:
469,54,306218,1,8,0:0:0:0:
427,41,306302,1,8,0:0:0:0:
390,63,306386,1,8,0:0:0:0:
361,95,306470,1,8,0:0:0:0:
317,96,306555,1,8,0:0:0:0:
281,72,306639,6,0,L|108:104,1,161.999995056153,6|0,1:0|0:0,0:0:0:0:
94,109,306976,1,10,0:0:0:0:
309,271,307145,2,0,P|338:227|330:175,1,107.999996704102,2|0,0:0|1:0,0:0:0:0:
150,384,307482,2,0,L|173:251,1,107.999996704102,2|8,1:2|0:0,0:0:0:0:
102,20,307819,6,0,P|47:27|37:187,1,215.999993408203,6|2,1:2|1:2,0:0:0:0:
219,78,308324,1,10,0:0:0:0:
219,78,308493,1,2,0:0:0:0:
302,0,308661,5,2,1:2:0:0:
383,114,308830,1,2,1:2:0:0:
200,184,308998,2,0,L|223:51,1,107.999996704102,8|2,0:0|1:2,0:0:0:0:
388,203,309336,6,0,L|494:221,1,107.999996704102,6|2,1:0|1:2,0:0:0:0:
322,345,309673,2,0,P|265:378|210:363,1,107.999996704102,10|2,0:0|0:0,0:0:0:0:
57,298,310010,1,2,1:2:0:0:
259,176,310178,1,2,1:2:0:0:
259,176,310263,1,2,1:2:0:0:
259,176,310347,1,8,0:0:0:0:
138,337,310515,6,0,L|169:80,1,215.999993408203,6|0,1:2|1:0,0:0:0:0:
183,24,311021,6,2,L|115:38,1,53.9999983520508,10|0,0:0|0:0,0:1:0:0:
64,125,311189,6,2,L|11:135,1,53.9999983520508,2|0,0:0|0:0,0:1:0:0:
175,233,311358,6,2,B|238:219|238:219|252:190|252:190|326:176,1,161.999995056153,2|0,1:2|0:0,0:1:0:0:
346,174,311695,1,12,0:0:0:0:
500,41,311864,1,2,1:2:0:0:
500,41,311948,1,2,1:2:0:0:
500,41,312032,6,2,L|480:194,1,107.999996704102,6|2,1:2|0:0,0:1:0:0:
332,281,312369,2,2,L|345:173,1,107.999996704102,10|2,0:0|0:0,0:1:0:0:
240,34,312706,1,2,1:2:0:0:
240,34,312875,2,2,P|189:56|195:136,1,107.999996704102,2|8,1:2|0:0,0:1:0:0:
211,331,313212,6,2,B|69:327|145:265|9:255,1,215.999993408203,6|2,1:0|1:2,0:1:0:0:
16,255,313718,2,0,L|123:241,1,107.999996704102,10|2,0:0|0:0,0:0:0:0:
287,151,314055,1,0,1:0:0:0:
287,151,314223,1,0,1:0:0:0:
463,286,314392,1,10,0:0:0:0:
456,328,314476,1,8,0:0:0:0:
449,370,314560,1,8,1:2:0:0:
358,277,314729,6,2,L|373:189,1,53.9999983520508,6|0,1:0|0:0,0:1:0:0:
384,150,314897,1,2,1:2:0:0:
279,0,315066,6,2,L|269:53,1,53.9999983520508,10|0,0:0|0:0,0:1:0:0:
384,150,315234,2,2,P|305:81|202:99,1,215.999993408203,6|2,1:0|1:2,0:1:0:0:
195,142,315656,1,0,1:0:0:0:
189,184,315740,1,14,0:0:0:0:
185,226,315824,1,8,0:0:0:0:
178,269,315909,1,14,1:0:0:0:
173,311,315993,1,8,0:0:0:0:
168,353,316077,1,2,1:2:0:0:
10,307,316246,5,8,0:0:0:0:
0,275,316330,1,8,0:0:0:0:
3,242,316414,1,8,0:0:0:0:
23,218,316498,1,8,0:0:0:0:
54,209,316583,1,8,0:3:0:0:
168,353,316751,5,8,1:3:0:0:
213,378,316835,1,8,0:3:0:0:
267,370,316920,1,4,0:3:0:0:
297,325,317004,1,4,0:3:0:0:
330,284,317088,1,8,0:0:0:0:
384,275,317173,1,8,0:0:0:0:
431,301,317257,2,0,L|512:315,1,53.9999983520508,0|0,1:0|0:0,0:0:0:0:
256,192,317425,5,4,1:2:0:0:
