osu file format v14

[General]
AudioFilename: audio.mp3
AudioLeadIn: 0
PreviewTime: 63774
Countdown: 0
SampleSet: Soft
StackLeniency: 0.6
Mode: 0
LetterboxInBreaks: 0
WidescreenStoryboard: 0

[Editor]
Bookmarks: 10010,130010
DistanceSpacing: 1
BeatDivisor: 4
GridSize: 32
TimelineZoom: 3.599998

[Metadata]
Title:FOUR SEASONS OF LONELINESS
TitleUnicode:FOUR SEASONS OF LONELINESS
Artist:Tatsh feat. Sariyajin
ArtistUnicode:Tatsh feat. Sariyajin
Creator:Bellicose
Version:Lunatic
Source:東方星蓮船 ~ Undefined Fantastic Object.
Tags:th12 Seirensen 東方Project 感情の摩天楼 Kanshou no Matenrou Hijiri Byakuren 聖 白蓮 touhou 清水達也 Tatsuya Shimizu Emotional Skyscraper Cosmic Mind FAR EAST OF EAST II japanese rock pop
BeatmapID:2759615
BeatmapSetID:1317849

[Difficulty]
HPDrainRate:5
CircleSize:4
OverallDifficulty:8
ApproachRate:9
SliderMultiplier:1.4
SliderTickRate:1

[Events]
//Background and Video events
0,0,"bg1.jpg",0,0
//Break Periods
2,228437,248661
//Storyboard Layer 0 (Background)
//Storyboard Layer 1 (Fail)
//Storyboard Layer 2 (Pass)
//Storyboard Layer 3 (Foreground)
//Storyboard Layer 4 (Overlay)
//Storyboard Sound Samples

[TimingPoints]
572,337.078651685393,4,2,1,50,1,0
10010,-100,4,2,1,55,0,0
11358,-100,4,2,1,60,0,0
21639,-83.3333333333333,4,2,1,70,0,0
22145,-111.111111111111,4,2,1,50,0,0
41021,-111.111111111111,4,2,1,60,0,0
42369,-100,4,2,1,60,0,0
42706,-166.666666666666,4,2,1,60,0,0
43212,-83.3333333333333,4,2,1,60,0,0
43718,-105.263157894737,4,2,1,55,0,0
47594,-100,4,2,1,55,0,0
48268,-90.9090909090909,4,2,1,55,0,0
49111,-105.263157894737,4,2,1,55,0,0
54504,-105.263157894737,4,2,1,60,0,0
57201,-90.9090909090909,4,2,1,65,0,0
61246,-90.9090909090909,4,2,1,65,0,0
61751,-76.9230769230769,4,2,1,70,0,0
62425,-83.3333333333333,4,2,1,70,0,0
62931,-90.9090909090909,4,2,1,65,0,0
63942,-83.3333333333333,4,2,1,75,0,1
73718,-76.9230769230769,4,2,1,75,0,1
74055,-83.3333333333333,4,2,1,75,0,1
85515,-125,4,2,1,60,0,0
86021,-100,4,2,1,60,0,0
86189,-100,4,2,1,70,0,0
86695,-71.4285714285714,4,2,1,80,0,0
86864,-71.4285714285714,4,2,1,80,0,1
87201,-83.3333333333333,4,2,1,75,0,1
107763,-83.3333333333333,4,2,1,70,0,1
108437,-105.263157894737,4,2,1,65,0,0
108605,-105.263157894737,4,2,1,55,0,0
113830,-105.263157894737,4,2,1,60,0,0
116864,-90.9090909090909,4,2,1,65,0,0
119223,-90.9090909090909,4,2,1,70,0,0
124616,-83.3333333333333,4,2,1,70,0,0
124954,-90.9090909090909,4,2,1,70,0,0
127313,-90.9090909090909,4,2,1,75,0,0
127819,-83.3333333333333,4,2,1,75,0,0
130010,-111.111111111111,4,2,1,50,0,0
138100,-111.111111111111,4,2,1,60,0,0
139448,-100,4,2,1,60,0,0
139954,-142.857142857143,4,2,1,60,0,0
140122,-83.3333333333333,4,2,1,60,0,0
140796,-105.263157894737,4,2,1,55,0,0
144673,-100,4,2,1,55,0,0
145347,-90.9090909090909,4,2,1,55,0,0
146189,-105.263157894737,4,2,1,55,0,0
151583,-105.263157894737,4,2,1,60,0,0
154279,-90.9090909090909,4,2,1,65,0,0
158830,-76.9230769230769,4,2,1,70,0,0
159504,-83.3333333333333,4,2,1,70,0,0
160010,-90.9090909090909,4,2,1,65,0,0
161021,-83.3333333333333,4,2,1,75,0,1
170796,-76.9230769230769,4,2,1,75,0,1
171133,-83.3333333333333,4,2,1,75,0,1
182594,-125,4,2,1,60,0,0
183100,-125,4,2,1,70,0,0
183268,-100,4,2,1,70,0,0
183774,-100,4,2,1,80,0,0
183942,-71.4285714285714,4,2,1,80,0,1
184279,-83.3333333333333,4,2,1,75,0,1
205515,-90.9090909090909,4,2,1,70,0,0
209560,-83.3333333333333,4,2,1,70,0,0
210909,-90.9090909090909,4,2,1,70,0,0
214616,-83.3333333333333,4,2,1,70,0,0
216302,-90.9090909090909,4,2,1,70,0,0
218998,-83.3333333333333,4,2,1,70,0,0
220347,-76.9230769230769,4,2,1,72,0,0
221021,-71.4285714285714,4,2,1,72,0,0
222032,-71.4285714285714,4,2,1,75,0,0
222706,-83.3333333333333,4,2,1,75,0,0
223043,-71.4285714285714,4,2,1,80,0,0
223380,-83.3333333333333,4,2,1,80,0,0
223718,-76.9230769230769,4,2,1,80,0,0
224392,-66.6666666666667,4,2,1,85,0,0
225403,-76.9230769230769,4,2,1,85,0,0
228437,-166.666666666667,4,2,1,30,0,0
248661,-250.000000000001,4,2,1,30,0,0
250010,-83.3333333333333,4,2,1,75,0,1
259785,-76.9230769230769,4,2,1,75,0,1
260122,-83.3333333333333,4,2,1,75,0,1
271583,-125,4,2,1,60,0,0
272088,-125,4,2,1,70,0,0
272257,-100,4,2,1,70,0,0
272763,-100,4,2,1,80,0,0
272931,-71.4285714285714,4,2,1,80,0,1
273268,-83.3333333333333,4,2,1,75,0,1
292819,-166.666666666667,4,2,1,75,0,0
295094,-166.666666666667,4,2,1,5,0,0
295178,-83.3333333333333,4,2,1,65,0,0
295852,-83.3333333333333,4,2,1,75,0,1
300909,-76.9230769230769,4,2,1,75,0,1
301077,-71.4285714285714,4,2,1,75,0,1
301246,-66.6666666666667,4,2,1,75,0,0
301751,-83.3333333333333,4,2,1,75,0,0
302257,-83.3333333333333,4,2,1,75,0,0
306639,-83.3333333333333,4,2,1,75,0,1
312032,-83.3333333333333,4,2,1,75,0,0
317425,-90.9090909090909,4,2,2,70,0,0
320122,-90.9090909090909,4,2,1,60,0,0
321302,-90.9090909090909,4,2,1,50,0,0
322819,-100,4,2,1,40,0,0
324167,-100,4,2,1,35,0,0
325515,-111.111111111111,4,2,1,30,0,0
325852,-125,4,2,1,30,0,0
326189,-142.857142857143,4,2,1,30,0,0
326695,-111.111111111111,4,2,1,25,0,0
328296,-111.111111111111,4,2,1,5,0,0

[Colours]
Combo1 : 140,149,251
Combo2 : 254,192,224
Combo3 : 202,186,250
Combo4 : 252,146,146

[HitObjects]
24,90,10010,6,0,L|84:98,1,35,4|0,1:2|1:0,0:0:0:0:
124,157,10178,1,8,0:0:0:0:
124,157,10263,1,8,0:0:0:0:
124,157,10347,2,0,L|182:139,3,35,8|8|4|4,0:3|0:3|0:3|0:3,0:0:0:0:
234,172,10684,5,8,1:2:0:0:
238,137,10768,1,8,0:0:0:0:
242,102,10852,1,8,0:0:0:0:
246,66,10937,1,8,0:0:0:0:
250,31,11021,1,8,1:2:0:0:
416,11,11189,2,0,L|406:62,1,35,8|8,0:3|0:3,0:0:0:0:
340,116,11358,6,0,P|388:126|438:145,1,70,4|0,1:2|1:0,0:0:0:0:
512,242,11695,1,10,0:0:0:0:
468,306,11864,2,0,B|375:305|417:281|301:279,1,140,2|2,0:0|0:0,0:0:0:0:
238,345,12369,1,10,0:0:0:0:
108,312,12538,1,2,1:2:0:0:
89,326,12875,5,2,1:2:0:0:
200,271,13043,1,10,0:0:0:0:
155,154,13212,2,0,P|103:142|17:203,1,140,2|0,0:0|1:0,0:0:0:0:
29,181,13718,2,0,P|52:118|53:87,1,70,8|0,0:0|1:0,0:0:0:0:
220,13,14055,5,6,1:2:0:0:
234,89,14223,1,0,1:0:0:0:
314,80,14392,1,10,0:0:0:0:
305,0,14560,2,0,P|358:13|393:22,1,70,2|0,0:0|1:0,0:0:0:0:
211,114,14897,2,0,P|188:166|176:192,1,70,2|10,0:0|0:0,0:0:0:0:
361,105,15234,6,0,B|371:188|389:155|402:264,1,140,2|0,1:2|1:0,0:0:0:0:
330,361,15740,1,8,0:0:0:0:
220,376,15909,2,0,P|230:319|231:276,1,70,2|0,1:2|1:0,0:0:0:0:
264,236,16246,1,0,1:0:0:0:
95,180,16414,2,0,P|27:201|19:206,1,70,8|0,0:0|1:0,0:0:0:0:
215,77,16751,6,0,P|233:23|243:-3,1,70,4|0,1:0|1:0,0:0:0:0:
113,104,17088,1,10,0:0:0:0:
222,191,17257,2,0,B|300:189|279:169|391:170,1,140,2|2,0:0|0:0,0:0:0:0:
497,127,17763,1,10,0:0:0:0:
418,18,17931,1,2,1:2:0:0:
393,18,18268,5,2,1:2:0:0:
478,142,18437,1,10,0:0:0:0:
339,185,18605,2,0,P|304:220|318:319,1,140,2|0,1:2|1:0,0:0:0:0:
307,305,19111,2,0,P|276:312|232:327,1,70,8|0,0:0|1:0,0:0:0:0:
469,353,19448,6,0,P|477:319|490:287,1,70,6|0,1:2|1:0,0:0:0:0:
339,185,19785,1,10,0:0:0:0:
268,221,19954,2,0,B|195:223|201:250|98:247,1,140,2|2,0:0|0:0,0:0:0:0:
13,195,20459,1,10,0:0:0:0:
114,52,20628,6,0,B|164:29|164:29|212:49|201:102,1,140,2|0,1:2|1:0,0:0:0:0:
0,208,21133,2,0,P|15:147|21:131,1,70,8|0,0:0|1:0,0:0:0:0:
93,133,21470,1,0,1:0:0:0:
269,316,21639,6,0,L|218:304,1,41.9999987182618,8|0,0:0|0:0,0:0:0:0:
138,255,21807,2,0,P|97:268|90:347,1,125.999996154785,8|0,0:0|0:0,0:0:0:0:
98,368,22145,6,0,P|150:356|171:347,1,62.9999980773926,4|0,1:2|1:0,0:0:0:0:
307,234,22482,2,0,P|319:181|317:153,1,62.9999980773926,10|2,0:0|1:2,0:0:0:0:
276,104,22819,1,2,0:0:0:0:
316,0,22987,2,0,P|350:12|387:21,1,62.9999980773926,2|8,1:2|0:0,0:0:0:0:
503,76,23324,6,0,P|463:120|386:85,1,125.999996154785,2|2,0:0|1:2,0:0:0:0:
158,16,23998,2,0,P|53:44|8:57,1,125.999996154785,2|2,0:0|1:2,0:0:0:0:
127,0,24504,1,8,0:0:0:0:
261,19,24673,1,2,1:2:0:0:
212,87,24841,6,0,P|199:124|192:156,1,62.9999980773926,2|0,1:2|1:0,0:0:0:0:
281,206,25178,1,10,0:0:0:0:
213,247,25347,2,0,B|131:257|162:227|62:232,1,125.999996154785,2|0,1:2|1:0,0:0:0:0:
34,285,25852,1,8,0:0:0:0:
292,356,26189,5,2,1:2:0:0:
346,304,26358,1,0,1:0:0:0:
400,356,26527,1,10,0:0:0:0:
305,379,26695,2,0,P|317:262|323:225,1,125.999996154785,2|2,1:2|1:2,0:0:0:0:
346,228,27116,1,0,1:0:0:0:
346,228,27201,2,0,P|400:218|425:218,1,62.9999980773926,8|0,0:0|1:0,0:0:0:0:
499,101,27538,6,0,P|512:43|518:21,1,62.9999980773926,4|0,1:0|1:0,0:0:0:0:
371,0,27875,2,0,P|318:12|289:16,1,62.9999980773926,10|0,0:0|1:0,0:0:0:0:
243,57,28212,1,2,0:0:0:0:
337,138,28380,2,0,P|328:181|324:207,1,62.9999980773926,2|8,1:2|0:0,0:0:0:0:
182,270,28718,6,0,P|176:221|232:171,1,125.999996154785,2|2,0:0|1:2,0:0:0:0:
365,366,29392,2,0,P|469:345|514:340,1,125.999996154785,2|2,1:2|1:2,0:0:0:0:
512,272,29897,1,8,0:0:0:0:
312,170,30234,5,2,1:2:0:0:
294,241,30403,1,0,1:0:0:0:
207,310,30571,1,8,0:0:0:0:
192,235,30740,1,2,1:2:0:0:
237,344,30909,1,2,1:2:0:0:
3,375,31246,2,0,P|16:323|22:292,1,62.9999980773926,8|0,0:0|1:0,0:0:0:0:
127,263,31583,6,0,P|140:206|78:167,1,125.999996154785,2|10,1:2|0:0,0:0:0:0:
46,231,32088,2,0,B|106:207|110:239|187:212,1,125.999996154785,2|6,1:2|1:0,0:0:0:0:
291,140,32594,1,8,0:0:0:0:
225,41,32763,1,0,1:0:0:0:
304,12,32931,6,0,P|348:23|388:38,1,62.9999980773926,4|0,1:2|1:0,0:0:0:0:
254,129,33268,2,0,P|269:186|271:217,1,62.9999980773926,10|2,0:0|1:2,0:0:0:0:
246,263,33605,1,2,0:0:0:0:
119,187,33774,2,0,P|70:175|36:169,1,62.9999980773926,2|8,1:2|0:0,0:0:0:0:
2,299,34111,6,0,P|58:311|136:334,1,125.999996154785,2|2,0:0|1:2,0:0:0:0:
354,377,34785,2,0,B|416:369|394:316|470:308,1,125.999996154785,2|2,1:2|1:2,0:0:0:0:
511,197,35291,1,8,0:0:0:0:
382,135,35459,1,0,1:0:0:0:
329,192,35628,6,0,P|345:235|352:272,1,62.9999980773926,2|0,1:2|1:0,0:0:0:0:
265,366,35965,1,10,0:0:0:0:
188,376,36133,2,0,B|190:312|212:315|213:236,1,125.999996154785,2|0,1:2|1:0,0:0:0:0:
169,190,36639,1,8,0:0:0:0:
315,22,36976,5,2,1:2:0:0:
374,73,37145,1,0,1:0:0:0:
407,3,37313,1,10,0:0:0:0:
292,51,37482,2,0,P|237:59|162:72,1,125.999996154785,2|2,1:2|1:2,0:0:0:0:
132,85,37903,1,0,1:0:0:0:
132,85,37987,2,0,P|148:27|154:5,1,62.9999980773926,8|0,0:0|1:0,0:0:0:0:
262,150,38324,6,0,P|273:207|276:222,1,62.9999980773926,4|0,1:0|1:0,0:0:0:0:
191,326,38661,2,0,P|145:342|125:346,1,62.9999980773926,10|0,0:0|1:0,0:0:0:0:
66,380,38998,1,2,0:0:0:0:
0,272,39167,2,0,P|24:220|28:202,1,62.9999980773926,2|8,1:2|0:0,0:0:0:0:
156,128,39504,6,0,B|147:200|122:180|128:249,1,125.999996154785,2|2,0:0|1:2,0:0:0:0:
317,145,40178,2,0,P|417:121|461:116,1,125.999996154785,2|2,1:2|1:0,0:0:0:0:
503,155,40684,1,8,0:0:0:0:
333,11,41021,5,14,0:0:0:0:
248,110,41189,1,0,1:0:0:0:
216,32,41358,5,8,0:0:0:0:
333,128,41527,1,2,1:2:0:0:
171,240,41695,2,0,P|160:195|155:177,1,62.9999980773926,10|0,0:0|1:0,0:0:0:0:
333,340,42032,1,8,0:3:0:0:
351,337,42116,1,8,0:3:0:0:
383,351,42201,1,8,1:2:0:0:
401,354,42285,1,8,0:0:0:0:
433,350,42369,6,0,B|431:320|444:286|444:286|487:276|490:222,1,140,6|10,1:0|0:0,0:0:0:0:
394,104,42875,2,0,P|379:154|375:173,1,62.9999980773926,6|0,1:0|0:0,0:0:0:0:
351,255,43212,6,0,B|315:224|280:238|280:238|236:290|191:259,1,167.999994873047,6|8,1:2|0:0,0:0:0:0:
132,304,43633,1,8,0:0:0:0:
140,325,43718,1,4,1:2:0:0:
263,364,44055,6,0,P|275:323|275:290,1,66.4999982242585,10|2,0:0|0:0,0:0:0:0:
140,169,44392,1,2,1:2:0:0:
82,215,44560,2,0,P|26:231|-8:238,1,66.4999982242585,2|8,0:0|0:0,0:0:0:0:
217,139,44897,2,0,B|219:62|235:87|243:-18,1,132.999996448517,2|2,1:2|1:2,0:0:0:0:
301,92,45403,1,8,0:0:0:0:
461,11,45740,5,0,1:0:0:0:
384,25,45909,1,2,1:2:0:0:
272,90,46077,1,8,0:0:0:0:
194,69,46246,1,0,1:0:0:0:
130,129,46414,6,0,P|41:106|-5:99,2,132.999996448517,0|10|2,1:0|0:0|1:2,0:0:0:0:
242,216,47257,2,0,P|291:197|316:192,1,66.4999982242585,2|8,0:0|0:0,0:0:0:0:
457,145,47594,1,6,1:0:0:0:
438,123,47931,5,2,1:2:0:0:
511,240,48100,1,8,0:0:0:0:
429,370,48268,2,0,P|391:358|389:252,1,154.000004699707,6|4,1:2|0:3,0:0:0:0:
401,273,48689,1,0,0:0:0:0:
393,304,48774,1,8,0:0:0:0:
369,329,48858,1,8,0:0:0:0:
343,338,48942,1,8,0:0:0:0:
313,332,49027,1,8,0:0:0:0:
290,315,49111,1,4,1:0:0:0:
43,373,49448,6,0,B|112:367|116:348|196:351,1,132.999996448517,10|2,0:0|1:2,0:0:0:0:
250,349,49954,2,0,P|262:297|270:268,1,66.4999982242585,2|8,0:0|0:0,0:0:0:0:
98,171,50291,6,0,B|151:147|151:147|193:179|178:230,2,132.999996448517,6|2|2,1:2|1:2|1:2,0:0:0:0:
42,223,51133,1,0,3:0:0:0:
54,262,51302,1,2,1:2:0:0:
124,309,51470,5,8,0:0:0:0:
114,192,51639,1,2,1:2:0:0:
42,103,51807,1,6,1:0:0:0:
16,129,52145,5,8,0:0:0:0:
105,21,52313,2,0,P|153:38|238:46,1,132.999996448517,2|0,1:2|1:0,0:0:0:0:
304,17,52819,1,8,0:0:0:0:
437,95,52987,1,2,1:2:0:0:
391,174,53156,6,0,P|340:178|302:115,1,132.999996448517,2|10,1:2|0:0,0:0:0:0:
334,250,53661,2,0,P|346:188|406:167,1,132.999996448517,2|8,1:2|0:3,0:0:0:0:
512,235,54167,1,8,0:0:0:0:
504,263,54251,1,8,0:0:0:0:
498,292,54336,1,4,0:3:0:0:
493,321,54420,1,4,0:3:0:0:
488,350,54504,6,0,P|435:360|406:371,1,66.4999982242585,14|0,0:1|1:0,0:0:0:0:
214,282,54841,1,10,0:0:0:0:
284,382,55010,2,0,P|294:340|304:292,1,66.4999982242585,2|8,1:2|0:0,0:0:0:0:
371,136,55347,2,0,P|350:78|336:58,1,66.4999982242585,2|8,1:2|0:0,0:0:0:0:
162,17,55684,2,0,P|98:35|85:40,1,66.4999982242585,2|8,1:2|0:0,0:0:0:0:
21,99,56021,1,0,0:0:0:0:
162,17,56189,1,8,0:0:0:0:
259,84,56358,1,0,1:0:0:0:
312,175,56527,5,10,0:0:0:0:
192,266,56695,1,0,1:0:0:0:
192,266,56779,1,0,1:0:0:0:
192,266,56864,2,0,P|205:208|206:180,1,66.4999982242585,10|8,0:0|0:3,0:0:0:0:
0,227,57201,6,0,B|7:312|28:299|38:411,1,154.000004699707,14|8,0:0|0:0,0:0:0:0:
124,209,57706,1,2,1:2:0:0:
287,264,57875,2,0,P|324:273|361:284,1,77.0000023498536,10|0,0:0|1:0,0:0:0:0:
476,233,58212,5,8,0:0:0:0:
291,362,58380,1,2,1:2:0:0:
291,362,58465,1,0,1:0:0:0:
291,362,58549,1,14,0:1:0:0:
368,185,58718,6,0,B|374:139|339:114|339:114|290:119|273:54,1,154.000004699707,0|10,1:0|0:0,0:0:0:0:
353,5,59223,1,2,1:2:0:0:
505,73,59392,1,8,0:3:0:0:
497,91,59476,1,8,0:3:0:0:
487,109,59560,1,8,0:0:0:0:
456,115,59645,1,8,0:0:0:0:
420,99,59729,1,8,0:0:0:0:
381,95,59813,1,8,0:0:0:0:
354,117,59897,5,0,1:0:0:0:
254,198,60066,1,0,1:0:0:0:
337,216,60234,5,8,0:0:0:0:
171,127,60403,1,0,1:0:0:0:
259,66,60571,5,0,3:0:0:0:
98,224,60740,1,0,1:0:0:0:
98,224,60824,1,0,1:0:0:0:
98,224,60909,1,8,0:0:0:0:
175,344,61077,5,8,0:3:0:0:
175,344,61161,1,8,0:3:0:0:
175,344,61246,2,0,B|224:352|224:352|264:378|264:378|321:379,1,154.000004699707,14|0,0:1|1:0,0:0:0:0:
474,210,61751,6,0,B|523:202|523:202|490:234,1,90.9999958343508,14|0,1:2|1:0,0:0:0:0:
291,140,62088,2,0,P|273:103|309:108,1,90.9999958343508,14|0,1:2|1:0,0:0:0:0:
353,290,62425,2,0,B|362:208|392:220|398:128,1,167.999994873047,14|0,1:0|1:0,0:0:0:0:
414,58,62847,1,0,1:0:0:0:
413,35,62931,1,8,0:0:0:0:
140,195,63268,1,0,1:0:0:0:
213,165,63437,1,8,0:3:0:0:
213,165,63521,1,8,0:3:0:0:
213,165,63605,1,4,0:3:0:0:
66,62,63774,2,0,L|53:114,1,38.5000011749268,8|8,0:0|0:0,0:0:0:0:
22,140,63942,6,0,P|86:152|122:161,1,83.9999974365235,6|0,1:2|0:0,0:0:0:0:
261,79,64279,1,10,0:0:0:0:
261,79,64448,2,0,P|261:12|227:-8,1,83.9999974365235,2|0,0:0|1:0,0:0:0:0:
392,198,64785,2,0,P|374:242|362:287,1,83.9999974365235,2|8,1:2|0:0,0:0:0:0:
253,382,65122,6,0,P|335:361|418:348,1,167.999994873047,2|2,1:2|1:2,0:0:0:0:
489,365,65628,1,10,0:0:0:0:
385,257,65796,1,2,0:0:0:0:
317,191,65965,5,2,1:2:0:0:
176,275,66133,2,0,P|165:227|151:180,1,83.9999974365235,2|8,1:2|0:0,0:0:0:0:
235,30,66470,1,2,1:2:0:0:
306,3,66639,6,0,B|309:89|346:74|335:193,1,167.999994873047,2|10,1:2|0:0,0:0:0:0:
291,232,67145,1,2,0:0:0:0:
427,97,67313,5,2,1:2:0:0:
253,164,67482,1,2,1:2:0:0:
374,242,67650,5,8,0:0:0:0:
141,120,67819,2,0,B|100:102|100:102|56:129|56:129|30:162|57:205,1,167.999994873047,6|0,1:2|1:0,0:0:0:0:
13,288,68324,2,0,B|100:287|118:250|175:249,1,167.999994873047,8|0,0:0|1:0,0:0:0:0:
76,188,68830,5,8,1:2:0:0:
254,366,68998,2,0,P|271:294|283:272,1,83.9999974365235,8|0,1:2|1:0,0:0:0:0:
420,154,69336,5,6,1:0:0:0:
487,196,69504,1,2,1:2:0:0:
500,124,69673,1,10,0:0:0:0:
386,187,69841,1,2,0:0:0:0:
250,21,70010,5,2,1:2:0:0:
179,46,70178,2,0,P|168:114|159:147,1,83.9999974365235,2|8,1:2|0:0,0:0:0:0:
333,295,70515,6,0,P|302:235|206:227,1,167.999994873047,6|2,1:0|1:2,0:0:0:0:
147,272,71021,2,0,P|75:252|31:248,1,83.9999974365235,10|2,0:0|0:0,0:0:0:0:
10,309,71358,1,2,1:2:0:0:
51,378,71527,1,2,1:2:0:0:
230,323,71695,1,8,0:0:0:0:
285,382,71864,6,0,B|275:288|317:306|314:208,1,167.999994873047,2|2,1:2|1:2,0:0:0:0:
376,170,72369,1,10,0:0:0:0:
242,40,72538,1,2,0:0:0:0:
308,0,72706,2,0,P|360:-11|393:88,1,167.999994873047,2|8,1:2|0:0,0:0:0:0:
176,206,73212,6,0,B|74:213|110:182|5:193,1,167.999994873047,6|0,1:2|1:0,0:0:0:0:
9,222,73718,2,0,B|79:214|79:214|115:190|115:190|194:183,1,181.999991668702,12|0,0:0|1:0,0:0:0:0:
247,136,74223,1,0,1:0:0:0:
382,288,74392,2,0,P|399:208|405:192,1,83.9999974365235,10|2,0:0|0:0,0:0:0:0:
473,144,74729,5,6,1:0:0:0:
512,229,74897,1,2,0:0:0:0:
469,318,75066,1,10,0:0:0:0:
316,369,75234,5,2,0:0:0:0:
239,237,75403,1,2,1:2:0:0:
341,131,75571,1,10,1:3:0:0:
341,131,75656,1,8,0:3:0:0:
341,131,75740,1,8,0:0:0:0:
399,225,75909,5,6,1:2:0:0:
214,12,76246,2,0,P|204:72|195:106,1,83.9999974365235,2|10,1:2|0:0,0:0:0:0:
292,35,76583,1,2,0:0:0:0:
136,179,76751,2,0,P|66:192|26:204,1,83.9999974365235,2|2,1:2|1:2,0:0:0:0:
9,135,77088,1,8,0:0:0:0:
204,252,77257,1,2,1:2:0:0:
269,324,77425,6,0,P|288:261|307:232,1,83.9999974365235,6|2,1:0|1:2,0:0:0:0:
159,358,77763,1,10,0:0:0:0:
30,278,77931,1,2,0:0:0:0:
10,356,78100,2,0,B|116:352|63:327|182:325,1,167.999994873047,2|10,1:2|0:0,0:0:0:0:
474,246,78605,6,0,B|421:240|421:240|368:218|368:218|278:201,1,167.999994873047,6|0,1:2|1:0,0:0:0:0:
379,314,79111,2,0,P|396:206|441:144,1,167.999994873047,8|0,0:0|1:0,0:0:0:0:
498,128,79616,1,0,1:0:0:0:
328,0,79785,2,0,P|249:16|222:19,1,83.9999974365235,14|2,0:0|1:2,0:0:0:0:
174,85,80122,5,6,1:2:0:0:
108,189,80291,1,2,0:0:0:0:
163,65,80459,1,10,0:0:0:0:
305,117,80628,1,2,0:0:0:0:
246,251,80796,1,2,1:2:0:0:
216,173,80965,1,10,1:3:0:0:
216,173,81049,1,8,0:3:0:0:
216,173,81133,1,8,0:0:0:0:
23,250,81302,6,0,P|65:330|155:325,1,167.999994873047,6|2,1:0|1:2,0:0:0:0:
365,384,81807,2,0,P|348:306|335:291,1,83.9999974365235,10|2,0:0|0:0,0:0:0:0:
268,351,82145,1,2,1:2:0:0:
430,278,82313,1,2,1:2:0:0:
358,122,82482,1,8,0:0:0:0:
358,122,82566,1,8,0:0:0:0:
358,122,82650,1,10,1:2:0:0:
284,172,82819,5,6,1:0:0:0:
391,212,82987,1,2,0:0:0:0:
467,181,83156,1,10,0:0:0:0:
490,143,83324,1,6,1:2:0:0:
203,230,83661,5,0,1:0:0:0:
199,238,83746,1,0,1:0:0:0:
195,246,83830,1,10,0:0:0:0:
235,263,83914,1,8,0:0:0:0:
257,300,83998,1,8,1:2:0:0:
253,344,84083,1,8,0:0:0:0:
235,378,84167,6,0,P|167:355|142:351,1,83.9999974365235,6|8,1:2|0:0,0:0:0:0:
117,372,84420,1,8,0:0:0:0:
117,372,84504,2,0,L|100:309,2,41.9999987182618,8|8|8,0:0|0:0|0:3,0:0:0:0:
0,235,84841,5,8,1:3:0:0:
33,251,84925,1,8,0:3:0:0:
72,249,85010,1,4,0:3:0:0:
99,215,85094,1,4,0:3:0:0:
118,177,85178,1,8,0:0:0:0:
155,161,85263,1,8,0:0:0:0:
196,167,85347,1,0,1:0:0:0:
272,214,85515,6,0,P|329:160|288:74,1,168,6|0,1:0|1:0,0:0:0:0:
228,33,86105,1,0,1:0:0:0:
211,21,86189,2,0,P|170:27|0:99,1,210,6|0,1:0|1:0,0:0:0:0:
119,7,86779,1,0,1:0:0:0:
98,17,86864,6,0,B|82:112|163:87|144:223,2,195.999994018555,6|8|0,1:2|0:0|1:0,0:0:0:0:
381,137,87875,2,0,P|442:121|454:80,1,83.9999974365235,10|2,0:0|1:2,0:0:0:0:
480,24,88212,6,0,P|427:-4|358:95,2,167.999994873047,2|8|0,1:2|0:0|1:0,0:0:0:0:
327,297,89223,2,0,P|310:220|302:197,1,83.9999974365235,10|2,0:0|1:2,0:0:0:0:
396,361,89560,6,0,P|463:306|435:214,1,167.999994873047,2|8,1:2|0:0,0:0:0:0:
286,198,90066,1,2,0:0:0:0:
231,256,90234,2,0,B|146:258|166:295|51:287,1,167.999994873047,2|8,1:2|0:0,0:0:0:0:
168,140,90740,1,0,1:0:0:0:
135,73,90909,2,0,P|87:57|19:155,1,167.999994873047,0|8,1:0|0:0,0:0:0:0:
307,94,91583,6,0,P|296:25|290:-1,1,83.9999974365235,2|0,1:2|1:0,0:0:0:0:
202,166,91920,2,0,P|178:230|152:276,1,83.9999974365235,10|0,0:0|1:0,0:0:0:0:
430,113,92257,2,0,B|441:180|465:213|475:305,2,167.999994873047,6|8|0,1:2|0:0|1:0,0:0:0:0:
481,293,93268,2,0,P|407:269|380:268,1,83.9999974365235,10|0,0:0|1:0,0:0:0:0:
271,363,93605,5,2,1:2:0:0:
300,290,93774,1,2,0:0:0:0:
195,232,93942,1,10,0:0:0:0:
202,277,94111,1,2,0:0:0:0:
300,185,94279,2,0,P|294:131|251:106,1,83.9999974365235,2|2,1:2|0:0,0:0:0:0:
206,80,94616,1,8,0:0:0:0:
20,219,94785,6,0,B|106:216|94:189|197:185,1,167.999994873047,6|0,1:0|1:0,0:0:0:0:
87,19,95291,2,0,P|29:27|12:138,1,167.999994873047,8|0,0:0|1:0,0:0:0:0:
343,0,95965,1,12,0:0:0:0:
412,33,96133,6,0,P|380:141|371:222,1,167.999994873047,0|0,1:0|1:0,0:0:0:0:
435,251,96555,1,0,1:0:0:0:
461,244,96639,2,0,P|488:216|470:163,1,83.9999974365235,12|0,1:2|0:0,0:0:0:0:
326,326,96976,1,10,1:2:0:0:
345,325,97060,1,8,0:0:0:0:
379,344,97145,1,8,0:3:0:0:
401,352,97229,1,8,0:3:0:0:
434,349,97313,1,4,0:3:0:0:
180,230,97482,1,8,0:0:0:0:
180,230,97566,1,8,0:0:0:0:
180,230,97650,6,0,B|81:228|97:269|-8:259,2,167.999994873047,6|8|0,1:0|0:0|1:0,0:0:0:0:
0,278,98661,2,0,P|19:206|24:178,1,83.9999974365235,10|0,0:0|1:0,0:0:0:0:
232,164,98998,6,0,P|269:235|225:302,1,167.999994873047,2|8,1:2|0:0,0:0:0:0:
116,242,99504,2,0,B|148:168|100:152|136:66,1,167.999994873047,2|0,0:0|0:0,0:0:0:0:
258,0,100010,1,8,0:0:0:0:
288,15,100094,1,8,0:0:0:0:
319,46,100178,1,10,1:2:0:0:
359,48,100263,1,8,0:0:0:0:
359,48,100347,5,6,1:0:0:0:
489,134,100515,1,2,0:0:0:0:
418,168,100684,1,10,0:0:0:0:
489,88,100852,5,6,1:2:0:0:
319,186,101021,1,2,0:0:0:0:
429,293,101189,2,0,P|479:279|546:269,1,83.9999974365235,2|8,1:2|0:0,0:0:0:0:
307,167,101527,6,0,P|251:183|228:295,1,167.999994873047,6|2,1:0|1:2,0:0:0:0:
296,331,101948,1,0,1:0:0:0:
322,346,102032,2,0,P|318:278|309:245,1,83.9999974365235,14|2,0:0|0:0,0:0:0:0:
185,110,102369,5,6,1:0:0:0:
87,167,102538,5,8,1:3:0:0:
1,146,102706,5,4,1:3:0:0:
193,147,102875,6,0,B|284:154|263:188|373:182,1,167.999994873047,6|0,1:2|1:0,0:0:0:0:
493,113,103380,2,0,P|499:20|424:5,2,167.999994873047,8|0|10,0:0|1:0|0:0,0:0:0:0:
341,2,104223,1,2,1:2:0:0:
274,41,104392,2,0,P|289:119|302:229,1,167.999994873047,2|8,1:2|0:0,0:0:0:0:
146,372,104897,2,0,P|153:297|172:203,1,167.999994873047,0|0,1:0|1:0,0:0:0:0:
271,310,105403,5,10,1:2:0:0:
51,210,105571,1,8,1:2:0:0:
204,105,105740,6,0,B|286:77|286:77|338:116|307:180,1,167.999994873047,6|8,1:0|0:0,0:0:0:0:
189,263,106246,2,0,B|110:269|123:325|-4:309,1,167.999994873047,6|0,1:0|1:0,0:0:0:0:
8,301,106667,1,0,1:0:0:0:
0,283,106751,2,0,B|54:253|104:284|104:284|126:373|246:346,1,251.999992309571,14|8,1:2|0:0,0:0:0:0:
289,368,107425,1,8,1:2:0:0:
467,150,107763,5,8,1:2:0:0:
492,172,107847,1,8,0:0:0:0:
502,204,107931,1,8,0:0:0:0:
493,233,108015,1,8,0:0:0:0:
467,256,108100,2,0,L|420:247,3,41.9999987182618,8|8|4|4,0:3|0:3|0:3|0:3,0:0:0:0:
323,292,108437,6,0,P|341:221|344:200,1,66.4999982242585,4|0,1:0|1:0,0:0:0:0:
291,111,108774,1,8,0:0:0:0:
339,47,108942,2,0,P|399:60|491:71,1,132.999996448517,0|0,1:0|0:0,0:0:0:0:
469,69,109448,2,0,P|409:81|389:87,1,66.4999982242585,8|0,0:0|1:0,0:0:0:0:
218,173,109785,6,0,P|165:162|135:159,1,66.4999982242585,0|0,1:0|1:0,0:0:0:0:
66,56,110122,1,8,0:0:0:0:
5,106,110291,2,0,P|16:160|29:244,1,132.999996448517,0|0,1:0|1:0,0:0:0:0:
2,313,110796,1,8,0:0:0:0:
2,313,110965,1,0,1:0:0:0:
142,374,111133,6,0,P|155:322|162:302,1,66.4999982242585,4|0,1:2|1:0,0:0:0:0:
283,245,111470,1,8,0:0:0:0:
345,294,111639,2,0,B|423:295|412:329|502:320,1,132.999996448517,0|0,1:0|0:0,0:0:0:0:
311,377,112145,2,0,P|260:363|223:357,1,66.4999982242585,8|0,0:0|1:0,0:0:0:0:
146,274,112482,6,0,P|137:247|224:194,1,132.999996448517,0|8,1:0|0:0,0:0:0:0:
282,201,112987,2,0,P|353:196|425:182,1,132.999996448517,0|0,1:0|1:0,0:0:0:0:
497,226,113493,5,12,0:1:0:0:
376,60,113661,1,0,1:0:0:0:
297,11,113830,6,0,P|286:63|275:94,1,66.4999982242585,6|0,1:0|1:0,0:0:0:0:
442,10,114167,1,8,0:0:0:0:
482,76,114336,2,0,B|488:120|488:120|506:155|506:155|515:227,1,132.999996448517,2|2,1:2|0:0,0:0:0:0:
339,149,114841,2,0,P|308:155|266:167,1,66.4999982242585,8|2,0:0|1:2,0:0:0:0:
370,325,115178,6,0,B|301:318|326:285|247:278,1,132.999996448517,0|8,1:0|0:0,0:0:0:0:
159,381,115684,2,0,P|128:349|153:261,1,132.999996448517,2|2,1:2|1:2,0:0:0:0:
17,178,116189,2,0,P|5:236|-5:259,1,66.4999982242585,8|0,0:0|1:0,0:0:0:0:
27,322,116527,5,0,1:0:0:0:
169,193,116695,1,0,1:0:0:0:
169,193,116779,1,0,1:0:0:0:
169,193,116864,2,0,P|243:143|244:81,1,154.000004699707,12|8,0:1|0:0,0:0:0:0:
170,1,117369,1,4,1:0:0:0:
29,80,117538,1,8,0:0:0:0:
29,80,117622,1,8,0:0:0:0:
29,80,117706,2,0,L|86:90,1,38.5000011749268,14|0,1:2|0:0,0:0:0:0:
151,148,117875,5,14,1:2:0:0:
184,159,117959,1,8,0:0:0:0:
211,148,118043,1,8,0:3:0:0:
232,122,118128,1,8,0:3:0:0:
235,108,118212,1,4,1:3:0:0:
268,93,118296,1,4,0:3:0:0:
310,98,118380,1,8,0:3:0:0:
337,122,118465,1,8,0:3:0:0:
341,139,118549,5,4,0:3:0:0:
497,192,118718,5,8,0:0:0:0:
473,200,118802,1,8,0:0:0:0:
437,222,118886,5,8,0:0:0:0:
413,230,118970,1,8,0:0:0:0:
364,229,119055,5,8,0:0:0:0:
340,237,119139,1,8,0:0:0:0:
290,227,119223,6,0,B|298:259|298:259|308:275|308:275|320:329,1,77.0000023498536,6|0,1:0|1:0,0:0:0:0:
110,372,119560,2,0,L|122:324,1,38.5000011749268,10|0,0:0|0:0,0:0:0:0:
49,270,119729,2,0,B|104:277|104:277|148:301|148:301|216:309,1,154.000004699707,2|0,0:0|0:0,0:0:0:0:
88,162,120234,1,8,0:0:0:0:
11,186,120403,6,0,P|-7:115|76:67,1,154.000004699707,2|0,1:2|1:0,0:0:0:0:
203,6,120909,2,0,P|187:54|182:84,1,77.0000023498536,8|0,0:0|0:0,0:0:0:0:
319,175,121246,2,0,B|381:180|374:202|456:212,1,115.50000352478,2|0,1:2|0:0,0:0:0:0:
456,224,121583,1,8,0:0:0:0:
499,157,121751,1,0,1:0:0:0:
372,29,121920,5,4,1:2:0:0:
395,104,122088,1,0,1:0:0:0:
271,251,122257,2,0,P|283:214|291:177,1,77.0000023498536,8|0,0:0|0:0,0:0:0:0:
503,295,122594,2,0,B|442:270|442:270|428:330|374:333,1,154.000004699707,2|8,1:2|0:0,0:0:0:0:
263,365,123100,2,0,B|183:376|183:376|253:341,1,154.000004699707,2|0,1:2|1:0,0:0:0:0:
97,304,123605,2,0,P|45:316|-2:324,1,77.0000023498536,8|0,0:0|1:0,0:0:0:0:
200,264,123942,5,0,1:0:0:0:
310,183,124111,1,8,0:0:0:0:
159,76,124279,2,0,L|174:121,1,38.5000011749268,8|0,0:0|0:0,0:0:0:0:
209,142,124448,2,0,L|195:90,1,38.5000011749268,8|0,0:3|0:0,0:0:0:0:
204,21,124616,6,0,B|179:80|179:80|197:107|197:107|166:190,2,167.999994873047,6|8|0,1:0|0:0|1:0,0:0:0:0:
46,189,125459,2,0,B|0:182|-2:121|-2:121|49:86,1,154.000004699707,2|0,0:0|1:0,0:0:0:0:
155,182,125965,2,0,B|235:193|213:231|318:222,1,154.000004699707,2|10,0:0|0:0,0:0:0:0:
416,92,126470,2,0,P|449:91|489:189,1,154.000004699707,2|2,1:2|1:2,0:0:0:0:
294,116,126976,1,10,0:0:0:0:
294,116,127060,2,0,P|305:55|311:28,1,77.0000023498536,2|0,0:0|0:0,0:0:0:0:
396,184,127313,6,0,L|407:230,1,38.5000011749268,6|2,1:2|0:0,0:0:0:0:
365,294,127482,2,0,L|398:259,1,38.5000011749268,2|0,1:2|0:0,0:0:0:0:
471,275,127651,2,0,L|427:252,1,38.5000011749268,10|0,0:0|0:0,0:0:0:0:
287,330,127819,6,0,B|236:337|236:337|217:357|217:357|161:367,1,125.999996154785,2|0,0:0|0:0,0:0:0:0:
142,369,128156,2,0,L|158:304,1,41.9999987182618,2|0,0:0|0:0,0:0:0:0:
262,243,128324,1,10,0:0:0:0:
127,151,128493,2,0,L|77:163,1,41.9999987182618,2|2,1:2|1:2,0:0:0:0:
17,192,128661,6,0,B|116:188|72:224|183:225,1,167.999994873047,10|8,0:0|0:0,0:0:0:0:
297,154,129167,2,0,L|308:100,1,41.9999987182618,8|4,0:3|0:3,0:0:0:0:
225,3,129336,1,8,1:2:0:0:
218,34,129420,1,8,0:0:0:0:
211,61,129504,1,8,0:0:0:0:
409,114,129673,2,0,B|451:107|447:57|447:57|395:19|395:19|367:29,1,167.999994873047,8|4,1:2|1:2,0:0:0:0:
312,81,130178,1,0,1:0:0:0:
480,194,130347,6,0,P|488:243|493:274,1,62.9999980773926,10|2,0:0|1:2,0:0:0:0:
464,326,130684,1,2,0:0:0:0:
334,383,130852,2,0,P|341:352|348:321,1,62.9999980773926,2|8,1:2|0:0,0:0:0:0:
301,177,131189,6,0,P|329:228|395:236,1,125.999996154785,2|2,0:0|1:2,0:0:0:0:
144,354,131864,2,0,B|69:354|91:326|7:329,1,125.999996154785,2|2,1:2|1:2,0:0:0:0:
120,379,132369,1,8,0:0:0:0:
227,322,132538,1,0,1:0:0:0:
175,256,132706,6,0,P|185:209|191:178,1,62.9999980773926,2|0,1:2|1:0,0:0:0:0:
114,119,133043,1,10,0:0:0:0:
47,151,133212,2,0,P|1:115|30:39,1,125.999996154785,2|0,1:2|1:0,0:0:0:0:
72,11,133718,1,8,0:0:0:0:
317,49,134055,5,2,1:2:0:0:
247,85,134223,1,0,1:0:0:0:
207,24,134392,1,10,0:0:0:0:
307,16,134560,2,0,P|289:91|281:148,1,125.999996154785,2|2,1:2|1:2,0:0:0:0:
273,179,134982,1,0,1:0:0:0:
273,179,135066,2,0,P|232:186|188:198,1,62.9999980773926,8|0,0:0|1:0,0:0:0:0:
69,252,135403,6,0,P|54:298|50:320,1,62.9999980773926,4|0,1:0|1:0,0:0:0:0:
85,384,135740,1,10,0:0:0:0:
85,384,135909,1,0,1:0:0:0:
195,316,136077,1,2,0:0:0:0:
195,316,136246,2,0,P|243:323|264:327,1,62.9999980773926,2|8,1:2|0:0,0:0:0:0:
373,383,136583,6,0,P|420:357|427:278,1,125.999996154785,2|2,0:0|1:2,0:0:0:0:
253,158,137257,2,0,P|270:67|283:12,1,125.999996154785,2|2,1:2|1:0,0:0:0:0:
346,6,137763,1,8,0:0:0:0:
161,193,138100,5,14,0:0:0:0:
273,130,138268,1,0,1:0:0:0:
203,77,138437,5,8,0:0:0:0:
89,0,138605,1,2,1:2:0:0:
0,153,138774,2,0,P|16:203|20:229,1,62.9999980773926,10|0,0:0|1:0,0:0:0:0:
138,384,139111,1,8,0:3:0:0:
141,366,139195,1,8,0:3:0:0:
165,340,139280,1,8,1:2:0:0:
174,324,139364,1,8,0:0:0:0:
181,293,139448,6,0,B|142:271|110:284|110:284|83:315|20:310,1,140,6|10,1:0|0:0,0:0:0:0:
163,192,139954,1,6,1:0:0:0:
289,356,140122,1,0,1:0:0:0:
289,356,140206,1,0,1:0:0:0:
289,356,140291,2,0,B|333:323|333:323|333:273|296:245|296:245|286:204|347:166,1,209.999993591309,6|0,1:2|0:0,0:0:0:0:
387,224,140796,1,4,1:2:0:0:
510,17,141133,6,0,P|461:27|422:40,1,66.4999982242585,10|2,0:0|0:0,0:0:0:0:
287,105,141470,1,2,1:2:0:0:
220,76,141639,2,0,P|233:37|241:-2,1,66.4999982242585,2|8,0:0|0:0,0:0:0:0:
355,176,141976,2,0,B|426:197|427:155|502:183,1,132.999996448517,2|2,1:2|1:2,0:0:0:0:
512,249,142482,1,8,0:0:0:0:
303,384,142819,5,0,1:0:0:0:
319,308,142987,1,2,1:2:0:0:
195,236,143156,1,8,0:0:0:0:
211,312,143324,1,0,1:0:0:0:
130,347,143493,6,0,P|85:380|11:360,2,132.999996448517,0|10|2,1:0|0:0|1:2,0:0:0:0:
211,246,144336,2,0,P|222:190|221:159,1,66.4999982242585,2|8,0:0|0:0,0:0:0:0:
142,33,144673,1,6,1:0:0:0:
131,16,145010,5,2,1:2:0:0:
2,72,145178,1,8,0:0:0:0:
57,217,145347,2,0,B|137:217|119:252|203:259,1,154.000004699707,6|4,1:2|0:3,0:0:0:0:
231,248,145768,1,0,0:0:0:0:
201,247,145852,1,8,0:0:0:0:
175,265,145937,1,8,0:0:0:0:
165,293,146021,1,8,0:0:0:0:
169,323,146105,1,8,0:0:0:0:
187,348,146189,1,4,1:0:0:0:
388,188,146527,5,10,0:0:0:0:
388,188,146695,1,2,0:0:0:0:
477,248,146864,1,2,1:2:0:0:
477,248,147032,2,0,P|464:297|461:330,1,66.4999982242585,2|8,0:0|0:0,0:0:0:0:
283,378,147369,6,0,P|319:373|351:281,2,132.999996448517,6|2|2,1:2|1:2|1:2,0:0:0:0:
224,328,148212,1,0,3:0:0:0:
213,298,148380,1,2,1:2:0:0:
249,220,148549,5,8,0:0:0:0:
363,138,148718,1,2,1:2:0:0:
299,16,148886,1,6,1:0:0:0:
274,3,149223,5,8,0:0:0:0:
143,110,149392,2,0,P|106:137|13:135,1,132.999996448517,2|0,1:2|1:0,0:0:0:0:
46,71,149897,1,8,0:0:0:0:
168,197,150066,1,2,1:2:0:0:
134,267,150234,6,0,B|65:274|70:297|6:303,1,132.999996448517,2|10,1:2|0:0,0:0:0:0:
79,173,150740,2,0,P|114:171|149:258,1,132.999996448517,2|8,1:2|0:3,0:0:0:0:
255,384,151246,1,8,0:0:0:0:
258,354,151330,1,8,0:0:0:0:
263,324,151415,1,4,0:3:0:0:
268,294,151499,1,4,0:3:0:0:
273,264,151583,6,0,P|326:254|359:252,1,66.4999982242585,14|0,0:1|1:0,0:0:0:0:
510,143,151920,1,10,0:0:0:0:
427,105,152088,2,0,P|435:160|443:189,1,66.4999982242585,2|8,1:2|0:0,0:0:0:0:
272,65,152425,2,0,P|264:8|256:-21,1,66.4999982242585,2|8,1:2|0:0,0:0:0:0:
130,170,152763,2,0,P|93:181|41:184,1,66.4999982242585,2|8,1:2|0:0,0:0:0:0:
0,255,153100,1,0,1:0:0:0:
146,152,153268,1,8,0:0:0:0:
219,262,153437,1,0,1:0:0:0:
293,331,153605,5,10,0:0:0:0:
406,237,153774,1,0,1:0:0:0:
406,237,153858,1,0,1:0:0:0:
406,237,153942,2,0,P|459:246|498:261,1,66.4999982242585,10|8,0:0|0:3,0:0:0:0:
250,380,154279,6,0,B|287:343|278:307|278:307|238:289|240:237,1,154.000004699707,14|8,0:0|0:0,0:0:0:0:
359,134,154785,1,2,1:2:0:0:
225,35,154954,2,0,P|170:22|135:10,1,77.0000023498536,10|0,0:0|1:0,0:0:0:0:
122,100,155291,5,8,0:0:0:0:
329,24,155459,1,2,1:2:0:0:
329,24,155543,1,0,1:0:0:0:
329,24,155628,1,14,0:1:0:0:
494,88,155796,6,0,B|507:162|460:161|465:259,1,154.000004699707,0|10,1:0|0:0,0:0:0:0:
429,323,156302,1,2,1:2:0:0:
255,378,156470,1,8,0:3:0:0:
243,358,156555,1,8,0:3:0:0:
235,336,156639,1,8,0:0:0:0:
246,298,156723,1,8,0:0:0:0:
276,277,156807,1,8,0:0:0:0:
315,273,156892,1,8,0:0:0:0:
338,237,156976,5,0,1:0:0:0:
219,168,157145,1,0,1:0:0:0:
173,231,157313,5,8,0:0:0:0:
318,137,157482,1,0,1:0:0:0:
393,175,157650,5,0,3:0:0:0:
242,27,157819,1,0,1:0:0:0:
242,27,157903,1,0,1:0:0:0:
242,27,157987,1,8,0:0:0:0:
111,100,158156,5,8,0:3:0:0:
111,100,158240,1,8,0:3:0:0:
111,100,158324,2,0,B|73:120|26:130|26:130|76:127|103:163,1,154.000004699707,14|0,0:1|1:0,0:0:0:0:
304,178,158830,6,0,B|362:196|362:196|321:208,1,90.9999958343508,14|0,1:2|1:0,0:0:0:0:
125,349,159167,2,0,B|132:311|132:311|144:295|144:295|153:253,1,90.9999958343508,14|0,1:2|1:0,0:0:0:0:
402,321,159504,2,0,B|310:310|340:283|221:272,1,167.999994873047,14|0,1:0|1:0,0:0:0:0:
215,349,159925,1,0,1:0:0:0:
223,376,160010,1,8,0:0:0:0:
457,208,160347,1,0,1:0:0:0:
512,280,160515,1,8,0:3:0:0:
512,280,160600,1,8,0:3:0:0:
512,280,160684,1,4,0:3:0:0:
347,168,160852,2,0,L|359:106,1,38.5000011749268,8|8,0:0|0:0,0:0:0:0:
404,114,161021,6,0,P|416:48|426:8,1,83.9999974365235,6|0,1:2|0:0,0:0:0:0:
252,196,161358,1,10,0:0:0:0:
252,196,161527,2,0,P|193:198|171:173,1,83.9999974365235,2|0,0:0|1:0,0:0:0:0:
33,15,161864,2,0,P|99:31|126:43,1,83.9999974365235,2|8,1:2|0:0,0:0:0:0:
270,0,162201,6,0,P|248:70|231:175,1,167.999994873047,2|2,1:2|1:2,0:0:0:0:
284,222,162706,1,10,0:0:0:0:
184,344,162875,1,2,0:0:0:0:
134,275,163043,5,2,1:2:0:0:
327,376,163212,2,0,P|345:300|349:275,1,83.9999974365235,2|8,1:2|0:0,0:0:0:0:
498,160,163549,1,2,1:2:0:0:
475,91,163718,6,0,B|404:85|397:134|302:117,1,167.999994873047,2|10,1:2|0:0,0:0:0:0:
238,95,164223,1,2,0:0:0:0:
350,36,164392,5,2,1:2:0:0:
474,183,164560,1,2,1:2:0:0:
493,76,164729,5,8,0:0:0:0:
293,211,164897,2,0,P|208:163|240:84,1,167.999994873047,6|0,1:2|1:0,0:0:0:0:
116,196,165403,2,0,P|102:259|94:370,1,167.999994873047,8|0,0:0|1:0,0:0:0:0:
231,292,165909,5,8,1:2:0:0:
84,98,166077,2,0,P|17:113|-28:127,1,83.9999974365235,8|0,1:2|1:0,0:0:0:0:
271,26,166414,5,6,1:0:0:0:
219,85,166583,1,2,1:2:0:0:
177,17,166751,1,10,0:0:0:0:
256,110,166920,1,2,0:0:0:0:
457,35,167088,5,2,1:2:0:0:
502,99,167257,2,0,P|489:154|486:190,1,83.9999974365235,2|8,1:2|0:0,0:0:0:0:
367,374,167594,6,0,P|306:326|345:245,1,167.999994873047,6|2,1:0|1:2,0:0:0:0:
404,288,168100,1,10,0:0:0:0:
479,263,168268,1,2,0:0:0:0:
380,135,168437,2,0,P|321:145|287:153,1,83.9999974365235,2|2,1:2|1:2,0:0:0:0:
182,321,168774,1,8,0:0:0:0:
108,364,168942,6,0,B|75:275|141:288|127:195,1,167.999994873047,2|2,1:2|1:2,0:0:0:0:
93,136,169448,1,10,0:0:0:0:
252,256,169616,1,2,0:0:0:0:
314,204,169785,2,0,P|378:192|481:180,1,167.999994873047,2|8,1:2|0:0,0:0:0:0:
283,11,170291,6,0,B|207:-7|207:-7|154:44|196:78,1,167.999994873047,6|0,1:2|1:0,0:0:0:0:
214,91,170796,2,0,B|294:109|294:109|344:61|305:19,1,181.999991668702,12|0,0:0|1:0,0:0:0:0:
234,0,171302,1,0,1:0:0:0:
84,112,171470,2,0,P|92:153|98:194,1,83.9999974365235,10|2,0:0|0:0,0:0:0:0:
198,252,171807,5,6,1:0:0:0:
130,344,171976,1,2,0:0:0:0:
36,298,172145,1,10,0:0:0:0:
217,227,172313,5,2,0:0:0:0:
325,367,172482,1,2,1:2:0:0:
474,297,172650,1,10,1:3:0:0:
474,297,172734,1,8,0:3:0:0:
474,297,172819,1,8,0:0:0:0:
385,212,172987,6,0,P|408:157|484:160,1,125.999996154785,6|0,1:2|0:0,0:0:0:0:
494,168,173324,2,0,P|482:110|475:67,1,83.9999974365235,2|10,1:2|0:0,0:0:0:0:
384,2,173661,1,2,0:0:0:0:
204,109,173830,2,0,P|262:94|313:89,1,83.9999974365235,2|2,1:2|1:2,0:0:0:0:
359,118,174167,1,8,0:0:0:0:
296,328,174336,1,2,1:2:0:0:
214,369,174504,6,0,P|204:312|190:268,1,83.9999974365235,6|2,1:0|1:2,0:0:0:0:
367,371,174841,1,10,0:0:0:0:
490,258,175010,1,2,0:0:0:0:
503,334,175178,2,0,B|419:338|425:293|332:289,1,167.999994873047,2|10,1:2|0:0,0:0:0:0:
49,174,175684,6,0,B|92:185|114:210|114:210|176:202|185:142,1,167.999994873047,6|0,1:2|1:0,0:0:0:0:
137,35,176189,2,0,P|81:11|30:104,1,167.999994873047,8|0,0:0|1:0,0:0:0:0:
47,159,176695,1,0,1:0:0:0:
275,20,176864,2,0,P|263:91|258:138,1,83.9999974365235,14|2,0:0|1:2,0:0:0:0:
310,205,177201,5,6,1:2:0:0:
385,307,177369,1,2,0:0:0:0:
294,187,177538,1,10,0:0:0:0:
422,105,177706,1,2,0:0:0:0:
511,226,177875,1,2,1:2:0:0:
432,198,178043,1,10,1:3:0:0:
432,198,178128,1,8,0:3:0:0:
432,198,178212,1,8,0:0:0:0:
279,289,178380,6,0,P|251:359|153:336,1,167.999994873047,6|2,1:0|1:2,0:0:0:0:
98,155,178886,2,0,P|125:80|151:59,1,83.9999974365235,10|2,0:0|0:0,0:0:0:0:
199,35,179223,1,2,1:2:0:0:
4,86,179392,1,2,1:2:0:0:
59,254,179560,1,8,0:0:0:0:
59,254,179645,1,8,0:0:0:0:
59,254,179729,1,10,1:2:0:0:
126,196,179897,5,6,1:0:0:0:
205,286,180066,1,2,0:0:0:0:
157,369,180234,1,10,0:0:0:0:
122,379,180403,1,6,1:2:0:0:
350,205,180740,5,0,1:0:0:0:
353,216,180824,1,0,1:0:0:0:
356,225,180909,1,10,0:0:0:0:
388,251,180993,1,8,0:0:0:0:
429,258,181077,1,8,1:2:0:0:
469,247,181161,1,8,0:0:0:0:
494,213,181246,6,0,P|477:142|459:98,1,83.9999974365235,6|8,1:2|0:0,0:0:0:0:
462,94,181498,1,8,0:0:0:0:
462,94,181583,2,0,L|403:113,2,41.9999987182618,8|8|8,0:0|0:0|0:3,0:0:0:0:
296,10,181920,5,8,1:3:0:0:
327,37,182004,1,8,0:3:0:0:
338,77,182088,1,4,0:3:0:0:
319,115,182173,1,4,0:3:0:0:
279,128,182257,1,8,0:0:0:0:
248,157,182341,1,8,0:0:0:0:
246,198,182425,1,0,1:0:0:0:
315,269,182594,6,0,P|314:323|204:358,1,168,6|0,1:0|1:0,0:0:0:0:
136,360,183184,1,0,1:0:0:0:
105,367,183268,2,0,P|128:282|141:140,1,210,6|0,1:0|1:0,0:0:0:0:
22,233,183858,1,0,1:0:0:0:
39,264,183942,6,0,B|151:286|117:232|249:278,2,195.999994018555,6|8|0,1:2|0:0|1:0,0:0:0:0:
236,17,184954,2,0,P|247:76|198:103,1,83.9999974365235,10|2,0:0|1:2,0:0:0:0:
148,3,185291,6,0,P|98:28|110:127,2,167.999994873047,2|8|0,1:2|0:0|1:0,0:0:0:0:
434,203,186302,2,0,P|445:158|454:108,1,83.9999974365235,10|2,0:0|1:2,0:0:0:0:
346,201,186639,6,0,P|327:259|323:373,1,167.999994873047,2|8,1:2|0:0,0:0:0:0:
191,269,187145,1,2,0:0:0:0:
122,310,187313,2,0,P|48:304|31:223,1,167.999994873047,2|8,1:2|0:0,0:0:0:0:
139,78,187819,1,0,1:0:0:0:
192,136,187987,2,0,B|269:138|287:104|372:104,1,167.999994873047,0|8,1:0|0:0,0:0:0:0:
171,303,188661,6,0,P|154:365|155:405,1,83.9999974365235,2|0,1:2|1:0,0:0:0:0:
321,288,188998,2,0,P|318:246|311:204,1,83.9999974365235,10|0,0:0|1:0,0:0:0:0:
86,88,189336,2,0,B|67:199|54:143|34:263,2,167.999994873047,6|8|0,1:2|0:0|1:0,0:0:0:0:
13,272,190347,2,0,P|82:255|110:252,1,83.9999974365235,10|0,0:0|1:0,0:0:0:0:
229,181,190684,5,2,1:2:0:0:
212,106,190852,1,2,0:0:0:0:
313,39,191021,1,10,0:0:0:0:
305,75,191189,1,2,0:0:0:0:
376,197,191358,2,0,P|410:224|462:204,1,83.9999974365235,2|2,1:2|0:0,0:0:0:0:
510,177,191695,1,8,0:0:0:0:
341,4,191864,6,0,B|258:10|262:37|155:36,1,167.999994873047,6|0,1:0|1:0,0:0:0:0:
66,186,192369,2,0,P|156:198|181:105,1,167.999994873047,8|0,0:0|1:0,0:0:0:0:
470,323,193043,1,12,0:0:0:0:
387,357,193212,6,0,P|402:251|411:172,1,167.999994873047,0|0,1:0|1:0,0:0:0:0:
380,112,193633,1,0,1:0:0:0:
356,105,193718,2,0,P|318:139|322:180,1,83.9999974365235,12|0,1:2|0:0,0:0:0:0:
186,326,194055,1,10,1:2:0:0:
167,325,194139,1,8,0:0:0:0:
133,344,194224,1,8,0:3:0:0:
111,352,194308,1,8,0:3:0:0:
78,349,194392,1,4,0:3:0:0:
337,261,194560,1,8,0:0:0:0:
337,261,194645,1,8,0:0:0:0:
337,261,194729,6,0,B|392:266|392:266|446:291|446:291|511:297,2,167.999994873047,6|8|0,1:0|0:0|1:0,0:0:0:0:
512,316,195740,2,0,P|503:253|496:211,1,83.9999974365235,10|0,0:0|1:0,0:0:0:0:
298,340,196077,6,0,P|315:261|331:156,1,167.999994873047,2|8,1:2|0:0,0:0:0:0:
442,150,196583,2,0,P|498:115|457:20,1,167.999994873047,2|0,0:0|0:0,0:0:0:0:
310,15,197088,1,8,0:0:0:0:
280,30,197172,1,8,0:0:0:0:
249,61,197256,1,10,1:2:0:0:
209,63,197341,1,8,0:0:0:0:
209,63,197425,5,6,1:0:0:0:
96,164,197594,1,2,0:0:0:0:
24,130,197763,1,10,0:0:0:0:
92,58,197931,5,6,1:2:0:0:
211,176,198100,1,2,0:0:0:0:
95,258,198268,2,0,P|47:272|2:287,1,83.9999974365235,2|8,1:2|0:0,0:0:0:0:
230,161,198605,6,0,P|213:252|202:345,1,167.999994873047,6|2,1:0|1:2,0:0:0:0:
262,384,199027,1,0,1:0:0:0:
288,381,199111,2,0,P|321:341|311:296,1,83.9999974365235,14|2,0:0|0:0,0:0:0:0:
371,146,199448,5,6,1:0:0:0:
511,211,199616,5,8,1:3:0:0:
487,105,199785,5,4,1:3:0:0:
351,181,199954,6,0,B|267:185|275:143|166:147,1,167.999994873047,6|0,1:2|1:0,0:0:0:0:
74,7,200459,2,0,B|6:32|6:32|-18:80|21:119,2,167.999994873047,8|0|10,0:0|1:0|0:0,0:0:0:0:
236,74,201302,1,2,1:2:0:0:
298,25,201470,2,0,P|280:127|270:207,1,167.999994873047,2|8,1:2|0:0,0:0:0:0:
127,370,201976,2,0,P|164:287|251:287,1,167.999994873047,0|0,1:0|1:0,0:0:0:0:
328,334,202482,5,10,1:2:0:0:
177,190,202650,1,8,1:2:0:0:
360,107,202819,6,0,B|451:83|451:83|489:135|450:165,1,167.999994873047,6|8,1:0|0:0,0:0:0:0:
325,262,203324,2,0,B|371:239|407:265|407:265|421:325|501:319,1,167.999994873047,6|0,1:0|1:0,0:0:0:0:
497,309,203746,1,0,1:0:0:0:
512,294,203830,2,0,B|364:260|434:405|272:352,1,251.999992309571,14|0,1:2|1:0,0:0:0:0:
222,292,204504,2,0,L|238:219,3,41.9999987182618,8|8|4|4,0:3|0:3|0:3|0:3,0:0:0:0:
250,203,204841,5,8,0:0:0:0:
231,165,204925,1,8,0:0:0:0:
189,156,205010,1,8,0:0:0:0:
149,169,205094,1,8,0:0:0:0:
110,152,205178,1,8,1:2:0:0:
91,113,205263,1,8,0:0:0:0:
102,72,205347,1,8,0:0:0:0:
139,54,205431,1,8,0:0:0:0:
139,54,205515,6,0,B|185:36|185:36|235:48|235:48|304:26,2,154.000004699707,6|8|0,1:2|0:0|1:0,0:0:0:0:
48,22,206358,1,0,1:0:0:0:
16,108,206527,1,8,0:0:0:0:
108,148,206695,2,0,P|93:202|73:315,1,154.000004699707,0|0,1:0|1:0,0:0:0:0:
105,373,207201,1,8,0:0:0:0:
306,229,207538,2,0,P|252:239|212:249,1,77.0000023498536,0|0,1:0|1:0,0:0:0:0:
366,362,207875,2,0,P|375:317|388:266,1,77.0000023498536,8|0,0:0|1:0,0:0:0:0:
495,239,208212,6,0,P|502:177|449:133,1,115.50000352478,2|0,1:2|0:0,0:0:0:0:
443,139,208549,1,10,0:0:0:0:
352,36,208718,2,0,P|409:25|440:16,1,77.0000023498536,2|0,0:0|1:0,0:0:0:0:
237,120,209055,5,2,1:2:0:0:
166,177,209223,1,10,0:0:0:0:
89,86,209392,2,0,L|102:24,1,38.5000011749268,2|0,0:0|0:0,0:0:0:0:
193,203,209560,6,0,B|102:196|135:238|12:229,2,167.999994873047,6|8|0,1:2|0:0|1:0,0:0:0:0:
331,323,210403,1,8,1:2:0:0:
247,371,210571,6,0,L|260:292,1,41.9999987182618,10|0,0:0|0:0,0:0:0:0:
393,269,210740,2,0,L|406:190,1,41.9999987182618,2|0,1:2|0:0,0:0:0:0:
498,354,210909,6,0,P|477:283|394:264,1,154.000004699707,4|8,1:0|0:0,0:0:0:0:
328,96,211414,1,2,0:0:0:0:
328,96,211498,1,2,0:0:0:0:
328,96,211583,2,0,P|343:25|351:-7,1,77.0000023498536,2|2,1:2|1:2,0:0:0:0:
164,181,211920,2,0,P|79:200|-2:211,1,154.000004699707,8|6,0:0|1:0,0:0:0:0:
184,101,212425,5,0,1:0:0:0:
273,183,212594,1,10,0:0:0:0:
347,244,212763,5,0,3:0:0:0:
347,244,212847,1,0,3:0:0:0:
347,244,212931,1,2,1:2:0:0:
452,188,213100,1,0,1:0:0:0:
512,247,213268,2,0,P|502:191|492:151,1,77.0000023498536,10|0,0:0|1:0,0:0:0:0:
342,8,213605,5,2,0:0:0:0:
333,30,213689,1,2,0:0:0:0:
350,55,213774,1,2,1:0:0:0:
341,79,213858,1,2,0:0:0:0:
325,105,213942,2,0,P|288:122|196:68,1,154.000004699707,10|2,0:0|1:2,0:0:0:0:
64,177,214448,1,2,0:2:0:0:
68,161,214532,1,2,0:2:0:0:
73,143,214616,1,14,0:0:0:0:
161,243,214785,6,0,B|73:245|101:285|1:290,1,167.999994873047,2|0,1:2|1:0,0:0:0:0:
180,215,215291,1,14,0:0:0:0:
307,378,215459,6,0,P|365:362|365:252,1,167.999994873047,2|0,0:0|1:0,0:0:0:0:
288,191,215965,2,0,P|266:253|261:301,1,83.9999974365235,8|0,0:0|0:0,0:0:0:0:
145,368,216302,6,0,P|131:314|110:274,1,77.0000023498536,6|2,1:0|0:0,0:0:0:0:
9,192,216639,2,0,P|80:203|97:211,1,77.0000023498536,10|2,0:0|0:0,0:0:0:0:
233,107,216976,1,2,1:2:0:0:
163,75,217145,2,0,P|175:10|186:-22,1,77.0000023498536,2|10,1:2|0:0,0:0:0:0:
378,54,217482,2,0,L|364:99,1,38.5000011749268,2|2,0:0|0:0,0:0:0:0:
361,135,217650,6,0,P|425:119|465:114,1,77.0000023498536,6|2,1:2|1:2,0:0:0:0:
512,106,217903,1,2,1:2:0:0:
504,86,217987,2,0,P|491:141|485:177,1,77.0000023498536,10|2,0:0|0:0,0:0:0:0:
362,352,218324,5,2,1:2:0:0:
420,245,218493,1,2,1:2:0:0:
497,304,218661,5,10,0:0:0:0:
511,349,218830,1,0,1:0:0:0:
306,221,218998,6,0,P|244:235|214:243,1,83.9999974365235,6|0,1:0|1:0,0:0:0:0:
348,329,219336,2,0,P|273:344|200:364,1,125.999996154785,10|2,0:0|0:0,0:0:0:0:
198,371,219673,1,0,1:0:0:0:
293,240,219841,1,2,1:2:0:0:
208,153,220010,2,0,P|152:155|113:240,1,125.999996154785,10|0,0:0|0:0,0:0:0:0:
28,161,220347,6,0,P|42:94|62:46,1,90.9999958343508,6|0,1:2|1:0,0:0:0:0:
287,5,220684,2,0,B|365:12|354:43|439:56,1,136.499993751526,10|0,0:0|0:0,0:0:0:0:
487,68,221021,5,2,1:2:0:0:
394,13,221189,5,2,1:2:0:0:
256,25,221358,5,14,0:0:0:0:
142,163,221527,6,0,L|157:112,1,48.9999985046387,2|2,1:2|0:0,0:0:0:0:
179,262,221695,6,0,P|262:244|270:170,1,146.999995513916,6|0,1:2|0:0,0:0:0:0:
265,208,222032,2,0,B|207:220|212:119|277:77|377:107|389:186|367:240,1,293.999991027832,10|0,0:0|1:0,0:0:0:0:
360,254,222622,1,0,1:0:0:0:
356,286,222706,2,0,P|382:296|417:293,1,41.9999987182618,10|2,0:0|0:0,0:0:0:0:
477,368,222875,2,0,P|494:344|493:310,1,41.9999987182618,2|2,1:2|0:0,0:0:0:0:
440,242,223043,6,0,B|311:241|370:327|225:309,1,195.999994018555,6|10,1:0|0:0,0:0:0:0:
209,365,223465,1,0,3:0:0:0:
188,370,223549,1,2,3:0:0:0:
161,358,223633,1,0,3:0:0:0:
137,372,223718,2,0,P|131:305|115:258,1,90.9999958343508,2|0,1:2|1:0,0:0:0:0:
15,37,224055,1,8,0:0:0:0:
0,75,224139,1,8,0:0:0:0:
20,124,224223,1,8,1:2:0:0:
5,162,224307,1,8,0:0:0:0:
5,162,224392,6,0,P|81:181|125:68,1,210.000008010865,6|8,1:0|0:0,0:0:0:0:
284,0,224897,2,0,P|265:83|257:173,1,157.500006008148,4|2,1:0|0:0,0:0:0:0:
285,237,225234,1,2,1:2:0:0:
292,248,225319,1,2,1:2:0:0:
334,267,225403,1,10,0:0:0:0:
372,254,225487,1,8,0:0:0:0:
385,215,225571,1,8,0:0:0:0:
421,196,225656,1,8,0:0:0:0:
460,205,225740,6,0,P|500:171|490:113,1,90.9999958343508,2|10,1:2|0:0,0:0:0:0:
470,46,225993,1,10,0:0:0:0:
459,30,226077,2,0,L|384:51,2,45.4999979171754,10|10|10,0:0|0:0|0:3,0:0:0:0:
267,85,226414,5,10,1:2:0:0:
275,100,226498,1,10,0:3:0:0:
317,73,226583,5,6,0:3:0:0:
288,44,226667,1,2,1:2:0:0:
247,50,226751,5,10,0:0:0:0:
222,83,226836,1,10,0:0:0:0:
231,122,226920,5,2,1:2:0:0:
140,153,250010,6,0,P|64:170|41:178,1,83.9999974365235,6|0,1:2|0:0,0:0:0:0:
245,293,250347,1,10,0:0:0:0:
245,293,250515,2,0,P|213:330|223:379,1,83.9999974365235,2|0,0:0|1:0,0:0:0:0:
399,215,250852,2,0,P|388:154|375:99,1,83.9999974365235,2|8,1:2|0:0,0:0:0:0:
274,18,251189,6,0,P|332:35|446:56,1,167.999994873047,2|2,1:2|1:2,0:0:0:0:
512,50,251695,1,10,0:0:0:0:
412,143,251864,1,2,0:0:0:0:
312,193,252032,5,2,1:2:0:0:
159,84,252201,2,0,P|176:133|185:184,1,83.9999974365235,2|8,1:2|0:0,0:0:0:0:
16,291,252538,1,2,1:2:0:0:
39,220,252706,6,0,B|123:216|122:263|214:269,1,167.999994873047,2|10,1:2|0:0,0:0:0:0:
273,272,253212,1,2,0:0:0:0:
211,177,253380,5,2,1:2:0:0:
78,335,253549,1,2,1:2:0:0:
17,206,253718,5,8,0:0:0:0:
221,360,253886,2,0,P|298:334|298:242,1,167.999994873047,6|0,1:2|1:0,0:0:0:0:
407,156,254392,2,0,P|418:248|508:260,1,167.999994873047,8|0,0:0|1:0,0:0:0:0:
502,94,254897,5,8,1:2:0:0:
252,177,255066,2,0,P|269:98|274:73,1,83.9999974365235,8|0,1:2|1:0,0:0:0:0:
206,10,255403,5,6,1:0:0:0:
206,10,255571,1,2,1:2:0:0:
361,159,255740,1,10,0:0:0:0:
361,159,255909,1,2,0:0:0:0:
248,327,256077,5,2,1:2:0:0:
187,279,256246,2,0,P|144:288|90:303,1,83.9999974365235,2|8,1:2|0:0,0:0:0:0:
6,114,256583,6,0,P|3:172|107:206,1,167.999994873047,6|2,1:0|1:2,0:0:0:0:
152,159,257088,2,0,P|165:87|175:54,1,83.9999974365235,10|2,0:0|0:0,0:0:0:0:
245,77,257425,1,2,1:2:0:0:
287,15,257594,1,2,1:2:0:0:
450,101,257763,1,8,0:0:0:0:
432,173,257931,6,0,B|344:181|357:223|246:222,1,167.999994873047,2|2,1:2|1:2,0:0:0:0:
211,271,258437,1,10,0:0:0:0:
357,370,258605,1,2,0:0:0:0:
434,379,258774,2,0,P|484:363|482:253,1,167.999994873047,2|8,1:2|0:0,0:0:0:0:
353,77,259279,6,0,B|364:129|364:129|349:175|349:175|362:240,1,167.999994873047,6|0,1:2|1:0,0:0:0:0:
393,236,259785,2,0,B|369:133|349:177|323:59,1,181.999991668702,12|0,0:0|1:0,0:0:0:0:
356,0,260291,1,0,1:0:0:0:
151,107,260459,2,0,P|132:158|123:203,1,83.9999974365235,10|2,0:0|0:0,0:0:0:0:
192,267,260796,5,6,1:0:0:0:
38,137,260965,1,2,0:0:0:0:
239,83,261133,1,10,0:0:0:0:
95,33,261302,5,2,0:0:0:0:
252,182,261470,1,2,1:2:0:0:
41,254,261639,1,10,1:3:0:0:
41,254,261723,1,8,0:3:0:0:
41,254,261807,1,8,0:0:0:0:
146,174,261976,5,6,1:2:0:0:
311,371,262313,2,0,P|300:334|289:259,1,83.9999974365235,2|10,1:2|0:0,0:0:0:0:
208,349,262650,1,2,0:0:0:0:
347,216,262819,2,0,P|404:205|457:186,1,83.9999974365235,2|2,1:2|1:2,0:0:0:0:
492,242,263156,1,8,0:0:0:0:
331,89,263324,1,2,1:2:0:0:
260,17,263493,6,0,P|242:79|237:112,1,83.9999974365235,6|2,1:0|1:2,0:0:0:0:
396,12,263830,1,10,0:0:0:0:
512,104,263998,1,2,0:0:0:0:
487,32,264167,2,0,B|411:44|434:76|321:90,1,167.999994873047,2|10,1:2|0:0,0:0:0:0:
43,195,264673,6,0,B|87:175|127:191|127:191|146:236|216:227,1,167.999994873047,6|0,1:2|1:0,0:0:0:0:
136,113,265178,2,0,P|124:164|100:310,1,167.999994873047,8|0,0:0|1:0,0:0:0:0:
114,353,265684,1,0,1:0:0:0:
387,248,265852,2,0,P|345:254|304:262,1,83.9999974365235,14|2,0:0|1:2,0:0:0:0:
243,332,266189,5,6,1:2:0:0:
289,158,266358,1,2,0:0:0:0:
229,311,266527,1,10,0:0:0:0:
396,373,266695,1,2,0:0:0:0:
456,210,266864,1,2,1:2:0:0:
377,265,267032,1,10,1:3:0:0:
377,265,267116,1,8,0:3:0:0:
377,265,267201,1,8,0:0:0:0:
235,141,267369,6,0,B|328:133|315:103|430:97,1,167.999994873047,6|2,1:0|1:2,0:0:0:0:
165,0,267875,2,0,P|149:71|145:107,1,83.9999974365235,10|2,0:0|0:0,0:0:0:0:
235,51,268212,1,2,1:2:0:0:
53,123,268380,1,2,1:2:0:0:
123,291,268549,1,8,0:0:0:0:
123,291,268633,1,8,0:0:0:0:
123,291,268718,1,10,1:2:0:0:
211,263,268886,5,6,1:0:0:0:
124,181,269055,1,2,0:0:0:0:
30,208,269223,1,10,0:0:0:0:
6,244,269392,1,6,1:2:0:0:
273,380,269729,5,0,1:0:0:0:
276,367,269813,1,0,1:0:0:0:
279,354,269897,1,10,0:0:0:0:
303,319,269982,1,8,0:0:0:0:
341,302,270066,1,8,1:2:0:0:
382,309,270150,1,8,0:0:0:0:
416,332,270234,6,0,P|431:264|449:225,1,83.9999974365235,6|8,1:2|0:0,0:0:0:0:
464,218,270487,1,8,0:0:0:0:
464,218,270571,2,0,L|520:234,2,41.9999987182618,8|8|8,0:0|0:0|0:3,0:0:0:0:
294,219,270909,5,8,1:3:0:0:
311,185,270993,1,8,0:3:0:0:
305,147,271078,1,4,0:3:0:0:
276,122,271162,1,4,0:3:0:0:
239,100,271246,1,8,0:0:0:0:
221,61,271331,1,8,0:0:0:0:
236,22,271415,1,0,1:0:0:0:
336,0,271583,6,0,P|413:11|510:39,1,168,6|0,1:0|1:0,0:0:0:0:
498,127,272173,1,0,1:0:0:0:
474,109,272257,2,0,P|402:115|393:252,1,210,6|0,1:0|1:0,0:0:0:0:
466,311,272847,1,0,1:0:0:0:
496,292,272931,6,0,B|397:275|423:347|283:322,2,195.999994018555,6|8|0,1:2|0:0|1:0,0:0:0:0:
171,100,273942,2,0,P|141:130|143:176,1,83.9999974365235,10|2,0:0|1:2,0:0:0:0:
275,165,274279,6,0,P|260:54|245:-13,2,167.999994873047,2|8|0,1:2|0:0|1:0,0:0:0:0:
69,383,275291,2,0,P|35:351|33:303,1,83.9999974365235,10|2,0:0|1:2,0:0:0:0:
124,268,275628,6,0,P|201:279|301:312,1,167.999994873047,2|8,1:2|0:0,0:0:0:0:
149,136,276133,1,2,0:0:0:0:
86,183,276302,2,0,B|100:98|147:116|146:27,1,167.999994873047,2|8,1:2|0:0,0:0:0:0:
325,0,276807,1,0,1:0:0:0:
360,72,276976,2,0,P|440:103|492:46,1,167.999994873047,0|8,1:0|0:0,0:0:0:0:
306,358,277650,6,0,P|263:364|201:377,1,83.9999974365235,2|0,1:2|1:0,0:0:0:0:
371,260,277987,2,0,P|416:266|462:278,1,83.9999974365235,10|0,0:0|1:0,0:0:0:0:
225,166,278324,2,0,B|301:158|314:131|417:123,2,167.999994873047,6|8|0,1:2|0:0|1:0,0:0:0:0:
407,142,279336,2,0,P|388:69|372:36,1,83.9999974365235,10|0,0:0|1:0,0:0:0:0:
217,0,279673,5,2,1:2:0:0:
199,77,279841,1,2,0:0:0:0:
309,151,280010,1,10,0:0:0:0:
303,113,280178,1,2,0:0:0:0:
142,216,280347,2,0,P|108:239|44:222,1,83.9999974365235,2|2,1:2|0:0,0:0:0:0:
17,175,280684,1,8,0:0:0:0:
219,381,280852,6,0,B|214:294|252:302|251:202,1,167.999994873047,6|0,1:0|1:0,0:0:0:0:
421,147,281358,2,0,P|455:199|371:262,1,167.999994873047,8|0,0:0|1:0,0:0:0:0:
97,17,282032,1,12,0:0:0:0:
59,102,282201,6,0,P|170:78|249:65,1,167.999994873047,0|0,1:0|1:0,0:0:0:0:
297,26,282622,1,0,1:0:0:0:
316,40,282706,2,0,P|300:107|294:154,1,83.9999974365235,12|0,1:2|0:0,0:0:0:0:
368,284,283043,1,10,1:2:0:0:
375,261,283128,1,8,0:0:0:0:
398,230,283212,1,8,0:3:0:0:
394,202,283296,1,8,0:3:0:0:
405,181,283380,1,4,0:3:0:0:
130,222,283549,1,8,0:0:0:0:
130,222,283633,1,8,0:0:0:0:
130,222,283718,6,0,B|125:314|168:293|164:405,2,167.999994873047,6|8|0,1:0|0:0|1:0,0:0:0:0:
181,375,284729,2,0,P|139:365|96:359,1,83.9999974365235,10|0,0:0|1:0,0:0:0:0:
205,180,285066,6,0,P|122:193|40:213,1,167.999994873047,2|8,1:2|0:0,0:0:0:0:
204,282,285571,2,0,B|289:292|273:320|384:321,1,167.999994873047,2|0,0:0|0:0,0:0:0:0:
491,228,286077,1,8,0:0:0:0:
505,190,286161,1,8,0:0:0:0:
489,147,286246,1,10,1:2:0:0:
448,128,286330,1,8,0:0:0:0:
448,128,286414,5,6,1:0:0:0:
305,219,286583,1,2,0:0:0:0:
344,156,286751,1,10,0:0:0:0:
402,252,286920,5,6,1:2:0:0:
227,137,287088,1,2,0:0:0:0:
370,37,287257,2,0,P|356:85|349:135,1,83.9999974365235,2|8,1:2|0:0,0:0:0:0:
163,298,287594,6,0,P|156:215|137:116,1,167.999994873047,6|2,1:0|1:2,0:0:0:0:
61,169,288015,1,0,1:0:0:0:
44,149,288100,2,0,P|45:97|90:70,1,83.9999974365235,14|2,0:0|0:0,0:0:0:0:
239,168,288437,5,6,1:0:0:0:
326,79,288605,5,8,1:3:0:0:
261,0,288774,5,4,1:3:0:0:
209,200,288942,6,0,B|310:192|261:167|405:157,1,167.999994873047,6|0,1:2|1:0,0:0:0:0:
504,296,289448,2,0,P|465:367|373:359,2,167.999994873047,8|0|10,0:0|1:0|0:0,0:0:0:0:
320,221,290291,1,2,1:2:0:0:
290,291,290459,2,0,P|220:300|100:330,1,167.999994873047,2|8,1:2|0:0,0:0:0:0:
39,107,290965,2,0,P|141:123|214:139,1,167.999994873047,0|0,1:0|1:0,0:0:0:0:
170,42,291470,5,10,1:2:0:0:
0,185,291639,1,8,1:2:0:0:
143,349,291807,6,0,B|198:326|188:271|188:271|141:248|156:180,1,167.999994873047,6|8,1:0|0:0,0:0:0:0:
301,300,292313,2,0,P|384:309|475:346,1,167.999994873047,6|0,1:0|1:0,0:0:0:0:
446,362,292734,1,0,1:0:0:0:
421,368,292819,2,0,B|393:352|387:285|424:258|466:245|466:245|509:232|521:180|521:180|436:271|348:190|330:98|412:56|478:87|447:133,1,566.999982696534,14|0,1:2|0:0,0:0:0:0:
424,153,295178,5,8,1:2:0:0:
383,166,295263,1,8,0:0:0:0:
344,148,295347,1,8,0:0:0:0:
326,109,295431,1,8,0:0:0:0:
290,86,295515,1,8,0:3:0:0:
247,90,295600,1,4,0:3:0:0:
219,121,295684,1,8,0:0:0:0:
216,162,295768,1,8,0:0:0:0:
243,193,295852,6,0,P|234:276|155:275,1,167.999994873047,6|10,1:2|0:0,0:0:0:0:
308,106,296358,2,0,P|290:44|285:8,1,83.9999974365235,2|0,0:0|1:0,0:0:0:0:
86,102,296695,2,0,P|68:163|55:196,1,83.9999974365235,2|8,1:2|0:0,0:0:0:0:
159,367,297032,5,2,1:2:0:0:
159,367,297369,1,2,1:2:0:0:
33,288,297538,1,10,0:0:0:0:
33,288,297875,1,2,1:2:0:0:
203,205,298043,2,0,P|279:217|305:225,1,83.9999974365235,2|8,1:2|0:0,0:0:0:0:
420,335,298380,1,2,1:2:0:0:
363,383,298549,6,0,B|372:311|401:302|409:213,1,167.999994873047,2|10,1:2|0:0,0:0:0:0:
382,147,299055,1,2,0:0:0:0:
305,300,299223,5,2,1:2:0:0:
447,235,299392,1,2,1:2:0:0:
511,163,299560,5,8,0:0:0:0:
312,20,299729,2,0,B|254:49|254:49|231:112|296:137,1,167.999994873047,6|0,1:2|0:0,0:0:0:0:
169,270,300234,2,0,B|92:273|88:310|-28:305,1,167.999994873047,8|0,0:0|1:0,0:0:0:0:
173,180,300740,6,0,L|248:198,1,41.9999987182618,10|0,1:2|0:0,0:0:0:0:
257,322,300909,6,0,L|221:360,1,45.4999979171754,10|0,0:0|0:0,0:0:0:0:
90,321,301077,6,0,L|76:271,1,48.9999985046387,2|0,1:2|0:0,0:0:0:0:
29,111,301246,6,0,P|3:192|-4:230,1,105.000004005432,6|2,1:0|1:2,0:0:0:0:
157,61,301583,1,8,0:0:0:0:
264,126,301751,2,0,B|344:135|336:180|446:178,1,167.999994873047,2|0,0:0|1:0,0:0:0:0:
254,95,302257,1,8,0:0:0:0:
421,177,302425,6,0,B|375:150|338:171|338:171|316:223|243:207,1,167.999994873047,4|0,1:0|1:0,0:0:0:0:
423,74,302931,2,0,P|495:97|513:103,1,83.9999974365235,8|0,0:0|0:0,0:0:0:0:
471,274,303268,2,0,P|396:299|371:312,1,83.9999974365235,0|0,1:0|1:0,0:0:0:0:
226,362,303605,5,10,0:0:0:0:
179,297,303774,2,0,P|112:288|84:386,1,167.999994873047,2|0,1:2|1:0,0:0:0:0:
276,225,304279,2,0,P|361:232|390:309,2,167.999994873047,8|0|8,0:0|1:0|0:0,0:0:0:0:
150,175,305122,6,0,P|163:86|181:3,1,167.999994873047,6|0,1:2|1:0,0:0:0:0:
248,108,305628,2,0,B|164:105|161:57|50:70,1,167.999994873047,12|8,0:0|1:2,0:0:0:0:
44,69,306049,1,8,0:0:0:0:
14,98,306133,1,8,1:2:0:0:
13,140,306218,1,8,0:0:0:0:
46,164,306302,1,8,0:0:0:0:
73,195,306386,1,8,0:0:0:0:
74,236,306470,1,8,0:0:0:0:
46,268,306555,1,8,0:0:0:0:
46,268,306639,5,6,1:0:0:0:
289,381,306976,1,10,0:0:0:0:
158,271,307145,2,0,P|143:342|130:377,1,83.9999974365235,2|0,0:0|1:0,0:0:0:0:
330,227,307482,2,0,P|340:267|352:307,1,83.9999974365235,2|8,1:2|0:0,0:0:0:0:
217,164,307819,6,0,B|196:75|256:81|253:-5,1,167.999994873047,6|2,1:2|1:2,0:0:0:0:
176,3,308324,1,10,0:0:0:0:
320,114,308493,1,2,0:0:0:0:
340,34,308661,5,2,1:2:0:0:
128,114,308830,2,0,P|83:101|21:91,1,83.9999974365235,2|8,1:2|0:0,0:0:0:0:
214,201,309167,1,2,1:2:0:0:
115,304,309336,6,0,P|46:320|5:336,1,83.9999974365235,6|2,1:0|1:2,0:0:0:0:
236,226,309673,2,0,P|299:237|331:247,1,83.9999974365235,10|2,0:0|0:0,0:0:0:0:
213,318,310010,5,2,1:2:0:0:
308,138,310178,1,2,1:2:0:0:
308,138,310263,1,2,1:2:0:0:
308,138,310347,1,8,0:0:0:0:
412,263,310515,6,0,P|479:273|507:181,1,167.999994873047,6|0,1:2|1:0,0:0:0:0:
403,93,311021,2,0,P|420:23|430:1,1,83.9999974365235,10|2,0:0|0:0,0:0:0:0:
254,200,311358,2,0,B|183:202|166:249|78:231,1,167.999994873047,2|12,1:2|0:0,0:0:0:0:
284,339,311864,1,2,1:2:0:0:
195,379,312032,6,0,P|184:321|167:289,1,83.9999974365235,6|2,1:2|0:0,0:0:0:0:
81,197,312369,2,0,P|44:207|22:250,1,83.9999974365235,10|2,0:0|0:0,0:0:0:0:
218,130,312706,1,2,1:2:0:0:
218,130,312875,2,0,P|267:146|292:192,1,83.9999974365235,2|8,1:2|0:0,0:0:0:0:
125,11,313212,6,0,P|71:9|4:103,1,167.999994873047,6|2,1:0|1:2,0:0:0:0:
121,187,313718,1,10,0:0:0:0:
218,130,313886,2,0,B|298:130|295:175|378:169,1,167.999994873047,2|0,0:0|1:0,0:0:0:0:
477,78,314392,1,10,0:0:0:0:
472,51,314476,1,8,0:0:0:0:
466,24,314560,1,8,1:2:0:0:
316,112,314729,6,0,P|296:173|288:228,1,83.9999974365235,6|2,1:0|1:2,0:0:0:0:
479,347,315066,1,10,0:0:0:0:
442,282,315234,2,0,P|382:272|318:366,1,167.999994873047,6|2,1:0|1:2,0:0:0:0:
284,371,315656,1,0,1:0:0:0:
284,371,315740,2,0,L|235:360,3,41.9999987182618,14|8|14|8,0:0|0:0|1:0|0:0,0:0:0:0:
196,351,316077,5,2,1:2:0:0:
67,232,316246,1,8,0:0:0:0:
55,259,316330,1,8,0:0:0:0:
68,301,316414,1,8,0:0:0:0:
59,326,316498,1,8,0:0:0:0:
59,326,316583,1,8,0:3:0:0:
178,258,316751,5,8,1:3:0:0:
209,229,316836,1,8,0:3:0:0:
208,187,316920,1,4,0:3:0:0:
182,154,317004,1,4,0:3:0:0:
141,142,317088,1,8,0:0:0:0:
124,102,317173,1,8,0:0:0:0:
144,65,317257,1,0,1:0:0:0:
254,11,317425,5,4,1:2:0:0:
