osu file format v14

[General]
AudioFilename: audio.mp3
AudioLeadIn: 0
PreviewTime: 64883
Countdown: 0
SampleSet: Drum
StackLeniency: 0.7
Mode: 0
LetterboxInBreaks: 0
WidescreenStoryboard: 1

[Editor]
Bookmarks: 52883,54758,76133,91133
DistanceSpacing: 1
BeatDivisor: 2
GridSize: 32
TimelineZoom: 1.7

[Metadata]
Title:Sphere
TitleUnicode:Sphere
Artist:Tatsh feat. K.Nayuki
ArtistUnicode:Tatsh feat. K.Nayuki
Creator:TheKushVanMan
Version:Normal
Source:beatmania IIDX 11 IIDX RED
Tags:electronic instrumental video game english kayo medieval choir bemani revolutionary energetic diversification
BeatmapID:2889378
BeatmapSetID:1397643

[Difficulty]
HPDrainRate:3
CircleSize:3
OverallDifficulty:5
ApproachRate:6
SliderMultiplier:1.1
SliderTickRate:1

[Events]
//Background and Video events
0,0,"O4E089THEAWU.png",0,0
//Break Periods
2,26083,30083
//Storyboard Layer 0 (Background)
//Storyboard Layer 1 (Fail)
//Storyboard Layer 2 (Pass)
//Storyboard Layer 3 (Foreground)
//Storyboard Layer 4 (Overlay)
//Storyboard Sound Samples

[TimingPoints]
383,375,4,3,1,50,1,0
25883,-100,4,2,1,50,0,0
31911,375,4,2,1,50,1,0
33399,372.670807453416,4,2,1,50,1,0
34714,372.670807453416,4,2,1,50,1,0
35109,355.029585798817,4,2,1,50,1,0
36029,368.098159509202,4,2,1,50,1,0
36391,375,4,3,1,50,1,0
37883,375,4,3,1,50,1,0
65540,-100,4,3,1,5,0,0
65633,-100,4,3,1,50,0,0
106790,-100,4,3,1,5,0,0

[Colours]
Combo1 : 221,184,106
Combo2 : 249,232,202
Combo3 : 187,168,102
Combo4 : 192,139,80

[HitObjects]
71,23,12383,6,0,B|26:58|26:58|26:118,1,110,2|8,1:2|1:2,0:0:0:0:
95,196,13133,2,0,B|147:217|147:217|199:187,1,110,0|8,1:2|1:2,0:0:0:0:
233,87,13883,1,2,0:2:0:0:
441,361,15383,6,0,B|486:326|486:326|486:266,1,110,2|10,1:2|1:2,0:0:0:0:
419,186,16133,2,0,B|366:164|366:164|314:194,1,110,0|10,1:2|1:2,0:0:0:0:
287,295,16883,1,2,0:2:0:0:
500,23,18383,6,0,L|376:59,1,110,2|10,1:2|1:2,0:0:0:0:
292,94,19133,2,0,P|333:139|317:202,1,110,2|10,1:2|1:2,0:0:0:0:
283,284,19883,1,2,1:2:0:0:
246,358,20164,2,0,L|184:376,1,55,2|2,0:2|0:2,0:0:0:0:
131,289,20633,1,2,1:2:0:0:
94,363,20914,2,0,L|32:381,1,55,2|2,0:2|0:2,0:0:0:0:
18,298,21383,6,0,P|10:245|46:186,1,110,2|10,1:2|1:2,0:0:0:0:
87,99,22133,2,0,P|140:90|199:126,1,110,2|10,1:2|1:2,0:0:0:0:
289,156,22883,2,0,P|297:208|261:267,1,110,2|10,1:2|1:2,0:0:0:0:
216,353,23633,2,0,P|164:360|104:325,1,110,0|10,0:0|1:3,0:0:0:0:
78,295,24195,1,2,1:2:0:0:
156,226,25883,5,6,0:0:0:0:
204,28,31911,6,0,P|284:44|364:24,1,165,2|2,0:0|0:0,0:0:0:0:
505,109,33036,1,2,0:0:0:0:
457,202,33399,1,2,0:0:0:0:
505,300,33771,1,2,0:0:0:0:
409,354,34144,2,0,P|386:302|326:277,1,110,2|0,0:0|0:0,0:0:0:0:
283,267,34714,2,0,L|224:289,1,55,2|2,0:0|0:0,0:0:0:0:
170,309,35109,2,0,L|111:331,1,55,2|2,0:0|0:0,0:0:0:0:
70,350,35464,1,2,0:0:0:0:
70,350,35641,1,2,0:0:0:0:
25,134,36391,6,0,P|27:72|65:31,1,110
166,37,37141,1,8,0:0:0:0:
163,146,37516,1,8,0:0:0:0:
163,253,37883,6,0,P|189:336|311:356,1,220,2|0,1:2|1:0,0:0:0:0:
412,296,39008,1,10,1:2:0:0:
489,217,39383,2,0,P|530:120|481:21,1,220,2|0,1:2|1:0,0:0:0:0:
372,19,40508,1,10,1:2:0:0:
262,18,40883,6,0,P|215:113|255:212,1,220,2|0,1:2|1:0,0:0:0:0:
366,210,42008,1,10,1:2:0:0:
475,208,42383,2,0,B|495:260|495:260|467:311,1,110,2|10,1:2|1:2,0:0:0:0:
374,365,43133,2,0,B|322:384|322:384|270:361,1,110,2|10,1:2|1:2,0:2:0:0:
177,306,43883,6,0,P|137:278|169:134,1,220,2|0,1:2|1:0,0:0:0:0:
255,65,45008,1,10,1:2:0:0:
341,132,45383,2,0,P|395:221|334:305,1,220,2|0,1:2|1:3,0:0:0:0:
251,377,46508,1,10,1:2:0:0:
177,306,46883,2,0,P|74:278|47:154,1,220,2|0,1:2|1:3,0:0:0:0:
195,22,48383,6,0,B|243:78|301:34|348:0|418:28,1,220,2|2,1:2|1:2,0:0:0:0:
438,127,49508,1,8,1:3:0:0:
475,230,49883,5,2,1:2:0:0:
512,335,50258,1,10,1:2:0:0:
406,365,50633,2,0,P|395:299|347:268,1,110,0|10,1:2|1:2,0:0:0:0:
266,220,51383,2,0,P|203:196|152:222,1,110,2|10,1:2|1:2,0:0:0:0:
75,273,52133,2,0,L|37:216,1,55,2|2,1:2|0:2,0:0:0:0:
41,172,52508,2,0,L|3:115,1,55,10|2,1:2|0:2,0:0:0:0:
14,71,52883,6,0,P|62:50|125:67,1,110,2|10,1:2|1:2,0:0:0:0:
221,94,53633,2,0,P|273:118|298:170,1,110,2|10,1:2|1:2,0:0:0:0:
352,257,54383,1,2,1:2:0:0:
461,251,54758,2,0,P|503:211|506:151,1,110,10|2,1:2|1:2,0:0:0:0:
478,55,55508,1,10,1:2:0:0:
375,15,55883,6,0,P|300:34|202:9,1,165,2|0,1:2|0:0,0:0:0:0:
106,4,56820,2,0,B|126:59|126:59|97:112,1,110,2|2,0:2|0:2,0:0:0:0:
57,205,57570,2,0,B|37:260|37:260|62:313,1,110,2|2,0:2|0:2,0:0:0:0:
159,350,58320,1,2,0:2:0:0:
213,360,58508,1,10,1:2:0:0:
322,357,58883,6,0,L|444:357,1,110,2|10,1:2|1:2,0:0:0:0:
490,261,59633,2,0,P|507:236|508:189,2,55,2|2|10,1:2|0:2|1:2,0:0:0:0:
429,168,60383,2,0,L|307:168,1,110,2|10,1:2|1:2,0:0:0:0:
253,79,61133,2,0,P|236:54|235:7,2,55,0|2|10,0:0|0:2|1:2,0:0:0:0:
337,7,61883,5,8,1:2:0:0:
393,7,62070,1,8,1:3:0:0:
449,7,62258,1,8,1:3:0:0:
507,100,62633,1,8,1:3:0:0:
451,100,62821,1,8,1:3:0:0:
395,100,63008,1,8,1:3:0:0:
285,101,63383,2,0,B|231:169|344:228|284:325,1,220,0|0,1:0|1:2,0:0:0:0:
155,376,64883,6,0,P|103:373|39:331,1,110,2|0,0:2|0:0,0:0:0:0:
1,249,65633,1,8,3:2:0:0:
3,142,66008,1,8,3:3:0:0:
55,45,66383,6,0,P|103:18|158:15,1,110,6|8,1:2|1:3,0:0:0:0:
252,57,67133,1,0,1:3:0:0:
239,166,67508,1,10,1:2:0:0:
142,219,67883,6,0,L|156:40,2,165,2|2|10,1:2|0:2|1:2,0:0:0:0:
43,171,69383,2,0,P|29:223|56:283,1,110,0|8,1:3|1:3,0:0:0:0:
130,347,70133,1,0,1:3:0:0:
225,292,70508,1,10,1:2:0:0:
300,372,70883,2,0,P|383:358|417:272,2,165,2|2|10,1:2|0:2|1:2,0:0:0:0:
326,264,72383,2,0,P|390:179|512:187,1,220,0|0,1:3|1:3,0:0:0:0:
360,12,73883,6,0,P|256:41|150:12,1,220,2|2,1:2|1:2,0:0:0:0:
40,13,75008,1,8,1:3:0:0:
75,115,75383,2,0,L|114:219,1,110,0|10,0:0|1:2,0:0:0:0:
4,223,76133,2,0,L|42:326,1,110,2|10,1:2|1:2,0:0:0:0:
152,324,76883,5,2,1:2:0:0:
260,324,77258,1,10,1:2:0:0:
372,324,77633,2,0,P|394:275|370:219,1,110,0|8,1:3|1:3,0:0:0:0:
267,203,78383,1,2,1:2:0:0:
159,203,78758,1,10,1:2:0:0:
47,203,79133,2,0,P|25:154|49:98,1,110,0|10,1:3|1:2,0:0:0:0:
127,32,79883,5,10,1:2:0:0:
183,32,80070,1,10,0:2:0:0:
239,32,80258,1,10,1:2:0:0:
349,32,80633,2,0,P|371:81|347:137,1,110,0|10,1:3|1:2,0:0:0:0:
298,227,81383,1,2,1:2:0:0:
222,307,81758,1,10,1:2:0:0:
129,366,82133,2,0,P|105:376|79:364,1,55,2|0,1:2|0:0,0:0:0:0:
38,328,82508,2,0,P|28:304|40:278,1,55,10|0,1:2|0:0,0:0:0:0:
69,232,82883,6,0,P|129:144|97:36,1,220,2|2,1:2|1:2,0:0:0:0:
410,40,84383,2,0,P|382:143|443:232,1,220,2|2,1:2|1:2,0:0:0:0:
408,352,85883,2,0,B|335:301|256:348|155:404|95:333,1,330,2|10,1:2|1:2,0:0:0:0:
132,228,87383,2,0,P|88:195|34:193,1,110,2|8,1:2|0:0,0:0:0:0:
36,84,88133,2,0,P|90:82|133:49,1,110,2|2,1:2|1:2,0:0:0:0:
272,36,88883,6,0,L|260:96,2,55,2|0|8,1:2|0:0|1:3,0:0:0:0:
380,32,89633,2,0,L|372:96,2,55,2|0|10,1:2|0:0|1:2,0:0:0:0:
489,31,90383,2,0,L|481:103,1,55,2|0,1:2|0:0,0:0:0:0:
498,138,90758,2,0,L|490:210,1,55,10|0,1:2|0:0,0:0:0:0:
511,244,91133,2,0,L|499:364,1,110,2|10,1:2|1:2,0:0:0:0:
390,355,91883,6,0,P|353:319|354:250,1,110,2|8,1:2|1:3,0:0:0:0:
365,153,92633,1,2,1:2:0:0:
379,42,93008,1,10,1:2:0:0:
271,31,93383,1,2,1:2:0:0:
258,139,93758,1,10,1:2:0:0:
148,131,94133,1,2,1:2:0:0:
159,24,94508,1,10,1:2:0:0:
49,19,94883,6,0,P|12:54|13:124,1,110,2|8,1:2|1:2,0:0:0:0:
28,219,95633,2,0,L|46:273,1,55,2|0,1:2|0:0,0:0:0:0:
100,273,96008,2,0,L|118:327,1,55,10|0,1:2|0:0,0:0:0:0:
172,335,96383,2,0,L|212:231,1,110,2|8,1:2|1:2,0:0:0:0:
264,135,97133,2,0,P|314:152|332:203,1,110,2|8,1:2|1:3,0:0:0:0:
291,309,97883,1,2,1:2:0:0:
372,384,98258,1,10,1:2:0:0:
468,330,98633,1,2,1:2:0:0:
447,223,99008,1,10,1:2:0:0:
332,202,99383,2,0,P|331:100|446:94,1,220,2|2,1:2|1:2,0:0:0:0:
456,252,100883,5,10,1:2:0:0:
361,308,101258,1,8,1:3:0:0:
265,361,101633,1,10,1:2:0:0:
207,266,102008,1,8,1:3:0:0:
156,169,102383,1,10,1:2:0:0:
249,111,102758,1,8,1:3:0:0:
344,55,103133,1,10,1:2:0:0:
400,149,103508,1,8,1:3:0:0:
308,209,103883,1,14,0:2:0:0:
