osu file format v14

[General]
AudioFilename: audio.mp3
AudioLeadIn: 0
PreviewTime: 64883
Countdown: 0
SampleSet: Drum
StackLeniency: 0.7
Mode: 0
LetterboxInBreaks: 0
WidescreenStoryboard: 0

[Editor]
Bookmarks: 88601,91133
DistanceSpacing: 1
BeatDivisor: 4
GridSize: 32
TimelineZoom: 1.9

[Metadata]
Title:Sphere
TitleUnicode:Sphere
Artist:Tatsh feat. K.Nayuki
ArtistUnicode:Tatsh feat. K.Nayuki
Creator:TheKushVanMan
Version:Another
Source:beatmania IIDX 11 IIDX RED
Tags:electronic instrumental video game english kayo medieval choir bemani revolutionary energetic diversification
BeatmapID:2884186
BeatmapSetID:1397643

[Difficulty]
HPDrainRate:5
CircleSize:5
OverallDifficulty:9
ApproachRate:9
SliderMultiplier:1.4
SliderTickRate:1

[Events]
//Background and Video events
0,0,"O4E089THEAWU.png",0,0
//Break Periods
//Storyboard Layer 0 (Background)
//Storyboard Layer 1 (Fail)
//Storyboard Layer 2 (Pass)
//Storyboard Layer 3 (Foreground)
//Storyboard Layer 4 (Overlay)
//Storyboard Sound Samples

[TimingPoints]
383,375,4,3,1,50,1,0
383,-83.3333333333333,4,3,1,50,0,0
25883,-100,4,2,1,50,0,0
31911,375,4,2,1,50,1,0
33399,372.670807453416,4,2,1,50,1,0
34714,372.670807453416,4,2,1,50,1,0
35109,355.029585798817,4,2,1,50,1,0
36029,368.098159509202,4,2,1,50,1,0
36391,375,4,3,1,50,1,0
37883,375,4,3,1,50,1,0
37883,-66.6666666666667,4,3,1,50,0,0
61883,-100,4,3,1,50,0,0
64883,-400,4,3,1,50,0,0
65445,-400,4,3,1,50,0,0
65539,-66.6666666666667,4,3,1,5,0,0
65633,-66.6666666666667,4,3,1,50,0,0
85883,-100,4,3,1,50,0,0
88883,-100,4,3,1,50,0,0
103883,-153.846153846154,4,3,1,50,0,0
106790,-153.846153846154,4,3,1,5,0,0
106883,-66.6666666666667,4,3,1,5,0,0

[Colours]
Combo1 : 221,184,106
Combo2 : 249,232,202
Combo3 : 187,168,102
Combo4 : 192,139,80

[HitObjects]
256,192,383,5,2,1:2:0:0:
336,268,946,1,2,0:2:0:0:
341,273,1039,1,2,0:2:0:0:
346,279,1133,1,2,0:2:0:0:
351,285,1227,1,0,0:0:0:0:
357,290,1321,1,2,0:2:0:0:
362,296,1414,1,0,0:0:0:0:
367,302,1508,1,0,0:0:0:0:
373,307,1602,1,0,0:0:0:0:
378,313,1696,2,0,L|411:350,1,41.9999987182618,2|2,0:2|0:2,0:0:0:0:
256,192,3196,5,0,1:0:0:0:
256,192,3383,1,2,1:2:0:0:
176,116,3946,1,2,0:2:0:0:
170,110,4039,1,2,0:2:0:0:
165,104,4133,1,2,0:2:0:0:
160,98,4227,1,0,0:0:0:0:
154,93,4321,1,2,0:2:0:0:
149,87,4414,1,0,0:0:0:0:
144,81,4508,1,0,0:0:0:0:
138,76,4602,1,0,0:0:0:0:
133,70,4696,2,0,L|101:36,1,41.9999987182618,2|2,0:2|0:2,0:0:0:0:
256,247,6102,5,0,1:0:0:0:
256,247,6196,1,0,1:0:0:0:
256,283,6290,1,0,1:0:0:0:
256,319,6383,2,0,L|255:374,1,41.9999987182618,2|0,0:2|0:0,0:0:0:0:
100,252,6664,2,0,L|76:299,1,41.9999987182618,2|8,0:2|0:0,0:0:0:0:
400,228,6946,1,2,0:2:0:0:
404,236,7040,1,2,0:2:0:0:
408,244,7133,1,2,0:2:0:0:
412,252,7226,1,0,0:0:0:0:
416,260,7320,1,2,0:2:0:0:
420,268,7414,1,0,0:0:0:0:
424,276,7508,2,0,L|448:323,1,41.9999987182618,10|0,0:2|0:0,0:0:0:0:
256,368,7696,1,2,0:2:0:0:
256,372,7790,1,2,0:2:0:0:
360,132,9383,5,2,1:2:0:0:
366,121,9477,1,0,0:0:0:0:
152,132,9665,1,2,0:2:0:0:
146,121,9759,1,8,1:3:0:0:
256,16,9946,1,2,0:2:0:0:
256,24,10040,1,2,0:2:0:0:
256,32,10133,1,2,0:2:0:0:
256,40,10227,1,0,0:0:0:0:
256,48,10321,1,0,0:0:0:0:
256,56,10415,1,0,0:0:0:0:
256,64,10508,2,0,L|256:107,1,41.9999987182618,10|0,1:2|0:0,0:0:0:0:
256,168,10696,5,2,0:2:0:0:
256,176,10790,1,2,0:2:0:0:
256,184,10883,2,2,L|256:214,14,20.9999993591309,2|0|0|0|0|0|0|0|0|0|0|0|2|2|2,1:2|0:0|0:0|0:0|0:0|0:0|0:0|0:0|0:0|0:0|0:0|0:0|0:2|0:2|0:2,0:2:0:0:
256,272,11633,5,10,1:2:0:0:
256,280,11727,1,10,0:2:0:0:
256,288,11821,2,10,L|256:338,1,41.9999987182618,10|10,0:2|0:2,0:2:0:0:
339,144,12008,2,10,L|382:118,1,41.9999987182618,10|10,0:2|0:2,0:2:0:0:
172,144,12196,2,10,L|128:117,1,41.9999987182618,10|10,0:2|0:2,0:2:0:0:
48,76,12383,5,2,1:2:0:0:
64,84,12477,1,0,0:0:0:0:
156,28,12664,1,2,0:2:0:0:
140,20,12758,1,8,1:2:0:0:
256,20,12946,1,2,0:2:0:0:
272,28,13040,1,0,0:0:0:0:
288,36,13133,1,0,1:2:0:0:
304,44,13227,1,0,0:0:0:0:
320,52,13320,2,0,L|358:71,2,41.9999987182618,2|0|8,0:2|0:0|1:2,0:0:0:0:
505,245,13696,5,0,0:0:0:0:
489,237,13790,1,0,0:0:0:0:
473,229,13883,2,0,L|425:207,1,41.9999987182618,2|0,0:2|0:0,0:0:0:0:
441,305,14165,2,0,L|396:323,1,41.9999987182618,2|8,0:2|0:2,0:0:0:0:
354,179,14445,1,2,0:2:0:0:
322,352,14726,1,2,0:2:0:0:
242,384,15008,1,8,0:2:0:0:
274,147,15195,1,2,0:2:0:0:
464,308,15383,5,2,1:2:0:0:
448,300,15477,1,0,0:0:0:0:
356,356,15664,1,2,0:2:0:0:
372,364,15758,1,10,1:2:0:0:
256,364,15946,1,2,0:2:0:0:
240,356,16040,1,0,0:0:0:0:
224,348,16133,1,0,1:2:0:0:
208,340,16227,1,0,0:0:0:0:
192,332,16320,2,0,L|153:313,2,41.9999987182618,2|0|10,0:2|0:0|1:2,0:0:0:0:
7,139,16695,5,2,0:2:0:0:
23,147,16789,1,0,0:2:0:0:
39,155,16882,2,0,L|87:177,1,41.9999987182618,2|0,0:2|0:0,0:0:0:0:
71,79,17164,2,0,L|116:61,1,41.9999987182618,2|10,0:2|0:2,0:0:0:0:
158,205,17444,1,2,0:2:0:0:
190,32,17633,1,2,0:2:0:0:
270,0,17820,1,2,0:2:0:0:
238,237,18101,1,2,0:2:0:0:
308,348,18383,5,2,1:2:0:0:
304,368,18477,1,0,0:0:0:0:
392,288,18665,1,2,0:2:0:0:
396,268,18759,1,10,1:2:0:0:
480,204,18946,1,2,0:2:0:0:
484,184,19040,1,0,0:0:0:0:
488,164,19133,1,2,1:2:0:0:
492,144,19227,1,0,0:0:0:0:
496,124,19321,1,0,0:2:0:0:
500,104,19415,1,0,0:0:0:0:
504,84,19508,1,10,1:2:0:0:
268,20,19696,1,2,0:2:0:0:
264,40,19790,1,0,0:2:0:0:
260,60,19883,1,2,1:2:0:0:
208,312,20165,6,0,L|220:254,1,41.9999987182618,2|10,0:2|1:2,0:0:0:0:
60,92,20352,2,0,L|46:153,1,41.9999987182618,2|0,0:2|0:0,0:0:0:0:
28,240,20633,2,0,P|64:228|106:252,1,83.9999974365235,2|0,1:2|0:0,0:0:0:0:
125,325,20915,2,0,L|110:384,1,41.9999987182618,2|10,0:2|1:2,0:0:0:0:
179,267,21102,2,0,L|192:208,1,41.9999987182618,2|0,0:2|0:0,0:0:0:0:
209,144,21383,5,2,1:2:0:0:
264,207,21570,1,2,1:2:0:0:
294,85,21758,1,10,1:2:0:0:
300,220,21946,1,2,1:2:0:0:
414,109,22133,1,2,1:2:0:0:
327,245,22321,1,2,1:2:0:0:
512,207,22508,1,10,1:2:0:0:
333,281,22696,1,2,1:2:0:0:
494,370,22883,5,2,1:2:0:0:
324,318,23071,1,2,1:2:0:0:
156,370,23258,1,10,1:2:0:0:
9,268,23445,2,0,L|65:243,1,41.9999987182618,2|0,1:2|0:0,0:0:0:0:
208,178,23727,2,0,L|151:206,1,41.9999987182618,2|0,0:2|1:0,0:0:0:0:
23,94,24008,1,10,1:3:0:0:
156,370,24195,1,2,1:2:0:0:
14,219,25883,6,0,P|36:274|120:294,1,140,6|2,0:0|0:0,0:0:0:0:
92,220,26445,1,0,0:0:0:0:
204,360,26633,2,0,P|206:320|179:292,2,70,2|0|2,0:0|0:0|0:0,0:0:0:0:
256,192,27196,1,0,0:0:0:0:
300,116,27383,2,0,P|324:80|352:68,1,70,2|0,0:0|0:0,0:0:0:0:
299,268,27758,2,0,P|318:306|315:337,1,70,2|0,0:0|0:0,0:0:0:0:
168,191,28133,2,0,P|89:161|50:113,1,140,2|0,0:0|0:0,0:0:0:0:
168,40,28695,5,2,0:0:0:0:
168,40,28883,1,2,0:0:0:0:
39,20,29070,2,0,P|32:55|46:101,2,70,2|2|0,0:0|0:0|0:0,0:0:0:0:
184,219,29633,2,0,P|208:283|196:351,1,140,2|2,0:0|0:0,0:0:0:0:
83,198,30196,1,0,0:0:0:0:
128,276,30383,6,0,L|224:288,1,70,2|0,0:0|0:0,0:0:0:0:
384,276,30758,2,0,L|288:288,1,70,2|0,0:0|0:0,0:0:0:0:
40,168,31133,2,0,L|136:180,1,70,2|0,0:0|0:0,0:0:0:0:
472,168,31508,2,0,L|376:180,1,70,2|0,0:0|0:0,0:0:0:0:
323,72,31911,6,0,P|354:15|446:18,1,140,2|2,0:0|0:0,0:0:0:0:
403,84,32473,1,0,0:0:0:0:
473,127,32661,2,0,P|449:156|408:167,2,70,2|0|2,0:0|0:0|0:0,0:0:0:0:
335,160,33223,1,0,0:0:0:0:
339,252,33399,6,0,P|339:300|323:316,1,70,2|0,0:0|0:0,0:0:0:0:
235,372,33771,2,0,P|235:324|251:308,1,70,2|0,0:0|0:0,0:0:0:0:
440,368,34144,2,0,L|286:354,1,140,2|0,0:0|0:0,0:0:0:0:
196,344,34714,1,2,0:0:0:0:
108,288,34900,1,2,0:0:0:0:
196,232,35109,2,0,L|276:240,1,70,2|0,0:0|0:0,0:0:0:0:
372,252,35464,1,2,0:0:0:0:
372,252,35641,1,2,0:0:0:0:
472,152,36029,2,0,L|390:142,1,70,2|2,0:0|0:0,0:0:0:0:
273,118,36391,6,0,B|269:134|269:134|269:146,12,17.5
198,116,37141,1,8,0:0:0:0:
178,116,37234,1,8,0:0:0:0:
160,116,37328,2,0,B|152:92|152:92|153:83,1,35,8|8,0:0|0:0,0:0:0:0:
22,40,37516,1,8,0:0:0:0:
42,40,37609,1,8,0:0:0:0:
59,40,37703,2,0,B|67:64|67:64|66:73,1,35,8|8,0:0|0:0,0:0:0:0:
68,140,37883,6,0,B|52:220|52:220|7:242,1,105.000004005432,2|0,1:2|0:0,0:0:0:0:
72,316,38258,2,0,B|87:235|87:235|132:213,1,105.000004005432,8|0,1:2|0:0,0:0:0:0:
256,169,38633,1,0,1:0:0:0:
404,225,38821,1,0,0:0:0:0:
404,225,38914,1,0,0:0:0:0:
404,225,39008,2,0,B|425:235|425:235|440:316,1,105.000004005432,10|0,1:2|0:0,0:0:0:0:
508,165,39383,2,0,B|487:155|487:155|472:74,1,105.000004005432,2|0,1:2|0:0,0:0:0:0:
367,19,39758,2,0,L|385:122,1,105.000004005432,8|0,1:2|0:0,0:0:0:0:
257,12,40133,5,0,1:0:0:0:
288,198,40321,1,0,0:0:0:0:
288,198,40508,2,0,L|270:95,1,105.000004005432,10|0,1:2|0:0,0:0:0:0:
178,17,40883,6,0,P|190:65|146:109,1,105.000004005432,2|0,1:2|0:0,0:0:0:0:
15,147,41258,2,0,P|3:99|47:55,1,105.000004005432,8|0,1:2|0:0,0:0:0:0:
106,28,41633,1,0,1:0:0:0:
105,205,41820,5,0,0:0:0:0:
103,222,41914,1,0,0:0:0:0:
100,240,42008,2,0,B|148:288|148:288|148:344,1,105.000004005432,10|0,1:2|0:0,0:0:0:0:
88,384,42383,2,0,B|40:336|40:336|40:280,1,105.000004005432,2|0,1:2|0:0,0:0:0:0:
204,244,42758,2,0,B|256:228|256:228|308:248,1,105.000004005432,10|0,1:2|0:0,0:0:0:0:
412,240,43133,2,0,B|364:288|364:288|364:344,1,105.000004005432,2|0,1:2|0:0,0:2:0:0:
424,384,43508,2,0,B|472:336|472:336|472:280,1,105.000004005432,10|0,1:2|0:0,0:0:0:0:
481,141,43883,5,2,1:2:0:0:
408,20,44071,1,0,0:0:0:0:
376,184,44258,2,0,B|408:140|408:140|408:76,1,105.000004005432,8|0,1:3|0:0,0:0:0:0:
344,0,44633,2,0,B|312:44|312:44|312:104,1,105.000004005432,0|0,1:0|0:0,0:0:0:0:
314,129,44914,1,0,0:0:0:0:
314,129,45008,1,10,1:2:0:0:
256,0,45195,5,0,0:0:0:0:
136,184,45383,2,0,B|104:140|104:140|104:76,1,105.000004005432,2|0,1:2|0:0,0:0:0:0:
168,0,45758,2,0,B|200:44|200:44|200:104,1,105.000004005432,8|0,1:3|0:0,0:0:0:0:
72,273,46133,1,0,1:3:0:0:
16,184,46320,1,0,0:0:0:0:
171,273,46508,6,0,B|227:273|227:273|255:313,1,105.000004005432,10|0,1:2|0:0,0:0:0:0:
244,348,46883,1,2,1:2:0:0:
274,247,47070,1,0,0:0:0:0:
398,204,47258,2,0,B|342:204|342:204|314:164,1,105.000004005432,8|0,1:3|0:0,0:0:0:0:
308,150,47539,1,0,0:0:0:0:
308,150,47633,1,0,1:3:0:0:
390,227,47820,1,0,0:0:0:0:
360,328,48008,1,8,1:3:0:0:
32,16,48383,6,0,B|104:16|168:64|168:64|128:4,1,210.000008010865,2|8,1:2|1:3,0:0:0:0:
112,12,48946,1,0,0:0:0:0:
40,84,49133,1,2,1:2:0:0:
25,111,49226,1,0,0:0:0:0:
27,142,49320,1,0,0:0:0:0:
44,168,49414,1,0,0:0:0:0:
71,186,49508,1,8,1:3:0:0:
104,183,49602,1,0,0:0:0:0:
133,168,49696,1,0,0:0:0:0:
147,143,49790,1,0,0:0:0:0:
144,112,49883,6,0,L|88:228,2,105.000004005432,2|0|10,1:2|0:2|1:2,0:0:0:0:
368,112,50446,2,0,L|424:228,2,105.000004005432,2|0|2,0:2|1:2|0:2,0:0:0:0:
256,384,51008,1,10,1:2:0:0:
256,376,51196,1,2,0:2:0:0:
256,368,51383,1,2,1:2:0:0:
352,240,51571,5,2,0:2:0:0:
160,240,51758,1,10,1:2:0:0:
256,68,51946,1,2,0:2:0:0:
366,246,52133,1,2,1:2:0:0:
486,52,52321,1,2,0:2:0:0:
481,302,52508,1,10,1:2:0:0:
366,90,52695,5,2,0:2:0:0:
366,90,52883,2,0,L|438:-2,2,105.000004005432,2|2|10,1:2|0:2|1:2,0:0:0:0:
146,90,53446,2,0,L|74:-2,2,105.000004005432,2|2|2,0:2|1:2|0:2,0:0:0:0:
256,8,54008,1,10,1:2:0:0:
256,16,54196,1,2,0:2:0:0:
256,24,54383,1,2,1:2:0:0:
256,168,54571,5,2,0:2:0:0:
256,204,54665,1,0,0:0:0:0:
256,240,54758,1,10,1:2:0:0:
149,94,54946,1,2,0:2:0:0:
38,297,55133,1,2,1:2:0:0:
34,58,55321,1,2,0:2:0:0:
149,244,55508,1,10,1:2:0:0:
256,91,55696,1,2,0:2:0:0:
362,244,55883,6,0,B|314:220|314:220|250:248,1,105.000004005432,2|0,1:2|0:0,0:0:0:0:
150,140,56258,2,0,B|198:164|198:164|262:136,1,105.000004005432,2|0,1:2|0:0,0:0:0:0:
50,236,56821,5,2,0:2:0:0:
150,140,57008,1,10,1:2:0:0:
50,44,57196,1,2,0:2:0:0:
462,148,57570,5,2,0:2:0:0:
362,244,57757,1,10,1:2:0:0:
462,340,57945,1,2,0:2:0:0:
403,23,58320,5,2,0:2:0:0:
335,165,58508,1,10,1:2:0:0:
247,36,58695,1,2,0:2:0:0:
491,152,58883,1,2,1:2:0:0:
475,308,59070,1,2,0:2:0:0:
333,377,59258,1,10,1:2:0:0:
317,222,59445,1,2,0:2:0:0:
195,222,59633,1,2,1:2:0:0:
179,377,59820,1,2,0:2:0:0:
30,291,60008,5,10,1:2:0:0:
43,133,60195,1,2,0:2:0:0:
200,146,60383,1,2,1:2:0:0:
185,302,60570,1,2,0:2:0:0:
30,291,60758,1,10,1:2:0:0:
43,133,60945,1,2,0:2:0:0:
200,146,61320,5,2,0:2:0:0:
185,302,61508,1,10,1:2:0:0:
432,356,61883,5,8,1:2:0:0:
447,335,61976,1,8,1:3:0:0:
462,313,62070,1,8,1:3:0:0:
448,288,62164,1,8,1:3:0:0:
432,268,62258,1,8,1:3:0:0:
316,12,62633,1,8,1:3:0:0:
301,33,62726,1,8,1:3:0:0:
286,55,62820,1,8,1:3:0:0:
300,80,62915,1,8,1:3:0:0:
316,100,63008,1,8,1:3:0:0:
458,221,63383,6,0,B|483:289|483:289|451:360,1,140,0|0,1:0|1:0,0:0:0:0:
54,163,64133,2,0,B|34:99|34:99|61:24,1,140,0|0,1:2|1:0,0:2:0:0:
305,29,64883,6,0,L|285:82,1,52.5,2|0,0:2|0:0,0:0:0:0:
174,151,65633,5,10,3:2:0:0:
180,132,65726,1,8,3:3:0:0:
187,114,65820,1,8,3:3:0:0:
194,95,65914,1,8,3:3:0:0:
201,77,66008,1,8,3:3:0:0:
208,58,66101,1,8,3:3:0:0:
215,40,66195,1,8,3:3:0:0:
222,22,66289,1,8,3:3:0:0:
229,3,66383,5,6,1:2:0:0:
110,105,66570,1,0,0:0:0:0:
263,136,66758,1,8,1:3:0:0:
416,167,66945,1,0,0:0:0:0:
416,167,67039,1,0,0:0:0:0:
416,167,67133,1,0,1:3:0:0:
294,272,67320,1,0,0:0:0:0:
172,377,67508,6,0,L|55:344,1,105.000004005432,10|0,1:2|0:0,0:0:0:0:
25,168,67883,2,0,L|142:201,1,105.000004005432,2|0,1:2|0:0,0:0:0:0:
172,377,68258,1,8,1:3:0:0:
4,323,68445,1,2,0:2:0:0:
4,323,68539,1,0,0:0:0:0:
4,323,68633,1,0,1:2:0:0:
127,197,68819,1,0,0:0:0:0:
292,259,69008,5,10,1:2:0:0:
326,209,69195,1,0,0:0:0:0:
376,243,69383,1,0,1:3:0:0:
340,291,69570,1,0,0:0:0:0:
315,149,69758,1,8,1:3:0:0:
478,220,69945,1,0,0:0:0:0:
478,220,70039,1,0,0:0:0:0:
478,220,70133,1,0,1:3:0:0:
351,351,70320,1,0,0:0:0:0:
203,271,70508,6,0,B|255:278|302:228,1,105.000004005432,10|0,1:2|0:0,0:0:0:0:
474,71,70883,2,0,B|416:69|378:123,1,105.000004005432,2|0,1:2|0:0,0:0:0:0:
342,174,71258,1,8,1:3:0:0:
284,27,71445,1,2,0:2:0:0:
284,27,71539,1,0,0:0:0:0:
284,27,71633,1,0,1:3:0:0:
126,27,71820,1,0,0:0:0:0:
68,174,72008,1,10,1:2:0:0:
41,54,72195,1,0,0:0:0:0:
8,208,72383,5,0,1:3:0:0:
31,310,72570,1,0,0:0:0:0:
134,329,72758,1,8,1:3:0:0:
111,227,72945,1,0,0:0:0:0:
215,239,73133,1,0,1:3:0:0:
238,341,73320,1,0,0:0:0:0:
341,360,73508,1,8,1:3:0:0:
318,258,73695,1,0,0:0:0:0:
415,297,73883,6,0,P|436:247|482:227,1,105.000004005432,2|0,1:2|0:0,0:0:0:0:
482,121,74258,1,8,1:3:0:0:
429,29,74446,1,0,0:0:0:0:
324,30,74633,2,0,P|303:80|257:100,1,105.000004005432,2|0,1:2|0:0,0:0:0:0:
257,205,75008,1,8,1:3:0:0:
310,297,75196,1,0,0:0:0:0:
429,29,75570,5,2,0:2:0:0:
310,297,75758,1,10,1:2:0:0:
329,60,75945,1,2,0:2:0:0:
409,265,76133,1,2,1:2:0:0:
294,129,76320,1,2,0:2:0:0:
444,196,76508,1,10,1:2:0:0:
292,192,76695,1,2,0:2:0:0:
446,133,76883,5,2,1:2:0:0:
74,44,77258,1,10,1:2:0:0:
148,16,77633,1,0,1:3:0:0:
151,50,77726,1,0,0:0:0:0:
140,83,77820,1,0,0:0:0:0:
117,108,77914,1,0,0:0:0:0:
84,121,78008,1,8,1:3:0:0:
50,119,78101,1,0,0:0:0:0:
19,103,78195,1,0,0:0:0:0:
292,32,78383,5,2,1:2:0:0:
352,304,78758,1,10,1:2:0:0:
84,384,79133,1,0,1:3:0:0:
81,350,79226,1,0,0:0:0:0:
92,317,79320,1,0,0:0:0:0:
115,292,79414,1,0,0:0:0:0:
148,279,79508,1,10,1:2:0:0:
182,281,79601,1,0,0:0:0:0:
213,297,79695,1,0,0:0:0:0:
158,367,79883,5,10,1:2:0:0:
296,226,80071,1,10,0:2:0:0:
158,87,80258,1,10,1:2:0:0:
11,220,80633,1,0,1:3:0:0:
49,223,80726,1,0,0:0:0:0:
86,213,80820,1,0,0:0:0:0:
118,192,80914,1,0,0:0:0:0:
142,162,81008,1,10,1:2:0:0:
157,126,81101,1,0,0:0:0:0:
158,87,81195,1,0,0:0:0:0:
56,119,81383,5,2,1:2:0:0:
264,147,81758,1,10,1:2:0:0:
472,179,82133,1,2,1:2:0:0:
464,195,82226,1,0,0:0:0:0:
456,211,82321,2,0,L|428:263,1,52.5000020027161
479,279,82508,1,10,1:2:0:0:
471,295,82601,1,0,0:0:0:0:
463,311,82696,2,0,L|435:363,1,52.5000020027161
296,383,82883,6,0,L|352:279,1,105.000004005432,2|0,1:2|0:0,0:0:0:0:
295,275,83258,2,0,L|347:175,1,105.000004005432,10|0,1:2|0:0,0:2:0:0:
288,7,83633,2,0,L|232:111,1,105.000004005432,2|0,1:2|0:0,0:0:0:0:
289,116,84008,2,0,L|237:216,1,105.000004005432,10|0,1:2|0:0,0:0:0:0:
114,353,84383,6,0,P|62:363|21:323,1,105.000004005432,2|0,1:2|0:0,0:0:0:0:
144,228,84758,2,0,P|195:217|236:257,1,105.000004005432,10|0,1:2|0:0,0:0:0:0:
25,331,85133,1,2,1:2:0:0:
232,249,85320,1,0,0:0:0:0:
114,353,85508,1,10,1:2:0:0:
144,228,85695,1,0,0:0:0:0:
131,290,85883,6,0,B|196:310|196:310|247:365,1,140,2|0,1:2|0:0,0:0:0:0:
301,274,86445,1,0,0:0:0:0:
357,186,86633,1,0,1:3:0:0:
367,356,86820,1,0,0:0:0:0:
459,213,87008,1,10,1:2:0:0:
464,318,87195,1,0,0:0:0:0:
367,356,87383,6,0,B|410:311|410:311|388:227,1,140,2|0,1:2|0:0,0:0:0:0:
465,115,87945,1,0,0:0:0:0:
465,115,88133,2,0,B|443:137|443:137|454:179,1,70,2|0,1:2|0:0,0:0:0:0:
262,123,88508,2,0,B|283:100|283:100|273:62,1,70,2|0,1:2|0:0,0:0:0:0:
80,16,88883,5,2,1:2:0:0:
56,44,88976,1,0,0:0:0:0:
32,72,89070,1,0,0:0:0:0:
64,88,89164,1,0,0:0:0:0:
96,104,89258,2,0,L|140:128,3,35,8|0|0|0,1:3|0:0|0:0|0:0,0:0:0:0:
168,256,89633,1,2,1:2:0:0:
200,272,89727,1,0,0:0:0:0:
232,288,89821,1,0,0:0:0:0:
204,312,89915,1,0,0:0:0:0:
176,336,90008,2,0,L|140:364,3,35,10|0|0|0,1:2|0:0|0:0|0:0,0:0:0:0:
129,239,90383,5,2,1:2:0:0:
97,223,90477,1,0,0:0:0:0:
65,207,90571,2,0,L|25:187,1,35
162,137,90758,1,10,1:2:0:0:
194,153,90852,1,0,0:0:0:0:
226,169,90946,2,0,L|266:189,1,35
196,376,91133,1,2,1:2:0:0:
164,360,91227,1,0,0:0:0:0:
132,344,91321,1,0,0:0:0:0:
100,328,91415,1,0,0:0:0:0:
68,312,91508,2,0,L|24:288,3,35,10|0|0|0,1:2|0:0|0:0|0:0,0:0:0:0:
155,254,91883,5,2,1:2:0:0:
188,238,91977,1,0,0:0:0:0:
222,221,92071,1,0,0:0:0:0:
256,204,92165,1,0,0:0:0:0:
289,221,92258,1,8,1:3:0:0:
323,238,92352,1,0,0:0:0:0:
356,254,92446,1,0,0:0:0:0:
390,271,92540,1,0,0:0:0:0:
423,288,92633,5,2,1:2:0:0:
450,263,92726,1,0,0:0:0:0:
468,231,92820,1,0,0:0:0:0:
476,196,92914,1,0,0:0:0:0:
473,159,93008,1,10,1:2:0:0:
453,129,93102,1,0,0:0:0:0:
451,91,93195,1,0,0:0:0:0:
460,55,93289,1,0,0:0:0:0:
480,25,93383,6,0,P|486:57|482:74,3,35,2|0|0|0,1:2|0:0|0:0|0:0,0:0:0:0:
328,36,93758,2,0,P|334:5|330:-11,3,35,10|0|0|0,1:2|0:0|0:0|0:0,0:0:0:0:
178,2,94133,2,0,P|178:19|184:36,3,35,2|0|0|0,1:2|0:0|0:0|0:0,0:0:0:0:
36,66,94508,2,0,P|36:49|42:33,3,35,10|0|0|0,1:2|0:0|0:0|0:0,0:0:0:0:
84,150,94883,5,2,1:2:0:0:
62,177,94976,1,0,0:0:0:0:
57,213,95070,1,0,0:0:0:0:
65,249,95164,1,0,0:0:0:0:
73,284,95258,1,8,1:2:0:0:
76,321,95351,1,0,0:0:0:0:
66,355,95445,1,0,0:0:0:0:
43,383,95539,1,0,0:0:0:0:
9,379,95633,5,2,1:2:0:0:
20,344,95726,1,0,0:0:0:0:
40,314,95820,1,0,0:0:0:0:
66,288,95914,1,0,0:0:0:0:
98,272,96008,1,10,1:2:0:0:
135,265,96101,1,0,0:0:0:0:
170,266,96195,1,0,0:0:0:0:
205,277,96289,1,0,0:0:0:0:
235,300,96383,5,2,1:2:0:0:
262,323,96476,1,0,0:0:0:0:
296,334,96570,1,0,0:0:0:0:
333,330,96664,1,0,0:0:0:0:
364,314,96758,1,8,1:2:0:0:
387,285,96851,1,0,0:0:0:0:
396,250,96945,1,0,0:0:0:0:
393,212,97040,1,0,0:0:0:0:
372,183,97133,5,2,1:2:0:0:
355,152,97226,1,0,0:0:0:0:
350,116,97319,1,0,0:0:0:0:
358,80,97414,1,0,0:0:0:0:
375,48,97508,1,8,1:3:0:0:
405,27,97601,1,0,0:0:0:0:
439,18,97695,2,0,P|462:21|476:34,1,35
480,116,97883,5,2,1:2:0:0:
476,152,97976,1,2,0:2:0:0:
472,188,98070,1,2,0:2:0:0:
468,224,98164,1,0,0:2:0:0:
464,260,98258,2,0,L|460:308,1,35,10|0,1:2|0:0,0:0:0:0:
380,360,98445,2,0,L|384:312,1,35,2|2,0:2|0:2,0:0:0:0:
308,248,98633,5,2,1:2:0:0:
278,226,98727,1,2,0:2:0:0:
243,221,98821,1,2,0:2:0:0:
204,233,98915,1,0,0:2:0:0:
175,252,99008,2,0,L|179:300,1,35,10|0,1:2|0:0,0:0:0:0:
84,368,99195,2,0,L|79:319,1,35,2|2,0:2|0:2,0:0:0:0:
34,73,99383,5,2,1:2:0:0:
52,43,99476,1,2,0:2:0:0:
82,25,99570,1,2,0:2:0:0:
117,22,99664,1,2,0:2:0:0:
148,36,99758,1,10,1:2:0:0:
169,64,99852,1,2,0:2:0:0:
175,98,99945,1,2,0:2:0:0:
170,133,100039,1,2,0:2:0:0:
161,152,100133,5,2,1:2:0:0:
154,176,100226,1,2,0:2:0:0:
154,200,100320,1,2,0:2:0:0:
161,223,100414,1,2,0:2:0:0:
176,243,100508,1,10,1:2:0:0:
197,255,100601,1,2,0:2:0:0:
221,259,100695,1,2,0:2:0:0:
245,254,100789,1,2,0:2:0:0:
267,254,100884,5,8,1:2:0:0:
291,259,100977,1,8,0:2:0:0:
315,255,101070,1,8,1:2:0:0:
336,243,101164,1,8,0:2:0:0:
351,223,101258,1,8,1:2:0:0:
358,200,101352,1,8,0:2:0:0:
358,176,101445,1,8,1:2:0:0:
351,152,101539,1,8,0:2:0:0:
341,133,101634,5,10,1:2:0:0:
336,98,101727,1,8,0:0:0:0:
342,64,101820,1,8,1:3:0:0:
363,36,101914,1,8,0:0:0:0:
394,22,102009,1,8,1:3:0:0:
429,25,102102,1,8,0:0:0:0:
459,43,102195,1,8,1:3:0:0:
478,73,102289,1,8,0:0:0:0:
485,110,102384,5,10,1:2:0:0:
487,144,102476,1,8,0:0:0:0:
476,177,102571,1,8,1:3:0:0:
456,206,102664,1,8,0:0:0:0:
434,233,102759,1,8,1:3:0:0:
414,262,102851,1,8,0:0:0:0:
402,294,102946,1,8,1:3:0:0:
408,329,103039,1,8,0:0:0:0:
433,362,103133,5,10,1:2:0:0:
447,318,103226,1,8,0:0:0:0:
445,277,103320,1,8,1:3:0:0:
430,236,103414,1,8,0:0:0:0:
396,203,103508,1,8,1:3:0:0:
376,161,103601,1,8,0:0:0:0:
382,115,103695,1,8,1:3:0:0:
403,75,103789,1,8,0:0:0:0:
447,59,103883,6,0,B|501:156|413:228|413:228|414:228|414:228|332:297|397:383|397:383|477:308|414:228|414:228|414:228|414:228|349:142|419:58,1,727.999966674806,14|0,0:2|0:0,0:0:0:0:
