osu file format v14

[General]
AudioFilename: audio.mp3
AudioLeadIn: 0
PreviewTime: 67589
Countdown: 0
SampleSet: None
StackLeniency: 0.7
Mode: 1
LetterboxInBreaks: 0
WidescreenStoryboard: 1

[Editor]
Bookmarks: 135588,136545
DistanceSpacing: 0.9
BeatDivisor: 4
GridSize: 32
TimelineZoom: 1.94

[Metadata]
Title:Tsukuyominomikoto
TitleUnicode:月読命
Artist:Tatsh a.k.a Zeami
ArtistUnicode:Tatsh a.k.a 世阿弥
Creator:Firce777
Version:Muzukashii
Source:
Tags:taiko no tatsujin
BeatmapID:4002822
BeatmapSetID:641250

[Difficulty]
HPDrainRate:5
CircleSize:5
OverallDifficulty:6
ApproachRate:5
SliderMultiplier:1.4
SliderTickRate:1

[Events]
//Background and Video events
0,0,"55721307_p0.jpg",0,100
//Break Periods
//Storyboard Layer 0 (Background)
//Storyboard Layer 1 (Fail)
//Storyboard Layer 2 (Pass)
//Storyboard Layer 3 (Foreground)
//Storyboard Layer 4 (Overlay)
//Storyboard Sound Samples

[TimingPoints]
4206,600,4,1,0,100,1,0
5406,960,4,1,0,100,1,0
6366,725.513905683192,4,1,0,100,1,0
8179,600,4,1,0,100,1,8
9379,2068.96551724138,4,1,0,100,1,0
10413,2352.94117647059,4,1,0,100,1,8
11589,285.714285714286,4,1,0,100,1,0
67589,-100,4,1,0,100,0,1
91017,285.714285714286,4,1,0,100,1,0
109302,-100,4,1,0,100,0,1
127588,-100,4,1,0,100,0,0
136302,468.75,4,1,0,100,1,8
136536,476.190476190476,4,1,0,100,1,8
136774,491.803278688525,4,1,0,100,1,8
137019,571.428571428571,4,1,0,100,1,8
137019,-90.9090909090909,4,1,0,100,0,8
137304,833.333333333333,4,1,0,100,1,8
137304,-68.9655172413793,4,1,0,100,0,8
137732,600,4,1,0,100,1,8
137732,-117.647058823529,4,1,0,100,0,8
137882,-133.333333333333,4,1,0,100,0,8

[HitObjects]
256,192,4206,5,2,0:0:0:0:
256,192,4506,1,2,0:0:0:0:
256,192,4806,1,2,0:0:0:0:
256,192,6366,1,2,0:0:0:0:
256,192,6727,1,2,0:0:0:0:
256,192,7091,1,2,0:0:0:0:
256,192,9723,1,6,0:0:0:0:
256,192,11589,1,0,0:0:0:0:
256,192,11874,1,8,0:0:0:0:
256,192,12303,1,0,0:0:0:0:
256,192,12446,1,8,0:0:0:0:
256,192,12731,1,0,0:0:0:0:
256,192,13017,1,8,0:0:0:0:
256,192,13446,1,0,0:0:0:0:
256,192,13589,1,8,0:0:0:0:
256,192,13874,1,0,0:0:0:0:
256,192,14160,1,8,0:0:0:0:
256,192,14589,1,0,0:0:0:0:
256,192,14731,1,8,0:0:0:0:
256,192,15017,1,0,0:0:0:0:
256,192,15160,1,8,0:0:0:0:
256,192,15303,1,8,0:0:0:0:
256,192,15589,1,0,0:0:0:0:
256,192,15731,1,0,0:0:0:0:
256,192,15803,1,0,0:0:0:0:
256,192,15874,1,0,0:0:0:0:
256,192,16160,1,0,0:0:0:0:
256,192,16303,1,0,0:0:0:0:
256,192,16446,1,0,0:0:0:0:
256,192,16589,1,8,0:0:0:0:
256,192,16732,1,8,0:0:0:0:
256,192,16874,1,8,0:0:0:0:
256,192,17017,1,0,0:0:0:0:
256,192,17160,1,0,0:0:0:0:
256,192,17303,1,0,0:0:0:0:
256,192,17446,1,8,0:0:0:0:
256,192,17589,1,8,0:0:0:0:
256,192,17732,1,8,0:0:0:0:
256,192,17874,1,0,0:0:0:0:
256,192,18160,1,8,0:0:0:0:
256,192,18446,1,0,0:0:0:0:
256,192,18589,1,0,0:0:0:0:
256,192,18732,1,0,0:0:0:0:
256,192,18875,1,8,0:0:0:0:
256,192,19018,1,8,0:0:0:0:
256,192,19160,1,8,0:0:0:0:
256,192,19303,1,0,0:0:0:0:
256,192,19446,1,0,0:0:0:0:
256,192,19589,1,0,0:0:0:0:
256,192,19732,1,8,0:0:0:0:
256,192,19875,1,8,0:0:0:0:
256,192,20018,1,8,0:0:0:0:
256,192,20160,1,0,0:0:0:0:
256,192,20303,1,8,0:0:0:0:
256,192,20374,1,8,0:0:0:0:
256,192,20446,1,8,0:0:0:0:
256,192,20731,1,0,0:0:0:0:
256,192,20874,1,0,0:0:0:0:
256,192,21017,1,0,0:0:0:0:
256,192,21160,1,8,0:0:0:0:
256,192,21303,1,8,0:0:0:0:
256,192,21445,1,8,0:0:0:0:
256,192,21588,1,0,0:0:0:0:
256,192,21731,1,0,0:0:0:0:
256,192,21874,1,0,0:0:0:0:
256,192,22017,1,8,0:0:0:0:
256,192,22160,1,8,0:0:0:0:
256,192,22303,1,8,0:0:0:0:
256,192,22445,1,0,0:0:0:0:
256,192,22731,1,8,0:0:0:0:
256,192,23017,1,4,0:0:0:0:
256,192,24160,1,12,0:0:0:0:
256,192,24874,1,8,0:0:0:0:
256,192,25017,1,8,0:0:0:0:
256,192,25160,1,8,0:0:0:0:
256,192,25303,1,4,0:0:0:0:
256,192,25874,1,8,0:0:0:0:
256,192,26017,1,0,0:0:0:0:
256,192,26160,1,8,0:0:0:0:
256,192,26446,1,12,0:0:0:0:
256,192,27017,1,8,0:0:0:0:
256,192,27160,1,0,0:0:0:0:
256,192,27446,1,8,0:0:0:0:
96,64,27589,2,0,P|352:64|320:288,1,490
256,192,29017,1,8,0:0:0:0:
256,192,29303,1,0,0:0:0:0:
256,192,29446,1,8,0:0:0:0:
256,192,29589,1,0,0:0:0:0:
256,192,29874,1,0,0:0:0:0:
256,192,30017,1,0,0:0:0:0:
256,192,30160,1,8,0:0:0:0:
256,192,30446,1,0,0:0:0:0:
256,192,30589,1,8,0:0:0:0:
256,192,30731,1,8,0:0:0:0:
256,192,31017,1,0,0:0:0:0:
256,192,31160,1,0,0:0:0:0:
256,192,31303,1,8,0:0:0:0:
256,192,31589,1,0,0:0:0:0:
256,192,31731,1,8,0:0:0:0:
256,192,31803,1,8,0:0:0:0:
256,192,31874,1,8,0:0:0:0:
256,192,32160,1,4,0:0:0:0:
256,192,32446,1,8,0:0:0:0:
256,192,32589,1,0,0:0:0:0:
256,192,32874,1,0,0:0:0:0:
256,192,33017,1,8,0:0:0:0:
256,192,33160,1,8,0:0:0:0:
256,192,33303,1,0,0:0:0:0:
256,192,33589,1,8,0:0:0:0:
256,192,33731,1,8,0:0:0:0:
256,192,33874,1,0,0:0:0:0:
256,192,34017,1,8,0:0:0:0:
256,192,34160,1,8,0:0:0:0:
256,192,34446,1,4,0:0:0:0:
256,192,34731,1,8,0:0:0:0:
256,192,34874,1,0,0:0:0:0:
256,192,35160,1,0,0:0:0:0:
256,192,35303,1,8,0:0:0:0:
256,192,35446,1,8,0:0:0:0:
256,192,35589,1,0,0:0:0:0:
256,192,35874,1,8,0:0:0:0:
256,192,36017,1,8,0:0:0:0:
256,192,36160,1,0,0:0:0:0:
256,192,36303,1,8,0:0:0:0:
256,192,36446,1,8,0:0:0:0:
256,192,36731,1,4,0:0:0:0:
256,192,37017,1,8,0:0:0:0:
256,192,37160,1,0,0:0:0:0:
256,192,37446,1,8,0:0:0:0:
256,192,37731,1,0,0:0:0:0:
256,192,38017,1,8,0:0:0:0:
256,192,38303,1,0,0:0:0:0:
256,192,38589,1,8,0:0:0:0:
256,192,38661,1,8,0:0:0:0:
256,192,38732,1,8,0:0:0:0:
256,192,38874,1,8,0:0:0:0:
256,192,39017,1,4,0:0:0:0:
256,192,39303,1,8,0:0:0:0:
256,192,39446,1,8,0:0:0:0:
256,192,39589,1,0,0:0:0:0:
256,192,39731,1,0,0:0:0:0:
256,192,39874,1,8,0:0:0:0:
256,192,40017,1,8,0:0:0:0:
256,192,40160,1,0,0:0:0:0:
256,192,40303,1,0,0:0:0:0:
256,192,40446,1,8,0:0:0:0:
256,192,40589,1,0,0:0:0:0:
256,192,40731,1,8,0:0:0:0:
256,192,40874,1,0,0:0:0:0:
256,192,41017,1,8,0:0:0:0:
256,192,41160,1,0,0:0:0:0:
256,192,41303,1,0,0:0:0:0:
256,192,41517,1,0,0:0:0:0:
256,192,41731,1,0,0:0:0:0:
256,192,41874,1,0,0:0:0:0:
256,192,42160,1,0,0:0:0:0:
256,192,42303,1,0,0:0:0:0:
256,192,42446,1,8,0:0:0:0:
256,192,42731,1,8,0:0:0:0:
256,192,43017,1,8,0:0:0:0:
256,192,43303,1,8,0:0:0:0:
256,192,43446,1,0,0:0:0:0:
256,192,43518,1,0,0:0:0:0:
256,192,43589,1,0,0:0:0:0:
256,192,43803,1,0,0:0:0:0:
256,192,44017,1,0,0:0:0:0:
256,192,44303,1,0,0:0:0:0:
256,192,44446,1,8,0:0:0:0:
256,192,44731,1,8,0:0:0:0:
256,192,44945,1,8,0:0:0:0:
256,192,45159,1,8,0:0:0:0:
256,192,45446,1,0,0:0:0:0:
256,192,45589,1,8,0:0:0:0:
256,192,45874,1,0,0:0:0:0:
256,192,46088,1,0,0:0:0:0:
256,192,46302,1,0,0:0:0:0:
256,192,46589,1,0,0:0:0:0:
256,192,46731,1,8,0:0:0:0:
256,192,47017,1,8,0:0:0:0:
256,192,47231,1,8,0:0:0:0:
256,192,47445,1,8,0:0:0:0:
256,192,47803,1,8,0:0:0:0:
256,192,48160,12,0,50160,0:0:0:0:
256,192,50446,5,4,0:0:0:0:
256,192,52731,1,4,0:0:0:0:
256,192,54732,1,8,0:0:0:0:
256,192,55017,1,4,0:0:0:0:
256,192,55874,1,8,0:0:0:0:
256,192,56160,1,8,0:0:0:0:
256,192,56732,1,8,0:0:0:0:
256,192,57303,1,4,0:0:0:0:
256,192,58160,1,8,0:0:0:0:
256,192,58446,1,8,0:0:0:0:
256,192,59017,1,8,0:0:0:0:
256,192,59589,1,4,0:0:0:0:
256,192,60732,1,8,0:0:0:0:
256,192,61303,1,8,0:0:0:0:
256,192,61874,1,4,0:0:0:0:
256,192,63017,1,4,0:0:0:0:
256,192,63303,1,8,0:0:0:0:
256,192,63589,1,8,0:0:0:0:
256,192,63874,1,8,0:0:0:0:
256,192,64160,1,4,0:0:0:0:
256,192,64732,1,4,0:0:0:0:
32,64,65303,2,4,P|416:96|192:352,1,840
256,192,67589,1,0,0:0:0:0:
256,192,67660,1,0,0:0:0:0:
256,192,67731,1,0,0:0:0:0:
256,192,67874,1,8,0:0:0:0:
256,192,68017,1,8,0:0:0:0:
256,192,68160,1,0,0:0:0:0:
256,192,68303,1,0,0:0:0:0:
256,192,68446,1,8,0:0:0:0:
256,192,68589,1,8,0:0:0:0:
256,192,68731,1,0,0:0:0:0:
256,192,69017,1,8,0:0:0:0:
256,192,69303,1,0,0:0:0:0:
256,192,69589,1,8,0:0:0:0:
256,192,69874,1,0,0:0:0:0:
256,192,70160,1,8,0:0:0:0:
256,192,70303,1,8,0:0:0:0:
256,192,70446,1,0,0:0:0:0:
256,192,70731,1,8,0:0:0:0:
256,192,70874,1,0,0:0:0:0:
256,192,71160,1,0,0:0:0:0:
256,192,71303,1,8,0:0:0:0:
256,192,71446,1,8,0:0:0:0:
256,192,71589,1,0,0:0:0:0:
256,192,71731,1,0,0:0:0:0:
256,192,71874,1,8,0:0:0:0:
256,192,72160,1,0,0:0:0:0:
256,192,72231,1,0,0:0:0:0:
256,192,72302,1,0,0:0:0:0:
256,192,72445,1,8,0:0:0:0:
256,192,72588,1,8,0:0:0:0:
256,192,72731,1,0,0:0:0:0:
256,192,72874,1,0,0:0:0:0:
256,192,73017,1,8,0:0:0:0:
256,192,73160,1,8,0:0:0:0:
256,192,73302,1,0,0:0:0:0:
256,192,73588,1,8,0:0:0:0:
256,192,73874,1,0,0:0:0:0:
256,192,74160,1,8,0:0:0:0:
256,192,74445,1,0,0:0:0:0:
256,192,74731,1,8,0:0:0:0:
256,192,74874,1,0,0:0:0:0:
256,192,75160,1,0,0:0:0:0:
256,192,75303,1,8,0:0:0:0:
256,192,75589,1,4,0:0:0:0:
256,192,75874,1,12,0:0:0:0:
256,192,76160,1,4,0:0:0:0:
256,192,76446,1,8,0:0:0:0:
256,192,76517,1,8,0:0:0:0:
256,192,76589,1,8,0:0:0:0:
256,192,76660,1,8,0:0:0:0:
256,192,76731,1,8,0:0:0:0:
256,192,76874,1,0,0:0:0:0:
256,192,77160,1,0,0:0:0:0:
256,192,77446,1,8,0:0:0:0:
256,192,77731,1,8,0:0:0:0:
256,192,78017,1,0,0:0:0:0:
256,192,78303,1,8,0:0:0:0:
256,192,78589,1,0,0:0:0:0:
256,192,78731,1,8,0:0:0:0:
256,192,78803,1,8,0:0:0:0:
256,192,78874,1,8,0:0:0:0:
256,192,78946,1,8,0:0:0:0:
256,192,79017,1,8,0:0:0:0:
256,192,79160,1,0,0:0:0:0:
256,192,79446,1,0,0:0:0:0:
256,192,79732,1,8,0:0:0:0:
256,192,80017,1,8,0:0:0:0:
256,192,80303,1,0,0:0:0:0:
256,192,80589,1,8,0:0:0:0:
256,192,80875,1,0,0:0:0:0:
256,192,81017,1,8,0:0:0:0:
256,192,81089,1,8,0:0:0:0:
256,192,81160,1,8,0:0:0:0:
256,192,81232,1,8,0:0:0:0:
256,192,81303,1,8,0:0:0:0:
256,192,81493,1,8,0:0:0:0:
256,192,81684,1,8,0:0:0:0:
256,192,81874,1,0,0:0:0:0:
256,192,82065,1,0,0:0:0:0:
256,192,82255,1,0,0:0:0:0:
256,192,82446,1,0,0:0:0:0:
256,192,82731,1,8,0:0:0:0:
256,192,82874,1,0,0:0:0:0:
256,192,83160,1,0,0:0:0:0:
256,192,83303,1,8,0:0:0:0:
256,192,83589,1,8,0:0:0:0:
256,192,83779,1,8,0:0:0:0:
256,192,83970,1,8,0:0:0:0:
256,192,84160,1,0,0:0:0:0:
256,192,84351,1,0,0:0:0:0:
256,192,84541,1,0,0:0:0:0:
256,192,84732,1,0,0:0:0:0:
256,192,85017,1,8,0:0:0:0:
256,192,85303,1,8,0:0:0:0:
256,192,85446,1,0,0:0:0:0:
256,192,85589,1,8,0:0:0:0:
256,192,85731,1,0,0:0:0:0:
256,192,85874,1,8,0:0:0:0:
256,192,86160,1,8,0:0:0:0:
256,192,86446,1,8,0:0:0:0:
256,192,86589,1,0,0:0:0:0:
256,192,86660,1,0,0:0:0:0:
256,192,86731,1,0,0:0:0:0:
256,192,86874,1,0,0:0:0:0:
256,192,87017,1,8,0:0:0:0:
256,192,87303,1,8,0:0:0:0:
256,192,87589,1,8,0:0:0:0:
256,192,87731,1,0,0:0:0:0:
256,192,87803,1,0,0:0:0:0:
256,192,87874,1,0,0:0:0:0:
256,192,88017,1,0,0:0:0:0:
256,192,88160,1,4,0:0:0:0:
256,192,88303,1,8,0:0:0:0:
256,192,88446,1,8,0:0:0:0:
256,192,88731,1,4,0:0:0:0:
256,192,88874,1,8,0:0:0:0:
256,192,89017,1,8,0:0:0:0:
256,192,89303,1,4,0:0:0:0:
256,192,89446,1,8,0:0:0:0:
256,192,89589,1,8,0:0:0:0:
256,192,89874,1,4,0:0:0:0:
256,192,90017,1,8,0:0:0:0:
256,192,90160,1,8,0:0:0:0:
256,192,90303,1,12,0:0:0:0:
256,192,91017,1,12,0:0:0:0:
256,192,93017,1,8,0:0:0:0:
256,192,93302,1,4,0:0:0:0:
256,192,95588,1,12,0:0:0:0:
256,192,97874,1,4,0:0:0:0:
256,192,99017,1,0,0:0:0:0:
256,192,99159,1,8,0:0:0:0:
256,192,99302,1,8,0:0:0:0:
256,192,99445,1,8,0:0:0:0:
256,192,99588,1,0,0:0:0:0:
256,192,99731,1,8,0:0:0:0:
256,192,99874,1,8,0:0:0:0:
256,192,100017,1,8,0:0:0:0:
256,192,100159,1,0,0:0:0:0:
256,192,100731,1,8,0:0:0:0:
256,192,101017,1,8,0:0:0:0:
256,192,101302,1,0,0:0:0:0:
256,192,101588,1,0,0:0:0:0:
256,192,101731,1,0,0:0:0:0:
256,192,101874,1,8,0:0:0:0:
256,192,102159,1,0,0:0:0:0:
256,192,102231,1,0,0:0:0:0:
256,192,102302,1,0,0:0:0:0:
256,192,102445,1,0,0:0:0:0:
256,192,103017,1,8,0:0:0:0:
256,192,103302,1,8,0:0:0:0:
256,192,103588,1,0,0:0:0:0:
256,192,103874,1,0,0:0:0:0:
256,192,103946,1,0,0:0:0:0:
256,192,104017,1,0,0:0:0:0:
256,192,104159,1,8,0:0:0:0:
256,192,104445,1,0,0:0:0:0:
256,192,104517,1,0,0:0:0:0:
256,192,104588,1,0,0:0:0:0:
256,192,104731,1,0,0:0:0:0:
256,192,105302,1,8,0:0:0:0:
256,192,105588,1,8,0:0:0:0:
256,192,105731,1,0,0:0:0:0:
256,192,106159,1,8,0:0:0:0:
256,192,106445,1,8,0:0:0:0:
256,192,106731,1,0,0:0:0:0:
256,192,106803,1,0,0:0:0:0:
256,192,106874,1,0,0:0:0:0:
256,192,107017,1,0,0:0:0:0:
256,192,107588,1,8,0:0:0:0:
256,192,107874,1,0,0:0:0:0:
256,192,108588,1,0,0:0:0:0:
256,192,108731,1,8,0:0:0:0:
256,192,108874,1,8,0:0:0:0:
256,192,109017,1,0,0:0:0:0:
256,192,109089,1,0,0:0:0:0:
256,192,109159,1,0,0:0:0:0:
256,192,109231,1,0,0:0:0:0:
256,192,109302,1,0,0:0:0:0:
256,192,109445,1,0,0:0:0:0:
256,192,109588,1,8,0:0:0:0:
256,192,109731,1,8,0:0:0:0:
256,192,109874,1,0,0:0:0:0:
256,192,110017,1,0,0:0:0:0:
256,192,110159,1,8,0:0:0:0:
256,192,110302,1,8,0:0:0:0:
256,192,110445,1,0,0:0:0:0:
256,192,110517,1,0,0:0:0:0:
256,192,110588,1,0,0:0:0:0:
256,192,110731,1,8,0:0:0:0:
256,192,110874,1,8,0:0:0:0:
256,192,111017,1,0,0:0:0:0:
256,192,111159,1,0,0:0:0:0:
256,192,111302,1,8,0:0:0:0:
256,192,111445,1,8,0:0:0:0:
256,192,111588,1,0,0:0:0:0:
256,192,111660,1,0,0:0:0:0:
256,192,111731,1,0,0:0:0:0:
256,192,111874,1,8,0:0:0:0:
256,192,112017,1,8,0:0:0:0:
256,192,112160,1,0,0:0:0:0:
256,192,112302,1,0,0:0:0:0:
256,192,112445,1,8,0:0:0:0:
256,192,112588,1,8,0:0:0:0:
256,192,112731,1,0,0:0:0:0:
256,192,113017,1,8,0:0:0:0:
256,192,113302,1,8,0:0:0:0:
256,192,113445,1,8,0:0:0:0:
256,192,113588,1,0,0:0:0:0:
256,192,113731,1,0,0:0:0:0:
256,192,113874,1,0,0:0:0:0:
256,192,114159,1,8,0:0:0:0:
256,192,114302,1,8,0:0:0:0:
256,192,114445,1,0,0:0:0:0:
256,192,114659,1,0,0:0:0:0:
256,192,114874,1,0,0:0:0:0:
256,192,115302,1,8,0:0:0:0:
256,192,115445,1,0,0:0:0:0:
256,192,115731,1,0,0:0:0:0:
256,192,115802,1,0,0:0:0:0:
256,192,115874,1,8,0:0:0:0:
256,192,116159,1,0,0:0:0:0:
256,192,116231,1,0,0:0:0:0:
256,192,116302,1,0,0:0:0:0:
256,192,116445,1,8,0:0:0:0:
256,192,116588,1,8,0:0:0:0:
256,192,116731,1,0,0:0:0:0:
256,192,116873,1,0,0:0:0:0:
256,192,117016,1,8,0:0:0:0:
256,192,117159,1,8,0:0:0:0:
256,192,117302,1,0,0:0:0:0:
256,192,117588,1,12,0:0:0:0:
256,192,117874,1,12,0:0:0:0:
256,192,118159,1,12,0:0:0:0:
256,192,118445,1,0,0:0:0:0:
256,192,118731,1,8,0:0:0:0:
256,192,118874,1,0,0:0:0:0:
256,192,119017,1,0,0:0:0:0:
256,192,119302,1,8,0:0:0:0:
256,192,119445,1,0,0:0:0:0:
256,192,119588,1,0,0:0:0:0:
256,192,119945,1,8,0:0:0:0:
256,192,120088,1,8,0:0:0:0:
256,192,120445,1,0,0:0:0:0:
256,192,120731,1,0,0:0:0:0:
256,192,120803,1,0,0:0:0:0:
256,192,120874,1,0,0:0:0:0:
256,192,121017,1,8,0:0:0:0:
256,192,121160,1,8,0:0:0:0:
256,192,121303,1,0,0:0:0:0:
256,192,121374,1,0,0:0:0:0:
256,192,121445,1,0,0:0:0:0:
256,192,121588,1,8,0:0:0:0:
256,192,121731,1,8,0:0:0:0:
256,192,121874,1,0,0:0:0:0:
256,192,121946,1,0,0:0:0:0:
256,192,122017,1,0,0:0:0:0:
256,192,122160,1,8,0:0:0:0:
256,192,122303,1,0,0:0:0:0:
256,192,122446,1,0,0:0:0:0:
256,192,122517,1,0,0:0:0:0:
256,192,122588,1,0,0:0:0:0:
256,192,122731,1,8,0:0:0:0:
256,192,122874,1,0,0:0:0:0:
256,192,123017,1,8,0:0:0:0:
256,192,123159,1,0,0:0:0:0:
256,192,123302,1,8,0:0:0:0:
256,192,123445,1,0,0:0:0:0:
256,192,123588,1,8,0:0:0:0:
256,192,123731,1,0,0:0:0:0:
256,192,123802,1,0,0:0:0:0:
256,192,123874,1,0,0:0:0:0:
256,192,124017,1,0,0:0:0:0:
256,192,124159,1,8,0:0:0:0:
256,192,124301,1,0,0:0:0:0:
256,192,124444,1,8,0:0:0:0:
256,192,124587,1,0,0:0:0:0:
256,192,124730,1,8,0:0:0:0:
256,192,124873,1,0,0:0:0:0:
256,192,124944,1,0,0:0:0:0:
256,192,125016,1,0,0:0:0:0:
256,192,125159,1,0,0:0:0:0:
256,192,125302,1,0,0:0:0:0:
256,192,125374,1,0,0:0:0:0:
256,192,125445,1,0,0:0:0:0:
256,192,125588,1,8,0:0:0:0:
256,192,125731,1,8,0:0:0:0:
256,192,125874,1,0,0:0:0:0:
256,192,125945,1,0,0:0:0:0:
256,192,126017,1,0,0:0:0:0:
256,192,126159,1,8,0:0:0:0:
256,192,126302,1,0,0:0:0:0:
256,192,126374,1,0,0:0:0:0:
256,192,126445,1,0,0:0:0:0:
256,192,126517,1,0,0:0:0:0:
256,192,126588,1,0,0:0:0:0:
256,192,126731,1,8,0:0:0:0:
256,192,126874,1,8,0:0:0:0:
256,192,127017,1,0,0:0:0:0:
256,192,127159,1,8,0:0:0:0:
256,192,127231,1,8,0:0:0:0:
256,192,127302,1,8,0:0:0:0:
256,192,127374,1,8,0:0:0:0:
256,192,127445,1,8,0:0:0:0:
256,192,127588,1,4,0:0:0:0:
256,192,128588,1,0,0:0:0:0:
256,192,128731,1,0,0:0:0:0:
256,192,129731,1,0,0:0:0:0:
256,192,129874,1,12,0:0:0:0:
256,192,130874,1,0,0:0:0:0:
256,192,131017,1,12,0:0:0:0:
256,192,132159,1,0,0:0:0:0:
