osu file format v14

[General]
AudioFilename: audio.mp3
AudioLeadIn: 0
PreviewTime: 57089
Countdown: 1
SampleSet: None
StackLeniency: 0.2
Mode: 0
LetterboxInBreaks: 0
WidescreenStoryboard: 1

[Editor]
Bookmarks: 18362,18543,23816
DistanceSpacing: 1
BeatDivisor: 4
GridSize: 16
TimelineZoom: 2.3

[Metadata]
Title:The Dirty of Loudness
TitleUnicode:The Dirty of Loudness
Artist:Tatsh Assault X
ArtistUnicode:Tatsh Assault X
Creator:abcd452
Version:tst
Source:
Tags:
BeatmapID:1882381
BeatmapSetID:892697

[Difficulty]
HPDrainRate:5
CircleSize:4
OverallDifficulty:7
ApproachRate:8
SliderMultiplier:2
SliderTickRate:1

[Events]
//Background and Video events
0,0,"tatsh oss bg.png",0,0
//Break Periods
//Storyboard Layer 0 (Background)
//Storyboard Layer 1 (Fail)
//Storyboard Layer 2 (Pass)
//Storyboard Layer 3 (Foreground)
//Storyboard Sound Samples

[TimingPoints]
362,363.636363636364,4,1,0,30,1,0
3271,-100,4,1,0,30,0,0
22180,-100,4,1,0,40,0,0
27998,-100,4,1,0,30,0,0
51271,-100,4,1,0,40,0,0
57089,-100,4,1,0,30,0,0
58543,-100,4,1,0,35,0,0
59998,-100,4,1,0,30,0,0
67271,-80,4,1,0,35,0,0
68725,-80,4,1,0,40,0,1
68816,-117.647058823529,4,1,0,40,0,1
70180,-80,4,1,0,40,0,1
71271,-117.64705882353,4,1,0,40,0,1
73089,-100,4,1,0,40,0,1
74543,-133.333333333333,4,1,0,40,0,1
75998,-117.647058823529,4,1,0,40,0,1
79634,-80,4,1,0,40,0,1
80362,-1000,4,1,0,30,0,0
83271,-100,4,1,0,35,0,0
85452,-1000,4,1,0,30,0,0
88362,-100,4,1,0,35,0,0
94180,-1000,4,1,0,30,0,0
97089,-100,4,1,0,35,0,0

[HitObjects]
160,160,362,5,8,0:0:0:0:
352,160,543,1,8,0:0:0:0:
256,192,725,12,0,3089,0:0:0:0:
184,168,3271,6,0,L|184:227,1,50,8|0,0:0|0:0,0:0:0:0:
215,226,3452,1,0,0:0:0:0:
252,233,3543,1,0,0:0:0:0:
288,226,3634,1,0,0:0:0:0:
320,205,3725,1,0,0:0:0:0:
341,174,3816,1,0,0:0:0:0:
347,137,3907,1,0,0:0:0:0:
341,100,3998,5,0,0:0:0:0:
306,116,4089,1,0,0:0:0:0:
278,141,4179,1,0,0:0:0:0:
253,169,4270,1,0,0:0:0:0:
241,205,4361,1,0,0:0:0:0:
244,242,4452,1,0,0:0:0:0:
260,276,4543,1,0,0:0:0:0:
289,301,4634,1,0,0:0:0:0:
329,314,4725,6,0,L|319:264,1,50,8|0,0:0|0:0,0:0:0:0:
407,186,4907,2,0,L|416:235,1,50
418,247,5089,1,0,0:0:0:0:
420,259,5180,1,0,0:0:0:0:
422,271,5271,1,0,0:0:0:0:
424,283,5361,1,0,0:0:0:0:
417,307,5452,5,0,0:0:0:0:
396,338,5542,1,0,0:0:0:0:
363,353,5633,1,0,0:0:0:0:
326,347,5724,1,0,0:0:0:0:
299,322,5816,1,0,0:0:0:0:
274,279,5906,1,0,0:0:0:0:
228,261,5997,1,0,0:0:0:0:
181,274,6088,1,0,0:0:0:0:
152,313,6180,6,0,L|92:319,1,50,8|0,0:0|0:0,0:0:0:0:
24,235,6361,2,0,L|73:225,1,50
97,220,6543,1,0,0:0:0:0:
121,215,6634,1,0,0:0:0:0:
145,210,6725,1,0,0:0:0:0:
169,205,6816,1,0,0:0:0:0:
193,200,6907,5,0,0:0:0:0:
210,167,6998,1,0,0:0:0:0:
204,131,7089,1,0,0:0:0:0:
177,107,7180,1,0,0:0:0:0:
140,105,7271,1,0,0:0:0:0:
102,103,7362,1,0,0:0:0:0:
74,80,7453,1,0,0:0:0:0:
67,44,7544,1,0,0:0:0:0:
84,11,7634,6,0,B|116:7|116:7|148:11,1,50,8|0,0:0|0:0,0:0:0:0:
226,105,7816,6,0,B|194:109|194:109|162:105,1,50,8|0,0:0|0:0,0:0:0:0:
268,13,7998,6,8,B|300:9|300:9|332:13,1,50,8|0,0:0|0:0,0:0:0:0:
340,20,8180,1,0,0:0:0:0:
360,34,8271,1,0,0:0:0:0:
376,53,8362,1,0,0:0:0:0:
388,75,8453,1,0,0:0:0:0:
395,99,8544,1,0,0:0:0:0:
396,124,8635,1,0,0:0:0:0:
391,149,8726,5,0,0:0:0:0:
380,171,8816,1,0,0:0:0:0:
376,195,8907,1,0,0:0:0:0:
376,220,8998,1,0,0:0:0:0:
382,244,9089,5,8,0:0:0:0:
386,275,9179,1,0,0:0:0:0:
369,302,9270,1,0,0:0:0:0:
339,312,9361,1,0,0:0:0:0:
309,301,9452,1,2,0:0:0:0:
294,274,9543,1,0,0:0:0:0:
264,263,9634,1,0,0:0:0:0:
234,273,9725,1,0,0:0:0:0:
217,300,9816,1,2,0:0:0:0:
221,331,9906,1,0,0:0:0:0:
204,358,9998,1,0,0:0:0:0:
174,368,10089,1,0,0:0:0:0:
144,357,10180,1,2,0:0:0:0:
128,330,10271,1,0,0:0:0:0:
119,302,10361,1,0,0:0:0:0:
131,271,10452,1,0,0:0:0:0:
158,255,10543,5,2,0:0:0:0:
186,230,10634,1,0,0:0:0:0:
214,206,10725,2,0,L|260:170,1,50
230,65,10907,2,0,L|184:101,1,50
162,120,11089,1,0,0:0:0:0:
134,144,11180,1,0,0:0:0:0:
106,168,11271,6,0,P|73:202|61:278,1,100,8|0,0:0|2:0,0:0:0:0:
110,338,11543,6,0,P|143:304|155:228,1,100,8|0,0:0|2:0,0:0:0:0:
134,144,11816,5,8,0:0:0:0:
280,182,11998,6,0,P|234:194|186:254,1,100,8|0,0:0|2:0,0:0:0:0:
200,255,12270,1,0,0:0:0:0:
206,285,12361,1,2,0:0:0:0:
225,307,12452,1,0,0:0:0:0:
251,322,12543,1,0,0:0:0:0:
281,326,12634,1,0,0:0:0:0:
310,320,12725,1,2,0:0:0:0:
329,297,12816,1,0,0:0:0:0:
355,282,12907,1,0,0:0:0:0:
385,278,12998,1,0,0:0:0:0:
414,284,13089,1,2,0:0:0:0:
443,290,13180,1,0,0:0:0:0:
471,283,13271,1,0,0:0:0:0:
494,264,13362,1,0,0:0:0:0:
506,237,13452,6,0,P|488:192|454:175,1,50,2|0,0:0|0:0,0:0:0:0:
461,146,13634,2,0,L|397:151,1,50
368,176,13816,2,0,L|304:181,1,50,2|0,0:0|0:0,0:0:0:0:
288,183,13998,1,0,0:0:0:0:
258,185,14088,1,0,0:0:0:0:
228,188,14179,5,8,0:0:0:0:
216,216,14270,1,0,0:0:0:0:
203,243,14361,1,0,0:0:0:0:
190,270,14452,1,0,0:0:0:0:
177,297,14543,5,0,0:0:0:0:
159,272,14634,1,0,0:0:0:0:
142,247,14725,1,0,0:0:0:0:
125,223,14816,1,0,0:0:0:0:
108,198,14907,5,8,0:0:0:0:
84,171,14998,1,0,0:0:0:0:
67,138,15089,1,0,0:0:0:0:
84,105,15180,1,0,0:0:0:0:
108,78,15271,5,0,0:0:0:0:
144,64,15361,1,0,0:0:0:0:
177,81,15452,1,0,0:0:0:0:
204,105,15543,1,0,0:0:0:0:
221,138,15634,5,8,0:0:0:0:
228,166,15725,1,0,0:0:0:0:
246,190,15816,1,0,0:0:0:0:
272,205,15907,1,0,0:0:0:0:
302,209,15998,1,0,0:0:0:0:
330,201,16089,1,0,0:0:0:0:
354,183,16180,1,0,0:0:0:0:
369,157,16271,1,0,0:0:0:0:
372,127,16362,1,0,0:0:0:0:
263,35,16543,5,0,0:0:0:0:
265,64,16634,1,0,0:0:0:0:
269,92,16725,1,0,0:0:0:0:
177,210,16907,5,0,0:0:0:0:
174,180,16997,1,0,0:0:0:0:
172,151,17089,1,0,0:0:0:0:
67,100,17270,5,0,0:0:0:0:
69,129,17360,1,0,0:0:0:0:
72,159,17452,1,0,0:0:0:0:
186,318,17634,5,0,0:0:0:0:
183,288,17724,1,0,0:0:0:0:
181,259,17816,1,0,0:0:0:0:
268,94,17998,5,0,0:0:0:0:
271,124,18088,1,0,0:0:0:0:
273,153,18180,2,0,L|277:202,1,50,8|0,0:0|0:0,0:0:0:0:
381,235,18362,5,0,0:0:0:0:
378,205,18452,1,0,0:0:0:0:
376,176,18544,2,0,L|371:126,1,50,8|0,0:0|0:0,0:0:0:0:
263,35,18725,5,0,0:0:0:0:
233,38,18815,1,0,0:0:0:0:
204,40,18907,2,0,L|154:44,1,50,8|0,0:0|0:0,0:0:0:0:
271,134,19089,5,0,0:0:0:0:
301,137,19179,1,0,0:0:0:0:
330,139,19271,2,0,L|379:143,1,50,8|0,0:0|0:0,0:0:0:0:
279,233,19452,5,0,0:0:0:0:
249,236,19542,1,0,0:0:0:0:
220,238,19634,2,0,L|170:242,1,50,8|0,0:0|0:0,0:0:0:0:
287,332,19816,5,0,0:0:0:0:
317,335,19906,1,0,0:0:0:0:
346,337,19998,2,0,L|395:341,1,50,8|0,0:0|0:0,0:0:0:0:
386,241,20180,5,0,0:0:0:0:
356,238,20270,1,0,0:0:0:0:
327,236,20362,2,0,L|277:232,1,50,8|0,0:0|0:0,0:0:0:0:
268,132,20543,5,0,0:0:0:0:
298,135,20633,1,0,0:0:0:0:
327,137,20725,2,0,L|376:141,1,50,8|0,0:0|0:0,0:0:0:0:
435,245,20907,6,0,L|386:241,1,50,8|0,0:0|0:0,0:0:0:0:
317,335,21089,2,0,L|366:339,1,50,8|0,0:0|0:0,0:0:0:0:
327,236,21271,2,0,L|278:232,1,50,8|0,0:0|0:0,0:0:0:0:
209,326,21452,2,0,L|258:330,1,50,8|0,0:0|0:0,0:0:0:0:
219,227,21634,2,8,L|170:223,1,50
101,317,21816,6,0,L|97:360,1,25,8|0,0:0|2:0,0:0:0:0:
68,304,21907,6,0,L|42:340,1,25,8|0,0:0|2:0,0:0:0:0:
66,269,21998,6,0,L|26:287,1,25,8|0,0:0|2:0,0:0:0:0:
92,246,22089,6,0,L|48:242,1,25,8|0,0:0|2:0,0:0:0:0:
136,256,22180,5,8,0:0:0:0:
216,256,22271,1,8,0:0:0:0:
296,256,22362,1,8,0:0:0:0:
376,256,22452,1,8,0:0:0:0:
376,96,22907,5,8,0:0:0:0:
296,96,22998,1,8,0:0:0:0:
296,176,23089,1,8,0:0:0:0:
376,176,23179,1,8,0:0:0:0:
136,96,23634,5,8,0:0:0:0:
216,96,23725,1,8,0:0:0:0:
216,176,23816,1,8,0:0:0:0:
136,176,23906,1,8,0:0:0:0:
136,336,25090,5,8,0:0:0:0:
136,256,25180,1,8,0:0:0:0:
136,176,25271,1,8,0:0:0:0:
216,176,25362,1,8,0:0:0:0:
376,336,25816,5,8,0:0:0:0:
376,256,25906,1,8,0:0:0:0:
376,176,25997,1,8,0:0:0:0:
296,176,26088,1,8,0:0:0:0:
216,336,26543,5,8,0:0:0:0:
296,336,26634,1,8,0:0:0:0:
296,256,26725,1,8,0:0:0:0:
216,256,26816,1,8,0:0:0:0:
216,256,27998,6,0,L|326:256,1,100,8|0,0:0|0:0,0:0:0:0:
366,256,28271,1,0,0:0:0:0:
416,256,28362,2,0,B|428:208|428:208|416:156,1,100
366,159,28634,1,0,0:0:0:0:
316,159,28725,1,8,0:0:0:0:
266,159,28816,1,0,0:0:0:0:
216,159,28907,5,0,0:0:0:0:
216,59,29089,1,0,0:0:0:0:
316,59,29271,1,0,0:0:0:0:
316,159,29452,1,8,0:0:0:0:
316,209,29543,1,0,0:0:0:0:
316,259,29634,1,0,0:0:0:0:
316,309,29725,1,0,0:0:0:0:
316,359,29816,6,0,L|204:359,1,100
166,359,30089,1,0,0:0:0:0:
116,359,30180,2,0,L|65:358,2,50,8|0|0,0:0|0:0|0:0,0:0:0:0:
266,359,30543,2,0,B|278:311|278:311|266:259,1,100
116,262,30907,2,0,B|103:214|103:214|116:162,1,100,8|0,0:0|0:0,0:0:0:0:
266,165,31271,1,0,0:0:0:0:
266,14,31452,5,0,0:0:0:0:
316,14,31543,1,0,0:0:0:0:
366,14,31634,1,8,0:0:0:0:
366,64,31725,1,0,0:0:0:0:
366,114,31816,1,0,0:0:0:0:
366,265,31998,2,0,L|263:265,1,100
165,165,32362,5,8,0:0:0:0:
265,165,32543,1,0,0:0:0:0:
315,165,32634,1,0,0:0:0:0:
365,165,32725,1,8,0:0:0:0:
266,265,32907,1,0,0:0:0:0:
165,165,33089,6,0,P|152:117|165:65,1,100,2|0,0:0|0:0,0:0:0:0:
363,68,33452,2,0,P|375:115|363:168,1,100,2|0,0:0|0:0,0:0:0:0:
266,265,33816,2,0,P|253:217|266:165,1,100,2|0,0:0|0:0,0:0:0:0:
365,260,34180,1,2,0:0:0:0:
166,260,34362,5,0,0:0:0:0:
131,257,34452,1,0,0:0:0:0:
96,254,34543,1,8,0:0:0:0:
61,251,34634,1,0,0:0:0:0:
26,248,34725,1,0,0:0:0:0:
107,133,34907,1,0,0:0:0:0:
166,260,35089,1,0,0:0:0:0:
266,265,35271,5,8,0:0:0:0:
301,262,35361,1,0,0:0:0:0:
336,259,35452,1,0,0:0:0:0:
371,256,35543,1,0,0:0:0:0:
406,253,35634,1,0,0:0:0:0:
326,138,35816,1,0,0:0:0:0:
266,265,35998,2,0,L|239:323,2,50,8|0|0,0:0|0:0|0:0,0:0:0:0:
338,257,36361,5,8,0:0:0:0:
302,261,36452,1,0,0:0:0:0:
266,265,36543,1,0,0:0:0:0:
146,291,36725,1,8,0:0:0:0:
184,173,36907,1,0,0:0:0:0:
220,169,36998,1,0,0:0:0:0:
256,165,37089,2,0,L|367:155,1,100
354,121,37362,1,0,0:0:0:0:
337,90,37453,1,8,0:0:0:0:
309,70,37544,1,0,0:0:0:0:
275,64,37635,1,0,0:0:0:0:
175,73,37816,2,0,L|184:184,1,100
264,264,38180,5,8,0:0:0:0:
261,229,38270,1,0,0:0:0:0:
258,194,38361,1,0,0:0:0:0:
254,159,38452,1,0,0:0:0:0:
251,124,38543,1,0,0:0:0:0:
126,137,38725,5,8,0:0:0:0:
119,159,38816,1,8,0:0:0:0:
112,181,38907,1,8,0:0:0:0:
344,181,39089,1,8,0:0:0:0:
156,44,39271,1,8,0:0:0:0:
228,265,39452,1,8,0:0:0:0:
300,44,39634,6,0,L|220:123,1,100
228,265,39998,2,0,L|307:185,1,100
323,170,40271,1,0,0:0:0:0:
347,144,40362,2,0,L|383:109,2,50,8|0|0,0:0|0:0|0:0,0:0:0:0:
228,265,40634,2,0,L|148:344,1,100
132,310,40907,1,0,0:0:0:0:
107,286,40998,1,0,0:0:0:0:
82,262,41089,2,0,L|152:191,1,100,8|0,0:0|0:0,0:0:0:0:
176,166,41362,1,0,0:0:0:0:
200,141,41452,1,8,0:0:0:0:
270,70,41634,5,0,0:0:0:0:
295,94,41725,1,0,0:0:0:0:
320,118,41816,2,0,L|365:163,1,50,8|0,0:0|0:0,0:0:0:0:
270,211,41998,2,0,L|224:256,1,50,8|0,0:0|0:0,0:0:0:0:
340,281,42180,6,0,L|385:326,1,50,8|0,0:0|0:0,0:0:0:0:
339,280,42362,2,0,L|304:245,1,50,8|0,0:0|0:0,0:0:0:0:
339,280,42543,6,0,L|409:350,1,100,8|0,0:0|0:0,0:0:0:0:
268,350,42907,2,0,L|197:279,1,100,8|0,0:0|0:0,0:0:0:0:
172,254,43179,1,0,0:0:0:0:
147,229,43271,2,0,L|111:193,2,50,8|0|0,0:0|0:0|0:0,0:0:0:0:
172,254,43543,1,0,0:0:0:0:
197,279,43634,2,0,L|268:350,1,100,8|0,0:0|0:0,0:0:0:0:
269,210,43998,6,0,L|199:140,1,100,8|0,0:0|0:0,0:0:0:0:
174,115,44271,1,0,0:0:0:0:
149,90,44362,1,8,0:0:0:0:
270,70,44543,1,0,0:0:0:0:
392,90,44725,1,8,0:0:0:0:
367,115,44815,1,0,0:0:0:0:
342,140,44907,1,8,0:0:0:0:
269,210,45089,6,0,L|269:310,1,100,8|0,0:0|0:0,0:0:0:0:
169,210,45452,1,8,0:0:0:0:
169,110,45634,1,0,0:0:0:0:
205,110,45725,1,0,0:0:0:0:
240,110,45815,1,8,0:0:0:0:
382,110,45998,1,0,0:0:0:0:
346,110,46089,1,0,0:0:0:0:
311,110,46180,6,0,L|261:159,2,50,8|0|0,0:0|0:0|0:0,0:0:0:0:
336,85,46452,1,0,0:0:0:0:
362,60,46543,2,0,L|218:47,1,100,8|0,0:0|0:0,0:0:0:0:
162,42,46907,1,8,0:0:0:0:
153,141,47090,1,0,0:0:0:0:
188,144,47181,1,0,0:0:0:0:
223,147,47271,2,0,L|322:155,1,100,8|0,0:0|0:0,0:0:0:0:
414,264,47635,5,8,0:0:0:0:
379,261,47726,1,0,0:0:0:0:
344,258,47816,1,0,0:0:0:0:
204,246,47998,1,8,0:0:0:0:
264,374,48180,1,0,0:0:0:0:
344,258,48362,1,8,0:0:0:0:
204,246,48543,5,0,0:0:0:0:
169,243,48634,1,0,0:0:0:0:
134,240,48725,2,0,L|35:232,1,100,8|0,0:0|0:0,0:0:0:0:
42,131,49089,5,8,0:0:0:0:
77,134,49180,1,0,0:0:0:0:
112,137,49271,1,8,0:0:0:0:
246,148,49452,1,8,0:0:0:0:
380,159,49634,1,8,0:0:0:0:
323,38,49816,5,8,0:0:0:0:
313,154,49998,2,0,L|306:233,1,50
303,270,50180,1,8,0:0:0:0:
187,260,50362,2,0,L|193:180,1,50
197,144,50543,1,8,0:0:0:0:
200,109,50634,1,0,0:0:0:0:
203,74,50725,1,0,0:0:0:0:
323,38,50907,2,0,L|313:149,1,100,8|0,0:0|0:0,0:0:0:0:
296,256,51271,5,8,0:0:0:0:
296,336,51362,1,8,0:0:0:0:
216,336,51453,1,8,0:0:0:0:
216,256,51543,1,8,0:0:0:0:
136,256,51998,5,8,0:0:0:0:
216,256,52089,1,8,0:0:0:0:
296,256,52180,1,8,0:0:0:0:
376,256,52270,1,8,0:0:0:0:
296,176,52725,5,8,0:0:0:0:
216,176,52816,1,8,0:0:0:0:
216,256,52907,1,8,0:0:0:0:
296,256,52997,1,8,0:0:0:0:
136,176,54180,5,8,0:0:0:0:
216,176,54271,1,8,0:0:0:0:
296,176,54362,1,8,0:0:0:0:
376,176,54452,1,8,0:0:0:0:
136,96,54908,5,8,0:0:0:0:
136,176,54999,1,8,0:0:0:0:
136,256,55090,1,8,0:0:0:0:
216,256,55180,1,8,0:0:0:0:
376,96,55634,5,8,0:0:0:0:
376,176,55725,1,8,0:0:0:0:
376,256,55816,1,8,0:0:0:0:
296,256,55906,1,8,0:0:0:0:
423,74,57089,6,0,P|370:106|343:153,1,100
280,53,57452,6,0,P|250:107|251:161,1,100
147,106,57816,6,0,P|148:167|175:214,1,100
59,218,58180,6,0,P|91:270|138:297,1,100
165,201,58543,5,8,0:0:0:0:
248,144,58725,1,8,0:0:0:0:
349,137,58907,1,8,0:0:0:0:
439,180,59089,1,8,0:0:0:0:
356,236,59271,5,8,0:0:0:0:
349,137,59452,1,8,0:0:0:0:
292,53,59634,1,8,0:0:0:0:
202,10,59816,1,8,0:0:0:0:
210,110,59998,6,0,P|199:159|154:206,1,100
69,205,60362,2,0,P|79:254|125:301,1,100
209,300,60725,1,0,0:0:0:0:
308,308,60907,1,0,0:0:0:0:
407,316,61089,1,0,0:0:0:0:
415,216,61271,1,0,0:0:0:0:
423,116,61452,5,2,0:0:0:0:
315,207,61634,1,2,0:0:0:0:
225,100,61816,1,2,0:0:0:0:
117,191,61998,1,2,0:0:0:0:
27,84,62180,2,0,L|17:195,1,100,2|0,0:0|0:0,0:0:0:0:
108,290,62543,2,0,L|117:178,1,100
225,100,62907,5,0,0:0:0:0:
315,207,63089,1,0,0:0:0:0:
208,297,63271,1,0,0:0:0:0:
117,191,63452,1,0,0:0:0:0:
225,100,63634,2,0,L|336:109,1,100
414,215,63998,2,0,L|302:205,1,100
214,197,64362,5,0,0:0:0:0:
125,89,64543,1,0,0:0:0:0:
225,100,64725,1,0,0:0:0:0:
117,191,64907,1,0,0:0:0:0:
214,197,65089,2,0,L|205:296,1,100
315,208,65452,2,0,L|323:108,1,100
225,100,65816,5,0,0:0:0:0:
324,108,65998,1,0,0:0:0:0:
225,100,66180,2,0,L|113:90,1,100
117,191,66543,5,0,0:0:0:0:
125,91,66725,1,0,0:0:0:0:
117,191,66907,2,0,L|107:302,1,100
191,233,67270,1,8,0:0:0:0:
292,226,67452,1,8,0:0:0:0:
382,269,67634,1,8,0:0:0:0:
292,226,67816,1,8,0:0:0:0:
285,125,67998,1,8,0:0:0:0:
329,34,68180,1,8,0:0:0:0:
385,117,68362,2,0,L|277:124,1,100,8|0,0:0|0:0,0:0:0:0:
185,129,68725,5,8,0:0:0:0:
217,156,68816,1,0,0:0:0:0:
235,194,68907,1,0,0:0:0:0:
236,236,68998,1,0,0:0:0:0:
219,275,69089,1,0,0:0:0:0:
187,303,69180,1,0,0:0:0:0:
147,316,69271,1,0,0:0:0:0:
105,311,69362,1,0,0:0:0:0:
130,277,69452,5,0,0:0:0:0:
172,278,69542,1,0,0:0:0:0:
211,292,69633,1,0,0:0:0:0:
244,319,69724,1,0,0:0:0:0:
280,340,69816,1,0,0:0:0:0:
322,343,69907,1,0,0:0:0:0:
362,329,69998,1,0,0:0:0:0:
392,300,70089,1,0,0:0:0:0:
407,261,70180,6,0,L|389:172,1,62.5,8|0,0:0|0:0,0:0:0:0:
319,151,70362,2,0,L|337:240,1,62.5
282,286,70543,2,0,L|263:196,1,62.5
194,175,70725,2,0,L|212:264,1,62.5
157,310,70907,2,0,L|138:220,7,62.5
131,208,71634,5,8,0:0:0:0:
122,166,71724,1,0,0:0:0:0:
139,128,71815,1,0,0:0:0:0:
174,105,71906,1,0,0:0:0:0:
215,106,71997,1,0,0:0:0:0:
250,130,72088,1,0,0:0:0:0:
264,169,72179,1,0,0:0:0:0:
255,210,72270,1,0,0:0:0:0:
240,249,72361,1,0,0:0:0:0:
247,290,72452,1,0,0:0:0:0:
274,322,72543,1,0,0:0:0:0:
314,335,72634,1,0,0:0:0:0:
355,325,72725,2,0,L|411:298,3,42.5000008106232
427,280,73089,5,8,0:0:0:0:
444,231,73179,1,0,0:0:0:0:
448,180,73270,1,0,0:0:0:0:
434,130,73361,1,0,0:0:0:0:
410,81,73452,5,8,0:0:0:0:
372,48,73543,1,0,0:0:0:0:
322,41,73634,1,0,0:0:0:0:
277,61,73725,1,0,0:0:0:0:
250,104,73816,1,8,0:0:0:0:
223,147,73907,1,0,0:0:0:0:
178,167,73998,1,0,0:0:0:0:
128,160,74089,1,0,0:0:0:0:
90,127,74180,5,8,0:0:0:0:
89,121,74271,1,0,0:0:0:0:
88,112,74362,1,0,0:0:0:0:
87,103,74452,1,0,0:0:0:0:
86,96,74543,1,0,0:0:0:0:
86,75,74634,1,0,0:0:0:0:
111,48,74724,1,0,0:0:0:0:
147,37,74815,1,0,0:0:0:0:
183,45,74906,1,0,0:0:0:0:
211,70,74997,1,0,0:0:0:0:
223,104,75088,1,0,0:0:0:0:
235,138,75180,1,0,0:0:0:0:
263,163,75271,1,0,0:0:0:0:
299,171,75362,1,0,0:0:0:0:
335,160,75453,1,0,0:0:0:0:
361,134,75543,1,0,0:0:0:0:
367,99,75634,1,0,0:0:0:0:
366,93,75725,1,0,0:0:0:0:
365,84,75816,1,0,0:0:0:0:
364,75,75906,1,0,0:0:0:0:
363,68,75997,5,8,0:0:0:0:
330,41,76089,1,0,0:0:0:0:
290,26,76180,1,0,0:0:0:0:
248,26,76271,1,0,0:0:0:0:
208,41,76362,1,8,0:0:0:0:
175,68,76453,1,0,0:0:0:0:
154,105,76544,1,0,0:0:0:0:
147,146,76635,1,0,0:0:0:0:
154,188,76725,2,0,P|161:224|184:254,3,42.5000008106232,8|0|0|0,0:0|0:0|0:0|0:0,0:0:0:0:
204,242,77089,5,8,0:0:0:0:
246,245,77179,1,0,0:0:0:0:
288,249,77270,1,0,0:0:0:0:
331,253,77361,1,0,0:0:0:0:
373,256,77452,5,8,0:0:0:0:
407,231,77543,1,0,0:0:0:0:
420,190,77634,1,0,0:0:0:0:
407,150,77725,1,0,0:0:0:0:
373,125,77816,5,8,0:0:0:0:
330,125,77907,1,0,0:0:0:0:
293,146,77998,1,0,0:0:0:0:
251,142,78089,1,0,0:0:0:0:
220,114,78180,5,8,0:0:0:0:
207,74,78271,1,0,0:0:0:0:
220,34,78362,1,8,0:0:0:0:
255,9,78453,1,0,0:0:0:0:
297,9,78544,1,8,0:0:0:0:
332,34,78635,1,0,0:0:0:0:
345,74,78726,1,8,0:0:0:0:
332,115,78817,1,0,0:0:0:0:
297,139,78908,1,8,0:0:0:0:
255,139,78998,1,0,0:0:0:0:
220,114,79089,5,8,0:0:0:0:
207,74,79180,1,0,0:0:0:0:
194,34,79271,1,8,0:0:0:0:
159,9,79362,1,0,0:0:0:0:
117,9,79453,1,8,0:0:0:0:
82,34,79544,1,0,0:0:0:0:
69,74,79635,5,8,0:0:0:0:
88,133,79725,1,8,0:0:0:0:
138,170,79816,1,8,0:0:0:0:
201,170,79907,1,8,0:0:0:0:
252,134,79998,1,8,0:0:0:0:
314,133,80089,1,8,0:0:0:0:
365,170,80180,1,8,0:0:0:0:
384,229,80271,1,8,0:0:0:0:
365,289,80362,6,0,P|350:328|319:348,1,80,4|0,0:0|0:0,0:0:0:0:
210,74,83271,6,0,L|189:151,1,50,8|0,2:0|2:0,2:0:0:0:
293,147,83452,1,2,0:0:0:0:
287,172,83543,1,2,0:0:0:0:
170,219,83725,5,2,0:0:0:0:
176,194,83816,1,2,0:0:0:0:
305,98,83998,5,8,0:0:0:0:
299,123,84089,1,2,0:0:0:0:
293,147,84180,1,2,0:0:0:0:
251,290,84362,5,2,0:0:0:0:
257,265,84453,1,2,0:0:0:0:
374,219,84634,5,2,0:0:0:0:
368,244,84725,1,2,0:0:0:0:
257,265,84907,1,10,0:0:0:0:
176,194,85089,1,2,0:0:0:0:
182,169,85180,1,2,0:0:0:0:
374,219,85452,1,4,0:0:0:0:
256,192,85543,12,0,87998,0:0:0:0:
306,159,88362,5,8,0:0:0:0:
330,161,88452,1,0,0:0:0:0:
355,163,88543,1,8,0:0:0:0:
380,165,88634,1,2,0:0:0:0:
405,167,88725,1,2,0:0:0:0:
315,60,88907,5,2,0:0:0:0:
290,57,88998,1,2,0:0:0:0:
207,151,89180,5,2,0:0:0:0:
231,153,89270,1,2,0:0:0:0:
297,258,89452,5,2,0:0:0:0:
272,255,89543,1,2,0:0:0:0:
240,352,89725,5,8,0:0:0:0:
315,60,90180,1,8,0:0:0:0:
207,151,90634,1,8,0:0:0:0:
297,258,91089,1,8,0:0:0:0:
99,242,91362,5,8,0:0:0:0:
183,149,91543,1,8,0:0:0:0:
265,54,91725,1,8,0:0:0:0:
265,54,91998,5,8,0:0:0:0:
183,149,92180,5,2,0:0:0:0:
180,174,92271,1,2,0:0:0:0:
282,157,92452,5,2,0:0:0:0:
285,132,92543,1,2,0:0:0:0:
381,165,92725,5,8,0:0:0:0:
378,190,92816,1,2,0:0:0:0:
377,214,92907,1,2,0:0:0:0:
274,256,93089,5,2,0:0:0:0:
276,231,93180,1,2,0:0:0:0:
180,174,93362,5,2,0:0:0:0:
178,198,93452,1,2,0:0:0:0:
80,165,93634,5,8,0:0:0:0:
188,76,93816,5,2,0:0:0:0:
185,101,93907,1,2,0:0:0:0:
170,296,94180,5,4,0:0:0:0:
256,192,94271,12,0,96725,0:0:0:0:
114,191,97089,5,8,0:0:0:0:
256,192,97271,1,8,0:0:0:0:
397,192,97452,1,8,0:0:0:0:
256,50,97634,1,8,0:0:0:0:
114,191,97816,1,8,0:0:0:0:
397,192,98180,1,8,0:0:0:0:
114,191,98543,5,8,0:0:0:0:
397,192,99271,1,12,0:0:0:0:
