osu file format v14

[General]
AudioFilename: audio.mp3
AudioLeadIn: 0
PreviewTime: 35333
Countdown: 0
SampleSet: Soft
StackLeniency: 0.7
Mode: 2
LetterboxInBreaks: 0
WidescreenStoryboard: 1

[Editor]
Bookmarks: 24898,31420
DistanceSpacing: 1.8
BeatDivisor: 4
GridSize: 8
TimelineZoom: 2.000005

[Metadata]
Title:reunion
TitleUnicode:reunion
Artist:Tatsh
ArtistUnicode:Tatsh
Creator:GIGACHAD
Version:Rain
Source:beatmania IIDX 18 Resort Anthem
Tags:NyalettOwO x3 electronic REFLECT BEAT chatie zirox daletto cyber waltz weird english lyrics Killer Licht XTC ROAD FIGHTERS video game english cwc nm3 2021 quarterfinals qf
BeatmapID:3023453
BeatmapSetID:1457145

[Difficulty]
HPDrainRate:6
CircleSize:4.5
OverallDifficulty:8.5
ApproachRate:8.5
SliderMultiplier:1.76
SliderTickRate:2

[Events]
//Background and Video events
0,0,"bg.jpg",0,0
//Break Periods
//Storyboard Layer 0 (Background)
//Storyboard Layer 1 (Fail)
//Storyboard Layer 2 (Pass)
//Storyboard Layer 3 (Foreground)
//Storyboard Layer 4 (Overlay)
//Storyboard Sound Samples

[TimingPoints]
2725,326.086956521739,4,2,1,60,1,0
4029,-100,4,2,1,40,0,0
11855,-100,4,2,1,40,0,0
12344,-100,4,2,1,50,0,0
12670,-100,4,2,1,60,0,0
35333,326.086956521739,3,2,1,70,1,0
35333,-100,3,2,1,70,0,0
35415,-100,3,2,1,60,0,0
35638,-100,3,2,1,5,0,0
35659,-100,3,2,1,60,0,0
35964,-100,3,2,1,5,0,0
35985,-100,3,2,1,60,0,0
36127,-100,3,2,1,5,0,0
36148,-100,3,2,1,70,0,0
36230,-100,3,2,1,70,0,0
36290,-100,3,2,1,5,0,0
36311,-100,3,2,1,70,0,0
36393,-100,3,2,1,60,0,0
36616,-100,3,2,1,5,0,0
36637,-100,3,2,1,60,0,0
36943,-100,3,2,1,5,0,0
36963,-100,3,2,1,60,0,0
37209,-100,3,2,1,70,0,0
37269,-100,3,2,1,5,0,0
37289,-100,3,2,1,70,0,0
37372,-100,3,2,1,60,0,0
37595,-100,3,2,1,5,0,0
37615,-100,3,2,1,60,0,0
37921,-100,3,2,1,5,0,0
37941,-100,3,2,1,60,0,0
38187,-100,3,2,1,70,0,0
38247,-100,3,2,1,5,0,0
38267,-100,3,2,1,70,0,0
38350,-100,3,2,1,60,0,0
38573,-100,3,2,1,5,0,0
38593,-100,3,2,1,60,0,0
38736,-100,3,2,1,5,0,0
38756,-100,3,2,1,60,0,0
38899,-100,3,2,1,5,0,0
38919,-100,3,2,1,60,0,0
39062,-100,3,2,1,5,0,0
39083,-100,3,2,1,60,0,0
39165,-100,3,2,1,70,0,0
39225,-100,3,2,1,5,0,0
39246,-100,3,2,1,70,0,0
39328,-100,3,2,1,60,0,0
39551,-100,3,2,1,5,0,0
39572,-100,3,2,1,60,0,0
39877,-100,3,2,1,5,0,0
39898,-100,3,2,1,70,0,0
40040,-100,3,2,1,5,0,0
40061,-100,3,2,1,70,0,0
40143,-100,3,2,1,70,0,0
40203,-100,3,2,1,5,0,0
40224,-100,3,2,1,70,0,0
40306,-100,3,2,1,60,0,0
40530,-100,3,2,1,5,0,0
40550,-100,3,2,1,60,0,0
40693,-100,3,2,1,5,0,0
40713,-100,3,2,1,60,0,0
40856,-100,3,2,1,5,0,0
40876,-100,3,2,1,60,0,0
41122,-100,3,2,1,70,0,0
41182,-100,3,2,1,5,0,0
41202,-100,3,2,1,70,0,0
41285,-100,3,2,1,60,0,0
41508,-100,3,2,1,5,0,0
41528,-100,3,2,1,70,0,0
41834,-100,3,2,1,5,0,0
41854,-100,3,2,1,60,0,0
42100,-100,3,2,1,70,0,0
42160,-100,3,2,1,5,0,0
42180,-100,3,2,1,70,0,0
42263,-100,3,2,1,60,0,0
42486,-100,3,2,1,5,0,0
42506,-100,3,2,1,60,0,0
42649,-100,3,2,1,5,0,0
42669,-100,3,2,1,60,0,0
42812,-100,3,2,1,5,0,0
42833,-100,3,2,1,70,0,0
43159,-100,3,2,1,70,0,0
43241,-100,3,2,1,60,0,0
43464,-100,3,2,1,5,0,0
43485,-100,3,2,1,60,0,0
43790,-100,3,2,1,5,0,0
43811,-100,3,2,1,60,0,0
43953,-100,3,2,1,5,0,0
43974,-100,3,2,1,60,0,0
44056,-100,3,2,1,70,0,0
44116,-100,3,2,1,5,0,0
44137,-100,3,2,1,70,0,0
44219,-100,3,2,1,60,0,0
44443,-100,3,2,1,5,0,0
44463,-100,3,2,1,60,0,0
44769,-100,3,2,1,5,0,0
44789,-100,3,2,1,60,0,0
44932,-100,3,2,1,5,0,0
44952,-100,3,2,1,60,0,0
45035,-100,3,2,1,70,0,0
45095,-100,3,2,1,5,0,0
45115,-100,3,2,1,70,0,0
45198,-100,3,2,1,60,0,0
45421,-100,3,2,1,5,0,0
45441,-100,3,2,1,70,0,0
45747,-100,3,2,1,5,0,0
45767,-100,3,2,1,70,0,0
45910,-100,3,2,1,5,0,0
45930,-100,3,2,1,70,0,0
46013,-100,3,2,1,70,0,0
46073,-100,3,2,1,5,0,0
46093,-100,3,2,1,70,0,0
46176,-100,3,2,1,60,0,0
46399,-100,3,2,1,5,0,0
46419,-100,3,2,1,60,0,0
46725,-100,3,2,1,5,0,0
46746,-100,3,2,1,60,0,0
46888,-100,3,2,1,5,0,0
46909,-100,3,2,1,60,0,0
46991,-100,3,2,1,70,0,0
47051,-100,3,2,1,5,0,0
47072,-100,3,2,1,70,0,0
47154,-100,3,2,1,60,0,0
47377,-100,3,2,1,5,0,0
47398,-100,3,2,1,60,0,0
47703,-100,3,2,1,5,0,0
47724,-100,3,2,1,60,0,0
47866,-100,3,2,1,5,0,0
47887,-100,3,2,1,60,0,0
47969,-100,3,2,1,70,0,0
48030,-100,3,2,1,5,0,0
48050,-100,3,2,1,70,0,0
48132,-100,3,2,1,60,0,0
48356,-100,3,2,1,5,0,0
48376,-100,3,2,1,60,0,0
48682,-100,3,2,1,5,0,0
48702,-100,3,2,1,60,0,0
48948,-100,3,2,1,70,0,0
49008,-100,3,2,1,5,0,0
49028,-100,3,2,1,70,0,0
49111,-100,3,2,1,60,0,0
49171,-100,3,2,1,5,0,0
49191,-100,3,2,1,60,0,0
49334,-100,3,2,1,5,0,0
49354,-100,3,2,1,60,0,0
49497,-100,3,2,1,5,0,0
49517,-100,3,2,1,60,0,0
49660,-100,3,2,1,5,0,0
49680,-100,3,2,1,70,0,0
49926,-100,3,2,1,70,0,0
50089,-100,3,2,1,60,0,0
50252,-100,3,2,1,70,0,0
50415,-100,3,2,1,60,0,0
50578,-100,3,2,1,70,0,0
50741,-100,3,2,1,60,0,0
50904,-100,3,2,1,70,0,0
50986,326.086956521739,4,2,1,60,1,0
61339,-100,4,2,1,60,0,0
66638,-100,4,2,1,40,0,0
66719,-100,4,2,1,60,0,0
68757,-100,4,2,1,60,0,0
69899,-100,4,2,1,60,0,0
69980,-100,4,2,1,60,0,0
70225,-100,4,2,1,40,0,0
70306,-100,4,2,1,60,0,0
70551,-100,4,2,1,60,0,0
71855,-100,4,2,1,70,0,0
91420,-100,4,2,1,45,0,0
91746,-100,4,2,1,50,0,0
92072,-100,4,2,1,55,0,0
92399,-100,4,2,1,60,0,0
92725,326.086956521739,3,2,1,80,1,1
92725,-100,3,2,1,80,0,1
92806,-100,3,2,1,70,0,1
93030,-100,3,2,1,5,0,1
93051,-100,3,2,1,70,0,1
93356,-100,3,2,1,5,0,1
93377,-100,3,2,1,70,0,1
93519,-100,3,2,1,5,0,1
93540,-100,3,2,1,70,0,1
93621,-100,3,2,1,80,0,1
93682,-100,3,2,1,5,0,1
93703,-100,3,2,1,80,0,1
93784,-100,3,2,1,70,0,1
94008,-100,3,2,1,5,0,1
94029,-100,3,2,1,70,0,1
94335,-100,3,2,1,5,0,1
94355,-100,3,2,1,70,0,1
94600,-100,3,2,1,80,0,1
94661,-100,3,2,1,5,0,1
94681,-100,3,2,1,80,0,1
94763,-100,3,2,1,70,0,1
94987,-100,3,2,1,5,0,1
95007,-100,3,2,1,70,0,1
95313,-100,3,2,1,5,0,1
95333,-100,3,2,1,70,0,1
95578,-100,3,2,1,80,0,1
95639,-100,3,2,1,5,0,1
95659,-100,3,2,1,80,0,1
95741,-100,3,2,1,70,0,1
95965,-100,3,2,1,5,0,1
95985,-100,3,2,1,70,0,1
96291,-100,3,2,1,5,0,1
96311,-100,3,2,1,70,0,1
96556,-100,3,2,1,80,0,1
96617,-100,3,2,1,5,0,1
96638,-100,3,2,1,80,0,1
96719,-100,3,2,1,70,0,1
96943,-100,3,2,1,5,0,1
96964,-100,3,2,1,70,0,1
97269,-100,3,2,1,5,0,1
97290,-100,3,2,1,70,0,1
97534,-100,3,2,1,80,0,1
97595,-100,3,2,1,5,0,1
97616,-100,3,2,1,80,0,1
97697,-100,3,2,1,70,0,1
97922,-100,3,2,1,5,0,1
97942,-100,3,2,1,70,0,1
98085,-100,3,2,1,5,0,1
98105,-100,3,2,1,70,0,1
98248,-100,3,2,1,5,0,1
98268,-100,3,2,1,70,0,1
98513,-100,3,2,1,80,0,1
98574,-100,3,2,1,5,0,1
98594,-100,3,2,1,80,0,1
98676,-100,3,2,1,70,0,1
98900,-100,3,2,1,5,0,1
98920,-100,3,2,1,70,0,1
99226,-100,3,2,1,5,0,1
99246,-100,3,2,1,70,0,1
99491,-100,3,2,1,80,0,1
99552,-100,3,2,1,5,0,1
99572,-100,3,2,1,80,0,1
99654,-100,3,2,1,70,0,1
99878,-100,3,2,1,5,0,1
99898,-100,3,2,1,70,0,1
100041,-100,3,2,1,5,0,1
100061,-100,3,2,1,70,0,1
100204,-100,3,2,1,5,0,1
100225,-100,3,2,1,70,0,1
100551,-100,3,2,1,80,0,1
100632,-100,3,2,1,70,0,1
100856,-100,3,2,1,5,0,1
100877,-100,3,2,1,70,0,1
101182,-100,3,2,1,5,0,1
101203,-100,3,2,1,70,0,1
101447,-100,3,2,1,80,0,1
101508,-100,3,2,1,5,0,1
101529,-100,3,2,1,80,0,1
101610,-100,3,2,1,70,0,1
101835,-100,3,2,1,5,0,1
101855,-100,3,2,1,70,0,1
102161,-100,3,2,1,5,0,1
102181,-100,3,2,1,70,0,1
102324,-100,3,2,1,5,0,1
102344,-100,3,2,1,70,0,1
102426,-100,3,2,1,80,0,1
102487,-100,3,2,1,5,0,1
102507,-100,3,2,1,80,0,1
102589,-100,3,2,1,70,0,1
102813,-100,3,2,1,5,0,1
102833,-100,3,2,1,70,0,1
102976,-100,3,2,1,5,0,1
102996,-100,3,2,1,70,0,1
103139,-100,3,2,1,5,0,1
103159,-100,3,2,1,70,0,1
103302,-100,3,2,1,5,0,1
103322,-100,3,2,1,70,0,1
103404,-100,3,2,1,80,0,1
103465,-100,3,2,1,5,0,1
103485,-100,3,2,1,80,0,1
103567,-100,3,2,1,70,0,1
103791,-100,3,2,1,5,0,1
103811,-100,3,2,1,70,0,1
104117,-100,3,2,1,5,0,1
104138,-100,3,2,1,70,0,1
104280,-100,3,2,1,5,0,1
104301,-100,3,2,1,70,0,1
104382,-100,3,2,1,80,0,1
104443,-100,3,2,1,5,0,1
104464,-100,3,2,1,80,0,1
104545,-100,3,2,1,70,0,1
104769,-100,3,2,1,5,0,1
104790,-100,3,2,1,70,0,1
105095,-100,3,2,1,5,0,1
105116,-100,3,2,1,70,0,1
105360,-100,3,2,1,80,0,1
105422,-100,3,2,1,5,0,1
105442,-100,3,2,1,80,0,1
105523,-100,3,2,1,70,0,1
105585,-100,3,2,1,5,0,1
105605,-100,3,2,1,70,0,1
105748,-100,3,2,1,5,0,1
105768,-100,3,2,1,70,0,1
106074,-100,3,2,1,5,0,1
106094,-100,3,2,1,70,0,1
106339,-100,3,2,1,80,0,1
106400,-100,3,2,1,5,0,1
106420,-100,3,2,1,80,0,1
106502,-100,3,2,1,70,0,1
106726,-100,3,2,1,5,0,1
106746,-100,3,2,1,70,0,1
107052,-100,3,2,1,5,0,1
107072,-100,3,2,1,70,0,1
107215,-100,3,2,1,5,0,1
107235,-100,3,2,1,70,0,1
107317,-100,3,2,1,80,0,1
107378,-100,3,2,1,5,0,1
107398,-100,3,2,1,80,0,1
107480,-100,3,2,1,70,0,1
108377,-100,3,2,1,40,0,1
109029,326.086956521739,4,2,1,60,1,0
117099,-100,5,2,1,60,0,0
119463,-100,5,2,1,20,0,0

[Colours]
Combo1 : 160,216,222
Combo2 : 231,132,153
Combo3 : 0,227,236
Combo4 : 36,39,176

[HitObjects]
184,192,3377,6,0,L|176:136,2,44,2|0|0,0:0|0:0|0:0,0:0:0:0:
336,192,3703,2,0,L|408:192,2,44,2|0|0,0:0|0:0|0:0,0:0:0:0:
288,192,3947,1,0,0:0:0:0:
136,328,4029,6,0,P|80:288|152:232,1,176,6|2,0:0|0:0,0:0:0:0:
232,224,4518,1,0,0:0:0:0:
384,320,4681,2,0,L|256:320,1,88,2|0,0:0|0:0,0:0:0:0:
160,272,5007,2,0,L|272:272,1,88,2|0,0:0|0:0,0:0:0:0:
400,256,5333,6,0,P|400:216|288:144,1,176,2|2,0:0|0:0,0:0:0:0:
216,136,5822,1,0,0:0:0:0:
368,80,5985,2,0,L|376:192,1,88,2|0,0:0|0:0,0:0:0:0:
240,296,6311,2,0,L|232:208,1,88,2|0,0:0|0:0,0:0:0:0:
80,296,6638,6,0,L|272:296,1,176,2|2,0:0|0:0,0:0:0:0:
344,296,7127,1,0,0:0:0:0:
216,240,7290,2,0,L|208:144,1,88,2|0,0:0|0:0,0:0:0:0:
336,240,7616,2,0,L|344:144,1,88,2|0,0:0|0:0,0:0:0:0:
208,96,7942,6,0,L|32:96,1,176,2|2,0:0|0:0,0:0:0:0:
120,48,8431,1,0,0:0:0:0:
272,272,8594,2,0,L|168:272,1,88,2|2,0:0|0:0,0:0:0:0:
336,216,8920,2,0,L|232:216,1,88,2|2,0:0|0:0,0:0:0:0:
464,208,9246,6,0,L|472:120,1,88,2|0,0:0|0:0,0:0:0:0:
320,120,9572,1,2,0:0:0:0:
276,120,9653,1,0,0:0:0:0:
232,120,9735,1,0,0:0:0:0:
80,256,9898,2,0,L|72:200,2,44,2|0|0,0:0|0:0|0:0,0:0:0:0:
232,256,10224,2,0,L|280:256,2,44,2|0|0,0:0|0:0|0:0,0:0:0:0:
400,208,10551,6,0,L|464:208,2,44,2|0|0,0:0|0:0|0:0,0:0:0:0:
248,192,10877,2,0,L|256:136,1,44,2|0,0:0|0:0,0:0:0:0:
304,144,11040,1,0,0:0:0:0:
152,184,11203,2,0,L|160:128,1,44,2|0,0:0|0:0,0:0:0:0:
240,112,11366,1,0,0:0:0:0:
392,184,11529,2,0,L|384:128,1,44,2|0,0:0|0:0,0:0:0:0:
304,112,11692,1,0,0:0:0:0:
88,336,11855,6,0,L|96:272,1,44,2|0,0:0|0:0,0:0:0:0:
176,288,12018,1,8,0:0:0:0:
336,288,12181,2,0,L|400:288,1,44,2|0,0:0|0:0,0:0:0:0:
296,240,12344,1,8,0:0:0:0:
80,200,12507,2,0,L|88:144,1,44,2|0,0:0|0:0,0:0:0:0:
160,160,12670,2,0,L|216:160,1,44,8|0,0:0|0:0,0:0:0:0:
56,152,12833,6,0,L|24:152,6,22,2|0|0|0|8|0|8,0:0|0:0|0:0|0:0|0:0|0:0|0:0,0:0:0:0:
224,128,13159,6,0,B|320:128|320:128|320:8|216:24,1,264,4|0,0:0|0:0,0:0:0:0:
136,24,13811,1,2,0:0:0:0:
288,280,13974,1,2,0:0:0:0:
244,280,14055,1,2,0:0:0:0:
200,280,14137,1,2,0:0:0:0:
344,208,14301,2,0,L|280:208,1,44,2|2,0:0|0:0,0:0:0:0:
144,208,14464,6,0,L|48:208,3,88,12|0|8|0,0:0|0:0|0:0|0:0,0:0:0:0:
368,208,15279,2,0,L|272:208,2,88,0|8|0,0:0|0:0|0:0,0:0:0:0:
112,160,15931,6,0,L|16:160,2,88,0|8|0,0:0|0:0|0:0,0:0:0:0:
280,168,16583,1,0,0:0:0:0:
192,120,16746,1,8,0:0:0:0:
104,80,16909,6,0,L|280:80,1,176,0|0,0:0|0:0,0:0:0:0:
112,248,17398,2,0,L|104:160,1,88,8|0,0:0|0:0,0:0:0:0:
264,160,17888,1,0,0:0:0:0:
120,312,18051,2,0,L|208:312,1,88,8|0,0:0|0:0,0:0:0:0:
368,304,18540,5,0,0:0:0:0:
376,240,18703,1,8,0:0:0:0:
224,232,18866,1,0,0:0:0:0:
216,152,19192,1,2,0:0:0:0:
368,104,19355,2,0,L|280:104,1,88,8|2,0:0|0:0,0:0:0:0:
400,48,19681,5,2,0:0:0:0:
440,112,19844,1,0,0:0:0:0:
400,48,20007,1,8,0:0:0:0:
248,248,20170,2,0,L|64:248,2,176,0|0|0,0:0|0:0|0:0,0:0:0:0:
408,248,21148,5,0,0:0:0:0:
320,200,21311,1,8,0:0:0:0:
312,128,21474,1,0,0:0:0:0:
160,128,21801,1,0,0:0:0:0:
312,336,21964,2,0,L|320:248,1,88,8|0,0:0|0:0,0:0:0:0:
232,200,22290,5,2,0:0:0:0:
320,200,22453,1,0,0:0:0:0:
168,152,22616,1,8,0:0:0:0:
80,152,22779,2,0,L|72:56,1,88,0|2,0:0|0:0,0:0:0:0:
168,96,23105,2,0,L|176:192,1,88,0|8,0:0|0:0,0:0:0:0:
328,192,23431,6,0,L|144:192,1,176,0|2,0:0|0:0,0:0:0:0:
240,280,23920,1,8,0:0:0:0:
456,128,24083,2,0,L|272:128,1,176,0|0,0:0|0:0,0:0:0:0:
56,224,24572,2,0,L|48:176,1,44,8|8,0:0|0:0,0:0:0:0:
136,184,24735,2,0,L|200:184,1,44,8|8,0:0|0:0,0:0:0:0:
336,344,24898,6,0,L|344:240,1,88,4|0,0:0|0:0,0:0:0:0:
192,240,25224,1,8,0:0:0:0:
344,256,25388,1,0,0:0:0:0:
256,248,25551,2,0,L|248:144,1,88,2|0,0:0|0:0,0:0:0:0:
160,208,25877,2,0,L|72:208,1,88,8|0,0:0|0:0,0:0:0:0:
160,144,26203,6,0,L|256:144,1,88,2|0,0:0|0:0,0:0:0:0:
104,88,26529,1,8,0:0:0:0:
248,80,26692,1,0,0:0:0:0:
344,88,26855,2,0,L|352:176,1,88,2|0,0:0|0:0,0:0:0:0:
440,184,27181,1,8,0:0:0:0:
488,184,27263,1,0,0:0:0:0:
496,136,27344,1,0,0:0:0:0:
344,352,27507,6,0,L|336:256,1,88,2|0,0:0|0:0,0:0:0:0:
176,264,27833,1,8,0:0:0:0:
16,272,27996,1,0,0:0:0:0:
104,272,28159,2,0,L|112:184,1,88,2|0,0:0|0:0,0:0:0:0:
200,128,28485,2,0,L|96:128,1,88,8|0,0:0|0:0,0:0:0:0:
200,240,28811,6,0,L|208:136,1,88,2|0,0:0|0:0,0:0:0:0:
360,152,29138,1,8,0:0:0:0:
206,152,29301,1,0,0:0:0:0:
112,152,29464,2,0,L|104:56,1,88,2|2,0:0|0:0,0:0:0:0:
200,56,29790,1,8,0:0:0:0:
244,56,29871,1,0,0:0:0:0:
288,56,29953,1,8,0:0:0:0:
136,344,30116,6,0,L|128:248,1,88,2|0,0:0|0:0,0:0:0:0:
280,248,30442,1,8,0:0:0:0:
128,256,30605,1,0,0:0:0:0:
216,256,30768,2,0,L|224:160,1,88,2|0,0:0|0:0,0:0:0:0:
312,168,31094,2,0,L|400:168,1,88,8|0,0:0|0:0,0:0:0:0:
248,128,31420,6,0,L|160:128,1,88,2|0,0:0|0:0,0:0:0:0:
312,256,31746,1,8,0:0:0:0:
160,264,31909,1,0,0:0:0:0:
248,256,32072,2,0,L|256:160,1,88,2|0,0:0|0:0,0:0:0:0:
344,128,32398,1,8,0:0:0:0:
300,128,32479,1,0,0:0:0:0:
256,128,32561,1,8,0:0:0:0:
104,96,32724,6,0,L|224:96,1,88,2|0,0:0|0:0,0:0:0:0:
344,96,33051,1,8,0:0:0:0:
192,240,33214,1,0,0:0:0:0:
104,176,33377,2,0,L|216:176,1,88,2|0,0:0|0:0,0:0:0:0:
280,184,33703,2,0,L|288:288,1,88,8|2,0:0|0:0,0:0:0:0:
64,352,34029,5,8,0:0:0:0:
72,296,34110,1,0,0:0:0:0:
120,264,34192,1,8,0:0:0:0:
168,256,34273,1,0,0:0:0:0:
256,248,34355,1,2,0:0:0:0:
248,192,34436,1,0,0:0:0:0:
200,160,34518,1,10,0:0:0:0:
416,160,34681,6,0,L|480:160,1,44,2|0,0:0|0:0,0:0:0:0:
464,104,34844,2,0,L|408:104,1,44,2|0,0:0|0:0,0:0:0:0:
336,72,35007,1,8,0:0:0:0:
376,40,35089,1,0,0:0:0:0:
416,32,35170,1,2,0:0:0:0:
456,32,35252,1,2,0:0:0:0:
280,64,35333,6,0,L|144:64,1,132,4|0,0:0|0:0,0:0:0:0:
296,232,35659,2,0,L|304:144,1,88,8|0,0:0|0:0,0:0:0:0:
144,144,35985,2,0,L|240:144,1,88,2|2,0:0|0:0,0:0:0:0:
448,248,36311,6,0,L|456:152,1,88,4|0,0:0|0:0,0:0:0:0:
368,160,36637,2,0,L|272:160,1,88,2|0,0:0|0:0,0:0:0:0:
128,224,36963,2,0,L|232:224,1,88,8|0,0:0|0:0,0:0:0:0:
440,344,37289,6,0,L|448:192,1,132,4|0,0:0|0:0,0:0:0:0:
296,296,37615,2,0,L|192:296,1,88,8|0,0:0|0:0,0:0:0:0:
360,160,37941,2,0,L|256:160,1,88,2|0,0:0|0:0,0:0:0:0:
56,128,38267,6,0,L|48:224,1,88,4|0,0:0|0:0,0:0:0:0:
192,320,38593,2,0,L|200:232,1,88,2|2,0:0|0:0,0:0:0:0:
424,240,38919,1,4,0:0:0:0:
199,232,39083,1,4,0:0:0:0:
472,152,39246,6,0,P|480:112|408:56,1,132,4|0,0:0|0:0,0:0:0:0:
272,288,39572,2,0,L|264:192,1,88,8|0,0:0|0:0,0:0:0:0:
416,192,39898,1,2,0:0:0:0:
264,200,40061,1,2,0:0:0:0:
48,144,40224,6,0,L|224:144,1,176,4|2,0:0|0:0,0:0:0:0:
136,96,40713,1,2,0:0:0:0:
288,320,40876,2,0,L|296:224,1,88,8|0,0:0|0:0,0:0:0:0:
72,304,41202,6,0,L|56:160,1,132,4|0,0:0|0:0,0:0:0:0:
208,168,41528,2,0,L|304:168,1,88,8|0,0:0|0:0,0:0:0:0:
448,168,41854,2,0,L|456:72,1,88,8|0,0:0|0:0,0:0:0:0:
224,80,42180,6,0,L|400:80,1,176,4|2,0:0|0:0,0:0:0:0:
408,16,42669,1,2,0:0:0:0:
184,240,42833,2,0,L|176:168,1,44,2|2,0:0|0:0,0:0:0:0:
328,200,42996,2,0,L|384:200,1,44,2|2,0:0|0:0,0:0:0:0:
192,352,43159,6,0,P|152:320|200:272,1,132,4|0,0:0|0:0,0:0:0:0:
336,280,43485,2,0,L|432:280,1,88,8|0,0:0|0:0,0:0:0:0:
272,224,43811,1,2,0:0:0:0:
120,232,43974,1,2,0:0:0:0:
344,216,44137,6,0,L|352:128,1,88,4|0,0:0|0:0,0:0:0:0:
264,128,44463,2,0,L|272:32,1,88,2|0,0:0|0:0,0:0:0:0:
120,336,44789,2,0,L|16:336,1,88,8|2,0:0|0:0,0:0:0:0:
256,304,45115,6,0,L|264:168,1,132,4|0,0:0|0:0,0:0:0:0:
416,304,45441,2,0,L|408:208,1,88,2|0,0:0|0:0,0:0:0:0:
272,304,45767,2,0,L|272:208,1,88,2|2,0:0|0:0,0:0:0:0:
48,304,46093,6,0,L|40:208,1,88,4|0,0:0|0:0,0:0:0:0:
192,224,46419,2,0,L|288:224,1,88,2|0,0:0|0:0,0:0:0:0:
128,152,46746,1,2,0:0:0:0:
172,152,46827,1,0,0:0:0:0:
216,152,46909,1,2,0:0:0:0:
440,104,47072,6,0,L|288:104,1,132,4|0,0:0|0:0,0:0:0:0:
160,296,47398,2,0,L|72:296,1,88,2|0,0:0|0:0,0:0:0:0:
224,232,47724,1,2,0:0:0:0:
72,232,47887,1,2,0:0:0:0:
320,224,48050,6,0,L|328:128,1,88,4|0,0:0|0:0,0:0:0:0:
176,136,48376,2,0,L|80:136,1,88,2|0,0:0|0:0,0:0:0:0:
240,96,48702,1,8,0:0:0:0:
392,88,48865,1,0,0:0:0:0:
168,336,49028,6,0,L|160:184,1,132,2|0,0:0|0:0,0:0:0:0:
304,192,49354,2,0,L|408:192,1,88,2|8,0:0|0:0,0:0:0:0:
240,192,49680,2,0,P|200:152|256:112,1,132,2|2,0:0|0:0,0:0:0:0:
400,104,50006,6,0,L|472:104,2,44,6|2|2,0:0|0:0|0:0,0:0:0:0:
248,96,50332,1,2,0:0:0:0:
96,192,50496,2,0,L|88:136,1,44,2|2,0:0|0:0,0:0:0:0:
232,144,50659,2,0,L|296:144,1,44,2|2,0:0|0:0,0:0:0:0:
120,272,50822,2,0,L|56:272,1,44,2|2,0:0|0:0,0:0:0:0:
256,264,50986,6,0,L|352:264,2,88,4|2|8,0:0|0:0|0:0,0:0:0:0:
168,264,51475,1,0,0:0:0:0:
304,208,51638,2,0,L|368:144,2,88,2|0|8,0:0|0:0|0:0,0:0:0:0:
216,208,52127,1,0,0:0:0:0:
368,160,52290,6,0,L|304:96,2,88,2|0|8,0:0|0:0|0:0,0:0:0:0:
456,160,52779,1,0,0:0:0:0:
320,104,52942,2,0,L|232:104,2,88,2|0|8,0:0|0:0|0:0,0:0:0:0:
408,104,53431,1,0,0:0:0:0:
176,256,53594,5,2,0:0:0:0:
320,256,53920,1,8,0:0:0:0:
168,184,54083,2,0,L|160:88,1,88,0|2,0:0|0:0,0:0:0:0:
408,168,54572,2,0,L|296:168,1,88,8|0,0:0|0:0,0:0:0:0:
176,176,55062,5,0,0:0:0:0:
328,320,55225,2,0,L|216:320,1,88,8|0,0:0|0:0,0:0:0:0:
392,256,55551,1,2,0:0:0:0:
240,256,55714,2,0,L|328:256,2,88,2|8|2,0:0|0:0|0:0,0:0:0:0:
24,256,56203,6,0,L|16:160,1,88,4|0,0:0|0:0,0:0:0:0:
104,168,56529,1,8,0:0:0:0:
256,176,56692,2,0,L|248:80,1,88,0|2,0:0|0:0,0:0:0:0:
344,88,57018,1,0,0:0:0:0:
496,168,57181,2,0,L|488:72,1,88,8|0,0:0|0:0,0:0:0:0:
400,80,57507,1,2,0:0:0:0:
248,240,57670,6,0,L|368:240,1,88,0|8,0:0|0:0,0:0:0:0:
424,232,57996,1,0,0:0:0:0:
272,192,58159,2,0,L|368:192,1,88,2|0,0:0|0:0,0:0:0:0:
208,128,58486,1,8,0:0:0:0:
164,128,58567,1,0,0:0:0:0:
120,128,58649,1,2,0:0:0:0:
76,128,58730,1,0,0:0:0:0:
232,320,58812,6,0,L|344:320,1,88,2|0,0:0|0:0,0:0:0:0:
168,320,59138,2,0,L|160:232,1,88,8|0,0:0|0:0,0:0:0:0:
288,240,59464,2,0,L|384:240,1,88,2|0,0:0|0:0,0:0:0:0:
224,232,59790,2,0,L|216:136,1,88,8|0,0:0|0:0,0:0:0:0:
64,112,60116,6,0,L|152:112,1,88,2|0,0:0|0:0,0:0:0:0:
304,112,60442,1,8,0:0:0:0:
456,112,60605,1,2,0:0:0:0:
304,112,60768,2,0,L|296:224,1,88,2|0,0:0|0:0,0:0:0:0:
144,272,61094,1,8,0:0:0:0:
104,240,61175,1,0,0:0:0:0:
64,240,61257,1,2,0:0:0:0:
104,240,61339,1,0,0:0:0:0:
272,280,61420,5,4,0:0:0:0:
400,280,61746,2,0,L|408:176,1,88,8|0,0:0|0:0,0:0:0:0:
320,200,62072,1,0,0:0:0:0:
408,192,62236,1,2,0:0:0:0:
256,152,62399,1,8,0:0:0:0:
408,192,62562,6,0,L|416:96,2,88,0|2|0,0:0|0:0|0:0,0:0:0:0:
320,88,63051,1,8,0:0:0:0:
232,88,63214,1,0,0:0:0:0:
80,96,63377,2,0,L|72:184,1,88,2|0,0:0|0:0,0:0:0:0:
160,184,63703,1,8,0:0:0:0:
248,184,63866,1,0,0:0:0:0:
400,184,64029,5,2,0:0:0:0:
408,112,64192,1,0,0:0:0:0:
256,64,64355,1,8,0:0:0:0:
104,72,64518,1,0,0:0:0:0:
96,240,64681,2,0,L|88:152,1,88,2|0,0:0|0:0,0:0:0:0:
240,240,65007,2,0,L|344:240,1,88,8|0,0:0|0:0,0:0:0:0:
240,184,65333,6,0,L|136:184,1,88,2|0,0:0|0:0,0:0:0:0:
304,192,65659,2,0,L|312:88,1,88,8|0,0:0|0:0,0:0:0:0:
224,104,65986,1,2,0:0:0:0:
310,104,66149,1,2,0:0:0:0:
160,48,66312,1,8,0:0:0:0:
248,48,66475,1,2,0:0:0:0:
24,304,66638,6,0,L|16:208,1,88,4|0,0:0|0:0,0:0:0:0:
104,208,66964,1,8,0:0:0:0:
16,160,67127,1,0,0:0:0:0:
152,152,67290,2,0,L|248:152,1,88,2|2,0:0|0:0,0:0:0:0:
392,88,67616,1,8,0:0:0:0:
240,152,67779,6,0,L|232:248,1,88,0|2,0:0|0:0,0:0:0:0:
216,248,68268,1,8,0:0:0:0:
200,272,68594,1,2,0:0:0:0:
288,264,68757,1,0,0:0:0:0:
136,344,68920,2,0,L|48:344,1,88,8|0,0:0|0:0,0:0:0:0:
200,136,69246,6,0,L|208:232,1,88,2|0,0:0|0:0,0:0:0:0:
360,120,69572,2,0,L|456:120,1,88,8|0,0:0|0:0,0:0:0:0:
456,48,69899,2,0,L|336:48,1,88,2|0,0:0|0:0,0:0:0:0:
208,48,70225,2,0,L|80:48,1,88,8|0,0:0|0:0,0:0:0:0:
336,240,70551,6,0,L|344:184,1,44,4|0,0:0|0:0,0:0:0:0:
296,192,70714,2,0,L|248:192,1,44,8|0,0:0|0:0,0:0:0:0:
104,184,70877,2,0,L|56:184,2,44,8|0|8,0:0|0:0|0:0,0:0:0:0:
192,144,71203,5,8,0:0:0:0:
416,160,71366,2,0,L|432:64,1,88,2|8,0:0|0:0,0:0:0:0:
440,240,71611,2,0,L|448:184,1,44,2|2,0:0|0:0,0:0:0:0:
400,240,71774,1,0,0:0:0:0:
240,272,71855,5,4,0:0:0:0:
200,272,71936,1,0,0:0:0:0:
160,272,72018,1,0,0:0:0:0:
200,272,72100,1,0,0:0:0:0:
240,272,72181,1,8,0:0:0:0:
328,272,72344,1,0,0:0:0:0:
176,224,72507,6,0,L|168:180,2,44,2|0|0,0:0|0:0|0:0,0:0:0:0:
264,176,72833,1,8,0:0:0:0:
304,176,72915,1,0,0:0:0:0:
304,176,72997,1,0,0:0:0:0:
152,160,73159,5,2,0:0:0:0:
144,104,73240,1,0,0:0:0:0:
184,104,73322,1,0,0:0:0:0:
336,104,73486,1,8,0:0:0:0:
376,104,73567,1,0,0:0:0:0:
416,104,73649,1,0,0:0:0:0:
192,192,73812,5,2,0:0:0:0:
152,192,73893,1,0,0:0:0:0:
112,192,73975,1,0,0:0:0:0:
72,192,74056,1,0,0:0:0:0:
112,144,74138,1,8,0:0:0:0:
72,144,74219,1,0,0:0:0:0:
64,96,74301,1,0,0:0:0:0:
216,336,74464,5,2,0:0:0:0:
208,280,74545,1,0,0:0:0:0:
168,280,74627,1,0,0:0:0:0:
320,248,74790,2,0,L|320:192,2,44,8|0|0,0:0|0:0|0:0,0:0:0:0:
408,248,75116,6,0,L|416:184,2,44,2|0|0,0:0|0:0|0:0,0:0:0:0:
256,176,75442,2,0,L|200:176,1,44,8|0,0:0|0:0,0:0:0:0:
264,136,75605,2,0,L|312:136,1,44,0|0,0:0|0:0,0:0:0:0:
224,88,75768,6,0,L|152:88,1,44,2|0,0:0|0:0,0:0:0:0:
176,144,75931,1,0,0:0:0:0:
264,248,76094,2,0,L|304:208,2,44,8|0|0,0:0|0:0|0:0,0:0:0:0:
112,336,76420,6,0,L|68:336,2,44,2|0|0,0:0|0:0|0:0,0:0:0:0:
328,344,76746,2,0,L|336:280,1,44,8|0,0:0|0:0,0:0:0:0:
240,288,76909,2,0,L|232:240,1,44,0|0,0:0|0:0,0:0:0:0:
376,240,77072,5,6,0:0:0:0:
420,240,77153,1,0,0:0:0:0:
464,240,77235,1,0,0:0:0:0:
312,184,77399,2,0,L|304:136,2,44,8|0|0,0:0|0:0|0:0,0:0:0:0:
224,136,77725,5,2,0:0:0:0:
180,136,77806,1,0,0:0:0:0:
136,136,77888,1,0,0:0:0:0:
224,72,78051,1,8,0:0:0:0:
180,72,78132,1,0,0:0:0:0:
176,40,78214,1,0,0:0:0:0:
216,40,78295,1,0,0:0:0:0:
304,40,78377,5,2,0:0:0:0:
384,40,78540,1,0,0:0:0:0:
472,96,78703,2,0,L|472:48,2,44,8|0|0,0:0|0:0|0:0,0:0:0:0:
384,200,79029,6,0,L|376:152,2,44,2|0|0,0:0|0:0|0:0,0:0:0:0:
232,192,79355,2,0,L|176:192,1,44,8|0,0:0|0:0,0:0:0:0:
184,144,79518,1,0,0:0:0:0:
336,336,79681,6,0,L|344:280,1,44,2|0,0:0|0:0,0:0:0:0:
296,288,79844,1,0,0:0:0:0:
248,272,79926,1,0,0:0:0:0:
296,240,80007,1,8,0:0:0:0:
384,224,80170,1,0,0:0:0:0:
296,184,80333,5,2,0:0:0:0:
252,184,80414,1,0,0:0:0:0:
208,184,80496,1,0,0:0:0:0:
120,184,80659,2,0,L|120:128,2,44,8|0|0,0:0|0:0|0:0,0:0:0:0:
272,344,80985,5,2,0:0:0:0:
312,329,81066,1,0,0:0:0:0:
328,290,81148,1,0,0:0:0:0:
310,251,81229,1,0,0:0:0:0:
269,240,81311,1,8,0:0:0:0:
176,240,81475,1,0,0:0:0:0:
328,208,81638,5,2,0:0:0:0:
376,192,81719,1,0,0:0:0:0:
424,160,81801,1,0,0:0:0:0:
376,192,81882,1,0,0:0:0:0:
328,112,81964,1,8,0:0:0:0:
176,104,82127,2,0,L|112:104,1,44,0|0,0:0|0:0,0:0:0:0:
288,336,82290,6,0,L|296:280,2,44,6|0|0,0:0|0:0|0:0,0:0:0:0:
200,296,82616,2,0,L|160:256,2,44,8|0|0,0:0|0:0|0:0,0:0:0:0:
352,232,82942,6,0,L|400:232,2,44,2|0|0,0:0|0:0|0:0,0:0:0:0:
128,200,83268,2,0,L|120:136,2,44,8|0|0,0:0|0:0|0:0,0:0:0:0:
280,176,83594,5,2,0:0:0:0:
324,176,83675,1,0,0:0:0:0:
368,176,83757,1,0,0:0:0:0:
280,112,83920,1,8,0:0:0:0:
320,112,84002,1,0,0:0:0:0:
360,112,84083,1,0,0:0:0:0:
288,72,84246,5,2,0:0:0:0:
320,72,84328,1,0,0:0:0:0:
352,72,84409,1,0,0:0:0:0:
296,272,84572,1,8,0:0:0:0:
320,272,84654,1,0,0:0:0:0:
344,272,84735,1,0,0:0:0:0:
192,272,84899,5,2,0:0:0:0:
168,272,84980,1,0,0:0:0:0:
144,272,85062,1,0,0:0:0:0:
200,72,85225,1,8,0:0:0:0:
168,72,85306,1,0,0:0:0:0:
136,72,85388,1,0,0:0:0:0:
208,112,85551,5,2,0:0:0:0:
168,112,85632,1,0,0:0:0:0:
128,112,85714,1,0,0:0:0:0:
216,176,85877,1,8,0:0:0:0:
172,176,85959,1,0,0:0:0:0:
128,176,86040,1,0,0:0:0:0:
280,288,86203,5,2,0:0:0:0:
328,288,86284,2,0,L|336:232,1,44,0|0,0:0|0:0,0:0:0:0:
424,216,86529,2,0,L|417:172,1,44,8|0,0:0|0:0,0:0:0:0:
370,173,86691,1,0,0:0:0:0:
280,208,86855,6,0,L|280:152,2,44,2|0|0,0:0|0:0|0:0,0:0:0:0:
128,200,87181,2,0,L|56:200,1,44,8|0,0:0|0:0,0:0:0:0:
168,160,87344,2,0,L|232:160,1,44,0|0,0:0|0:0,0:0:0:0:
56,360,87507,5,6,0:0:0:0:
48,296,87670,1,0,0:0:0:0:
136,288,87833,1,8,0:0:0:0:
180,288,87914,1,0,0:0:0:0:
224,288,87996,1,0,0:0:0:0:
268,288,88077,1,0,0:0:0:0:
352,288,88159,5,2,0:0:0:0:
264,232,88322,1,0,0:0:0:0:
112,240,88485,2,0,L|64:240,1,44,8|0,0:0|0:0,0:0:0:0:
24,200,88649,2,0,L|96:200,1,44,0|0,0:0|0:0,0:0:0:0:
144,152,88812,5,2,0:0:0:0:
232,144,88975,1,0,0:0:0:0:
384,136,89138,2,0,L|448:136,2,44,8|0|0,0:0|0:0|0:0,0:0:0:0:
288,264,89464,6,0,L|280:208,2,44,2|0|0,0:0|0:0|0:0,0:0:0:0:
376,256,89790,2,0,L|416:216,2,44,8|0|0,0:0|0:0|0:0,0:0:0:0:
224,200,90116,6,0,L|216:128,1,44,2|0,0:0|0:0,0:0:0:0:
264,152,90279,1,0,0:0:0:0:
272,80,90442,1,8,0:0:0:0:
184,80,90605,1,0,0:0:0:0:
96,88,90768,6,0,L|88:136,2,44,2|0|0,0:0|0:0|0:0,0:0:0:0:
184,256,91094,1,8,0:0:0:0:
228,256,91175,1,0,0:0:0:0:
272,256,91257,1,0,0:0:0:0:
56,344,91420,6,0,L|64:296,1,44,2|0,0:0|0:0,0:0:0:0:
112,304,91583,1,8,0:0:0:0:
264,320,91746,1,2,0:0:0:0:
307,317,91827,1,0,0:0:0:0:
341,291,91909,1,8,0:0:0:0:
356,250,91990,1,0,0:0:0:0:
200,168,92072,6,0,L|192:112,1,44,2|0,0:0|0:0,0:0:0:0:
280,128,92235,2,0,L|336:128,1,44,8|0,0:0|0:0,0:0:0:0:
176,232,92399,2,0,L|104:232,1,44,2|0,0:0|0:0,0:0:0:0:
296,232,92562,2,0,L|344:232,1,44,2|0,0:0|0:0,0:0:0:0:
160,344,92725,6,0,P|112:304|160:272,1,132,4|0,0:0|0:0,0:0:0:0:
304,360,93051,2,0,L|312:272,1,88,8|0,0:0|0:0,0:0:0:0:
464,280,93377,2,0,L|456:192,1,88,2|2,0:0|0:0,0:0:0:0:
232,184,93703,6,0,L|336:184,1,88,4|0,0:0|0:0,0:0:0:0:
168,120,94029,1,2,0:0:0:0:
16,120,94192,1,0,0:0:0:0:
168,120,94355,2,0,L|176:232,1,88,8|0,0:0|0:0,0:0:0:0:
400,264,94681,6,0,L|256:264,1,132,4|0,0:0|0:0,0:0:0:0:
120,224,95007,2,0,L|24:224,1,88,8|0,0:0|0:0,0:0:0:0:
176,152,95333,2,0,L|296:152,1,88,2|0,0:0|0:0,0:0:0:0:
40,96,95659,6,0,L|168:96,1,88,4|0,0:0|0:0,0:0:0:0:
280,328,95985,2,0,L|168:328,1,88,2|0,0:0|0:0,0:0:0:0:
416,288,96311,2,0,P|464:256|416:224,1,132,4|0,0:0|0:0,0:0:0:0:
272,192,96638,6,0,L|176:192,1,88,4|0,0:0|0:0,0:0:0:0:
32,200,96964,2,0,L|24:104,1,88,2|0,0:0|0:0,0:0:0:0:
176,112,97290,1,2,0:0:0:0:
24,112,97453,1,0,0:0:0:0:
248,112,97616,6,0,L|256:216,1,88,4|0,0:0|0:0,0:0:0:0:
408,112,97942,2,0,L|416:200,1,88,2|2,0:0|0:0,0:0:0:0:
264,272,98268,1,8,0:0:0:0:
112,272,98431,1,0,0:0:0:0:
336,272,98594,6,0,P|384:240|328:192,1,132,4|0,0:0|0:0,0:0:0:0:
208,192,98920,2,0,L|120:192,1,88,2|0,0:0|0:0,0:0:0:0:
272,104,99246,1,2,0:0:0:0:
424,104,99409,1,0,0:0:0:0:
208,232,99572,6,0,L|200:320,1,88,4|0,0:0|0:0,0:0:0:0:
48,312,99898,2,0,L|56:224,1,88,2|2,0:0|0:0,0:0:0:0:
296,128,100225,2,0,L|368:128,1,44,4|0,0:0|0:0,0:0:0:0:
192,128,100388,2,0,L|120:128,1,44,2|2,0:0|0:0,0:0:0:0:
312,200,100551,6,0,L|320:304,1,88,4|0,0:0|0:0,0:0:0:0:
168,288,100877,2,0,L|256:288,1,88,8|0,0:0|0:0,0:0:0:0:
104,224,101203,1,2,0:0:0:0:
256,288,101366,1,0,0:0:0:0:
32,288,101529,6,0,L|24:192,1,88,4|0,0:0|0:0,0:0:0:0:
176,200,101855,2,0,L|272:200,1,88,2|0,0:0|0:0,0:0:0:0:
416,152,102181,1,8,0:0:0:0:
264,152,102344,1,2,0:0:0:0:
488,240,102507,6,0,L|336:240,1,132,4|0,0:0|0:0,0:0:0:0:
216,248,102833,2,0,L|208:336,1,88,8|2,0:0|0:0,0:0:0:0:
360,320,103159,1,2,0:0:0:0:
208,336,103322,1,2,0:0:0:0:
432,80,103485,6,0,L|336:80,1,88,4|0,0:0|0:0,0:0:0:0:
496,160,103811,2,0,L|400:160,1,88,2|0,0:0|0:0,0:0:0:0:
256,160,104138,1,8,0:0:0:0:
104,160,104301,1,2,0:0:0:0:
328,152,104464,6,0,L|336:296,1,132,4|0,0:0|0:0,0:0:0:0:
184,280,104790,2,0,L|176:192,1,88,8|0,0:0|0:0,0:0:0:0:
24,232,105116,2,0,P|24:184|96:152,1,132,2|0,0:0|0:0,0:0:0:0:
248,152,105442,6,0,L|256:56,1,88,4|2,0:0|0:0,0:0:0:0:
408,72,105768,2,0,L|312:72,1,88,2|0,0:0|0:0,0:0:0:0:
472,336,106094,1,8,0:0:0:0:
320,336,106257,1,0,0:0:0:0:
96,240,106420,6,0,L|192:240,1,88,4|0,0:0|0:0,0:0:0:0:
336,176,106746,2,0,L|248:176,1,88,2|0,0:0|0:0,0:0:0:0:
24,192,107072,1,2,0:0:0:0:
22,148,107153,1,0,0:0:0:0:
20,104,107235,1,2,0:0:0:0:
17,60,107316,1,0,0:0:0:0:
184,72,107398,6,0,L|288:72,1,88,4|0,0:0|0:0,0:0:0:0:
496,312,107725,2,0,L|392:312,1,88,2|2,0:0|0:0,0:0:0:0:
176,304,108051,2,0,L|112:304,1,44,2|0,0:0|0:0,0:0:0:0:
288,256,108214,2,0,L|352:256,1,44,2|2,0:0|0:0,0:0:0:0:
128,216,108377,1,4,0:0:0:0:
288,216,109029,6,0,P|288:176|176:112,1,176,4|2,0:0|0:0,0:0:0:0:
408,320,109518,1,4,0:0:0:0:
408,320,109844,1,2,0:0:0:0:
256,320,110007,2,0,P|256:280|368:216,1,176,6|2,0:0|0:0,0:0:0:0:
136,224,110496,5,4,0:0:0:0:
136,224,110822,1,4,0:0:0:0:
360,192,110985,2,0,L|368:96,1,88,6|0,0:0|0:0,0:0:0:0:
144,104,111311,2,0,L|136:192,1,88,6|0,0:0|0:0,0:0:0:0:
368,336,111637,6,0,P|368:296|256:232,1,176,6|2,0:0|0:0,0:0:0:0:
488,208,112126,1,6,0:0:0:0:
488,208,112452,1,2,0:0:0:0:
264,112,112615,6,0,L|456:112,1,176,4|0,0:0|0:0,0:0:0:0:
216,240,113105,2,0,L|120:240,1,88,6|0,0:0|0:0,0:0:0:0:
352,232,113431,1,2,0:0:0:0:
128,240,113594,2,0,L|120:152,1,88,4|0,0:0|0:0,0:0:0:0:
344,120,113920,2,0,L|352:216,1,88,2|2,0:0|0:0,0:0:0:0:
120,152,114246,5,6,0:0:0:0:
120,152,115061,2,0,L|304:152,1,176,4|0,0:0|0:0,0:0:0:0:
32,112,115550,5,6,0:0:0:0:
32,112,116365,2,0,L|216:112,1,176,2|0,0:0|0:0,0:0:0:0:
472,120,116855,1,6,0:0:0:0:
208,112,117018,5,6,0:0:0:0:
256,192,117181,12,0,119463,0:0:0:0:
