osu file format v14

[General]
AudioFilename: audio.mp3
AudioLeadIn: 0
PreviewTime: 44316
Countdown: 0
SampleSet: Soft
StackLeniency: 0.4
Mode: 0
LetterboxInBreaks: 0
WidescreenStoryboard: 1

[Editor]
Bookmarks: 18208,33776,44154,64911,88262,114532,130262
DistanceSpacing: 0.3
BeatDivisor: 4
GridSize: 8
TimelineZoom: 2.2

[Metadata]
Title:Xevel
TitleUnicode:Xevel
Artist:Tatsh
ArtistUnicode:Tatsh
Creator:Skytuna
Version:Seolv's ADVANCED
Source:CHUNITHM STAR
Tags:Entry Azrael -_AzRaeL_- [_l_u_k_a_s_] Seolv 第四回天下一音ゲ祭 5th Tenkaichi Otogesai Electronic English TatshMusicCircle SOUND VOLTEX IV HEAVENLY HAVEN グルーヴコースター 4 スターライトロード GROOVE COASTER 4 STARLIGHT ROAD 太鼓の達人 ブルーVer. Taiko no Tatsujin Blue Version maimai MiLK PLUS -Game ver-
BeatmapID:2478117
BeatmapSetID:1174491

[Difficulty]
HPDrainRate:4
CircleSize:4
OverallDifficulty:7
ApproachRate:8
SliderMultiplier:1.5
SliderTickRate:1

[Events]
//Background and Video events
0,0,"asicocuk26.jpg",0,0
//Break Periods
2,33975,38215
//Storyboard Layer 0 (Background)
//Storyboard Layer 1 (Fail)
//Storyboard Layer 2 (Pass)
//Storyboard Layer 3 (Foreground)
//Storyboard Layer 4 (Overlay)
//Storyboard Sound Samples

[TimingPoints]
813,324.324324324324,4,2,0,70,1,0
11722,324.324324324324,4,2,3,70,1,0
11722,-125,4,2,3,70,0,0
12289,-125,4,2,3,70,0,0
12370,-125,4,2,3,70,0,0
13019,-90.9090909090909,4,2,3,70,0,0
16911,-111.111111111111,4,2,3,70,0,0
17235,-142.857142857143,4,2,3,70,0,0
18208,-90.9090909090909,4,2,3,70,0,0
35397,-90.9090909090909,4,2,0,5,0,0
35478,-90.9090909090909,4,2,0,70,0,0
35721,-90.9090909090909,4,2,0,5,0,0
35803,-90.9090909090909,4,2,0,70,0,0
36046,-90.9090909090909,4,2,0,5,0,0
36127,-90.9090909090909,4,2,0,70,0,0
36208,-90.9090909090909,4,2,3,70,0,0
37992,-90.9090909090909,4,2,0,5,0,0
38073,-90.9090909090909,4,2,0,70,0,0
38235,-90.9090909090909,4,2,3,70,0,0
44154,-76.9230769230769,4,2,3,80,0,1
64911,-76.9230769230769,4,2,3,70,0,0
66370,-125,4,2,3,70,0,0
81776,-111.111111111111,4,2,3,70,0,0
83073,-100,4,2,3,70,0,0
87776,-100,4,2,3,5,0,0
87857,-100,4,2,3,70,0,0
87938,-100,4,2,3,5,0,0
88019,-100,4,2,3,70,0,0
88262,-76.9230769230769,4,2,3,80,0,1
114046,-76.9230769230769,4,2,3,70,0,0
114532,-100,4,2,3,70,0,0

[Colours]
Combo1 : 156,206,243
Combo2 : 233,200,253
Combo3 : 159,228,251
Combo4 : 9,117,117

[HitObjects]
48,336,12370,6,0,L|41:290,3,30,8|8|8|8,0:0|0:0|0:0|0:0,0:0:0:0:
68,268,12694,2,0,L|61:222,3,30,8|8|8|8,0:0|0:0|0:0|0:0,0:0:0:0:
98,220,13019,6,0,P|144:238|189:233,1,82.5000025177003,4|8,1:0|0:1,0:0:0:0:
200,339,13343,2,0,P|118:339|43:305,1,165.000005035401,8|0,0:0|1:0,0:0:0:0:
30,295,13749,1,8,0:1:0:0:
30,295,13830,1,8,0:1:0:0:
98,220,13992,1,8,0:0:0:0:
26,151,14154,6,0,L|17:110,2,41.2500012588501,8|0|0,0:1|0:0|1:0,0:0:0:0:
183,201,14640,2,0,L|165:119,1,82.5000025177003,8|8,0:0|0:1,0:0:0:0:
234,47,14965,2,0,L|265:191,1,123.75000377655,0|0,1:0|0:0,0:0:0:0:
270,206,15289,1,8,0:0:0:0:
369,176,15451,1,8,1:1:0:0:
461,153,15613,1,0,1:0:0:0:
396,101,15776,6,0,L|347:87,2,41.2500012588501,8|8|8,0:1|0:1|0:0,0:0:0:0:
461,153,16100,2,0,L|449:192,4,41.2500012588501,8|0|0|8|8,0:1|0:0|1:0|0:1|0:1,0:0:0:0:
434,34,16586,2,0,L|336:6,2,82.5000025177003,8|8|0,0:0|1:1|1:0,0:0:0:0:
119,6,17559,6,0,L|115:51,3,26.2499991989136,8|8|8|8,0:0|0:0|0:0|0:0,0:0:0:0:
79,77,17884,2,0,L|83:122,3,26.2499991989136,8|8|8|8,0:0|0:0|0:0|0:0,0:0:0:0:
88,150,18208,1,4,1:0:0:0:
199,84,18370,5,8,3:1:0:0:
199,84,18451,1,0,3:0:0:0:
199,84,18532,2,0,P|238:70|308:67,1,82.5000025177003,8|8,0:0|3:1,0:0:0:0:
278,150,18857,2,0,P|254:152|231:160,2,41.2500012588501,0|0|8,1:0|3:0|3:1,0:0:0:0:
273,233,19181,1,8,0:0:0:0:
199,84,19505,5,0,1:0:0:0:
201,67,19586,1,0,3:0:0:0:
203,50,19667,1,8,3:1:0:0:
283,9,19830,2,0,L|329:10,2,41.2500012588501,8|0|8,0:0|3:0|3:1,0:0:0:0:
203,50,20154,2,0,L|120:48,1,82.5000025177003,0|8,1:0|3:1,0:0:0:0:
25,115,20478,6,0,L|31:169,3,41.2500012588501,8|0|8|0,0:0|3:0|3:1|3:0,0:0:0:0:
57,179,20803,2,0,L|61:219,3,41.2500012588501,0|0|8|0,1:0|3:0|3:1|3:0,0:0:0:0:
90,241,21127,2,0,L|198:229,1,82.5000025177003,8|8,0:0|3:1,0:0:0:0:
254,195,21451,2,0,P|265:149|243:105,1,82.5000025177003,0|8,1:0|0:1,0:0:0:0:
150,132,21776,1,8,0:0:0:0:
150,132,21938,1,8,1:1:0:0:
171,231,22100,6,0,L|181:281,3,41.2500012588501,0|0|8|0,1:0|3:0|3:1|3:0,0:0:0:0:
188,314,22424,2,0,L|228:305,2,41.2500012588501,8|0|8,0:0|3:0|3:1,0:0:0:0:
121,384,22749,1,8,1:1:0:0:
28,367,22911,1,8,1:1:0:0:
89,294,23073,1,0,1:1:0:0:
391,384,23397,6,0,L|444:375,4,41.2500012588501,4|0|8|0|8,1:0|0:0|0:1|3:0|0:0,0:0:0:0:
311,349,23884,1,8,3:1:0:0:
321,264,24046,2,0,L|451:241,2,123.75000377655,0|0|8,1:0|3:0|3:1,0:0:0:0:
256,195,24694,6,0,L|262:154,3,41.2500012588501,0|0|8|0,1:0|3:0|3:1|3:0,0:0:0:0:
245,118,25019,2,0,L|251:77,3,41.2500012588501,8|0|8|0,0:0|0:0|0:1|0:0,0:0:0:0:
257,44,25343,1,0,1:0:0:0:
58,124,25667,1,8,0:0:0:0:
56,145,25749,1,0,3:0:0:0:
54,165,25830,1,8,1:1:0:0:
121,228,25992,6,0,L|161:221,4,41.2500012588501,0|0|8|0|8,1:0|3:0|3:1|3:0|0:0,0:0:0:0:
56,297,26478,1,8,3:1:0:0:
119,359,26640,2,0,L|218:342,1,82.5000025177003,0|8,1:0|3:1,0:0:0:0:
291,331,26965,1,8,0:0:0:0:
247,118,27289,6,0,P|230:165|281:222,1,123.75000377655,4|0,1:0|0:0,0:0:0:0:
301,223,27613,1,4,1:0:0:0:
301,223,27938,2,0,L|360:210,2,41.2500012588501,0|0|0,1:0|1:0|1:0,0:0:0:0:
230,297,28262,2,0,L|149:279,1,82.5000025177003,0|0,1:0|1:0,0:0:0:0:
48,277,28586,6,0,L|57:332,2,41.2500012588501,4|0|8,1:0|3:0|3:1,0:0:0:0:
102,211,28911,2,0,L|109:117,1,82.5000025177003,8|8,0:0|3:1,0:0:0:0:
69,56,29235,2,0,P|132:102|218:64,1,165.000005035401,0|8,1:0|0:0,0:0:0:0:
263,9,29721,1,8,3:1:0:0:
346,60,29884,5,0,1:0:0:0:
346,60,29965,1,0,3:0:0:0:
346,60,30046,2,0,L|395:51,4,41.2500012588501,8|0|8|0|8,3:1|3:0|0:0|3:0|3:1,0:0:0:0:
288,131,30532,2,0,L|306:229,1,82.5000025177003,0|8,1:0|3:1,0:0:0:0:
398,221,30857,2,0,L|383:139,1,82.5000025177003,8|8,0:0|3:1,0:0:0:0:
288,131,31181,6,0,L|232:141,3,41.2500012588501,0|0|8|0,1:0|3:0|3:1|3:0,0:0:0:0:
224,177,31505,2,0,L|168:187,3,41.2500012588501,8|0|8|0,0:0|0:0|1:1|0:0,0:0:0:0:
165,223,31830,2,0,L|109:233,3,41.2500012588501,0|0|8|0,1:0|3:0|3:1|3:0,0:0:0:0:
94,269,32154,1,8,0:0:0:0:
299,334,32478,5,8,0:0:0:0:
217,284,32640,1,8,0:0:0:0:
215,381,32803,1,8,0:0:0:0:
403,239,33127,5,8,1:0:0:0:
405,224,33208,1,8,0:0:0:0:
407,210,33289,1,8,0:0:0:0:
314,158,33451,2,0,L|265:167,4,41.2500012588501,8|8|8|8|6,0:0|0:0|0:0|0:0|1:0,0:0:0:0:
437,82,38965,5,0,1:0:0:0:
146,11,40586,5,4,1:0:0:0:
75,302,41559,5,4,1:0:0:0:
256,192,41640,12,0,42857,1:0:0:0:
358,358,43505,5,4,1:0:0:0:
373,227,43749,5,4,1:0:0:0:
388,96,43992,5,4,1:0:0:0:
300,52,44154,6,0,B|236:55|206:103|235:116|208:176|140:163,2,194.999991073609,6|8|2,1:0|0:0|1:0,0:0:0:0:
482,177,45127,1,8,0:0:0:0:
447,267,45289,1,8,1:1:0:0:
387,191,45451,6,0,P|402:121|428:103,1,97.4999955368044,2|8,1:0|0:1,0:0:0:0:
441,102,45694,1,8,0:1:0:0:
461,104,45776,1,8,0:0:0:0:
365,277,46100,1,2,1:0:0:0:
263,107,46424,5,10,0:0:0:0:
179,88,46586,1,8,1:1:0:0:
99,66,46749,2,0,P|96:112|133:159,1,97.4999955368044,2|8,1:0|0:1,0:0:0:0:
209,164,47073,2,0,P|236:203|233:251,1,97.4999955368044,8|8,0:0|0:1,0:0:0:0:
175,330,47397,5,0,1:0:0:0:
87,313,47559,1,8,0:1:0:0:
142,245,47721,1,8,0:0:0:0:
362,359,48046,6,0,B|445:386|497:333|497:333|467:328|440:308,1,194.999991073609,2|8,1:0|0:0,0:0:0:0:
291,224,48694,1,0,1:0:0:0:
376,266,48857,1,8,1:1:0:0:
362,359,49019,1,0,1:0:0:0:
269,374,49181,1,8,1:1:0:0:
225,290,49343,6,0,B|143:307|183:357|91:366,1,146.249993305207,6|8,1:0|0:1,0:0:0:0:
82,362,49667,2,0,P|51:351|65:285,1,97.4999955368044,8|8,0:0|0:1,0:0:0:0:
176,294,49992,2,0,L|228:305,2,48.7499977684022,2|0|8,1:0|0:0|0:1,0:0:0:0:
120,189,50316,1,8,0:0:0:0:
120,189,50478,1,8,1:1:0:0:
173,106,50640,6,0,L|310:135,1,97.4999955368044,2|8,1:0|0:1,0:0:0:0:
295,137,50884,1,8,0:1:0:0:
295,137,50965,2,0,P|313:91|292:44,1,97.4999955368044,8|8,0:0|0:1,0:0:0:0:
173,106,51289,2,0,P|163:192|257:265,1,194.999991073609,2|10,1:0|0:0,0:0:0:0:
322,232,51776,1,8,1:1:0:0:
385,295,51938,6,0,L|484:283,1,97.4999955368044,2|8,1:0|0:1,0:0:0:0:
492,267,52181,1,8,0:1:0:0:
492,267,52262,1,8,0:0:0:0:
310,135,52586,2,0,L|322:234,1,97.4999955368044,2|8,1:0|0:1,0:0:0:0:
396,165,52911,2,0,L|384:68,1,97.4999955368044,8|8,0:0|0:1,0:0:0:0:
260,31,53235,5,2,1:0:0:0:
260,31,53397,1,8,1:1:0:0:
260,31,53559,1,8,1:0:0:0:
260,31,53721,1,8,1:1:0:0:
179,105,53884,2,0,L|125:100,4,48.7499977684022,8|8|8|8|8,0:0|0:0|0:1|0:0|0:0,0:0:0:0:
252,163,54370,5,8,0:1:0:0:
252,163,54451,1,8,0:0:0:0:
252,163,54532,2,0,B|181:191|181:191|166:226|166:226|81:255,2,194.999991073609,6|8|2,1:0|0:0|1:0,0:0:0:0:
448,221,55505,1,8,0:0:0:0:
442,313,55667,1,8,0:1:0:0:
382,384,55829,6,0,L|275:369,1,97.4999955368044,2|8,1:0|0:1,0:0:0:0:
265,367,56072,1,0,0:0:0:0:
245,366,56154,1,8,0:0:0:0:
442,313,56478,1,2,1:0:0:0:
290,162,56802,5,10,0:0:0:0:
236,235,56964,1,8,1:1:0:0:
153,207,57127,2,0,P|136:163|148:112,1,97.4999955368044,2|8,1:0|0:1,0:0:0:0:
90,53,57451,2,0,P|119:16|169:1,1,97.4999955368044,8|8,0:0|0:1,0:0:0:0:
278,58,57775,5,0,1:0:0:0:
335,132,57938,2,0,P|381:142|426:125,1,97.4999955368044,8|8,0:1|0:0,0:0:0:0:
373,52,58262,1,8,1:1:0:0:
326,137,58424,6,0,B|308:190|323:238|348:211|343:309|328:335,1,194.999991073609,2|8,1:0|0:0,0:0:0:0:
161,368,59073,2,0,L|103:362,3,48.7499977684022,8|8|8|8,0:2|0:0|2:2|0:0,0:0:0:0:
81,356,59397,2,0,L|87:298,3,48.7499977684022,8|8|8|8,0:0|0:0|0:0|0:0,0:0:0:0:
90,280,59721,6,0,B|196:287|196:287|238:254|215:194,1,194.999991073609,6|8,1:0|0:0,0:0:0:0:
103,52,60370,2,0,L|51:41,2,48.7499977684022,0|0|8,1:0|0:0|0:1,0:0:0:0:
183,73,60694,1,8,0:0:0:0:
183,73,60856,1,8,1:1:0:0:
246,134,61018,6,0,L|383:104,1,97.4999955368044,2|8,1:0|0:1,0:0:0:0:
374,113,61262,1,8,0:1:0:0:
374,113,61343,2,0,P|390:157|372:201,1,97.4999955368044,8|8,0:0|0:1,0:0:0:0:
281,292,61667,2,0,L|221:284,3,48.7499977684022,0|0|8|0,1:0|0:0|0:1|0:0,0:0:0:0:
221,252,61992,2,0,L|161:244,3,48.7499977684022,8|0|8|0,0:0|0:0|1:1|0:0,0:0:0:0:
139,233,62316,6,0,L|116:40,1,194.999991073609,2|8,1:0|0:0,0:0:0:0:
303,0,62965,2,0,L|399:11,1,97.4999955368044,0|8,1:0|0:1,0:0:0:0:
384,108,63289,2,0,L|287:96,1,97.4999955368044,8|8,0:0|1:1,0:0:0:0:
278,199,63613,6,0,L|289:295,1,97.4999955368044,2|8,1:0|0:1,0:0:0:0:
293,327,63857,1,0,0:0:0:0:
293,327,63938,1,8,0:0:0:0:
197,311,64100,1,8,0:1:0:0:
100,302,64262,2,0,L|41:318,3,48.7499977684022,2|0|8|0,1:0|1:0|1:1|1:0,0:0:0:0:
28,319,64586,2,0,L|12:260,3,48.7499977684022,0|0|0|0,1:0|0:0|0:0|0:0,0:0:0:0:
6,237,64911,5,4,1:0:0:0:
6,237,65397,1,0,1:0:0:0:
6,237,65884,1,8,0:0:0:0:
256,192,66370,5,0,1:0:0:0:
256,264,66532,2,0,L|256:352,2,60,8|0|0,0:0|1:0|1:0,0:0:0:0:
256,80,67181,1,8,0:0:0:0:
160,192,67505,5,0,1:0:0:0:
352,192,67830,1,8,0:0:0:0:
352,192,67992,2,0,P|376:136|336:80,1,120,0|0,1:0|1:0,0:0:0:0:
288,40,68478,1,8,0:0:0:0:
256,192,68803,5,0,1:0:0:0:
256,192,69776,2,0,L|261:231,3,30,8|8|8|8,0:0|0:0|0:0|0:0,0:0:0:0:
263,262,70100,6,0,P|201:231|142:231,1,120,6|8,1:0|0:1,0:0:0:0:
73,228,70586,2,0,P|130:189|160:138,1,120,2|8,1:0|0:1,0:0:0:0:
197,85,71073,2,0,P|201:154|230:205,1,120,2|8,1:0|0:1,0:0:0:0:
263,262,71559,6,0,L|339:252,2,60,2|0|0,1:0|1:0|1:0,0:0:0:0:
214,321,72046,2,0,L|224:397,2,60,2|0|8,1:0|1:0|0:0,0:0:0:0:
301,170,72694,6,0,L|427:188,1,120,6|8,1:0|0:1,0:0:0:0:
432,114,73181,2,0,L|313:97,1,120,2|8,1:0|0:1,0:0:0:0:
322,22,73667,2,0,L|440:38,1,120,2|8,1:0|0:1,0:0:0:0:
432,114,74154,2,0,L|372:105,2,60,2|0|0,1:0|1:0|1:0,0:0:0:0:
118,384,75289,6,0,P|149:322|149:263,1,120,6|8,1:0|0:1,0:0:0:0:
231,217,75776,2,0,P|200:155|200:96,1,120,2|8,1:0|0:1,0:0:0:0:
156,32,76262,2,0,P|208:60|267:64,1,120,2|8,1:0|0:1,0:0:0:0:
350,19,76748,6,0,L|426:9,2,60,2|0|0,1:0|1:0|1:0,0:0:0:0:
267,64,77235,2,0,L|277:140,2,60,2|8|2,1:0|0:1|1:0,0:0:0:0:
68,12,77883,6,0,L|57:82,1,60,6|8,1:0|0:1,0:0:0:0:
48,150,78208,1,8,0:0:0:0:
90,218,78370,2,0,L|209:201,1,120,10|8,0:1|0:1,0:0:0:0:
271,148,78857,2,0,L|341:159,1,60,10|8,0:0|1:1,0:0:0:0:
369,268,79181,6,0,L|358:338,2,60,6|8|8,1:0|0:1|0:0,0:0:0:0:
404,197,79667,2,0,P|354:233|280:217,1,120,8|8,0:1|3:1,0:0:0:0:
199,258,80154,2,0,L|188:328,1,60,8|8,0:0|1:1,0:0:0:0:
187,338,80397,1,0,3:0:0:0:
183,360,80478,1,6,1:0:0:0:
101,208,80803,6,0,L|24:226,2,60,10|8|2,0:0|0:1|1:0,0:0:0:0:
239,127,81451,2,0,L|277:136,3,30,2|2|10|2,1:0|0:0|1:1|0:0,0:0:0:0:
284,137,81776,1,6,1:0:0:0:
165,107,81938,6,0,L|154:29,1,67.4999979400635,8|10,1:0|0:0,0:0:0:0:
226,1,82262,1,0,1:0:0:0:
309,58,82424,2,0,L|377:45,1,67.4999979400635,10|0,0:0|1:0,0:0:0:0:
460,30,82749,1,10,0:0:0:0:
501,126,82911,5,2,0:0:0:0:
501,126,82992,1,2,0:0:0:0:
501,126,83073,2,0,L|491:202,1,75,14|0,0:0|1:0,0:0:0:0:
419,247,83397,2,0,L|409:323,1,75,10|2,0:0|1:0,0:0:0:0:
328,376,83721,1,10,0:0:0:0:
245,362,83884,1,2,1:0:0:0:
162,348,84046,1,10,0:0:0:0:
103,187,84370,5,14,0:0:0:0:
409,187,85667,5,6,0:0:0:0:
103,187,86316,2,0,L|97:138,3,37.5,2|0|0|0,0:0|0:0|0:0|0:0,0:0:0:0:
127,110,86640,2,0,L|121:61,4,37.5
446,14,87613,5,0,1:0:0:0:
359,140,87857,6,0,L|262:164,1,75,0|0,1:0|1:0,0:0:0:0:
255,165,88100,1,0,1:0:0:0:
203,246,88262,6,0,P|194:285|215:349,1,97.4999955368044,6|0,1:0|1:0,0:0:0:0:
294,384,88586,1,8,0:0:0:0:
294,384,88749,1,0,1:0:0:0:
371,338,88911,2,0,L|483:352,1,97.4999955368044,2|0,1:0|1:0,0:0:0:0:
482,260,89235,2,0,L|385:247,1,97.4999955368044,8|0,0:0|1:0,0:0:0:0:
334,164,89559,6,0,P|279:208|149:204,1,194.999991073609,2|8,1:0|0:0,0:0:0:0:
92,146,90046,1,2,1:0:0:0:
165,97,90208,2,0,B|174:0,2,97.4999955368044,0|0|10,1:0|1:0|0:0,0:0:0:0:
92,146,90694,1,0,1:0:0:0:
21,201,90857,6,0,B|52:347|52:347|84:301,1,194.999991073609,2|8,1:0|0:0,0:0:0:0:
145,242,91343,1,0,1:0:0:0:
223,289,91505,2,0,P|266:310|323:301,1,97.4999955368044,0|0,1:0|1:0,0:0:0:0:
393,263,91830,2,0,P|414:220|405:163,1,97.4999955368044,8|0,0:0|1:0,0:0:0:0:
335,108,92154,5,2,1:0:0:0:
314,305,92478,1,8,0:0:0:0:
335,108,92803,2,0,L|285:104,4,48.7499977684022,8|8|8|8|8,1:2|0:2|1:2|0:2|0:2,0:0:0:0:
416,56,93289,5,8,1:2:0:0:
416,56,93370,1,8,0:2:0:0:
416,56,93451,2,0,B|483:69|483:69|499:97,2,97.4999955368044,14|0|8,1:2|1:0|0:0,0:0:0:0:
334,108,93938,1,0,1:0:0:0:
244,104,94100,2,0,P|227:138|256:211,1,97.4999955368044,2|0,1:0|1:0,0:0:0:0:
329,198,94424,2,0,P|346:164|317:91,1,97.4999955368044,8|0,0:0|1:0,0:0:0:0:
316,63,94667,1,0,0:0:0:0:
316,63,94749,6,0,P|223:97|125:100,1,194.999991073609,2|8,1:0|0:0,0:0:0:0:
60,46,95235,1,2,1:0:0:0:
8,128,95397,2,0,B|17:201|17:201|10:207|10:207|20:289,1,146.249993305207,0|0,1:0|0:0,0:0:0:0:
20,304,95721,1,10,0:0:0:0:
163,346,96046,6,0,P|208:316|277:330,1,97.4999955368044,2|0,1:0|1:0,0:0:0:0:
332,369,96370,2,0,P|380:367|418:339,1,97.4999955368044,8|0,0:0|1:0,0:0:0:0:
460,265,96694,2,0,P|435:184|421:65,1,194.999991073609,2|8,1:0|0:0,0:0:0:0:
421,74,97181,1,0,1:0:0:0:
348,28,97343,5,10,1:0:0:0:
348,28,97505,1,8,1:0:0:0:
303,114,97667,2,0,P|251:124|210:91,1,97.4999955368044,8|8,1:0|1:0,0:0:0:0:
190,28,97992,2,0,L|130:38,3,48.7499977684022,8|8|8|8,0:0|0:0|0:0|0:0,0:0:0:0:
106,44,98316,2,0,P|92:91|115:153,1,97.4999955368044,8|8,0:0|0:0,0:0:0:0:
189,208,98640,6,0,L|397:179,1,194.999991073609,6|8,1:0|0:0,0:0:0:0:
382,181,99127,1,0,1:0:0:0:
460,230,99289,2,0,L|446:342,2,97.4999955368044,2|0|8,1:0|1:0|0:0,0:0:0:0:
470,21,99937,6,0,P|415:65|285:61,1,194.999991073609,2|8,1:0|0:0,0:0:0:0:
229,12,100424,1,2,1:0:0:0:
149,66,100586,2,0,B|140:163,1,97.4999955368044,0|0,1:0|1:0,0:0:0:0:
223,206,100911,2,0,B|232:303,1,97.4999955368044,10|0,0:0|1:0,0:0:0:0:
153,369,101235,6,0,B|40:360|40:360|14:321|51:286,1,194.999991073609,2|8,1:0|0:0,0:0:0:0:
141,243,101721,2,0,P|171:137|63:200,1,292.499986610413,0|8,1:0|0:0,0:0:0:0:
50,286,102370,1,0,1:0:0:0:
43,384,102532,5,2,1:0:0:0:
43,384,102694,1,0,1:0:0:0:
140,370,102857,1,8,0:0:0:0:
140,370,103019,1,0,1:0:0:0:
234,352,103181,2,0,L|282:355,4,48.7499977684022,8|8|8|8|8,0:0|0:0|0:0|0:0|0:0,0:0:0:0:
345,303,103667,5,8,0:0:0:0:
345,303,103748,1,8,0:0:0:0:
345,303,103830,2,0,P|354:264|333:200,1,97.4999955368044,14|0,1:2|1:0,0:0:0:0:
266,164,104154,1,8,0:0:0:0:
266,164,104317,1,0,1:0:0:0:
298,84,104479,2,0,L|495:107,1,194.999991073609,0|8,1:0|0:0,0:0:0:0:
385,272,105127,6,0,L|191:294,1,194.999991073609,2|8,1:0|0:0,0:0:0:0:
106,312,105614,1,0,1:0:0:0:
30,263,105776,2,0,P|14:225|31:164,1,97.4999955368044,0|0,1:0|1:0,0:0:0:0:
88,103,106100,2,0,P|126:87|187:104,1,97.4999955368044,8|0,0:0|1:0,0:0:0:0:
239,166,106424,6,0,P|349:166|412:106,1,194.999991073609,2|8,1:0|0:0,0:0:0:0:
469,52,106911,1,0,1:0:0:0:
495,138,107073,1,0,1:0:0:0:
491,162,107154,1,0,1:0:0:0:
489,185,107235,1,0,1:0:0:0:
417,239,107397,2,0,L|317:227,1,97.4999955368044,8|0,0:0|1:0,0:0:0:0:
239,166,107721,6,0,P|216:115|224:59,2,97.4999955368044,2|0|8,1:0|1:0|0:0,0:0:0:0:
320,227,108208,1,0,1:0:0:0:
277,315,108370,2,0,P|192:291|76:286,1,194.999991073609,2|8,1:0|0:0,0:0:0:0:
33,354,108857,1,0,1:0:0:0:
92,279,109019,6,0,P|117:185|121:87,1,194.999991073609,6|8,1:0|0:0,0:0:0:0:
200,36,109506,1,8,0:1:0:0:
270,99,109668,2,0,P|304:116|377:87,1,97.4999955368044,0|8,1:0|0:1,0:0:0:0:
441,52,109992,1,8,0:0:0:0:
441,52,110073,1,0,0:0:0:0:
441,52,110154,2,0,L|434:4,2,48.7499977684022,8|0|0,0:1|0:0|1:0,0:0:0:0:
447,152,110478,6,0,L|454:200,2,48.7499977684022,8|8|8,0:1|0:1|0:0,0:0:0:0:
360,103,110803,1,8,0:1:0:0:
270,58,110965,2,0,B|61:86,1,194.999991073609,0|8,1:0|0:0,0:0:0:0:
76,83,111451,1,8,0:1:0:0:
17,166,111614,6,0,P|18:214|46:252,1,97.4999955368044,2|8,1:0|0:1,0:0:0:0:
123,293,111938,2,0,P|171:291|209:263,1,97.4999955368044,8|8,0:0|0:1,0:0:0:0:
261,189,112262,2,0,L|328:199,8,48.7499977684022,8|8|8|0|8|8|8|8|8,0:0|0:0|0:0|0:0|0:0|0:0|0:0|0:0|0:0,0:0:0:0:
201,121,113073,5,8,0:0:0:0:
269,62,113235,2,0,L|279:2,4,48.7499977684022,8|8|8|8|8,0:0|0:0|0:0|0:0|0:0,0:0:0:0:
333,124,113721,2,0,L|435:111,1,97.4999955368044,8|8,0:0|0:0,0:0:0:0:
396,33,114046,2,0,L|347:39,2,48.7499977684022,12|0|0,0:0|0:0|0:0,0:0:0:0:
462,200,114532,6,0,P|454:245|457:295,1,75,4|8,1:0|1:1,0:0:0:0:
397,354,114857,2,0,P|352:346|302:349,1,75,0|8,3:0|1:1,0:0:0:0:
247,301,115181,2,0,P|202:309|152:306,1,75,8|8,0:0|0:1,0:0:0:0:
92,259,115505,5,8,0:1:0:0:
160,203,115667,2,0,L|164:165,2,37.5,8|0|0,1:1|3:0|1:0,0:0:0:0:
92,259,115992,2,0,L|88:297,6,37.5,8|0|0|0|8|0|0,1:1|3:0|1:0|3:0|3:1|3:0|1:0,0:0:0:0:
160,203,116640,1,8,1:1:0:0:
233,253,116803,6,0,P|285:249|317:234,1,75,12|8,0:0|0:1,0:0:0:0:
369,164,117127,2,0,L|365:122,3,37.5,8|0|8|0,0:0|3:0|1:1|3:0,0:0:0:0:
339,105,117451,2,0,L|335:63,3,37.5,0|0|8|0,3:0|3:0|1:1|3:0,0:0:0:0:
310,30,117776,1,8,0:0:0:0:
240,76,117938,1,8,1:1:0:0:
163,44,118100,6,0,L|62:58,1,75,8|8,0:1|1:1,0:0:0:0:
29,122,118424,2,0,L|39:196,1,75,0|8,3:0|1:1,0:0:0:0:
112,257,118749,2,0,L|186:246,1,75,0|8,1:0|1:1,0:0:0:0:
256,193,119073,2,0,L|293:198,3,37.5,0|0|8|0,1:0|1:0|1:1|1:0,0:0:0:0:
326,205,119397,5,12,1:0:0:0:
376,137,119559,1,8,0:1:0:0:
331,60,119721,2,0,L|245:73,1,75,8|8,0:0|1:1,0:0:0:0:
178,19,120046,2,0,L|135:12,4,37.5,0|0|8|0|8,3:0|3:0|1:1|3:0|0:0,0:0:0:0:
256,71,120532,1,8,3:1:0:0:
188,130,120694,6,0,P|181:168|194:209,1,75,0|8,3:0|1:1,0:0:0:0:
259,252,121019,2,0,P|268:288|261:324,1,75,0|8,3:0|1:1,0:0:0:0:
192,380,121343,1,0,1:0:0:0:
112,340,121505,2,0,L|68:335,4,37.5,8|0|0|0|8,3:1|3:0|1:0|1:0|1:1,0:0:0:0:
192,380,121992,5,4,1:0:0:0:
192,380,122640,1,0,1:0:0:0:
261,339,122803,2,0,L|254:290,2,37.5,8|0|8,1:1|3:0|0:0,0:0:0:0:
332,370,123127,1,8,1:1:0:0:
423,330,123289,5,4,1:0:0:0:
423,330,123613,1,0,1:0:0:0:
423,330,123938,2,0,L|424:288,4,37.5,0|0|8|0|0,1:0|3:0|3:1|3:0|1:0,0:0:0:0:
331,303,124424,5,8,1:1:0:0:
331,303,124505,1,0,1:0:0:0:
331,303,124586,2,0,P|310:211|312:129,1,150,4|0,1:0|1:0,0:0:0:0:
355,77,125073,1,8,0:1:0:0:
277,30,125235,2,0,P|231:37|205:57,1,75,0|8,1:0|3:1,0:0:0:0:
147,128,125559,2,0,P|101:121|75:101,1,75,0|8,1:0|1:1,0:0:0:0:
19,162,125884,6,0,L|28:205,4,37.5,4|0|0|8|0,1:0|0:0|1:0|0:1|1:0,0:0:0:0:
78,104,126370,1,0,1:0:0:0:
154,130,126532,2,0,L|237:136,1,75,0|0,1:0|1:0,0:0:0:0:
285,195,126857,2,0,L|279:278,1,75,0|0,1:0|1:0,0:0:0:0:
181,357,127181,5,4,1:0:0:0:
181,357,127343,1,0,1:0:0:0:
121,308,127505,1,0,1:0:0:0:
110,235,127667,1,0,1:0:0:0:
153,171,127830,2,0,L|192:179,6,37.5,0|0|0|8|0|0|0,1:0|0:0|1:0|0:1|1:0|0:0|1:0,0:0:0:0:
71,132,128478,6,0,L|61:46,1,75,0|0,1:0|1:0,0:0:0:0:
140,8,128803,2,0,L|226:-2,1,75,0|0,1:0|1:0,0:0:0:0:
299,48,129127,1,0,1:0:0:0:
299,48,129208,1,0,1:0:0:0:
299,48,129289,2,0,L|352:54,6,37.5,0|0|0|0|0|0|0,1:0|1:0|1:0|1:0|1:0|1:0|1:0,0:0:0:0:
189,178,130100,5,4,0:0:0:0:
189,178,130262,1,4,0:0:0:0:
256,192,130343,12,0,136262,0:0:0:0:
