osu file format v14

[General]
AudioFilename: audio.mp3
AudioLeadIn: 0
PreviewTime: 44316
Countdown: 0
SampleSet: Soft
StackLeniency: 0.2
Mode: 0
LetterboxInBreaks: 0
WidescreenStoryboard: 1

[Editor]
Bookmarks: 18208,33776,44154,64911,88262,114532,130262
DistanceSpacing: 0.3
BeatDivisor: 4
GridSize: 8
TimelineZoom: 2.2

[Metadata]
Title:Xevel
TitleUnicode:Xevel
Artist:Tatsh
ArtistUnicode:Tatsh
Creator:Skytuna
Version:MASTER
Source:CHUNITHM STAR
Tags:Entry Azrael -_AzRaeL_- [_l_u_k_a_s_] Seolv 第四回天下一音ゲ祭 5th Tenkaichi Otogesai Electronic English TatshMusicCircle SOUND VOLTEX IV HEAVENLY HAVEN グルーヴコースター 4 スターライトロード GROOVE COASTER 4 STARLIGHT ROAD 太鼓の達人 ブルーVer. Taiko no Tatsujin Blue Version maimai MiLK PLUS -Game ver-
BeatmapID:2455776
BeatmapSetID:1174491

[Difficulty]
HPDrainRate:4.6
CircleSize:4
OverallDifficulty:9
ApproachRate:9.2
SliderMultiplier:1.9
SliderTickRate:1

[Events]
//Background and Video events
0,0,"asicocuk26.jpg",0,0
//Break Periods
//Storyboard Layer 0 (Background)
//Storyboard Layer 1 (Fail)
//Storyboard Layer 2 (Pass)
//Storyboard Layer 3 (Foreground)
//Storyboard Layer 4 (Overlay)
//Storyboard Sound Samples

[TimingPoints]
813,324.324324324324,4,2,0,70,1,0
11722,324.324324324324,4,2,3,70,1,0
11722,-142.857142857143,4,2,3,70,0,0
13019,-100,4,2,3,70,0,0
16911,-125,4,2,3,70,0,0
17235,-166.666666666667,4,2,3,70,0,0
18208,-83.3333333333334,4,2,3,70,0,0
35073,-172.413793103448,4,2,3,70,0,0
35397,-172.413793103448,4,2,0,5,0,0
35478,-172.413793103448,4,2,0,70,0,0
35721,-172.413793103448,4,2,0,5,0,0
35803,-172.413793103448,4,2,0,70,0,0
36046,-172.413793103448,4,2,0,5,0,0
36127,-172.413793103448,4,2,0,70,0,0
36208,-172.413793103448,4,2,3,70,0,0
36370,-83.3333333333334,4,2,3,70,0,0
37667,-172.413793103448,4,2,3,70,0,0
37992,-172.413793103448,4,2,0,5,0,0
38073,-172.413793103448,4,2,0,70,0,0
38235,-172.413793103448,4,2,3,70,0,0
38316,-172.413793103448,4,2,3,70,0,0
38965,-83.3333333333334,4,2,3,70,0,0
44154,-71.4285714285714,4,2,3,80,0,1
60208,-83.3333333333333,4,2,3,80,0,1
61019,-71.4285714285714,4,2,3,80,0,1
61667,-83.3333333333333,4,2,3,80,0,1
62316,-71.4285714285714,4,2,3,80,0,1
62803,-83.3333333333333,4,2,3,80,0,1
64911,-142.857142857143,4,2,3,70,0,0
69776,-83.3333333333334,4,2,3,70,0,0
77884,-76.9230769230769,4,2,3,70,0,0
87776,-76.9230769230769,4,2,3,5,0,0
87857,-76.9230769230769,4,2,3,70,0,0
87938,-76.9230769230769,4,2,3,5,0,0
88019,-76.9230769230769,4,2,3,70,0,0
88262,-66.6666666666667,4,2,3,80,0,1
114046,-66.6666666666667,4,2,3,70,0,1
114532,-76.9230769230769,4,2,3,70,0,0

[Colours]
Combo1 : 156,206,243
Combo2 : 233,200,253
Combo3 : 159,228,251
Combo4 : 9,117,117

[HitObjects]
55,162,11722,6,0,P|85:182|218:67,1,232.749992897034,4|0,0:0|0:0,0:0:0:0:
220,85,12370,5,8,0:0:0:0:
221,102,12451,1,8,0:0:0:0:
223,119,12532,1,8,0:0:0:0:
225,137,12613,1,8,0:0:0:0:
227,154,12694,1,8,0:0:0:0:
229,172,12775,1,8,0:0:0:0:
231,189,12856,1,8,0:0:0:0:
233,207,12937,1,8,0:0:0:0:
234,224,13019,6,0,L|330:238,1,95,4|8,1:0|0:1,0:0:0:0:
504,305,13343,2,0,L|408:319,1,95,8|8,0:0|0:1,0:0:0:0:
289,341,13667,1,0,1:0:0:0:
289,341,13749,1,8,0:1:0:0:
289,341,13830,1,8,0:1:0:0:
361,152,13992,1,8,0:0:0:0:
443,237,14154,2,0,L|431:167,1,47.5,8|0,0:1|0:0,0:0:0:0:
411,81,14316,6,0,P|370:66|296:98,1,95,0|8,1:0|0:1,0:0:0:0:
310,85,14559,1,8,0:1:0:0:
302,97,14640,1,8,0:0:0:0:
255,220,14803,1,8,0:1:0:0:
98,95,14965,2,0,P|142:123|153:125,1,47.5,0|8,1:0|0:1,0:0:0:0:
216,141,15127,1,8,0:1:0:0:
157,46,15289,1,8,0:0:0:0:
11,190,15451,1,8,1:1:0:0:
11,190,15532,1,0,0:0:0:0:
11,190,15613,6,0,L|25:87,1,95,0|8,1:0|0:1,0:0:0:0:
26,81,15857,1,8,0:1:0:0:
29,67,15938,1,8,0:0:0:0:
81,243,16100,1,8,0:1:0:0:
151,148,16262,1,0,1:0:0:0:
151,148,16343,1,8,0:1:0:0:
151,148,16424,1,8,0:1:0:0:
191,358,16586,1,8,0:0:0:0:
259,216,16749,2,0,P|246:266|252:290,1,47.5,8|0,1:1|0:0,0:0:0:0:
279,337,16911,6,0,L|373:324,1,76,0|8,1:0|0:1,0:0:0:0:
422,384,17235,2,0,L|453:307,1,56.9999982604981,8|0,0:0|0:0,0:0:0:0:
484,155,17559,5,8,0:0:0:0:
462,145,17640,1,8,0:0:0:0:
438,139,17721,1,8,0:0:0:0:
414,139,17803,1,8,0:0:0:0:
391,145,17884,1,8,0:0:0:0:
368,153,17965,1,8,0:0:0:0:
344,157,18046,1,8,0:0:0:0:
320,156,18127,1,8,0:0:0:0:
298,147,18208,5,4,1:0:0:0:
292,144,18289,2,0,L|310:43,1,56.9999982604981,0|8,3:0|3:1,0:0:0:0:
181,33,18451,1,0,3:0:0:0:
182,38,18532,2,0,L|192:94,1,56.9999982604981,8|0,0:0|0:0,0:0:0:0:
213,194,18694,1,8,3:1:0:0:
39,340,18857,6,0,P|77:314|108:310,1,56.9999982604981,0|0,1:0|3:0,0:0:0:0:
104,229,19019,2,0,P|145:248|164:273,1,56.9999982604981,8|0,3:1|3:0,0:0:0:0:
224,334,19181,1,8,0:0:0:0:
251,342,19262,1,0,0:0:0:0:
279,343,19343,1,8,0:1:0:0:
307,338,19424,1,0,0:0:0:0:
331,324,19505,5,0,1:0:0:0:
322,290,19586,1,0,3:0:0:0:
319,255,19667,1,8,3:1:0:0:
322,220,19749,1,0,3:0:0:0:
335,188,19830,5,8,0:0:0:0:
350,163,19911,1,0,3:0:0:0:
358,135,19992,1,8,3:1:0:0:
358,106,20073,1,0,3:0:0:0:
348,79,20154,6,0,P|324:68|276:71,3,56.9999982604981,0|0|8|0,1:0|3:0|3:1|3:0,0:0:0:0:
433,174,20478,2,0,P|454:158|475:115,3,56.9999982604981,8|0|8|0,0:0|3:0|3:1|3:0,0:0:0:0:
278,211,20803,5,0,1:0:0:0:
238,207,20884,1,0,3:0:0:0:
202,188,20965,1,8,3:1:0:0:
177,156,21046,1,0,3:0:0:0:
171,115,21127,5,8,0:0:0:0:
179,87,21208,1,0,3:0:0:0:
195,63,21289,1,8,3:1:0:0:
219,49,21370,1,0,3:0:0:0:
247,46,21451,6,0,P|262:99|256:117,3,56.9999982604981,0|0|8|0,1:0|0:0|0:1|0:0,0:0:0:0:
98,153,21776,2,0,L|22:141,1,56.9999982604981,8|0,0:0|0:0,0:0:0:0:
202,188,21938,2,0,L|278:176,1,56.9999982604981,8|0,1:1|0:0,0:0:0:0:
63,240,22100,5,0,1:0:0:0:
36,261,22181,1,0,3:0:0:0:
22,292,22262,1,8,3:1:0:0:
22,326,22343,1,0,3:0:0:0:
37,356,22424,5,8,0:0:0:0:
87,364,22505,1,0,3:0:0:0:
137,352,22586,1,8,3:1:0:0:
171,314,22667,1,0,3:0:0:0:
179,262,22749,6,0,P|174:227|158:204,1,56.9999982604981,8|0,1:1|0:0,0:0:0:0:
215,133,22911,2,0,P|182:119|154:122,1,56.9999982604981,8|0,1:1|0:0,0:0:0:0:
110,19,23073,5,0,1:1:0:0:
55,34,23154,1,0,1:0:0:0:
20,79,23235,1,8,1:1:0:0:
18,135,23316,1,0,1:0:0:0:
44,185,23397,6,0,P|107:206|113:205,3,56.9999982604981,4|0|8|0,1:0|0:0|0:1|0:0,0:0:0:0:
259,99,23721,2,0,P|209:143|207:148,3,56.9999982604981,8|0|8|0,0:0|0:0|0:1|0:0,0:0:0:0:
187,326,24046,5,0,1:0:0:0:
193,286,24127,1,0,3:0:0:0:
188,246,24208,1,8,3:1:0:0:
168,211,24289,1,0,3:0:0:0:
137,185,24370,5,8,0:0:0:0:
156,219,24451,1,0,3:0:0:0:
191,236,24532,1,8,3:1:0:0:
230,240,24613,1,0,3:0:0:0:
267,226,24694,5,0,1:0:0:0:
295,182,24776,1,0,3:0:0:0:
339,155,24857,1,8,3:1:0:0:
389,149,24938,1,0,3:0:0:0:
438,161,25019,5,8,0:0:0:0:
462,175,25100,1,0,0:0:0:0:
479,197,25181,1,8,0:1:0:0:
486,224,25262,1,0,0:0:0:0:
487,252,25343,6,0,L|412:298,1,56.9999982604981,0|0,1:0|3:0,0:0:0:0:
289,373,25506,1,8,3:1:0:0:
289,373,25587,1,0,3:0:0:0:
289,373,25668,1,8,0:0:0:0:
276,323,25749,1,0,3:0:0:0:
279,271,25830,1,8,1:1:0:0:
263,222,25911,1,0,3:0:0:0:
269,171,25992,6,0,P|287:118|323:93,3,56.9999982604981,0|0|8|0,1:0|3:0|3:1|3:0,0:0:0:0:
454,79,26316,2,0,P|399:89|359:70,3,56.9999982604981,8|0|8|0,0:0|3:0|3:1|3:0,0:0:0:0:
277,22,26640,5,0,1:0:0:0:
243,15,26721,1,0,3:0:0:0:
208,20,26803,1,8,3:1:0:0:
179,38,26884,1,0,3:0:0:0:
156,64,26965,1,8,0:0:0:0:
115,86,27046,1,0,3:0:0:0:
70,91,27127,1,8,3:1:0:0:
26,76,27208,1,0,3:0:0:0:
4,29,27289,5,4,1:0:0:0:
72,271,27613,5,4,1:0:0:0:
247,99,27938,5,0,1:0:0:0:
241,97,28019,1,0,1:0:0:0:
235,95,28100,1,0,1:0:0:0:
138,337,28262,1,0,1:0:0:0:
108,196,28424,1,0,1:0:0:0:
292,338,28586,5,4,1:0:0:0:
330,348,28667,1,0,3:0:0:0:
370,348,28749,1,8,3:1:0:0:
408,336,28830,1,0,3:0:0:0:
436,307,28911,5,8,0:0:0:0:
445,274,28992,1,0,3:0:0:0:
442,239,29073,1,8,3:1:0:0:
426,208,29154,1,0,3:0:0:0:
398,188,29235,5,0,1:0:0:0:
371,158,29316,1,0,3:0:0:0:
359,119,29397,1,8,3:1:0:0:
356,79,29478,1,0,3:0:0:0:
371,42,29559,5,8,0:0:0:0:
416,40,29640,1,0,3:0:0:0:
458,57,29721,1,8,3:1:0:0:
484,94,29803,1,0,3:0:0:0:
488,139,29884,6,0,P|438:152|414:147,3,56.9999982604981,0|0|8|0,1:0|3:0|3:1|3:0,0:0:0:0:
335,250,30208,2,0,P|348:200|365:181,3,56.9999982604981,8|0|8|0,0:0|3:0|3:1|3:0,0:0:0:0:
293,59,30532,5,0,1:0:0:0:
254,67,30613,1,8,0:0:0:0:
228,97,30694,2,0,L|243:162,1,56.9999982604981,8|0,3:1|0:0,0:0:0:0:
14,107,30857,5,8,0:0:0:0:
50,92,30938,1,8,0:0:0:0:
87,103,31019,2,0,L|102:167,1,56.9999982604981,8|0,3:1|0:0,0:0:0:0:
131,272,31181,5,0,1:0:0:0:
136,273,31262,1,0,3:0:0:0:
141,273,31343,1,8,3:1:0:0:
146,273,31424,1,0,3:0:0:0:
151,273,31505,2,0,L|219:259,1,56.9999982604981,8|0,0:0|0:0,0:0:0:0:
282,189,31667,2,0,L|347:210,1,56.9999982604981,8|0,1:1|0:0,0:0:0:0:
463,276,31830,5,0,1:0:0:0:
461,264,31911,1,0,3:0:0:0:
460,252,31992,1,8,3:1:0:0:
459,240,32073,1,0,3:0:0:0:
457,228,32154,2,0,L|450:164,1,56.9999982604981,8|0,0:0|0:0,0:0:0:0:
428,47,32316,1,8,1:1:0:0:
424,51,32397,1,0,0:0:0:0:
419,54,32478,6,0,L|367:91,1,56.9999982604981,8|8,0:0|0:0,0:0:0:0:
238,190,32640,2,0,L|231:126,1,56.9999982604981,8|8,0:0|0:0,0:0:0:0:
188,0,32803,1,8,0:0:0:0:
194,15,32884,1,8,0:0:0:0:
198,31,32965,1,0,1:0:0:0:
198,48,33046,1,0,1:0:0:0:
191,65,33127,5,8,1:0:0:0:
168,69,33208,1,8,0:0:0:0:
145,71,33289,2,0,L|100:77,2,28.4999991302491,8|0|0,0:0|0:0|0:0,0:0:0:0:
333,151,33451,5,8,0:0:0:0:
371,201,33532,1,8,0:0:0:0:
379,257,33613,1,8,0:0:0:0:
373,306,33694,1,8,0:0:0:0:
348,341,33776,5,6,1:0:0:0:
286,290,33938,1,2,0:0:0:0:
206,293,34100,1,2,0:0:0:0:
164,360,34262,1,2,0:0:0:0:
243,223,34424,1,2,0:0:0:0:
258,367,34586,1,2,0:0:0:0:
258,367,34667,1,2,0:0:0:0:
258,367,34749,1,2,0:0:0:0:
206,293,34911,1,2,0:0:0:0:
94,383,35073,6,0,B|140:298|151:202|135:155|38:146|-9:193|-6:256|46:287,1,385.70001177063,2|2,0:0|0:0,0:0:0:0:
51,291,36289,1,2,0:0:0:0:
61,295,36370,5,2,0:0:0:0:
105,228,36532,1,2,0:0:0:0:
182,340,36694,1,2,0:0:0:0:
207,256,36857,1,2,0:0:0:0:
281,372,37019,1,2,0:0:0:0:
207,256,37181,1,2,0:0:0:0:
203,251,37262,1,2,0:0:0:0:
199,246,37343,1,2,0:0:0:0:
182,340,37505,1,2,0:0:0:0:
281,212,37667,6,0,P|356:175|454:237,1,192.850005885315,2|0,0:0|0:0,0:0:0:0:
446,225,38316,5,8,0:0:0:0:
445,208,38397,1,8,0:0:0:0:
443,191,38478,1,8,0:0:0:0:
440,174,38559,1,8,0:0:0:0:
437,157,38640,1,8,0:0:0:0:
435,140,38721,1,8,0:0:0:0:
433,123,38803,1,8,0:0:0:0:
431,106,38884,1,8,0:0:0:0:
429,89,38965,5,0,1:0:0:0:
382,110,39046,1,0,3:0:0:0:
331,117,39127,1,0,3:0:0:0:
281,103,39208,1,0,3:0:0:0:
248,63,39289,5,0,1:0:0:0:
259,43,39370,1,0,3:0:0:0:
281,38,39451,1,0,3:0:0:0:
301,47,39532,1,0,3:0:0:0:
314,65,39613,5,0,3:0:0:0:
308,110,39694,1,0,3:0:0:0:
272,139,39776,1,0,3:0:0:0:
226,140,39857,1,0,3:0:0:0:
187,116,39938,5,0,3:0:0:0:
162,102,40019,1,0,3:0:0:0:
133,97,40100,1,0,3:0:0:0:
104,102,40181,1,0,3:0:0:0:
79,117,40262,6,0,L|62:185,3,56.9999982604981,0|0|0|0,1:0|3:0|3:0|3:0,0:0:0:0:
51,286,40586,6,0,L|118:266,1,56.9999982604981,4|0,1:0|0:0,0:0:0:0:
160,210,40749,2,0,L|228:227,1,56.9999982604981,0|0,1:0|0:0,0:0:0:0:
382,192,40911,6,0,L|399:260,3,56.9999982604981,0|0|0|0,1:0|3:0|3:0|3:0,0:0:0:0:
412,357,41235,6,0,L|344:337,1,56.9999982604981,0|0,1:0|0:0,0:0:0:0:
304,281,41398,2,0,L|236:298,1,56.9999982604981,0|0,1:0|1:0,0:0:0:0:
65,308,41559,6,0,P|81:268|80:246,1,56.9999982604981,4|0,1:0|0:0,0:0:0:0:
158,211,41721,2,0,P|132:176|112:166,1,56.9999982604981,0|0,1:0|0:0,0:0:0:0:
142,83,41884,2,0,P|99:88|80:100,1,56.9999982604981,0|0,1:0|0:0,0:0:0:0:
19,40,42046,2,0,P|2:79|3:101,1,56.9999982604981,0|0,1:0|1:0,0:0:0:0:
177,306,42208,6,0,L|227:265,1,56.9999982604981,0|0,1:0|0:0,0:0:0:0:
308,195,42370,1,0,1:0:0:0:
312,192,42451,1,0,0:0:0:0:
317,190,42532,2,0,L|256:166,1,56.9999982604981,0|0,1:0|0:0,0:0:0:0:
155,125,42694,2,0,L|215:101,1,56.9999982604981,0|0,1:0|1:0,0:0:0:0:
356,40,42857,6,0,L|365:89,2,28.4999991302491,0|0|0,1:0|0:0|1:0,0:0:0:0:
438,110,43019,2,0,L|429:159,2,28.4999991302491,0|0|0,1:0|0:0|1:0,0:0:0:0:
317,190,43181,2,0,L|326:239,2,28.4999991302491,0|0|0,1:0|0:0|1:0,0:0:0:0:
405,249,43343,2,0,L|396:298,2,28.4999991302491,0|0|0,1:0|0:0|1:0,0:0:0:0:
280,342,43505,5,4,1:0:0:0:
213,17,43749,5,4,1:0:0:0:
43,133,43992,5,4,1:0:0:0:
48,133,44073,1,0,1:0:0:0:
54,132,44154,6,0,L|228:99,1,132.999995941162,6|8,1:0|0:1,0:0:0:0:
197,104,44397,1,8,0:1:0:0:
210,102,44478,1,8,0:0:0:0:
157,274,44640,1,8,0:1:0:0:
426,221,44803,6,0,L|252:188,1,132.999995941162,2|8,1:0|0:1,0:0:0:0:
283,193,45046,1,8,0:1:0:0:
270,191,45127,1,8,0:0:0:0:
395,356,45289,2,0,L|381:283,1,66.4999979705811,8|0,1:1|0:0,0:0:0:0:
358,131,45451,6,0,B|430:145|430:145|487:114,1,132.999995941162,2|8,1:0|0:1,0:0:0:0:
494,110,45694,1,8,0:1:0:0:
504,101,45776,1,8,0:0:0:0:
355,5,45938,1,8,0:1:0:0:
270,191,46100,6,0,L|294:60,1,132.999995941162,2|8,1:0|0:1,0:0:0:0:
239,9,46343,1,8,0:0:0:0:
232,11,46424,1,10,0:0:0:0:
186,22,46505,1,0,0:0:0:0:
140,33,46586,1,8,1:1:0:0:
95,46,46667,1,0,0:0:0:0:
50,60,46749,6,0,P|38:130|90:192,1,132.999995941162,2|8,1:0|0:1,0:0:0:0:
80,187,46992,1,8,0:1:0:0:
91,194,47073,1,8,0:0:0:0:
186,22,47235,1,8,0:1:0:0:
307,220,47397,5,0,1:0:0:0:
302,180,47478,1,0,0:0:0:0:
298,140,47559,1,8,0:1:0:0:
293,100,47640,1,0,0:0:0:0:
287,60,47721,1,8,0:0:0:0:
232,280,47884,1,8,0:1:0:0:
232,280,47965,1,8,0:1:0:0:
232,280,48046,6,0,P|297:315|358:299,1,132.999995941162,2|8,1:0|0:1,0:0:0:0:
493,173,48370,2,0,P|428:138|367:154,1,132.999995941162,8|8,0:0|0:1,0:0:0:0:
302,180,48613,1,0,0:0:0:0:
295,180,48694,5,0,1:0:0:0:
257,193,48776,1,8,0:0:0:0:
217,198,48857,1,8,1:1:0:0:
177,190,48938,1,8,0:0:0:0:
144,166,49019,1,0,1:0:0:0:
109,145,49100,1,8,0:0:0:0:
69,136,49181,1,8,1:1:0:0:
29,143,49262,1,8,0:0:0:0:
1,172,49343,6,0,B|15:308,1,132.999995941162,6|8,1:0|0:1,0:0:0:0:
16,317,49586,1,8,0:1:0:0:
18,330,49667,1,8,0:0:0:0:
109,145,49830,1,8,0:1:0:0:
229,330,49992,5,2,1:0:0:0:
229,330,50073,1,0,0:0:0:0:
229,330,50154,1,8,0:1:0:0:
105,139,50316,1,8,0:0:0:0:
94,289,50478,1,8,1:1:0:0:
329,195,50640,6,0,B|272:161|272:161|201:192,1,132.999995941162,2|8,1:0|0:1,0:0:0:0:
199,194,50884,1,8,0:1:0:0:
187,201,50965,1,8,0:0:0:0:
345,310,51127,1,8,0:1:0:0:
447,105,51289,5,2,1:0:0:0:
424,137,51370,1,8,0:0:0:0:
411,174,51451,1,8,0:1:0:0:
410,213,51532,1,8,0:0:0:0:
425,249,51613,1,10,0:0:0:0:
280,78,51776,1,8,1:1:0:0:
280,78,51857,1,0,0:0:0:0:
280,78,51938,6,0,L|137:140,1,132.999995941162,2|8,1:0|0:1,0:0:0:0:
258,0,52262,2,0,L|115:62,1,132.999995941162,8|8,0:0|0:1,0:0:0:0:
20,112,52586,5,2,1:0:0:0:
20,112,52667,1,0,0:0:0:0:
20,112,52749,1,8,0:1:0:0:
83,318,52911,1,8,0:0:0:0:
20,232,53073,1,8,0:1:0:0:
20,232,53154,1,8,0:1:0:0:
20,232,53235,6,0,P|66:207|96:208,1,66.4999979705811,2|0,1:0|0:0,0:0:0:0:
101,124,53397,2,0,P|145:151|159:177,1,66.4999979705811,8|0,1:1|0:0,0:0:0:0:
232,141,53559,2,0,P|230:193|214:218,1,66.4999979705811,8|0,1:0|0:0,0:0:0:0:
290,257,53721,2,0,P|244:282|214:281,1,66.4999979705811,8|0,1:1|0:0,0:0:0:0:
134,295,53884,5,8,0:0:0:0:
134,281,53965,1,8,0:0:0:0:
137,268,54046,1,8,0:1:0:0:
143,256,54127,1,8,0:0:0:0:
152,246,54208,1,8,0:0:0:0:
182,210,54289,1,8,0:0:0:0:
193,164,54370,1,8,0:1:0:0:
190,117,54451,1,8,0:0:0:0:
165,77,54532,6,0,L|13:98,1,132.999995941162,6|8,1:0|0:1,0:0:0:0:
20,97,54776,1,8,0:1:0:0:
7,99,54856,1,8,0:0:0:0:
137,0,55019,1,8,0:1:0:0:
273,231,55181,5,2,1:0:0:0:
273,231,55262,1,0,0:0:0:0:
273,231,55343,1,8,0:1:0:0:
324,46,55505,1,8,0:0:0:0:
193,164,55667,1,8,0:1:0:0:
431,163,55830,6,0,L|279:142,1,132.999995941162,2|8,1:0|0:1,0:0:0:0:
286,143,56074,1,0,0:0:0:0:
273,141,56154,1,8,0:0:0:0:
209,300,56316,1,8,0:1:0:0:
28,127,56478,6,0,P|85:179|90:242,1,132.999995941162,2|8,1:0|0:1,0:0:0:0:
45,294,56721,1,0,0:0:0:0:
41,299,56803,1,10,0:0:0:0:
80,276,56884,1,0,0:0:0:0:
126,267,56965,1,8,1:1:0:0:
171,274,57046,1,8,0:1:0:0:
209,300,57127,6,0,P|283:329|356:301,1,132.999995941162,2|8,1:0|0:1,0:0:0:0:
344,310,57370,1,8,0:1:0:0:
355,303,57451,1,8,0:0:0:0:
353,130,57613,1,8,0:1:0:0:
506,247,57776,5,0,1:0:0:0:
466,241,57857,1,0,0:0:0:0:
426,236,57938,1,8,0:1:0:0:
386,232,58019,1,8,0:1:0:0:
346,227,58100,1,8,0:0:0:0:
278,374,58262,1,8,1:1:0:0:
278,374,58343,1,0,0:0:0:0:
278,374,58424,6,0,L|254:210,1,132.999995941162,2|8,1:0|0:1,0:0:0:0:
257,229,58667,1,8,0:1:0:0:
255,215,58749,1,8,0:0:0:0:
165,357,58911,1,8,0:1:0:0:
18,197,59073,5,8,0:2:0:0:
59,216,59154,1,8,0:0:0:0:
105,216,59235,1,8,2:2:0:0:
148,198,59316,1,8,0:0:0:0:
176,160,59397,1,8,0:0:0:0:
178,113,59478,1,8,0:0:0:0:
157,71,59559,1,8,0:0:0:0:
113,55,59640,1,8,0:0:0:0:
69,61,59721,6,0,L|49:192,1,132.999995941162,6|8,1:0|0:1,0:0:0:0:
47,205,59965,1,8,0:1:0:0:
44,218,60046,1,8,0:0:0:0:
185,121,60208,1,8,0:1:0:0:
185,121,60289,1,8,0:1:0:0:
185,121,60370,5,0,1:0:0:0:
208,104,60451,1,0,0:0:0:0:
236,99,60532,1,8,0:1:0:0:
269,105,60613,1,0,0:0:0:0:
295,126,60694,2,0,P|293:154|281:180,1,56.9999982604981,8|0,0:0|0:0,0:0:0:0:
201,281,60857,1,8,1:1:0:0:
201,281,60938,1,0,0:0:0:0:
201,281,61019,6,0,P|236:261|351:296,1,132.999995941162,2|8,1:0|0:1,0:0:0:0:
335,280,61262,1,8,0:1:0:0:
344,288,61343,1,8,0:0:0:0:
470,162,61505,1,8,0:1:0:0:
470,162,61586,1,8,0:1:0:0:
470,162,61667,5,0,1:0:0:0:
443,183,61748,1,0,0:0:0:0:
409,191,61829,1,8,0:1:0:0:
375,187,61910,1,0,0:0:0:0:
345,170,61991,2,0,P|346:141|358:115,1,56.9999982604981,8|0,0:0|0:0,0:0:0:0:
503,36,62154,1,8,1:1:0:0:
503,36,62235,1,0,0:0:0:0:
503,36,62316,6,0,P|477:48|373:13,1,132.999995941162,2|8,1:0|0:1,0:0:0:0:
371,16,62559,1,8,0:1:0:0:
363,5,62640,1,8,0:0:0:0:
195,90,62803,1,8,0:1:0:0:
195,90,62884,1,8,0:1:0:0:
195,90,62965,5,0,1:0:0:0:
165,117,63046,1,0,0:0:0:0:
149,153,63127,1,8,0:1:0:0:
154,198,63208,1,0,0:0:0:0:
175,238,63289,2,0,P|196:256|222:266,1,56.9999982604981,8|0,0:0|0:0,0:0:0:0:
387,270,63451,1,8,1:1:0:0:
387,270,63532,1,0,0:0:0:0:
387,270,63613,6,0,L|348:291,2,28.4999991302491,2|0|0,1:0|0:0|0:0,0:0:0:0:
303,371,63776,2,0,L|303:327,2,28.4999991302491,8|0|0,0:1|0:0|0:0,0:0:0:0:
303,204,63938,2,0,L|364:181,1,56.9999982604981,8|0,0:0|0:0,0:0:0:0:
457,137,64100,2,0,L|396:114,1,56.9999982604981,8|0,0:1|0:0,0:0:0:0:
305,47,64262,5,2,1:0:0:0:
305,52,64343,1,0,1:0:0:0:
306,57,64424,1,8,1:1:0:0:
307,62,64505,1,0,1:0:0:0:
307,67,64586,2,0,L|311:110,6,28.4999991302491,0|0|0|0|0|0|0,1:0|0:0|0:0|0:0|0:0|0:0|0:0,0:0:0:0:
100,162,64911,6,0,L|179:172,1,66.4999979705811,4|0,1:0|0:0,0:0:0:0:
263,179,65235,1,8,0:0:0:0:
180,93,65397,1,0,1:0:0:0:
175,87,65721,5,0,1:0:0:0:
210,238,65884,1,8,0:0:0:0:
80,315,66370,5,0,1:0:0:0:
210,238,66532,1,8,0:0:0:0:
125,208,66694,1,0,1:0:0:0:
174,310,66857,6,0,P|225:318|249:310,1,66.4999979705811,0|0,1:0|1:0,0:0:0:0:
354,245,67181,2,0,P|302:253|278:245,1,66.4999979705811,8|0,0:0|0:0,0:0:0:0:
200,172,67505,6,0,L|213:261,1,66.4999979705811,0|0,1:0|0:0,0:0:0:0:
279,145,67830,1,8,0:0:0:0:
159,98,67992,1,0,1:0:0:0:
152,94,68316,5,0,1:0:0:0:
263,23,68478,2,0,L|389:40,1,99.7499969558717,8|0,0:0|0:0,0:0:0:0:
373,39,68803,1,0,1:0:0:0:
494,246,69776,5,8,0:0:0:0:
469,231,69857,1,8,0:0:0:0:
440,226,69938,1,8,0:0:0:0:
412,232,70019,1,8,0:0:0:0:
392,252,70100,5,6,1:0:0:0:
288,344,70262,1,8,0:1:0:0:
284,348,70343,1,8,0:1:0:0:
279,351,70424,1,8,0:1:0:0:
429,322,70586,5,2,1:0:0:0:
281,266,70749,1,8,0:1:0:0:
270,262,70830,1,8,0:1:0:0:
259,257,70911,1,8,0:1:0:0:
373,384,71073,5,2,1:0:0:0:
327,206,71235,1,8,0:1:0:0:
322,189,71316,1,8,0:1:0:0:
318,172,71397,1,8,0:1:0:0:
318,172,71559,6,0,L|233:160,1,56.9999982604981,2|0,1:0|0:0,0:0:0:0:
167,148,71721,1,0,1:0:0:0:
307,72,71884,1,0,1:0:0:0:
200,26,72046,1,2,1:0:0:0:
200,26,72127,1,0,1:0:0:0:
200,26,72208,2,0,L|220:94,1,56.9999982604981,0|0,1:0|1:0,0:0:0:0:
92,197,72370,2,0,P|82:125|110:83,1,113.999996520996,8|0,0:0|0:0,0:0:0:0:
110,84,72613,1,0,0:0:0:0:
119,77,72694,5,6,1:0:0:0:
159,245,72856,1,8,0:1:0:0:
160,249,72937,1,8,0:1:0:0:
162,254,73018,1,8,0:1:0:0:
45,130,73180,5,2,1:0:0:0:
215,195,73343,1,8,0:1:0:0:
223,198,73424,1,8,0:1:0:0:
233,203,73505,1,8,0:1:0:0:
38,223,73667,5,2,1:0:0:0:
196,118,73829,1,8,0:1:0:0:
211,110,73910,1,8,0:1:0:0:
226,102,73991,1,8,0:1:0:0:
226,102,74154,6,0,L|296:118,1,56.9999982604981,2|0,1:0|0:0,0:0:0:0:
375,136,74316,1,0,1:0:0:0:
486,10,74478,1,0,1:0:0:0:
486,10,74559,1,8,0:1:0:0:
486,10,74640,5,2,0:0:0:0:
436,21,74721,1,2,0:0:0:0:
393,49,74803,1,2,0:0:0:0:
373,90,74884,1,2,0:0:0:0:
375,136,74965,1,2,0:0:0:0:
392,174,75046,1,2,0:0:0:0:
420,203,75127,1,2,0:0:0:0:
454,213,75208,1,2,0:0:0:0:
488,208,75289,5,6,1:0:0:0:
330,304,75451,1,8,0:1:0:0:
325,307,75532,1,8,0:1:0:0:
319,309,75613,1,8,0:1:0:0:
472,306,75775,5,2,1:0:0:0:
336,225,75938,1,8,0:1:0:0:
320,217,76019,1,8,0:1:0:0:
305,208,76100,1,8,0:1:0:0:
406,358,76262,5,2,1:0:0:0:
392,174,76424,1,8,0:1:0:0:
388,145,76505,1,8,0:1:0:0:
384,116,76586,1,8,0:1:0:0:
384,116,76749,6,0,P|336:106|311:115,1,56.9999982604981,2|0,1:0|0:0,0:0:0:0:
241,128,76911,1,0,1:0:0:0:
141,0,77073,1,0,1:0:0:0:
36,213,77235,6,0,L|52:100,1,113.999996520996,2|8,1:0|0:1,0:0:0:0:
66,28,77478,1,8,0:1:0:0:
68,33,77559,1,2,1:0:0:0:
91,65,77640,1,2,0:0:0:0:
127,81,77721,1,2,1:0:0:0:
178,76,77803,1,2,0:0:0:0:
216,42,77884,6,0,P|289:27|341:62,1,123.499994346619,6|8,1:0|0:1,0:0:0:0:
337,58,78127,1,8,0:1:0:0:
343,68,78208,1,8,0:0:0:0:
288,233,78370,1,10,0:1:0:0:
425,136,78532,6,0,P|381:146|358:141,1,61.7499971733095,0|0,1:0|0:0,0:0:0:0:
270,114,78694,1,8,0:1:0:0:
435,43,78857,1,10,0:0:0:0:
425,136,79019,2,0,L|414:227,1,61.7499971733095,8|0,1:1|0:0,0:0:0:0:
348,320,79181,6,0,L|500:294,1,123.499994346619,6|8,1:0|0:1,0:0:0:0:
481,297,79424,1,8,0:1:0:0:
493,295,79505,1,8,0:0:0:0:
366,213,79667,1,8,0:1:0:0:
281,384,79830,5,0,1:0:0:0:
264,365,79911,1,0,3:0:0:0:
254,342,79992,1,8,3:1:0:0:
252,317,80073,1,0,3:0:0:0:
258,293,80154,2,0,P|293:251|298:249,1,61.7499971733095,8|0,0:0|3:0,0:0:0:0:
142,134,80316,1,8,1:1:0:0:
142,134,80397,1,0,3:0:0:0:
142,134,80478,6,0,P|179:181|170:260,1,123.499994346619,6|8,1:0|0:1,0:0:0:0:
22,58,80803,2,0,L|174:32,1,123.499994346619,10|8,0:0|0:1,0:0:0:0:
253,23,81127,5,2,1:0:0:0:
253,23,81208,1,0,0:0:0:0:
253,23,81289,1,8,0:1:0:0:
313,196,81451,1,2,1:0:0:0:
306,158,81532,1,2,0:0:0:0:
319,123,81613,1,10,1:1:0:0:
316,85,81694,1,2,0:0:0:0:
331,50,81776,6,0,P|380:52|399:66,1,61.7499971733095,6|0,1:0|0:0,0:0:0:0:
455,13,81938,2,0,P|477:56|475:79,1,61.7499971733095,8|0,1:0|0:0,0:0:0:0:
324,42,82100,2,0,P|373:44|392:58,1,61.7499971733095,10|0,0:0|0:0,0:0:0:0:
448,5,82262,2,0,P|470:48|468:71,1,61.7499971733095,0|0,1:0|0:0,0:0:0:0:
445,179,82424,5,10,0:0:0:0:
444,171,82505,1,0,0:0:0:0:
443,164,82586,1,0,1:0:0:0:
442,159,82667,1,0,0:0:0:0:
442,150,82749,5,10,0:0:0:0:
396,143,82830,1,2,0:0:0:0:
352,159,82911,1,2,0:0:0:0:
306,158,82992,1,2,0:0:0:0:
263,179,83074,6,0,P|267:239|285:262,1,61.7499971733095,14|0,0:0|0:0,0:0:0:0:
202,299,83235,2,0,P|256:325|285:321,1,61.7499971733095,0|0,1:0|0:0,0:0:0:0:
255,174,83397,2,0,P|259:234|277:257,1,61.7499971733095,10|0,0:0|0:0,0:0:0:0:
194,294,83558,2,0,P|248:320|277:316,1,61.7499971733095,2|0,1:0|0:0,0:0:0:0:
410,309,83721,5,10,0:0:0:0:
392,299,83803,1,0,0:0:0:0:
380,285,83884,1,2,1:0:0:0:
366,264,83965,1,0,0:0:0:0:
361,239,84046,1,10,0:0:0:0:
363,207,84127,1,8,0:0:0:0:
374,171,84208,1,8,0:0:0:0:
394,140,84289,1,8,0:0:0:0:
422,116,84370,5,14,0:0:0:0:
105,31,85667,5,6,0:0:0:0:
201,286,86316,6,0,L|208:245,16,30.8749985866547,2|0|0|0|0|0|0|0|0|0|0|0|0|0|0|0|0,0:0|0:0|0:0|0:0|0:0|0:0|0:0|0:0|0:0|0:0|0:0|0:0|0:0|0:0|0:0|0:0|0:0,0:0:0:0:
4,146,87613,6,0,P|70:164|136:125,1,123.499994346619,0|0,1:0|0:0,0:0:0:0:
132,134,87857,2,0,P|114:161|109:197,1,61.7499971733095,0|0,1:0|0:0,0:0:0:0:
61,77,88019,1,0,1:0:0:0:
57,71,88100,1,0,1:0:0:0:
54,65,88181,1,0,1:0:0:0:
51,60,88262,6,0,L|224:42,1,142.500005435944,6|0,1:0|1:0,0:0:0:0:
250,95,88505,1,0,1:0:0:0:
257,96,88586,1,8,0:0:0:0:
248,145,88667,1,0,0:0:0:0:
242,195,88749,1,0,1:0:0:0:
235,244,88830,1,0,0:0:0:0:
228,293,88911,6,0,B|166:328|166:328|99:303,1,142.500005435944,2|0,1:0|1:0,0:0:0:0:
35,272,89154,1,0,1:0:0:0:
28,268,89235,1,8,0:0:0:0:
56,235,89316,1,0,0:0:0:0:
97,223,89397,1,0,1:0:0:0:
153,223,89478,1,0,0:0:0:0:
198,257,89559,6,0,P|278:288|339:260,1,142.500005435944,2|0,1:0|1:0,0:0:0:0:
339,261,89803,1,0,1:0:0:0:
348,250,89884,1,8,0:0:0:0:
448,367,90046,1,2,1:0:0:0:
414,135,90208,6,0,L|407:209,1,71.2500027179719,0|0,1:0|0:0,0:0:0:0:
394,309,90370,1,0,1:0:0:0:
493,177,90532,1,10,0:0:0:0:
318,173,90694,2,0,L|206:137,1,71.2500027179719,0|0,1:0|1:0,0:0:0:0:
180,126,90857,6,0,B|253:153|253:153|353:99,1,142.500005435944,2|0,1:0|1:0,0:0:0:0:
322,116,91100,1,0,1:0:0:0:
335,110,91181,1,8,0:0:0:0:
153,223,91343,1,0,1:0:0:0:
68,119,91505,5,0,1:0:0:0:
63,153,91586,1,0,1:0:0:0:
61,189,91667,1,0,1:0:0:0:
56,225,91749,1,0,1:0:0:0:
54,261,91830,1,8,0:0:0:0:
181,348,91992,1,0,1:0:0:0:
181,348,92073,1,0,1:0:0:0:
181,348,92154,6,0,P|247:309|257:220,1,142.500005435944,2|0,1:0|1:0,0:0:0:0:
258,235,92397,1,0,1:0:0:0:
250,222,92478,1,8,0:0:0:0:
311,375,92640,1,0,1:0:0:0:
507,224,92803,5,8,1:2:0:0:
459,237,92884,1,8,0:2:0:0:
409,232,92965,1,8,1:2:0:0:
365,207,93046,1,8,0:2:0:0:
342,162,93127,1,8,0:2:0:0:
296,128,93208,1,8,0:2:0:0:
239,122,93289,1,8,1:2:0:0:
185,142,93370,1,8,0:2:0:0:
150,187,93451,6,0,L|135:328,1,142.500005435944,14|0,1:2|1:0,0:0:0:0:
74,368,93694,1,0,1:0:0:0:
66,366,93776,1,8,0:0:0:0:
114,354,93857,1,0,0:0:0:0:
161,338,93938,1,0,1:0:0:0:
208,321,94019,1,0,0:0:0:0:
254,303,94100,6,0,L|112:288,1,142.500005435944,2|0,1:0|1:0,0:0:0:0:
48,257,94343,1,0,1:0:0:0:
42,252,94424,1,8,0:0:0:0:
40,202,94505,1,0,0:0:0:0:
34,152,94586,1,0,1:0:0:0:
30,102,94667,1,0,0:0:0:0:
30,51,94749,6,0,B|106:42|106:42|181:90,1,142.500005435944,2|0,1:0|1:0,0:0:0:0:
172,86,94992,1,0,1:0:0:0:
182,95,95073,1,8,0:0:0:0:
297,4,95235,1,2,1:0:0:0:
297,172,95397,6,0,P|255:137|249:115,1,71.2500027179719,0|0,1:0|0:0,0:0:0:0:
229,36,95559,1,0,1:0:0:0:
189,195,95721,1,10,0:0:0:0:
325,88,95884,2,0,L|403:98,1,71.2500027179719,0|0,1:0|1:0,0:0:0:0:
462,121,96046,6,0,L|254:94,1,142.500005435944,2|0,1:0|1:0,0:0:0:0:
306,102,96289,1,0,1:0:0:0:
291,100,96370,1,8,0:0:0:0:
388,276,96532,1,0,1:0:0:0:
380,53,96694,5,2,1:0:0:0:
381,89,96776,1,0,1:0:0:0:
382,124,96857,1,0,1:0:0:0:
384,159,96938,1,0,1:0:0:0:
386,194,97019,1,8,0:0:0:0:
257,328,97181,1,0,1:0:0:0:
257,328,97262,1,0,1:0:0:0:
257,328,97343,6,0,P|243:290|247:257,1,71.2500027179719,10|8,1:0|1:0,0:0:0:0:
169,220,97505,2,0,P|194:188|225:175,1,71.2500027179719,8|8,1:0|1:0,0:0:0:0:
220,95,97667,2,0,P|259:101|286:121,1,71.2500027179719,8|8,1:0|1:0,0:0:0:0:
352,78,97830,2,0,P|366:116|362:148,1,71.2500027179719,8|8,1:0|1:0,0:0:0:0:
246,260,97992,5,8,0:0:0:0:
287,232,98073,1,8,0:0:0:0:
336,225,98154,1,8,0:0:0:0:
384,236,98235,1,8,0:0:0:0:
426,262,98316,2,0,L|411:331,1,71.2500027179719,8|8,0:0|0:0,0:0:0:0:
480,196,98478,2,0,L|465:126,1,71.2500027179719,8|8,0:0|0:0,0:0:0:0:
167,124,98640,6,0,B|239:149|239:149|295:107,1,142.500005435944,6|0,1:0|1:0,0:0:0:0:
339,52,98884,1,0,1:0:0:0:
344,47,98965,1,8,0:0:0:0:
294,39,99046,1,0,0:0:0:0:
244,30,99127,1,0,1:0:0:0:
194,21,99208,1,0,0:0:0:0:
144,12,99289,6,0,P|72:55|57:116,1,142.500005435944,2|0,1:0|1:0,0:0:0:0:
69,178,99532,1,0,1:0:0:0:
70,184,99613,1,8,0:0:0:0:
98,224,99694,1,0,0:0:0:0:
108,272,99776,1,0,1:0:0:0:
100,321,99857,1,0,0:0:0:0:
70,360,99938,6,0,P|145:327|227:356,1,142.500005435944,2|0,1:0|1:0,0:0:0:0:
212,348,100181,1,0,1:0:0:0:
222,357,100262,1,8,0:0:0:0:
14,269,100424,1,2,1:0:0:0:
179,133,100586,6,0,L|171:214,1,71.2500027179719,0|0,1:0|0:0,0:0:0:0:
163,290,100749,1,0,1:0:0:0:
96,111,100911,1,10,0:0:0:0:
247,255,101073,2,0,P|307:260|332:247,1,71.2500027179719,0|0,1:0|1:0,0:0:0:0:
359,178,101235,6,0,L|344:322,1,142.500005435944,2|0,1:0|1:0,0:0:0:0:
344,334,101478,1,0,1:0:0:0:
344,348,101559,1,8,0:0:0:0:
280,183,101721,1,0,1:0:0:0:
500,270,101884,5,0,1:0:0:0:
464,266,101966,1,0,0:0:0:0:
429,263,102047,1,0,1:0:0:0:
394,258,102128,1,0,1:0:0:0:
359,254,102209,1,8,0:0:0:0:
422,116,102370,1,0,1:0:0:0:
422,116,102451,1,0,1:0:0:0:
422,116,102532,6,0,L|430:197,1,71.2500027179719,2|0,1:0|0:0,0:0:0:0:
374,48,102694,2,0,L|309:18,1,71.2500027179719,0|0,1:0|0:0,0:0:0:0:
451,41,102857,2,0,L|508:0,1,71.2500027179719,8|0,0:0|0:0,0:0:0:0:
339,117,103019,1,0,1:0:0:0:
188,0,103181,5,8,0:0:0:0:
141,32,103262,1,8,0:0:0:0:
122,85,103343,1,8,0:0:0:0:
126,141,103424,1,8,0:0:0:0:
156,189,103505,1,8,0:0:0:0:
183,247,103586,1,8,0:0:0:0:
170,309,103667,1,8,0:0:0:0:
118,348,103749,1,8,0:0:0:0:
53,350,103830,6,0,L|34:190,1,142.500005435944,14|0,1:2|1:0,0:0:0:0:
34,194,104073,1,0,1:0:0:0:
32,179,104154,1,8,0:0:0:0:
170,309,104316,1,0,1:0:0:0:
276,122,104478,6,0,L|163:135,1,71.2500027179719,0|0,1:0|1:0,0:0:0:0:
126,141,104640,1,0,1:0:0:0:
315,199,104803,1,8,0:0:0:0:
280,8,104965,1,0,1:0:0:0:
280,8,105046,1,0,0:0:0:0:
280,8,105127,6,0,L|454:28,1,142.500005435944,2|0,1:0|1:0,0:0:0:0:
435,27,105370,1,0,1:0:0:0:
448,29,105451,1,8,0:0:0:0:
276,122,105613,1,0,1:0:0:0:
410,277,105776,6,0,L|421:179,1,71.2500027179719,0|0,1:0|1:0,0:0:0:0:
427,127,105938,1,0,1:0:0:0:
489,298,106100,1,8,0:0:0:0:
206,189,106262,1,0,1:0:0:0:
206,189,106343,1,0,0:0:0:0:
206,189,106424,6,0,P|184:125|229:49,1,142.500005435944,2|0,1:0|1:0,0:0:0:0:
226,51,106667,1,0,1:0:0:0:
239,46,106749,1,8,0:0:0:0:
103,214,106911,1,0,1:0:0:0:
276,122,107073,6,0,L|374:133,1,71.2500027179719,0|0,1:0|1:0,0:0:0:0:
426,139,107235,1,0,1:0:0:0:
262,257,107397,1,8,0:0:0:0:
127,41,107559,1,0,1:0:0:0:
127,41,107640,1,0,0:0:0:0:
127,41,107721,6,0,L|116:124,1,71.2500027179719,2|0,1:0|0:0,0:0:0:0:
105,200,107884,1,0,1:0:0:0:
104,207,107965,1,0,1:0:0:0:
103,214,108046,1,8,0:0:0:0:
24,92,108208,1,0,1:0:0:0:
20,276,108370,5,2,1:0:0:0:
50,305,108451,1,0,1:0:0:0:
90,317,108532,1,0,1:0:0:0:
132,315,108613,1,0,1:0:0:0:
171,299,108694,1,8,0:0:0:0:
282,148,108857,1,0,1:0:0:0:
282,148,108938,1,0,0:0:0:0:
282,148,109019,6,0,B|213:118|213:118|135:145,1,142.500005435944,6|8,1:0|0:1,0:0:0:0:
135,144,109262,1,8,0:1:0:0:
122,149,109343,1,8,0:0:0:0:
282,47,109505,1,8,0:1:0:0:
364,244,109667,6,0,L|385:80,1,142.500005435944,0|8,1:0|0:1,0:0:0:0:
384,88,109911,1,8,0:1:0:0:
386,73,109992,1,8,0:0:0:0:
283,230,110154,1,8,0:1:0:0:
122,48,110316,6,0,B|191:78|191:78|269:51,1,142.500005435944,0|8,1:0|0:1,0:0:0:0:
269,52,110559,1,8,0:1:0:0:
282,47,110640,1,8,0:0:0:0:
122,149,110802,1,8,0:1:0:0:
44,0,110965,5,0,1:0:0:0:
15,40,111046,1,8,0:0:0:0:
12,82,111127,1,8,0:1:0:0:
20,116,111208,1,8,0:0:0:0:
37,138,111289,5,8,0:0:0:0:
50,163,111370,1,8,0:0:0:0:
56,190,111451,1,8,0:1:0:0:
55,218,111532,1,8,0:0:0:0:
43,244,111613,6,0,L|194:223,1,142.500005435944,2|8,1:0|0:1,0:0:0:0:
198,223,111857,1,8,0:1:0:0:
212,221,111938,1,8,0:0:0:0:
99,67,112100,1,8,0:1:0:0:
148,323,112262,5,8,0:0:0:0:
168,316,112343,1,8,0:0:0:0:
188,308,112424,1,8,0:0:0:0:
255,140,112586,5,8,0:0:0:0:
233,111,112667,1,8,0:0:0:0:
223,76,112749,1,8,0:0:0:0:
229,41,112830,1,8,0:0:0:0:
253,15,112911,5,8,0:0:0:0:
302,19,112992,1,8,0:0:0:0:
341,48,113073,1,8,0:0:0:0:
360,93,113154,1,8,0:0:0:0:
362,142,113235,5,8,0:0:0:0:
317,176,113316,1,8,0:0:0:0:
260,182,113397,1,8,0:0:0:0:
208,157,113478,1,8,0:0:0:0:
183,105,113559,5,8,0:0:0:0:
246,109,113640,1,8,0:0:0:0:
300,142,113721,1,8,0:0:0:0:
327,200,113803,1,8,0:0:0:0:
328,264,113884,1,8,0:0:0:0:
297,320,113965,1,8,0:0:0:0:
238,345,114046,1,12,0:0:0:0:
246,352,114532,6,0,L|216:265,1,61.7499971733095,4|0,1:0|0:0,0:0:0:0:
202,207,114694,2,0,L|291:225,1,61.7499971733095,8|0,1:1|0:0,0:0:0:0:
354,234,114857,6,0,L|338:106,1,123.499994346619,0|8,3:0|1:1,0:0:0:0:
336,99,115100,1,0,3:0:0:0:
334,86,115181,1,8,0:0:0:0:
116,21,115343,1,8,0:1:0:0:
116,21,115424,1,8,0:1:0:0:
116,21,115505,6,0,P|154:68|242:63,1,123.499994346619,8|8,0:1|1:1,0:0:0:0:
274,40,115749,1,0,3:0:0:0:
277,34,115830,1,0,1:0:0:0:
240,67,115911,1,0,3:0:0:0:
227,114,115992,1,8,1:1:0:0:
233,162,116073,1,0,3:0:0:0:
262,201,116154,5,0,1:0:0:0:
284,251,116235,1,0,3:0:0:0:
290,306,116316,1,8,3:1:0:0:
263,354,116397,1,0,3:0:0:0:
208,365,116478,1,0,1:0:0:0:
173,351,116559,1,0,3:0:0:0:
147,324,116640,1,8,1:1:0:0:
139,287,116721,1,0,3:0:0:0:
145,250,116803,6,0,L|300:268,1,123.499994346619,12|8,0:0|0:1,0:0:0:0:
279,266,117046,1,0,3:0:0:0:
291,268,117127,1,8,0:0:0:0:
323,121,117289,1,8,1:1:0:0:
131,48,117451,5,0,3:0:0:0:
156,66,117532,1,0,3:0:0:0:
186,72,117613,1,8,1:1:0:0:
216,70,117694,1,0,3:0:0:0:
245,60,117776,1,8,0:0:0:0:
291,29,117857,1,0,0:0:0:0:
346,25,117938,1,8,1:1:0:0:
397,46,118019,1,8,0:1:0:0:
425,93,118100,6,0,L|407:248,1,123.499994346619,8|8,0:1|1:1,0:0:0:0:
409,227,118343,1,0,3:0:0:0:
407,239,118424,1,0,3:0:0:0:
323,121,118586,1,8,1:1:0:0:
278,286,118749,5,0,1:0:0:0:
278,286,118830,1,0,3:0:0:0:
278,286,118911,1,8,1:1:0:0:
111,154,119073,1,0,1:0:0:0:
107,190,119154,1,0,1:0:0:0:
103,226,119235,1,8,1:1:0:0:
98,262,119316,1,0,1:0:0:0:
95,298,119397,6,0,B|152:331|152:331|210:313,1,123.499994346619,12|8,1:0|0:1,0:0:0:0:
278,286,119640,1,8,0:1:0:0:
278,286,119721,1,8,0:0:0:0:
292,244,119803,1,0,0:0:0:0:
293,200,119884,1,8,1:1:0:0:
278,159,119965,1,0,3:0:0:0:
248,127,120046,5,0,3:0:0:0:
190,105,120127,1,0,3:0:0:0:
128,106,120208,1,8,1:1:0:0:
76,140,120289,1,0,3:0:0:0:
46,194,120370,5,8,0:0:0:0:
98,176,120451,1,0,3:0:0:0:
124,127,120532,1,8,3:1:0:0:
121,71,120613,1,0,3:0:0:0:
84,29,120694,5,0,3:0:0:0:
71,27,120776,1,0,3:0:0:0:
58,24,120857,1,8,1:1:0:0:
45,21,120938,1,0,3:0:0:0:
33,17,121019,2,0,L|44:155,1,123.499994346619,0|8,3:0|1:1,0:0:0:0:
34,215,121262,1,0,3:0:0:0:
32,221,121343,5,0,1:0:0:0:
79,207,121424,1,0,3:0:0:0:
127,195,121505,1,8,3:1:0:0:
174,183,121586,1,0,3:0:0:0:
222,174,121667,2,0,L|326:147,1,61.7499971733095,0|0,1:0|1:0,0:0:0:0:
397,77,121830,1,8,1:1:0:0:
397,77,121911,1,0,1:0:0:0:
397,77,121992,6,0,B|357:132|357:132|370:197,1,123.499994346619,4|8,1:0|1:1,0:0:0:0:
373,205,122235,1,8,0:1:0:0:
377,223,122316,1,0,1:0:0:0:
306,49,122478,1,8,0:1:0:0:
459,155,122640,5,0,1:0:0:0:
476,201,122721,1,0,3:0:0:0:
478,244,122803,1,8,1:1:0:0:
460,283,122884,1,0,3:0:0:0:
425,309,122965,2,0,L|338:298,1,61.7499971733095,8|0,0:0|3:0,0:0:0:0:
280,280,123127,1,8,1:1:0:0:
280,280,123208,1,0,1:0:0:0:
280,280,123289,6,0,L|442:300,1,123.499994346619,4|8,1:0|0:1,0:0:0:0:
186,367,123613,1,0,1:0:0:0:
160,324,123694,1,0,3:0:0:0:
152,274,123776,1,8,3:1:0:0:
161,225,123857,1,0,3:0:0:0:
196,191,123938,5,0,1:0:0:0:
171,209,124019,1,0,3:0:0:0:
141,218,124100,1,8,3:1:0:0:
110,219,124181,1,0,3:0:0:0:
80,209,124262,2,0,L|66:98,1,61.7499971733095,0|0,1:0|3:0,0:0:0:0:
49,71,124424,1,8,1:1:0:0:
49,71,124505,1,0,1:0:0:0:
49,71,124586,6,0,L|66:210,1,123.499994346619,4|8,1:0|0:1,0:0:0:0:
68,211,124830,1,8,0:1:0:0:
70,229,124911,1,0,1:0:0:0:
152,83,125073,1,8,0:1:0:0:
152,83,125154,1,0,0:0:0:0:
152,83,125235,6,0,L|234:112,1,61.7499971733095,0|0,1:0|3:0,0:0:0:0:
299,117,125397,2,0,L|357:96,1,61.7499971733095,8|0,3:1|3:0,0:0:0:0:
476,50,125559,1,0,1:0:0:0:
465,85,125640,1,0,3:0:0:0:
469,121,125721,1,8,1:1:0:0:
457,156,125803,1,0,3:0:0:0:
458,192,125884,6,0,L|376:221,1,61.7499971733095,4|0,1:0|0:0,0:0:0:0:
279,252,126046,1,0,1:0:0:0:
272,253,126127,1,8,0:1:0:0:
266,255,126208,1,0,1:0:0:0:
357,96,126370,1,0,1:0:0:0:
367,354,126532,6,0,L|338:272,1,61.7499971733095,0|0,1:0|0:0,0:0:0:0:
302,177,126694,1,0,1:0:0:0:
301,170,126775,1,8,0:1:0:0:
299,164,126856,1,0,1:0:0:0:
276,336,127019,1,0,1:0:0:0:
32,130,127181,6,0,L|114:159,1,61.7499971733095,4|0,1:0|0:0,0:0:0:0:
211,190,127343,1,0,1:0:0:0:
218,191,127424,1,8,0:1:0:0:
224,193,127505,1,0,1:0:0:0:
133,34,127667,1,0,1:0:0:0:
116,296,127830,6,0,L|145:214,1,61.7499971733095,0|0,1:0|0:0,0:0:0:0:
176,117,127992,1,0,1:0:0:0:
177,110,128073,1,8,0:1:0:0:
179,104,128154,1,0,1:0:0:0:
212,273,128316,1,0,1:0:0:0:
299,83,128478,5,0,1:0:0:0:
347,76,128559,1,0,1:0:0:0:
395,88,128640,1,0,1:0:0:0:
434,117,128721,1,0,1:0:0:0:
460,159,128802,1,0,1:0:0:0:
468,207,128883,1,0,1:0:0:0:
457,255,128964,1,0,1:0:0:0:
428,295,129045,1,0,1:0:0:0:
387,321,129126,5,0,1:0:0:0:
345,289,129208,1,0,1:0:0:0:
317,244,129289,1,0,1:0:0:0:
304,193,129370,1,0,1:0:0:0:
310,140,129451,1,0,1:0:0:0:
333,92,129532,1,0,1:0:0:0:
370,55,129613,1,0,1:0:0:0:
417,32,129694,1,0,1:0:0:0:
463,27,129776,1,0,1:0:0:0:
463,27,130100,5,4,0:0:0:0:
297,249,130262,1,4,0:0:0:0:
256,192,130343,12,0,135451,0:0:0:0:
