osu file format v14

[General]
AudioFilename: audio.mp3
AudioLeadIn: 0
PreviewTime: 44316
Countdown: 0
SampleSet: Soft
StackLeniency: 0.7
Mode: 0
LetterboxInBreaks: 0
WidescreenStoryboard: 1

[Editor]
Bookmarks: 13019,18208,33776,44154,64911,70100,88262,114208,135451
DistanceSpacing: 0.3
BeatDivisor: 4
GridSize: 4
TimelineZoom: 2.2

[Metadata]
Title:Xevel
TitleUnicode:Xevel
Artist:Tatsh
ArtistUnicode:Tatsh
Creator:Skytuna
Version:Az's EXPERT
Source:CHUNITHM STAR
Tags:Entry Azrael -_AzRaeL_- [_l_u_k_a_s_] Seolv 第四回天下一音ゲ祭 5th Tenkaichi Otogesai Electronic English TatshMusicCircle SOUND VOLTEX IV HEAVENLY HAVEN グルーヴコースター 4 スターライトロード GROOVE COASTER 4 STARLIGHT ROAD 太鼓の達人 ブルーVer. Taiko no Tatsujin Blue Version maimai MiLK PLUS -Game ver-
BeatmapID:2472592
BeatmapSetID:1174491

[Difficulty]
HPDrainRate:4.4
CircleSize:4
OverallDifficulty:8
ApproachRate:9
SliderMultiplier:1.8
SliderTickRate:1

[Events]
//Background and Video events
0,0,"asicocuk26.jpg",0,0
//Break Periods
//Storyboard Layer 0 (Background)
//Storyboard Layer 1 (Fail)
//Storyboard Layer 2 (Pass)
//Storyboard Layer 3 (Foreground)
//Storyboard Layer 4 (Overlay)
//Storyboard Sound Samples

[TimingPoints]
813,324.324324324324,4,2,0,70,1,0
11722,324.324324324324,4,2,3,70,1,0
11722,-200,4,2,3,70,0,0
12370,-100,4,2,3,70,0,0
27289,-90.9090909090909,4,2,3,70,0,0
28586,-100,4,2,3,70,0,0
33776,-125,4,2,3,70,0,0
35397,-125,4,2,0,5,0,0
35478,-125,4,2,0,70,0,0
35721,-125,4,2,0,5,0,0
35803,-125,4,2,0,70,0,0
36046,-125,4,2,0,5,0,0
36127,-125,4,2,0,70,0,0
36208,-125,4,2,3,70,0,0
37992,-125,4,2,0,5,0,0
38073,-125,4,2,0,70,0,0
38235,-125,4,2,3,70,0,0
38965,-100,4,2,3,70,0,0
44154,-90.9090909090909,4,2,3,80,0,1
63613,-66.6666666666667,4,2,3,80,0,1
64262,-83.3333333333333,4,2,3,80,0,1
64911,-125,4,2,3,70,0,0
70100,-100,4,2,3,70,0,0
87776,-100,4,2,3,5,0,0
87857,-100,4,2,3,70,0,0
87938,-100,4,2,3,5,0,0
88019,-100,4,2,3,70,0,0
88262,-90.9090909090909,4,2,3,80,0,1
114046,-100,4,2,3,70,0,0

[Colours]
Combo1 : 156,206,243
Combo2 : 233,200,253
Combo3 : 159,228,251
Combo4 : 9,117,117

[HitObjects]
120,64,11722,6,0,L|132:224,1,157.5,4|0,0:0|0:0,0:0:0:0:
135,250,12370,5,8,0:0:0:0:
135,250,12451,1,8,0:0:0:0:
135,250,12532,2,0,L|54:243,1,45,8|8,0:0|0:0,0:0:0:0:
216,204,12694,1,8,0:0:0:0:
216,204,12775,1,8,0:0:0:0:
216,204,12856,2,0,L|296:197,1,45,8|8,0:0|0:0,0:0:0:0:
304,303,13019,6,0,L|190:294,1,90,4|8,1:0|0:1,0:0:0:0:
352,222,13343,1,8,0:0:0:0:
399,305,13505,1,8,0:1:0:0:
441,216,13667,2,0,L|351:222,1,90,0|8,1:0|0:1,0:0:0:0:
234,54,13992,2,0,B|278:94|278:94|262:190,1,135,8|0,0:0|0:0,0:0:0:0:
260,200,14316,6,0,L|170:193,1,90,0|8,1:0|0:1,0:0:0:0:
365,133,14640,2,0,L|350:223,1,90,8|8,0:0|0:1,0:0:0:0:
313,381,14965,1,0,1:0:0:0:
286,291,15127,1,8,0:1:0:0:
377,312,15289,1,8,0:0:0:0:
222,360,15451,1,8,1:1:0:0:
260,200,15613,6,0,P|192:208|152:184,1,90,0|8,1:0|0:1,0:0:0:0:
171,41,15938,2,0,P|183:83|214:115,1,90,8|8,0:0|0:1,0:0:0:0:
353,42,16262,2,0,L|264:36,1,90,0|8,1:0|0:1,0:0:0:0:
105,136,16586,1,8,0:0:0:0:
105,136,16749,1,8,1:1:0:0:
171,41,16911,5,0,1:0:0:0:
171,41,17559,1,8,0:0:0:0:
171,41,17640,1,8,0:0:0:0:
171,41,17721,2,0,L|178:114,1,45,8|8,0:0|0:0,0:0:0:0:
242,152,17884,1,8,0:0:0:0:
242,152,17965,1,8,0:0:0:0:
242,152,18046,2,0,L|235:225,1,45,8|8,0:0|0:0,0:0:0:0:
141,265,18208,6,0,L|149:176,1,90,4|8,1:0|3:1,0:0:0:0:
175,85,18451,1,0,3:0:0:0:
175,85,18532,2,0,L|86:77,1,90,8|8,0:0|3:1,0:0:0:0:
242,152,18857,1,0,1:0:0:0:
264,149,18938,1,0,3:0:0:0:
286,147,19019,1,8,3:1:0:0:
309,145,19100,1,0,3:0:0:0:
331,143,19181,2,0,L|392:148,2,45,8|0|8,0:0|0:0|0:1,0:0:0:0:
216,242,19505,6,0,L|260:238,3,45,0|0|8|0,1:0|3:0|3:1|3:0,0:0:0:0:
136,292,19830,2,0,L|17:281,1,90,8|8,0:0|3:1,0:0:0:0:
123,107,20154,1,0,1:0:0:0:
125,129,20235,1,0,3:0:0:0:
127,152,20316,1,8,3:1:0:0:
129,174,20397,1,0,3:0:0:0:
132,197,20478,2,0,L|55:190,3,45,8|0|8|0,0:0|3:0|3:1|3:0,0:0:0:0:
216,242,20803,5,0,1:0:0:0:
213,264,20884,1,0,3:0:0:0:
211,286,20965,1,8,3:1:0:0:
313,359,21127,2,0,L|305:270,1,90,8|8,0:0|3:1,0:0:0:0:
289,134,21451,2,0,L|285:179,1,45,0|0,1:0|0:0,0:0:0:0:
374,208,21613,2,0,L|378:163,1,45,8|0,0:1|0:0,0:0:0:0:
359,72,21776,1,8,0:0:0:0:
359,72,21857,1,0,0:0:0:0:
359,72,21938,1,8,1:1:0:0:
201,105,22100,6,0,L|132:100,3,45,0|0|8|0,1:0|3:0|3:1|3:0,0:0:0:0:
76,152,22424,2,0,L|31:155,3,45,8|0|8|0,0:0|3:0|3:1|3:0,0:0:0:0:
156,239,22749,2,0,L|159:194,1,45,8|0,1:1|0:0,0:0:0:0:
201,105,22911,2,0,L|197:60,1,45,8|0,1:1|0:0,0:0:0:0:
346,178,23073,1,0,1:1:0:0:
324,180,23154,1,0,1:0:0:0:
301,181,23235,1,8,1:1:0:0:
279,183,23316,1,0,1:0:0:0:
257,185,23397,6,0,L|250:274,1,90,4|8,1:0|0:1,0:0:0:0:
320,336,23640,1,0,3:0:0:0:
320,336,23721,2,0,P|372:332|416:296,1,90,8|8,0:0|3:1,0:0:0:0:
257,185,24046,2,0,L|168:192,1,90,0|8,1:0|3:1,0:0:0:0:
84,236,24289,1,0,3:0:0:0:
84,236,24370,2,0,L|39:232,3,45,8|0|8|0,0:0|3:0|3:1|3:0,0:0:0:0:
164,286,24694,5,0,1:0:0:0:
164,286,24776,1,0,3:0:0:0:
164,286,24857,1,8,3:1:0:0:
84,149,25019,2,0,P|74:192|84:236,1,90,8|8,0:0|0:1,0:0:0:0:
253,278,25343,2,0,L|164:285,1,90,0|8,1:0|3:1,0:0:0:0:
80,330,25586,1,0,3:0:0:0:
80,330,25667,2,0,L|35:326,3,45,8|0|8|0,0:0|3:0|1:1|3:0,0:0:0:0:
170,374,25992,6,0,L|163:284,1,90,0|8,1:0|3:1,0:0:0:0:
167,192,26316,1,8,0:0:0:0:
245,243,26478,1,8,3:1:0:0:
84,236,26640,2,0,B|72:192|72:192|88:136,1,90,0|8,1:0|3:1,0:0:0:0:
251,63,26965,1,8,0:0:0:0:
251,63,27046,2,0,B|263:107|263:107|247:163,1,90,0|0,3:0|3:0,0:0:0:0:
250,149,27289,6,0,L|404:140,1,148.50000453186,4|0,1:0|0:0,0:0:0:0:
427,160,27613,2,0,L|278:168,1,148.50000453186,4|0,1:0|0:0,0:0:0:0:
226,247,27938,1,0,1:0:0:0:
226,247,28019,1,0,1:0:0:0:
226,247,28100,1,0,1:0:0:0:
268,331,28262,1,0,1:0:0:0:
278,168,28424,1,0,1:0:0:0:
132,241,28586,5,4,1:0:0:0:
109,243,28667,1,0,3:0:0:0:
86,245,28749,1,8,3:1:0:0:
177,72,28911,2,0,L|185:184,1,90,8|8,0:0|3:1,0:0:0:0:
268,331,29235,2,0,P|208:340|160:312,1,90,0|8,1:0|3:1,0:0:0:0:
321,253,29559,2,0,L|365:249,2,45,8|0|8,0:0|3:0|3:1,0:0:0:0:
226,247,29884,5,0,1:0:0:0:
226,247,29965,1,0,3:0:0:0:
226,247,30046,2,0,L|232:157,1,90,8|8,3:1|0:0,0:0:0:0:
235,126,30289,1,0,3:0:0:0:
235,126,30370,1,8,3:1:0:0:
319,85,30532,2,0,L|359:65,2,45,0|8|8,1:0|0:0|3:1,0:0:0:0:
158,74,30857,2,0,L|120:48,2,45,8|8|8,0:0|0:0|3:1,0:0:0:0:
228,218,31181,6,0,L|224:263,1,45,0|0,1:0|3:0,0:0:0:0:
222,294,31343,1,8,3:1:0:0:
152,166,31505,2,0,L|140:209,1,45,8|0,0:0|0:0,0:0:0:0:
132,239,31667,1,8,1:1:0:0:
313,179,31830,2,0,L|316:224,1,45,0|0,1:0|3:0,0:0:0:0:
319,255,31992,1,8,3:1:0:0:
389,127,32154,2,0,L|399:170,1,45,8|0,0:0|0:0,0:0:0:0:
408,200,32316,1,8,1:1:0:0:
235,126,32478,6,0,L|242:22,2,90,8|8|8,0:0|0:0|0:0,0:0:0:0:
235,126,33127,1,8,1:0:0:0:
235,126,33208,1,8,0:0:0:0:
235,126,33289,2,0,L|238:171,1,45,8|0,0:0|0:0,0:0:0:0:
200,257,33451,1,8,0:0:0:0:
200,257,33532,1,8,0:0:0:0:
200,257,33613,2,0,L|196:302,1,45,8|8,0:0|0:0,0:0:0:0:
289,317,33776,6,0,L|294:245,1,72,6|2,1:0|0:0,0:0:0:0:
332,158,34100,2,0,L|327:86,1,72,2|2,0:0|0:0,0:0:0:0:
277,6,34424,1,2,0:0:0:0:
233,90,34586,2,0,L|197:85,2,36,2|2|2,0:0|0:0|0:0,0:0:0:0:
327,86,34911,1,2,0:0:0:0:
371,2,35073,1,2,0:0:0:0:
289,317,36208,5,2,0:0:0:0:
289,317,36289,1,2,0:0:0:0:
289,317,36370,2,0,L|188:324,1,72,2|2,0:0|0:0,0:0:0:0:
126,297,36694,1,2,0:0:0:0:
58,363,36857,1,2,0:0:0:0:
102,206,37019,1,2,0:0:0:0:
192,230,37181,2,0,L|240:226,2,36,2|2|2,0:0|0:0|0:0,0:0:0:0:
126,297,37505,1,2,0:0:0:0:
34,272,37667,1,2,0:0:0:0:
96,104,38316,6,0,L|88:40,3,36,8|8|8|8,0:0|0:0|0:0|0:0,0:0:0:0:
188,88,38640,2,0,L|196:24,3,36,8|8|8|8,0:0|0:0|0:0|0:0,0:0:0:0:
156,176,38965,6,0,L|266:162,1,90,0|0,1:0|3:0,0:0:0:0:
162,271,39289,2,0,L|51:257,1,90,0|0,1:0|3:0,0:0:0:0:
61,170,39613,2,0,L|74:280,1,90,0|0,3:0|3:0,0:0:0:0:
243,348,39938,2,0,L|255:259,1,90,0|0,3:0|3:0,0:0:0:0:
264,80,40262,6,0,P|244:122|246:168,1,90,0|0,1:0|3:0,0:0:0:0:
398,199,40505,1,0,3:0:0:0:
398,199,40586,2,0,P|371:160|330:139,1,90,4|0,1:0|1:0,0:0:0:0:
160,182,40911,2,0,P|200:162|244:164,1,90,0|0,1:0|3:0,0:0:0:0:
290,316,41235,2,0,P|309:275|308:231,1,90,0|0,1:0|1:0,0:0:0:0:
148,92,41478,1,0,1:0:0:0:
148,92,41559,6,0,L|162:201,1,90,4|0,1:0|1:0,0:0:0:0:
218,255,41884,1,0,1:0:0:0:
125,270,42046,1,0,1:0:0:0:
252,166,42208,2,0,L|361:180,1,90,0|0,1:0|1:0,0:0:0:0:
229,344,42532,2,0,L|217:254,1,90,0|0,1:0|1:0,0:0:0:0:
159,181,42857,6,0,L|164:136,3,45,0|0|0|0,1:0|1:0|1:0|1:0,0:0:0:0:
64,196,43181,2,0,L|58:151,3,45,0|0|0|0,1:0|1:0|1:0|1:0,0:0:0:0:
125,270,43505,2,0,L|273:250,2,135,4|4|4,1:0|1:0|1:0,0:0:0:0:
64,196,44073,1,0,1:0:0:0:
64,196,44154,6,0,L|82:39,1,148.50000453186,6|8,1:0|0:1,0:0:0:0:
85,14,44478,2,0,L|183:2,1,99.0000030212403,8|8,0:0|0:1,0:0:0:0:
352,119,44803,2,0,L|204:102,1,148.50000453186,2|8,1:0|0:1,0:0:0:0:
170,97,45127,1,8,0:0:0:0:
101,266,45289,1,8,1:1:0:0:
165,195,45451,6,0,P|72:176|12:244,1,148.50000453186,2|8,1:0|0:1,0:0:0:0:
14,233,45776,1,8,0:0:0:0:
101,266,45938,1,8,0:1:0:0:
170,97,46100,2,0,L|164:219,1,99.0000030212403,2|8,1:0|0:1,0:0:0:0:
263,119,46424,2,0,L|257:241,1,99.0000030212403,10|8,0:0|1:1,0:0:0:0:
194,288,46749,5,2,1:0:0:0:
165,195,46911,1,8,0:1:0:0:
287,310,47073,2,0,L|385:305,1,99.0000030212403,8|8,0:0|0:1,0:0:0:0:
258,217,47397,1,0,1:0:0:0:
194,288,47559,1,8,0:1:0:0:
66,200,47721,2,0,L|164:195,1,99.0000030212403,8|8,0:0|0:1,0:0:0:0:
258,217,48046,6,0,P|248:132|292:80,1,148.50000453186,2|8,1:0|0:1,0:0:0:0:
316,71,48370,2,0,L|212:59,1,99.0000030212403,8|8,0:0|0:1,0:0:0:0:
336,164,48694,1,0,1:0:0:0:
387,8,48857,1,8,1:1:0:0:
427,194,49019,1,0,1:0:0:0:
478,38,49181,1,8,1:1:0:0:
355,257,49343,6,0,P|424:288|516:232,1,148.50000453186,6|8,1:0|0:1,0:0:0:0:
510,238,49667,2,0,L|500:96,1,99.0000030212403,8|8,0:0|0:1,0:0:0:0:
336,164,49992,2,0,L|322:354,1,148.50000453186,2|8,1:0|0:1,0:0:0:0:
321,345,50316,1,8,0:0:0:0:
427,194,50478,1,8,1:1:0:0:
210,208,50640,6,0,P|291:209|343:135,1,148.50000453186,2|8,1:0|0:1,0:0:0:0:
346,130,50965,2,0,L|332:12,1,99.0000030212403,8|8,0:0|0:1,0:0:0:0:
152,111,51289,2,0,L|270:125,1,99.0000030212403,2|8,1:0|0:1,0:0:0:0:
111,196,51613,2,0,L|229:210,1,99.0000030212403,10|8,0:0|1:1,0:0:0:0:
193,26,51938,6,0,L|25:45,1,148.50000453186,2|8,1:0|0:1,0:0:0:0:
11,48,52262,2,0,P|-1:83|24:156,1,99.0000030212403,8|8,0:0|0:1,0:0:0:0:
79,325,52586,2,0,P|122:266|110:195,1,148.50000453186,2|0,1:0|0:0,0:0:0:0:
87,169,52911,2,0,L|217:183,1,99.0000030212403,8|8,0:0|0:1,0:0:0:0:
277,191,53235,5,2,1:0:0:0:
148,94,53397,1,8,1:1:0:0:
332,116,53559,1,8,1:0:0:0:
185,180,53721,1,8,1:1:0:0:
245,56,53884,1,8,0:0:0:0:
245,56,53965,1,8,0:0:0:0:
245,56,54046,2,0,L|237:136,1,49.5000015106202,8|8,0:1|0:0,0:0:0:0:
277,191,54208,1,8,0:0:0:0:
277,191,54289,1,8,0:0:0:0:
277,191,54370,2,0,L|285:271,1,49.5000015106202,8|8,0:1|0:0,0:0:0:0:
229,319,54532,6,0,P|301:265|383:296,1,148.50000453186,6|8,1:0|0:1,0:0:0:0:
385,289,54857,2,0,P|456:299|509:258,1,99.0000030212403,8|8,0:0|0:1,0:0:0:0:
458,53,55181,2,0,B|410:85|410:85|430:209,1,148.50000453186,2|0,1:0|0:0,0:0:0:0:
432,208,55505,1,8,0:0:0:0:
511,130,55667,1,8,0:1:0:0:
320,144,55830,6,0,L|160:132,1,148.50000453186,2|0,1:0|0:0,0:0:0:0:
137,129,56154,2,0,P|161:171|159:220,1,99.0000030212403,8|8,0:0|0:1,0:0:0:0:
2,258,56478,2,0,P|26:215|69:192,1,99.0000030212403,2|8,1:0|0:1,0:0:0:0:
115,373,56803,2,0,P|90:331|92:283,1,99.0000030212403,10|8,0:0|1:1,0:0:0:0:
280,299,57127,6,0,L|182:308,1,99.0000030212403,2|8,1:0|0:1,0:0:0:0:
68,192,57451,1,8,0:0:0:0:
92,282,57613,1,8,0:1:0:0:
137,129,57776,2,0,P|161:171|159:220,1,99.0000030212403,0|8,1:0|0:1,0:0:0:0:
48,101,58100,1,8,0:0:0:0:
117,38,58262,1,8,1:1:0:0:
291,107,58424,6,0,P|202:159|137:129,1,148.50000453186,2|8,1:0|0:1,0:0:0:0:
137,129,58749,1,8,0:0:0:0:
206,66,58911,1,8,0:1:0:0:
253,258,59073,1,8,0:2:0:0:
253,258,59154,1,8,0:0:0:0:
253,258,59235,2,0,L|331:252,1,49.5000015106202,8|8,2:2|0:0,0:0:0:0:
379,200,59397,1,8,0:0:0:0:
379,200,59478,1,8,0:0:0:0:
379,200,59559,2,0,L|428:203,1,49.5000015106202,8|8,0:0|0:0,0:0:0:0:
291,107,59721,6,0,L|302:255,1,148.50000453186,6|8,1:0|0:1,0:0:0:0:
305,290,60046,2,0,P|261:292|210:265,1,99.0000030212403,8|8,0:0|0:1,0:0:0:0:
150,337,60370,2,0,P|125:301|123:242,1,99.0000030212403,0|8,1:0|0:1,0:0:0:0:
187,179,60694,1,8,0:0:0:0:
30,224,60857,1,8,1:1:0:0:
144,88,61019,6,0,B|204:84|204:84|232:96|232:96|319:91,1,148.50000453186,2|8,1:0|0:1,0:0:0:0:
325,91,61343,2,0,P|311:153|338:204,1,99.0000030212403,8|8,0:0|0:1,0:0:0:0:
503,148,61667,2,0,L|404:140,1,99.0000030212403,0|8,1:0|0:1,0:0:0:0:
318,276,61992,1,8,0:0:0:0:
401,233,62154,1,8,1:1:0:0:
241,227,62316,6,0,L|51:243,1,148.50000453186,2|8,1:0|0:1,0:0:0:0:
58,243,62640,2,0,P|46:289|61:336,1,99.0000030212403,8|8,0:0|0:1,0:0:0:0:
241,227,62965,2,0,P|252:180|237:133,1,99.0000030212403,0|8,1:0|0:1,0:0:0:0:
141,286,63289,1,8,0:0:0:0:
141,286,63451,1,8,1:1:0:0:
318,276,63613,6,0,B|347:253|384:256|384:256|524:266|524:396|384:412|384:256|384:256|384:196|412:149,1,472.500018024445,2|0,1:0|0:0,0:0:0:0:
422,85,64262,2,0,L|428:15,3,53.9999983520508,2|0|8|0,1:0|1:0|1:1|1:0,0:0:0:0:
331,110,64586,2,0,L|325:40,3,53.9999983520508,0|0|0|0,1:0|0:0|0:0|0:0,0:0:0:0:
398,176,64911,6,0,P|372:196|308:200,1,72,4|0,1:0|0:0,0:0:0:0:
274,69,65235,2,0,P|304:81|339:134,1,72,8|0,0:0|1:0,0:0:0:0:
330,109,65721,1,0,1:0:0:0:
244,230,65884,2,0,P|239:197|268:140,1,72,8|0,0:0|0:0,0:0:0:0:
250,160,66370,5,0,1:0:0:0:
160,152,66532,2,0,L|76:144,1,72,8|0,0:0|1:0,0:0:0:0:
0,245,66857,2,0,L|84:237,1,72,0|0,1:0|1:0,0:0:0:0:
124,57,67181,2,0,L|52:50,1,72,8|0,0:0|0:0,0:0:0:0:
160,152,67505,6,0,L|244:144,1,72,0|0,1:0|0:0,0:0:0:0:
308,92,67830,2,0,L|379:98,1,72,8|0,0:0|1:0,0:0:0:0:
379,98,68316,1,0,1:0:0:0:
224,52,68478,1,8,0:0:0:0:
224,52,68640,1,0,0:0:0:0:
315,185,68803,5,0,1:0:0:0:
315,185,69776,1,8,0:0:0:0:
314,202,69857,1,8,0:0:0:0:
313,220,69938,1,8,0:0:0:0:
312,238,70019,1,8,0:0:0:0:
312,256,70100,6,0,P|216:236|188:176,1,135,6|8,1:0|0:1,0:0:0:0:
188,181,70424,1,8,0:1:0:0:
374,184,70586,2,0,P|404:236|381:322,1,135,2|8,1:0|0:1,0:0:0:0:
369,330,70911,1,8,0:1:0:0:
281,167,71073,2,0,P|318:107|397:91,1,135,2|8,1:0|0:1,0:0:0:0:
408,95,71397,1,8,0:1:0:0:
312,256,71559,2,0,P|216:236|188:176,1,135,2|0,1:0|0:0,0:0:0:0:
188,181,71883,1,0,1:0:0:0:
374,184,72046,6,0,L|448:176,3,45,2|0|0|0,1:0|1:0|1:0|1:0,0:0:0:0:
406,274,72370,2,0,L|450:278,3,45,8|0|0|0,0:0|0:0|0:0|0:0,0:0:0:0:
312,256,72694,6,0,L|322:352,2,90,6|8|8,1:0|0:1|0:1,0:0:0:0:
218,238,73181,2,0,L|207:334,2,90,2|8|8,1:0|0:1|0:1,0:0:0:0:
374,184,73667,2,0,P|400:224|404:280,2,90,2|8|8,1:0|0:1|0:1,0:0:0:0:
186,147,74154,2,0,P|145:179|125:229,2,90,2|0|0,1:0|1:0|1:0,0:0:0:0:
296,76,74640,5,2,0:0:0:0:
294,87,74721,1,2,0:0:0:0:
292,98,74802,1,2,0:0:0:0:
290,109,74883,1,2,0:0:0:0:
288,120,74964,1,2,0:0:0:0:
286,131,75045,1,2,0:0:0:0:
284,142,75126,1,2,0:0:0:0:
282,153,75207,1,2,0:0:0:0:
280,165,75289,6,0,P|214:129|195:58,1,135,6|8,1:0|0:1,0:0:0:0:
199,43,75613,1,8,0:1:0:0:
134,174,75776,2,0,P|131:99|184:47,1,135,2|8,1:0|0:1,0:0:0:0:
199,43,76100,1,8,0:1:0:0:
211,229,76262,2,0,P|147:267|76:247,1,135,2|8,1:0|0:1,0:0:0:0:
65,238,76586,1,8,0:1:0:0:
147,361,76749,2,0,P|81:325|62:254,1,135,2|0,1:0|0:0,0:0:0:0:
65,238,77073,1,0,1:0:0:0:
134,174,77235,5,2,1:0:0:0:
448,273,77559,2,0,P|450:297|445:321,1,45,2|2,1:0|0:0,0:0:0:0:
354,335,77721,2,0,P|352:311|357:287,1,45,2|2,1:0|0:0,0:0:0:0:
296,218,77884,6,0,P|237:215|183:260,2,90,6|8|8,1:0|0:1|0:0,0:0:0:0:
388,201,78370,2,0,P|361:149|295:125,2,90,10|0|8,0:1|1:0|0:1,0:0:0:0:
448,273,78857,2,0,P|479:223|467:154,1,90,10|8,0:0|1:1,0:0:0:0:
447,106,79181,5,6,1:0:0:0:
507,33,79343,1,8,0:1:0:0:
353,90,79505,1,8,0:0:0:0:
413,17,79667,1,8,0:1:0:0:
260,75,79830,2,0,L|188:67,3,45,0|0|8|0,1:0|3:0|3:1|3:0,0:0:0:0:
293,163,80154,2,0,L|248:167,3,45,8|0|8|0,0:0|3:0|1:1|3:0,0:0:0:0:
353,90,80478,6,0,P|381:128|383:191,1,90,6|8,1:0|0:1,0:0:0:0:
260,75,80803,2,0,P|278:31|332:-1,1,90,10|8,0:0|0:1,0:0:0:0:
473,179,81127,2,0,P|426:184|370:154,1,90,2|8,1:0|0:1,0:0:0:0:
440,91,81451,2,0,L|444:15,3,45,2|2|10|2,1:0|0:0|1:1|0:0,0:0:0:0:
387,168,81776,6,0,L|392:275,1,90,6|8,1:0|1:0,0:0:0:0:
364,348,82100,1,10,0:0:0:0:
456,328,82262,1,0,1:0:0:0:
300,278,82424,2,0,P|276:316|276:380,1,90,10|0,0:0|1:0,0:0:0:0:
391,257,82749,1,10,0:0:0:0:
383,236,82830,1,2,0:0:0:0:
370,218,82911,1,2,0:0:0:0:
354,203,82992,1,2,0:0:0:0:
334,192,83073,6,0,L|206:200,1,90,14|0,0:0|1:0,0:0:0:0:
80,208,83397,1,10,0:0:0:0:
159,156,83559,1,2,1:0:0:0:
241,290,83721,2,0,P|198:279|166:249,1,90,10|2,0:0|1:0,0:0:0:0:
216,81,84046,2,0,B|257:118|257:118|236:237,1,135,10|8,0:0|0:0,0:0:0:0:
243,196,84370,6,0,B|312:160|376:176|376:176|552:216|456:389|296:324|376:176|376:176|429:87|376:27,1,675,14|10,0:0|0:0,0:0:0:0:
375,26,85667,6,0,B|324:-2|267:18|243:71|243:71|220:124|156:144|103:111,1,315,6|2,0:0|0:0,0:0:0:0:
110,115,86316,2,0,L|42:123,3,45,2|0|0|0,0:0|0:0|0:0|0:0,0:0:0:0:
157,33,86640,2,0,L|112:27,3,45
358,221,87613,6,0,P|352:177|368:135,1,90,0|0,1:0|0:0,0:0:0:0:
390,113,87857,2,0,L|434:105,1,45,0|0,1:0|0:0,0:0:0:0:
445,189,88019,2,0,L|513:200,2,45,0|0|0,1:0|1:0|1:0,0:0:0:0:
358,221,88262,6,0,P|280:208|212:284,1,148.50000453186,6|0,1:0|1:0,0:0:0:0:
213,278,88586,2,0,P|264:304|336:280,1,99.0000030212403,8|0,0:0|1:0,0:0:0:0:
212,135,88911,2,0,B|155:140|155:140|129:161|129:161|35:169,1,148.50000453186,2|0,1:0|1:0,0:0:0:0:
37,168,89235,2,0,P|28:112|60:48,1,99.0000030212403,8|0,0:0|1:0,0:0:0:0:
264,56,89559,6,0,B|312:88|312:88|296:220,1,148.50000453186,2|0,1:0|1:0,0:0:0:0:
297,213,89884,1,8,0:0:0:0:
388,196,90046,1,2,1:0:0:0:
212,135,90208,2,0,L|200:233,1,99.0000030212403,0|0,1:0|1:0,0:0:0:0:
399,294,90532,2,0,L|387:195,1,99.0000030212403,10|0,0:0|1:0,0:0:0:0:
172,323,90857,6,0,P|221:325|264:302,1,99.0000030212403,2|0,1:0|1:0,0:0:0:0:
200,233,91181,1,8,0:0:0:0:
109,254,91343,1,0,1:0:0:0:
356,286,91505,2,0,P|336:241|296:212,1,99.0000030212403,0|0,1:0|1:0,0:0:0:0:
232,145,91830,2,0,P|280:120|341:128,1,99.0000030212403,8|0,0:0|1:0,0:0:0:0:
200,233,92154,6,0,L|188:52,1,148.50000453186,2|0,1:0|1:0,0:0:0:0:
188,51,92478,2,0,P|140:26|79:34,1,99.0000030212403,8|0,0:0|1:0,0:0:0:0:
56,187,92803,1,8,1:2:0:0:
4,5,92965,1,8,1:2:0:0:
188,51,93127,1,8,0:2:0:0:
30,96,93289,1,8,1:2:0:0:
96,273,93451,6,0,P|144:219|142:147,1,148.50000453186,14|0,1:2|1:0,0:0:0:0:
122,119,93776,2,0,P|148:136|252:124,1,99.0000030212403,8|0,0:0|1:0,0:0:0:0:
440,93,94100,2,0,P|374:122|307:95,1,148.50000453186,2|0,1:0|1:0,0:0:0:0:
280,74,94424,2,0,P|254:57|150:69,1,99.0000030212403,8|0,0:0|1:0,0:0:0:0:
181,297,94749,6,0,B|229:269|229:269|213:129,1,148.50000453186,2|0,1:0|1:0,0:0:0:0:
214,142,95073,1,8,0:0:0:0:
129,219,95235,1,2,1:0:0:0:
327,302,95397,2,0,L|315:204,1,99.0000030212403,0|0,1:0|1:0,0:0:0:0:
86,302,95721,2,0,P|102:348|139:382,1,99.0000030212403,10|0,0:0|1:0,0:0:0:0:
124,65,96046,6,0,B|77:122|77:122|103:192,1,148.50000453186,2|0,1:0|1:0,0:0:0:0:
129,219,96370,2,0,P|80:209|31:227,1,99.0000030212403,8|0,0:0|1:0,0:0:0:0:
181,297,96694,2,0,P|214:259|200:156,1,148.50000453186,2|0,1:0|1:0,0:0:0:0:
184,141,97019,2,0,L|296:148,1,99.0000030212403,8|0,0:0|1:0,0:0:0:0:
438,190,97343,5,10,1:0:0:0:
308,58,97505,1,8,1:0:0:0:
348,214,97667,1,8,1:0:0:0:
398,34,97830,1,8,1:0:0:0:
414,281,97992,1,8,0:0:0:0:
438,284,98073,1,8,0:0:0:0:
462,281,98154,1,8,0:0:0:0:
485,271,98235,1,8,0:0:0:0:
505,256,98316,1,8,0:0:0:0:
373,124,98478,1,8,0:0:0:0:
323,305,98640,6,0,P|264:256|260:184,1,148.50000453186,6|0,1:0|1:0,0:0:0:0:
274,157,98965,1,8,0:0:0:0:
348,214,99127,1,0,1:0:0:0:
141,292,99289,2,0,L|309:304,1,148.50000453186,2|0,1:0|1:0,0:0:0:0:
323,305,99613,1,8,0:0:0:0:
274,157,99776,1,0,1:0:0:0:
452,98,99938,6,0,P|434:180|371:215,1,148.50000453186,2|0,1:0|1:0,0:0:0:0:
348,214,100262,1,8,0:0:0:0:
360,121,100424,1,2,1:0:0:0:
163,242,100586,2,0,L|285:250,1,99.0000030212403,0|0,1:0|1:0,0:0:0:0:
360,121,100911,1,10,0:0:0:0:
274,157,101073,1,0,1:0:0:0:
335,307,101235,6,0,P|354:261|347:213,1,99.0000030212403,2|0,1:0|1:0,0:0:0:0:
286,63,101559,1,8,0:0:0:0:
360,121,101721,1,0,1:0:0:0:
199,99,101884,2,0,P|229:138|274:156,1,99.0000030212403,0|0,1:0|1:0,0:0:0:0:
374,28,102208,1,8,0:0:0:0:
286,63,102370,1,0,1:0:0:0:
448,86,102532,5,2,1:0:0:0:
346,214,102694,1,0,1:0:0:0:
286,63,102857,1,8,0:0:0:0:
434,179,103019,1,0,1:0:0:0:
273,156,103181,1,8,0:0:0:0:
273,156,103262,1,8,0:0:0:0:
273,156,103343,2,0,L|188:164,1,49.5000015106202,8|8,0:0|0:0,0:0:0:0:
141,206,103505,1,8,0:0:0:0:
141,206,103586,1,8,0:0:0:0:
141,206,103668,2,0,L|91:201,1,49.5000015106202,8|8,0:0|0:0,0:0:0:0:
238,308,103830,6,0,L|223:160,1,148.50000453186,14|0,1:2|1:0,0:0:0:0:
219,126,104154,2,0,P|136:112|116:92,1,99.0000030212403,8|0,0:0|1:0,0:0:0:0:
283,57,104478,2,0,P|312:108|300:172,1,99.0000030212403,0|0,1:0|1:0,0:0:0:0:
191,36,104803,1,8,0:0:0:0:
402,132,104965,1,0,1:0:0:0:
401,157,105046,1,0,0:0:0:0:
399,182,105127,6,0,P|313:241|246:216,1,148.50000453186,2|0,1:0|1:0,0:0:0:0:
246,216,105451,1,8,0:0:0:0:
310,146,105613,1,0,1:0:0:0:
253,314,105776,2,0,L|245:210,1,99.0000030212403,0|0,1:0|1:0,0:0:0:0:
127,105,106100,2,0,P|129:154|155:196,1,99.0000030212403,8|0,0:0|1:0,0:0:0:0:
363,67,106424,6,0,P|259:66|218:126,1,148.50000453186,2|0,1:0|1:0,0:0:0:0:
218,126,106749,2,0,L|208:0,1,99.0000030212403,8|0,0:0|1:0,0:0:0:0:
452,36,107073,2,0,L|444:134,1,99.0000030212403,0|0,1:0|1:0,0:0:0:0:
317,244,107397,2,0,L|309:145,1,99.0000030212403,8|0,0:0|1:0,0:0:0:0:
446,274,107721,6,0,P|380:230|294:264,1,148.50000453186,2|0,1:0|1:0,0:0:0:0:
288,264,108046,2,0,P|214:267|168:231,1,99.0000030212403,8|0,0:0|1:0,0:0:0:0:
161,58,108370,2,0,B|153:166|153:166|107:207,1,148.50000453186,2|0,1:0|1:0,0:0:0:0:
98,217,108694,2,0,L|105:316,1,99.0000030212403,8|0,0:0|1:0,0:0:0:0:
246,179,109019,6,0,L|253:80,1,99.0000030212403,6|8,1:0|0:1,0:0:0:0:
433,178,109343,2,0,P|382:200|313:180,1,99.0000030212403,8|8,0:0|0:1,0:0:0:0:
364,7,109667,2,0,L|371:106,1,99.0000030212403,0|8,1:0|0:1,0:0:0:0:
186,251,109992,2,0,P|237:273|306:253,1,99.0000030212403,8|8,0:0|0:1,0:0:0:0:
153,162,110316,6,0,B|110:187|110:187|93:233,1,99.0000030212403,0|8,1:0|0:1,0:0:0:0:
340,194,110640,2,0,B|372:232|372:232|373:303,1,99.0000030212403,8|8,0:0|0:1,0:0:0:0:
151,343,110965,2,0,L|185:250,1,99.0000030212403,0|8,1:0|0:1,0:0:0:0:
280,366,111289,2,0,L|278:249,1,99.0000030212403,8|8,0:0|0:1,0:0:0:0:
262,87,111613,5,2,1:0:0:0:
262,87,111776,1,8,0:1:0:0:
246,179,111938,5,8,0:0:0:0:
246,179,112100,1,8,0:1:0:0:
351,56,112262,5,8,0:0:0:0:
173,118,112424,1,8,0:0:0:0:
190,25,112586,5,8,0:0:0:0:
333,148,112748,1,8,0:0:0:0:
159,210,112911,6,0,L|104:192,3,49.5000015106202,8|8|8|8,0:0|0:0|0:0|0:0,0:0:0:0:
319,240,113235,2,0,L|376:237,3,49.5000015106202,8|8|8|8,0:0|0:0|0:0|0:0,0:0:0:0:
234,252,113559,5,8,0:0:0:0:
236,240,113640,1,8,0:0:0:0:
238,228,113721,1,8,0:0:0:0:
240,216,113802,1,8,0:0:0:0:
242,203,113883,1,8,0:0:0:0:
244,191,113964,1,8,0:0:0:0:
246,179,114045,1,12,0:0:0:0:
246,179,114532,5,4,1:0:0:0:
262,87,114694,1,8,1:1:0:0:
416,124,114857,2,0,P|377:147|333:148,1,90,0|8,3:0|1:1,0:0:0:0:
444,33,115181,2,0,P|482:55|505:93,1,90,8|8,0:0|0:1,0:0:0:0:
351,56,115505,6,0,L|356:-4,3,45,8|0|8|0,0:1|0:0|1:1|3:0,0:0:0:0:
262,87,115830,2,0,L|257:27,3,45,0|0|8|0,1:0|3:0|1:1|3:0,0:0:0:0:
333,148,116154,2,0,L|325:237,1,90,0|8,1:0|3:1,0:0:0:0:
408,382,116478,2,0,L|400:292,1,90,0|8,1:0|1:1,0:0:0:0:
224,338,116803,6,0,L|314:330,1,90,12|8,0:0|0:1,0:0:0:0:
410,199,117127,1,8,0:0:0:0:
410,199,117208,1,0,3:0:0:0:
410,199,117289,1,8,1:1:0:0:
489,300,117451,2,0,L|399:292,1,90,0|8,3:0|1:1,0:0:0:0:
324,237,117694,1,0,3:0:0:0:
324,237,117776,2,0,L|234:245,1,90,8|8,0:0|1:1,0:0:0:0:
69,320,118100,6,0,P|112:310|146:281,1,90,8|8,0:1|1:1,0:0:0:0:
79,132,118424,1,0,3:0:0:0:
156,187,118586,1,8,1:1:0:0:
165,97,118749,2,0,L|156:186,1,90,0|8,1:0|1:1,0:0:0:0:
70,226,118992,1,0,3:0:0:0:
70,226,119073,2,0,L|14:231,3,45,0|0|8|0,1:0|1:0|1:1|1:0,0:0:0:0:
146,280,119397,6,0,L|235:289,1,90,12|8,1:0|0:1,0:0:0:0:
320,250,119721,2,0,L|409:241,1,90,8|8,0:0|1:1,0:0:0:0:
253,106,120046,2,0,L|244:195,1,90,0|8,3:0|1:1,0:0:0:0:
330,340,120370,1,8,0:0:0:0:
327,317,120451,1,0,3:0:0:0:
325,295,120532,1,8,3:1:0:0:
323,272,120613,1,0,3:0:0:0:
320,250,120694,6,0,L|325:190,2,45,0|0|8,3:0|3:0|1:1,0:0:0:0:
235,289,121019,1,0,3:0:0:0:
226,382,121181,1,8,1:1:0:0:
140,237,121343,2,0,L|151:352,1,90,0|8,1:0|3:1,0:0:0:0:
243,195,121667,1,0,1:0:0:0:
73,137,121830,1,8,1:1:0:0:
73,137,121911,1,0,1:0:0:0:
73,137,121992,6,0,L|188:148,1,90,4|8,1:0|1:1,0:0:0:0:
253,41,122316,2,0,L|138:52,1,90,0|8,1:0|0:1,0:0:0:0:
243,195,122640,2,0,L|460:174,1,180,0|8,1:0|0:0,0:0:0:0:
476,84,123127,1,8,1:1:0:0:
453,86,123208,1,0,1:0:0:0:
431,88,123289,6,0,L|422:177,1,90,4|8,1:0|0:1,0:0:0:0:
488,244,123613,1,0,1:0:0:0:
488,244,123694,1,0,3:0:0:0:
488,244,123776,1,8,3:1:0:0:
338,280,123938,2,0,B|394:273|426:304|414:312|446:349|516:334,1,180,0|0,1:0|1:0,0:0:0:0:
264,340,124424,1,8,1:1:0:0:
264,340,124505,1,0,1:0:0:0:
264,340,124586,6,0,P|248:304|260:224,1,90,4|8,1:0|0:1,0:0:0:0:
330,102,124911,2,0,P|333:147|315:188,1,90,0|8,1:0|0:1,0:0:0:0:
150,125,125235,2,0,L|240:130,2,90,0|8|0,1:0|3:1|1:0,0:0:0:0:
72,72,125722,1,8,1:1:0:0:
70,49,125803,1,0,3:0:0:0:
69,27,125884,5,4,1:0:0:0:
150,125,126046,1,0,1:0:0:0:
65,166,126208,1,0,1:0:0:0:
144,220,126370,1,0,1:0:0:0:
59,259,126532,2,0,P|128:312|211:285,1,180,0|0,1:0|1:0,0:0:0:0:
238,199,127019,1,0,1:0:0:0:
238,199,127100,1,0,0:0:0:0:
238,199,127181,6,0,P|280:220|304:296,1,90,4|0,1:0|1:0,0:0:0:0:
144,220,127505,1,0,1:0:0:0:
150,125,127667,1,0,1:0:0:0:
210,285,127830,2,0,L|218:341,3,45,0|0|0|8,1:0|0:0|1:0|0:1,0:0:0:0:
120,309,128154,2,0,L|112:365,3,45,0|0|0|0,1:0|0:0|1:0|0:0,0:0:0:0:
144,220,128478,6,0,L|137:175,3,45,0|0|0|0,1:0|1:0|1:0|1:0,0:0:0:0:
42,196,128803,2,0,L|48:151,3,45,0|0|0|0,1:0|1:0|1:0|1:0,0:0:0:0:
18,285,129127,1,0,1:0:0:0:
16,296,129208,1,0,1:0:0:0:
14,307,129289,1,0,1:0:0:0:
13,318,129370,1,0,1:0:0:0:
11,329,129451,1,0,1:0:0:0:
10,340,129532,1,0,1:0:0:0:
8,351,129613,1,0,1:0:0:0:
6,362,129694,1,0,1:0:0:0:
5,374,129775,5,0,1:0:0:0:
210,285,130100,5,4,0:0:0:0:
210,285,130262,1,4,0:0:0:0:
256,192,130343,12,0,135451,0:0:0:0:
