osu file format v14

[General]
AudioFilename: audio.mp3
AudioLeadIn: 0
PreviewTime: 44316
Countdown: 0
SampleSet: Soft
StackLeniency: 0.2
Mode: 0
LetterboxInBreaks: 0
WidescreenStoryboard: 0

[Editor]
Bookmarks: 18208,33776,44154,64911,88262,114532,130262
DistanceSpacing: 0.3
BeatDivisor: 4
GridSize: 8
TimelineZoom: 4.399998

[Metadata]
Title:Xevel
TitleUnicode:Xevel
Artist:Tatsh
ArtistUnicode:Tatsh
Creator:Skytuna
Version:CAN YOU HEAR MY SOUL AND DARKNESS
Source:CHUNITHM STAR
Tags:Entry Azrael -_AzRaeL_- [_l_u_k_a_s_] Seolv 第四回天下一音ゲ祭 5th Tenkaichi Otogesai Electronic English TatshMusicCircle SOUND VOLTEX IV HEAVENLY HAVEN グルーヴコースター 4 スターライトロード GROOVE COASTER 4 STARLIGHT ROAD 太鼓の達人 ブルーVer. Taiko no Tatsujin Blue Version maimai MiLK PLUS -Game ver-
BeatmapID:2449759
BeatmapSetID:1174491

[Difficulty]
HPDrainRate:5.6
CircleSize:4
OverallDifficulty:9.4
ApproachRate:9.4
SliderMultiplier:1.9
SliderTickRate:1

[Events]
//Background and Video events
0,0,"asicocuk26.jpg",0,0
//Break Periods
//Storyboard Layer 0 (Background)
//Storyboard Layer 1 (Fail)
//Storyboard Layer 2 (Pass)
//Storyboard Layer 3 (Foreground)
//Storyboard Layer 4 (Overlay)
//Storyboard Sound Samples

[TimingPoints]
813,324.324324324324,4,2,0,70,1,0
11722,324.324324324324,4,2,3,70,1,0
11722,-125,4,2,3,70,0,0
12289,-125,4,2,3,70,0,0
12370,-125,4,2,3,70,0,0
13019,-90.9090909090909,4,2,3,70,0,0
16911,-111.111111111111,4,2,3,70,0,0
17235,-142.857142857143,4,2,3,70,0,0
18208,-76.923076923077,4,2,3,70,0,0
23073,-100,4,2,3,70,0,0
23397,-76.923076923077,4,2,3,70,0,0
27289,-58.8235294117647,4,2,3,70,0,0
27532,-125,4,2,3,70,0,0
27613,-66.6666666666667,4,2,3,70,0,0
29884,-83.3333333333333,4,2,3,70,0,0
31505,-76.9230769230769,4,2,3,70,0,0
31830,-71.4285714285714,4,2,3,70,0,0
32478,-66.6666666666667,4,2,3,70,0,0
35073,-142.857142857143,4,2,3,70,0,0
35397,-125,4,2,0,5,0,0
35478,-142.857142857143,4,2,0,70,0,0
35721,-125,4,2,0,5,0,0
35803,-142.857142857143,4,2,0,70,0,0
36046,-125,4,2,0,5,0,0
36127,-142.857142857143,4,2,0,70,0,0
36208,-142.857142857143,4,2,3,70,0,0
37667,-200,4,2,3,70,0,0
37992,-125,4,2,0,5,0,0
38073,-200,4,2,0,70,0,0
38235,-125,4,2,3,70,0,0
38316,-200,4,2,3,70,0,0
38965,-71.4285714285714,4,2,3,70,0,0
40424,-83.3333333333333,4,2,3,70,0,0
41559,-76.9230769230769,4,2,3,70,0,0
41721,-71.4285714285714,4,2,3,70,0,0
41884,-66.6666666666667,4,2,3,70,0,0
42208,-66.6666666666667,4,2,3,70,0,0
42370,-62.5,4,2,3,70,0,0
42532,-58.8235294117647,4,2,3,70,0,0
42857,-90.9090909090909,4,2,3,70,0,0
43505,-62.5,4,2,3,70,0,0
43667,-66.6666666666667,4,2,3,70,0,0
43749,-62.5,4,2,3,70,0,0
43911,-125,4,2,3,70,0,0
43992,-66.6666666666667,4,2,3,70,0,0
44154,-58.8235294117647,4,2,3,80,0,1
60370,-66.6666666666667,4,2,3,80,0,1
61019,-58.8235294117647,4,2,3,80,0,1
61667,-62.5,4,2,3,80,0,1
62316,-58.8235294117647,4,2,3,80,0,1
63776,-71.4285714285714,4,2,3,80,0,1
63938,-58.8235294117647,4,2,3,80,0,1
64586,-71.4285714285714,4,2,3,80,0,1
64749,-100,4,2,3,80,0,1
64911,-111.111111111111,4,2,3,70,0,0
70100,-76.9230769230769,4,2,3,70,0,0
70586,-74.0740740740741,4,2,3,70,0,0
71073,-71.4285714285714,4,2,3,70,0,0
71559,-76.9230769230769,4,2,3,70,0,0
71721,-90.9090909090909,4,2,3,70,0,0
71884,-100,4,2,3,70,0,0
72370,-76.9230769230769,4,2,3,70,0,0
73181,-74.0740740740741,4,2,3,70,0,0
73667,-71.4285714285714,4,2,3,70,0,0
73992,-76.9230769230769,4,2,3,70,0,0
75776,-74.0740740740741,4,2,3,70,0,0
76262,-71.4285714285714,4,2,3,70,0,0
76586,-76.9230769230769,4,2,3,70,0,0
76911,-90.9090909090909,4,2,3,70,0,0
77073,-111.111111111111,4,2,3,70,0,0
77235,-76.9230769230769,4,2,3,70,0,0
81776,-83.3333333333333,4,2,3,70,0,0
83073,-71.4285714285714,4,2,3,70,0,0
84370,-76.9230769230769,4,2,3,70,0,0
84694,-90.9090909090909,4,2,3,70,0,0
85019,-111.111111111111,4,2,3,70,0,0
85343,-142.857142857143,4,2,3,70,0,0
85667,-66.6666666666667,4,2,3,70,0,0
85992,-76.9230769230769,4,2,3,70,0,0
86316,-111.111111111111,4,2,3,70,0,0
87613,-83.3333333333333,4,2,3,70,0,0
87776,-125,4,2,3,5,0,0
87857,-83.3333333333333,4,2,3,70,0,0
87938,-125,4,2,3,5,0,0
88019,-83.3333333333333,4,2,3,70,0,0
88262,-55.5555555555556,4,2,3,80,0,1
98640,-50,4,2,3,80,0,1
98884,-55.5555555555556,4,2,3,80,0,1
114046,-55.5555555555556,4,2,3,70,0,0
114532,-66.6666666666667,4,2,3,70,0,0
125884,-62.5,4,2,3,70,0,0
130262,-243.90243902439,4,2,3,70,0,0

[Colours]
Combo1 : 156,206,243
Combo2 : 233,200,253
Combo3 : 159,228,251
Combo4 : 9,117,117

[HitObjects]
123,100,11722,6,0,B|210:64|258:130|238:146|300:199|379:140,1,266,4|0,0:0|0:0,0:0:0:0:
377,138,12370,5,8,0:0:0:0:
374,156,12451,1,8,0:0:0:0:
372,174,12532,1,8,0:0:0:0:
370,192,12613,1,8,0:0:0:0:
367,210,12694,1,8,0:0:0:0:
365,228,12775,1,8,0:0:0:0:
363,246,12856,1,8,0:0:0:0:
360,264,12937,1,8,0:0:0:0:
358,282,13019,6,0,L|239:295,1,104.500003189087,4|8,1:0|0:1,0:0:0:0:
144,188,13343,2,0,L|263:201,1,104.500003189087,8|8,0:0|0:1,0:0:0:0:
45,306,13668,1,0,1:0:0:0:
45,306,13749,1,8,0:1:0:0:
45,306,13831,1,8,0:1:0:0:
91,132,13992,1,8,0:0:0:0:
140,265,14154,1,8,0:1:0:0:
43,66,14316,6,0,P|13:100|16:166,1,104.500003189087,0|8,1:0|0:1,0:0:0:0:
15,166,14559,1,8,0:1:0:0:
20,175,14640,1,8,0:0:0:0:
123,53,14803,1,8,0:1:0:0:
148,272,14965,1,0,1:0:0:0:
148,272,15046,1,8,0:1:0:0:
148,272,15127,1,8,0:1:0:0:
319,121,15289,2,0,L|258:114,1,52.2500015945435,8|0,0:0|0:0,0:0:0:0:
183,105,15451,1,8,1:1:0:0:
283,218,15613,6,0,L|262:87,1,104.500003189087,0|8,1:0|0:1,0:0:0:0:
264,104,15857,1,8,0:1:0:0:
262,93,15938,1,8,0:0:0:0:
198,202,16100,1,8,0:1:0:0:
396,125,16262,1,0,1:0:0:0:
396,125,16343,1,8,0:1:0:0:
396,125,16424,1,8,0:1:0:0:
287,369,16586,1,8,0:0:0:0:
198,202,16749,2,0,L|263:209,1,52.2500015945435,8|0,1:1|0:0,0:0:0:0:
307,138,16911,6,0,L|198:126,1,85.4999973907472,0|8,1:0|0:1,0:0:0:0:
120,73,17235,2,0,L|143:143,1,66.4999979705811,8|0,0:0|0:0,0:0:0:0:
27,205,17559,5,8,0:0:0:0:
48,195,17640,1,8,0:0:0:0:
71,193,17721,1,8,0:0:0:0:
93,197,17803,1,8,0:0:0:0:
112,209,17884,1,8,0:0:0:0:
133,216,17965,1,8,0:0:0:0:
156,218,18046,1,8,0:0:0:0:
178,214,18127,1,8,0:0:0:0:
198,202,18208,5,4,1:0:0:0:
201,196,18289,2,0,L|214:116,1,61.7499971733095,0|8,3:0|3:1,0:0:0:0:
319,21,18451,1,0,3:0:0:0:
320,27,18532,2,0,L|329:87,1,61.7499971733095,8|0,0:0|0:0,0:0:0:0:
376,188,18694,2,0,L|318:166,1,61.7499971733095,8|0,3:1|0:0,3:0:0:0:
195,64,18857,5,0,1:0:0:0:
207,62,18938,1,0,3:0:0:0:
219,60,19019,1,8,3:1:0:0:
231,58,19100,1,0,3:0:0:0:
243,56,19181,2,0,L|233:116,1,61.7499971733095,8|0,0:0|0:0,0:0:0:0:
204,206,19343,2,0,L|156:166,1,61.7499971733095,8|0,0:1|0:0,0:0:0:0:
33,64,19505,5,0,1:0:0:0:
11,93,19586,1,0,3:0:0:0:
3,129,19667,1,8,3:1:0:0:
7,166,19749,1,0,3:0:0:0:
28,196,19830,1,8,0:0:0:0:
43,222,19911,1,0,3:0:0:0:
50,251,19992,1,8,3:1:0:0:
48,281,20073,1,0,3:0:0:0:
33,308,20154,6,0,P|16:349|19:382,3,61.7499971733095,0|0|8|0,1:0|3:0|3:1|3:0,0:0:0:0:
191,284,20478,2,0,P|235:278|262:259,3,61.7499971733095,8|0|8|0,0:0|3:0|3:1|3:0,0:0:0:0:
94,130,20803,5,0,1:0:0:0:
130,106,20884,1,0,3:0:0:0:
172,101,20965,1,8,3:1:0:0:
213,113,21046,1,0,3:0:0:0:
242,144,21127,1,8,0:0:0:0:
274,161,21208,1,0,3:0:0:0:
310,169,21289,1,8,3:1:0:0:
346,162,21370,1,0,3:0:0:0:
377,141,21451,6,0,P|380:83|370:65,1,61.7499971733095,0|0,1:0|0:0,0:0:0:0:
445,36,21613,2,0,P|396:4|375:4,1,61.7499971733095,8|0,0:1|0:0,0:0:0:0:
244,97,21776,2,0,L|305:106,1,61.7499971733095,8|0,0:0|0:0,0:0:0:0:
383,116,21938,2,0,L|444:125,1,61.7499971733095,8|0,1:1|0:0,0:0:0:0:
487,232,22100,5,0,1:0:0:0:
502,268,22181,1,0,3:0:0:0:
500,306,22262,1,8,3:1:0:0:
482,341,22343,1,0,3:0:0:0:
450,363,22424,1,8,0:0:0:0:
408,374,22505,1,0,3:0:0:0:
365,369,22586,1,8,3:1:0:0:
328,345,22667,1,0,3:0:0:0:
305,307,22749,6,0,L|274:305,2,30.8749985866547,8|0|0,1:1|0:0|0:0,0:0:0:0:
392,189,22911,2,0,L|433:191,2,30.8749985866547,8|0|0,1:1|0:0|0:0,0:0:0:0:
154,18,23073,6,0,L|124:9,1,23.75,0|0,1:1|0:0,0:0:0:0:
134,57,23154,2,0,L|93:56,1,23.75,0|0,1:0|0:0,0:0:0:0:
139,99,23235,2,0,L|100:109,1,23.75,8|0,1:1|0:0,0:0:0:0:
158,135,23316,2,0,L|122:154,1,23.75,0|0,1:0|0:0,0:0:0:0:
194,159,23397,6,0,L|332:139,1,123.499994346619,4|8,1:0|0:1,0:0:0:0:
403,122,23640,1,0,3:0:0:0:
402,128,23721,2,0,L|393:189,1,61.7499971733095,8|0,0:0|0:0,0:0:0:0:
464,244,23884,2,0,L|473:182,1,61.7499971733095,8|0,3:1|0:0,0:0:0:0:
472,29,24046,5,0,1:0:0:0:
437,13,24127,1,0,3:0:0:0:
400,7,24208,1,8,3:1:0:0:
363,12,24289,1,0,3:0:0:0:
331,31,24370,1,8,0:0:0:0:
291,54,24451,1,0,3:0:0:0:
246,60,24532,1,8,3:1:0:0:
201,52,24613,1,0,3:0:0:0:
158,33,24694,6,0,L|145:125,1,61.7499971733095,0|0,1:0|3:0,0:0:0:0:
126,229,24857,1,8,3:1:0:0:
125,235,24938,1,0,3:0:0:0:
124,241,25019,1,8,0:0:0:0:
45,21,25181,1,8,0:1:0:0:
389,124,25343,5,0,1:0:0:0:
382,125,25424,1,0,3:0:0:0:
376,127,25505,2,0,L|314:135,1,61.7499971733095,8|0,3:1|3:0,0:0:0:0:
224,248,25667,2,0,L|247:190,1,61.7499971733095,8|0,0:0|3:0,0:0:0:0:
201,52,25830,2,0,L|239:100,1,61.7499971733095,8|0,1:1|3:0,0:0:0:0:
387,303,25992,5,0,1:0:0:0:
441,294,26073,1,0,3:0:0:0:
483,257,26154,1,8,3:1:0:0:
500,204,26235,1,0,3:0:0:0:
492,148,26316,1,8,0:0:0:0:
453,128,26397,1,0,3:0:0:0:
409,123,26478,1,8,3:1:0:0:
369,136,26559,1,0,3:0:0:0:
337,165,26640,6,0,P|300:171|265:159,3,61.7499971733095,0|0|8|0,1:0|3:0|3:1|3:0,0:0:0:0:
165,32,26965,2,0,P|188:59|195:97,3,61.7499971733095,8|0|8|0,0:0|3:0|3:1|3:0,0:0:0:0:
63,220,27289,6,0,B|118:190|178:223|178:223|193:324|296:308,1,242.250004620552,4|0,1:0|0:0,0:0:0:0:
251,309,27613,2,0,L|282:19,1,285.000010871888,4|0,1:0|1:0,0:0:0:0:
351,60,28019,1,0,1:0:0:0:
417,97,28100,1,0,1:0:0:0:
351,135,28262,1,0,1:0:0:0:
351,60,28424,1,0,1:0:0:0:
394,309,28586,5,4,1:0:0:0:
347,292,28667,1,0,3:0:0:0:
297,293,28749,1,8,3:1:0:0:
251,309,28830,1,0,3:0:0:0:
222,349,28911,1,8,0:0:0:0:
184,367,28992,1,0,3:0:0:0:
142,371,29073,1,8,3:1:0:0:
102,358,29154,1,0,3:0:0:0:
71,328,29235,5,0,1:0:0:0:
62,300,29316,1,0,3:0:0:0:
63,271,29397,1,8,3:1:0:0:
74,244,29478,1,0,3:0:0:0:
95,225,29559,1,8,0:0:0:0:
140,204,29640,1,0,3:0:0:0:
188,204,29721,1,8,3:1:0:0:
236,188,29803,1,0,3:0:0:0:
287,187,29884,5,0,1:0:0:0:
293,184,29965,1,0,3:0:0:0:
299,180,30046,2,0,P|302:145|287:106,1,56.9999982604981,8|0,3:1|3:0,0:0:0:0:
216,29,30208,1,8,0:0:0:0:
187,33,30289,1,0,3:0:0:0:
158,37,30370,1,8,3:1:0:0:
129,41,30451,1,0,3:0:0:0:
101,46,30532,5,0,1:0:0:0:
101,51,30613,1,8,0:0:0:0:
102,56,30694,2,0,L|112:130,1,56.9999982604981,8|0,3:1|0:0,0:0:0:0:
128,262,30857,1,8,0:0:0:0:
128,257,30938,1,8,0:0:0:0:
127,252,31019,2,0,L|117:178,1,56.9999982604981,8|0,3:1|0:0,0:0:0:0:
34,165,31181,5,0,1:0:0:0:
64,129,31262,1,0,3:0:0:0:
109,112,31343,1,8,3:1:0:0:
157,118,31424,1,0,3:0:0:0:
195,145,31505,2,0,P|255:155|295:123,1,61.7499971733095,8|0,0:0|0:0,0:0:0:0:
294,222,31667,2,0,P|328:180|321:136,1,61.7499971733095,8|0,1:1|0:0,0:0:0:0:
492,68,31830,5,0,1:0:0:0:
447,49,31911,1,0,3:0:0:0:
399,52,31992,1,8,3:1:0:0:
357,72,32073,1,0,3:0:0:0:
329,110,32154,2,0,P|321:142|340:193,1,66.4999979705811,8|0,0:0|0:0,0:0:0:0:
268,222,32316,2,0,P|291:243|341:251,1,66.4999979705811,8|0,1:1|0:0,0:0:0:0:
426,359,32478,6,0,L|366:320,1,71.2500027179719,8|8,0:0|0:0,0:0:0:0:
220,347,32640,2,0,L|283:314,1,71.2500027179719,8|8,0:0|0:0,0:0:0:0:
327,174,32803,2,0,L|324:245,1,71.2500027179719,8|8,0:0|0:0,0:0:0:0:
190,231,32965,5,0,1:0:0:0:
142,210,33046,1,0,1:0:0:0:
129,180,33127,1,8,1:0:0:0:
132,173,33208,1,8,0:0:0:0:
135,166,33289,2,0,L|187:159,2,35.625001358986,8|0|0,0:0|0:0|0:0,0:0:0:0:
251,86,33451,5,8,0:0:0:0:
313,52,33532,1,8,0:0:0:0:
376,60,33613,1,8,0:0:0:0:
423,91,33694,1,8,0:0:0:0:
439,138,33776,5,6,1:0:0:0:
384,184,33938,1,2,0:0:0:0:
380,255,34100,1,2,0:0:0:0:
438,295,34262,1,2,0:0:0:0:
483,240,34424,1,2,0:0:0:0:
489,361,34586,1,2,0:0:0:0:
489,361,34667,1,2,0:0:0:0:
489,361,34749,1,2,0:0:0:0:
484,232,34911,1,2,0:0:0:0:
322,358,35073,6,0,P|238:356|374:249,1,465.499985794068,2|2,0:0|0:0,0:0:0:0:
377,259,36289,1,2,0:0:0:0:
379,271,36370,5,2,0:0:0:0:
442,216,36532,1,2,0:0:0:0:
422,138,36694,1,2,0:0:0:0:
351,99,36857,1,2,0:0:0:0:
226,178,37019,1,2,0:0:0:0:
254,108,37181,1,2,0:0:0:0:
254,108,37262,1,2,0:0:0:0:
254,108,37343,1,2,0:0:0:0:
203,46,37505,1,2,0:0:0:0:
82,191,37667,6,0,L|106:8,1,166.25,2|0,0:0|0:0,0:0:0:0:
203,46,38316,2,0,L|172:55,7,23.75,8|8|8|8|8|8|8|8,0:0|0:0|0:0|0:0|0:0|0:0|0:0|0:0,0:0:0:0:
283,64,38965,5,0,1:0:0:0:
320,101,39046,1,0,3:0:0:0:
332,152,39127,1,0,3:0:0:0:
324,204,39208,1,0,3:0:0:0:
291,245,39289,5,0,1:0:0:0:
269,286,39370,1,0,3:0:0:0:
271,332,39451,1,0,3:0:0:0:
303,364,39532,1,0,3:0:0:0:
347,376,39613,5,0,3:0:0:0:
384,363,39694,1,0,3:0:0:0:
411,333,39776,1,0,3:0:0:0:
417,293,39857,1,0,3:0:0:0:
407,254,39938,5,0,3:0:0:0:
393,231,40019,1,0,3:0:0:0:
386,205,40100,1,0,3:0:0:0:
386,178,40181,1,0,3:0:0:0:
401,159,40262,5,0,1:0:0:0:
401,159,40343,1,0,3:0:0:0:
401,159,40424,2,0,L|474:150,1,56.9999982604981,0|0,3:0|3:0,0:0:0:0:
331,7,40586,2,0,L|302:74,1,56.9999982604981,4|0,1:0|0:0,0:0:0:0:
263,161,40749,2,0,L|234:93,1,56.9999982604981,0|0,1:0|0:0,0:0:0:0:
119,81,40911,5,0,1:0:0:0:
117,103,40992,1,0,3:0:0:0:
115,125,41073,1,0,3:0:0:0:
114,147,41154,1,0,3:0:0:0:
114,169,41235,2,0,L|187:160,1,56.9999982604981,0|0,1:0|0:0,0:0:0:0:
356,153,41397,1,0,1:0:0:0:
356,153,41478,1,0,1:0:0:0:
356,153,41559,6,0,L|327:220,1,61.7499971733095,4|0,1:0|0:0,0:0:0:0:
187,270,41721,2,0,L|260:261,1,66.4999979705811,0|0,1:0|0:0,0:0:0:0:
377,358,41884,2,0,L|332:299,1,71.2500027179719,0|0,1:0|0:0,0:0:0:0:
223,138,42046,1,0,1:0:0:0:
223,138,42127,1,0,1:0:0:0:
223,138,42208,6,0,P|248:81|262:73,1,71.2500027179719,0|0,1:0|0:0,0:0:0:0:
427,56,42370,2,0,P|463:106|463:122,1,76,0|0,1:0|0:0,0:0:0:0:
397,259,42532,2,0,P|335:265|321:257,1,80.750001540184,0|0,1:0|0:0,0:0:0:0:
267,24,42694,1,0,1:0:0:0:
267,24,42776,1,0,1:0:0:0:
267,24,42857,6,0,L|280:-16,1,26.1250007972718,0|0,1:0|0:0,0:0:0:0:
303,49,42939,2,0,L|327:14,1,26.1250007972718,0|0,1:0|0:0,0:0:0:0:
329,86,43020,2,0,L|363:61,1,26.1250007972718,0|0,1:0|0:0,0:0:0:0:
341,129,43101,2,0,L|381:116,1,26.1250007972718,0|0,1:0|0:0,0:0:0:0:
338,173,43182,2,0,L|380:173,1,26.1250007972718,0|0,1:0|0:0,0:0:0:0:
320,214,43262,2,0,L|360:227,1,26.1250007972718,0|0,1:0|0:0,0:0:0:0:
290,247,43344,2,0,L|324:271,1,26.1250007972718,0|0,1:0|0:0,0:0:0:0:
246,271,43424,2,0,L|270:305,1,26.1250007972718,0|0,1:0|0:0,0:0:0:0:
206,273,43505,6,0,B|128:282|128:282|16:215,1,152,4|0,1:0|0:0,0:0:0:0:
86,133,43749,2,0,B|164:124|164:124|276:191,1,152,4|0,1:0|0:0,0:0:0:0:
383,108,43992,5,4,1:0:0:0:
382,115,44073,1,0,1:0:0:0:
381,121,44154,2,0,L|359:297,1,161.500003080368,6|8,1:0|0:1,0:0:0:0:
359,297,44397,1,8,0:1:0:0:
357,313,44478,1,8,0:0:0:0:
218,107,44640,2,0,L|302:94,1,80.750001540184,8|0,0:1|0:0,0:0:0:0:
502,50,44803,6,0,L|302:19,1,161.500003080368,2|8,1:0|0:1,0:0:0:0:
326,22,45046,1,8,0:1:0:0:
310,19,45127,1,8,0:0:0:0:
357,313,45289,2,0,L|367:232,1,80.750001540184,8|0,1:1|0:0,0:0:0:0:
146,170,45451,6,0,P|256:207|319:133,1,161.500003080368,2|8,1:0|0:1,0:0:0:0:
299,177,45694,1,8,0:1:0:0:
309,164,45776,1,8,0:0:0:0:
127,15,45938,1,8,0:1:0:0:
32,280,46100,5,2,1:0:0:0:
26,234,46181,1,8,0:0:0:0:
20,189,46262,1,8,0:1:0:0:
15,143,46343,1,8,0:0:0:0:
9,99,46424,2,0,L|88:111,1,80.750001540184,10|0,0:0|0:0,0:0:0:0:
252,21,46586,2,0,L|201:83,1,80.750001540184,8|0,1:1|0:0,0:0:0:0:
237,339,46749,6,0,L|164:153,1,161.500003080368,2|8,1:0|0:1,0:0:0:0:
173,173,46992,1,8,0:1:0:0:
167,157,47073,1,8,0:0:0:0:
110,329,47235,1,8,0:1:0:0:
426,148,47397,6,0,L|346:160,1,80.750001540184,0|0,1:0|0:0,0:0:0:0:
266,172,47559,1,8,0:1:0:0:
380,281,47721,2,0,L|300:268,1,80.750001540184,8|0,0:0|0:0,0:0:0:0:
203,249,47884,1,8,0:1:0:0:
195,246,47965,1,8,0:1:0:0:
187,244,48046,6,0,B|159:167|159:167|207:83,1,161.500003080368,2|8,1:0|0:1,0:0:0:0:
209,85,48289,1,8,0:1:0:0:
220,74,48370,1,8,0:0:0:0:
103,259,48532,2,0,L|71:153,1,80.750001540184,8|0,0:1|0:0,0:0:0:0:
38,25,48694,5,0,1:0:0:0:
86,18,48776,1,8,0:0:0:0:
132,29,48857,1,8,1:1:0:0:
166,63,48938,1,8,0:0:0:0:
205,102,49019,1,0,1:0:0:0:
260,112,49100,1,8,0:0:0:0:
315,99,49181,1,8,1:1:0:0:
359,64,49262,1,8,0:0:0:0:
373,9,49343,6,0,P|309:93|350:191,1,161.500003080368,6|8,1:0|0:1,0:0:0:0:
320,158,49586,1,8,0:1:0:0:
326,172,49667,1,8,0:0:0:0:
423,355,49830,2,0,L|343:342,1,80.750001540184,8|0,0:1|0:0,0:0:0:0:
148,293,49992,6,0,P|252:306|317:221,1,161.500003080368,2|8,1:0|0:1,0:0:0:0:
303,264,50235,1,8,0:1:0:0:
312,252,50316,1,8,0:0:0:0:
161,20,50478,2,0,L|173:99,1,80.750001540184,8|0,1:1|0:0,0:0:0:0:
47,279,50640,6,0,L|78:79,1,161.500003080368,2|8,1:0|0:1,0:0:0:0:
75,103,50883,1,8,0:1:0:0:
78,87,50964,1,8,0:0:0:0:
148,293,51127,1,8,0:1:0:0:
456,65,51289,5,2,1:0:0:0:
406,37,51370,1,8,0:0:0:0:
349,34,51451,1,8,0:1:0:0:
301,64,51532,1,8,0:0:0:0:
288,119,51613,2,0,L|300:198,1,80.750001540184,10|0,0:0|0:0,0:0:0:0:
411,328,51776,2,0,L|348:278,1,80.750001540184,8|0,1:1|0:0,0:0:0:0:
106,223,51938,6,0,P|178:290|279:238,1,161.500003080368,2|8,1:0|0:1,0:0:0:0:
249,275,52181,1,8,0:1:0:0:
263,265,52262,1,8,0:0:0:0:
177,34,52424,1,8,0:1:0:0:
495,148,52586,6,0,L|415:136,1,80.750001540184,2|0,1:0|0:0,0:0:0:0:
288,119,52748,1,8,0:1:0:0:
313,318,52911,2,0,L|301:238,1,80.750001540184,8|0,0:0|0:0,0:0:0:0:
288,119,53073,1,8,0:1:0:0:
287,110,53154,1,8,0:1:0:0:
286,101,53235,6,0,P|341:81|386:98,1,80.750001540184,2|0,1:0|0:0,0:0:0:0:
405,5,53397,2,0,P|449:42|457:90,1,80.750001540184,8|0,1:1|0:0,0:0:0:0:
215,171,53559,6,0,P|195:116|212:71,1,80.750001540184,8|0,1:0|0:0,0:0:0:0:
119,52,53721,2,0,P|156:7|204:0,1,80.750001540184,8|0,1:1|0:0,0:0:0:0:
338,160,53884,5,8,0:0:0:0:
333,216,53965,1,8,0:0:0:0:
300,262,54046,1,8,0:1:0:0:
252,292,54127,1,8,0:0:0:0:
195,297,54208,1,8,0:0:0:0:
141,278,54289,1,8,0:0:0:0:
104,234,54370,1,8,0:1:0:0:
95,178,54451,1,8,0:0:0:0:
115,125,54532,6,0,L|315:94,1,161.500003080368,6|8,1:0|0:1,0:0:0:0:
298,95,54775,1,8,0:1:0:0:
322,91,54857,1,8,0:0:0:0:
50,13,55019,1,8,0:1:0:0:
295,262,55181,6,0,L|283:182,1,80.750001540184,2|0,1:0|0:0,0:0:0:0:
274,100,55343,1,8,0:1:0:0:
414,23,55505,2,0,L|402:103,1,80.750001540184,8|0,0:0|0:0,0:0:0:0:
391,183,55667,1,8,0:1:0:0:
165,384,55830,6,0,P|165:296|80:249,1,161.500003080368,2|8,1:0|0:1,0:0:0:0:
89,248,56073,1,0,0:0:0:0:
64,250,56154,1,8,0:0:0:0:
265,334,56316,1,8,0:1:0:0:
286,120,56478,6,0,L|206:132,1,80.750001540184,2|0,1:0|0:0,0:0:0:0:
126,143,56640,1,8,0:1:0:0:
379,262,56803,2,0,L|391:182,1,80.750001540184,10|0,0:0|0:0,0:0:0:0:
410,69,56965,1,8,1:1:0:0:
411,61,57046,1,8,0:1:0:0:
412,53,57127,6,0,L|212:22,1,161.500003080368,2|8,1:0|0:1,0:0:0:0:
236,25,57370,1,8,0:1:0:0:
220,22,57451,1,8,0:0:0:0:
496,249,57613,2,0,L|484:169,1,80.750001540184,8|0,0:1|0:0,0:0:0:0:
282,302,57776,6,0,B|359:351|359:351|462:332,1,161.500003080368,0|8,1:0|0:1,0:0:0:0:
444,335,58019,1,8,0:1:0:0:
459,332,58100,1,8,0:0:0:0:
225,99,58262,2,0,L|213:179,1,80.750001540184,8|0,1:1|0:0,0:0:0:0:
144,340,58424,6,0,L|119:180,1,161.500003080368,2|8,1:0|0:1,0:0:0:0:
117,164,58667,1,8,0:1:0:0:
115,147,58749,1,8,0:0:0:0:
361,313,58911,2,0,L|281:301,1,80.750001540184,8|0,0:1|0:0,0:0:0:0:
475,106,59073,5,8,0:2:0:0:
467,137,59154,1,8,0:0:0:0:
470,169,59235,1,8,2:2:0:0:
458,199,59316,1,8,0:0:0:0:
465,230,59397,1,8,0:0:0:0:
457,261,59478,1,8,0:0:0:0:
460,293,59559,1,8,0:0:0:0:
448,323,59640,1,8,0:0:0:0:
455,354,59721,6,0,L|295:329,1,161.500003080368,6|8,1:0|0:1,0:0:0:0:
271,326,59964,1,8,0:1:0:0:
246,322,60046,1,8,0:0:0:0:
314,39,60208,1,8,0:1:0:0:
314,39,60289,1,8,0:1:0:0:
314,39,60370,2,0,L|326:119,1,71.2500027179719,0|0,1:0|0:0,0:0:0:0:
454,205,60532,2,0,L|378:175,1,71.2500027179719,8|0,0:1|0:0,0:0:0:0:
240,235,60694,2,0,L|303:184,1,71.2500027179719,8|0,0:0|0:0,0:0:0:0:
435,292,60857,2,0,L|359:262,1,71.2500027179719,8|0,1:1|0:0,0:0:0:0:
157,177,61019,6,0,P|92:163|3:251,1,161.500003080368,2|8,1:0|0:1,0:0:0:0:
8,236,61262,1,8,0:1:0:0:
6,260,61343,1,8,0:0:0:0:
305,371,61505,1,8,0:1:0:0:
305,371,61586,1,8,0:1:0:0:
305,371,61667,2,0,L|317:291,1,76,0|0,1:0|0:0,0:0:0:0:
230,170,61830,2,0,L|293:220,1,76,8|0,0:1|0:0,0:0:0:0:
445,207,61992,2,0,L|369:236,1,76,8|0,0:0|0:0,0:0:0:0:
175,238,62154,2,0,L|238:288,1,76,8|0,1:1|0:0,0:0:0:0:
512,125,62316,6,0,L|352:100,1,161.500003080368,2|8,1:0|0:1,0:0:0:0:
328,97,62559,1,8,0:1:0:0:
303,93,62641,1,8,0:0:0:0:
95,249,62803,1,8,0:1:0:0:
95,249,62884,1,8,0:1:0:0:
95,249,62965,2,0,L|175:237,1,80.750001540184,0|0,1:0|0:0,0:0:0:0:
228,75,63127,2,0,L|198:150,1,80.750001540184,8|0,0:1|0:0,0:0:0:0:
310,281,63289,2,0,L|259:217,1,80.750001540184,8|0,0:0|0:0,0:0:0:0:
105,157,63451,2,0,L|134:81,1,80.750001540184,8|0,1:1|0:0,0:0:0:0:
168,0,63613,5,2,1:0:0:0:
363,200,63776,2,0,L|368:164,2,33.2499989852906,8|0|0,0:1|0:0|0:0,0:0:0:0:
228,75,63938,2,0,L|308:87,1,80.750001540184,8|0,0:0|0:0,0:0:0:0:
430,7,64100,2,0,L|350:19,1,80.750001540184,8|0,0:1|0:0,0:0:0:0:
450,244,64262,5,2,1:0:0:0:
451,237,64343,1,0,1:0:0:0:
452,229,64424,1,8,1:1:0:0:
453,221,64505,1,0,1:0:0:0:
454,213,64586,2,0,L|466:133,1,66.4999979705811,0|0,1:0|0:0,0:0:0:0:
478,64,64749,2,0,L|520:57,2,23.75
256,156,64911,6,0,P|215:162|164:138,1,85.4999973907472,4|0,1:0|0:0,0:0:0:0:
101,97,65235,1,8,0:0:0:0:
142,236,65397,1,0,1:0:0:0:
145,246,65721,5,0,1:0:0:0:
225,82,65884,1,8,0:0:0:0:
231,72,66370,5,0,1:0:0:0:
301,236,66532,1,8,0:0:0:0:
345,156,66694,1,0,1:0:0:0:
241,170,66857,2,0,L|146:183,1,85.4999973907472,0|0,1:0|1:0,0:0:0:0:
301,236,67181,2,0,L|396:249,1,85.4999973907472,8|0,0:0|0:0,0:0:0:0:
504,262,67505,5,0,1:0:0:0:
504,262,67667,1,0,0:0:0:0:
345,156,67830,1,8,0:0:0:0:
389,353,67992,1,0,1:0:0:0:
426,162,68316,5,0,1:0:0:0:
379,360,68478,2,0,B|318:382|318:382|232:340,1,128.249996086121,8|0,0:0|0:0,0:0:0:0:
250,346,68803,1,0,1:0:0:0:
43,155,69776,5,8,0:0:0:0:
52,147,69857,1,8,0:0:0:0:
62,141,69938,1,8,0:0:0:0:
74,139,70019,1,8,0:0:0:0:
86,139,70100,6,0,L|166:151,1,61.7499971733095,6|0,1:0|0:0,0:0:0:0:
286,171,70262,1,8,0:1:0:0:
291,173,70343,1,8,0:1:0:0:
296,175,70424,1,8,0:1:0:0:
150,15,70586,2,0,L|185:105,1,64.1250002446175,2|0,1:0|0:0,0:0:0:0:
234,231,70748,1,8,0:1:0:0:
235,236,70829,1,8,0:1:0:0:
237,241,70910,1,8,0:1:0:0:
290,37,71073,2,0,L|222:121,1,66.4999979705811,2|0,1:0|0:0,0:0:0:0:
129,230,71235,1,8,0:1:0:0:
124,234,71316,1,8,0:1:0:0:
120,238,71397,1,8,0:1:0:0:
120,238,71559,6,0,P|154:208|193:209,1,61.7499971733095,2|0,1:0|0:0,0:0:0:0:
181,124,71721,2,0,P|223:139|242:173,1,52.2500015945435,0|0,1:0|0:0,0:0:0:0:
303,120,71884,2,0,P|311:164|291:197,1,47.5,0|0,1:0|0:0,0:0:0:0:
229,340,72046,5,2,1:0:0:0:
221,312,72127,1,0,1:0:0:0:
222,283,72208,1,0,1:0:0:0:
232,256,72289,1,0,1:0:0:0:
255,235,72370,2,0,L|377:253,1,123.499994346619,8|0,0:0|0:0,0:0:0:0:
387,259,72613,1,0,0:0:0:0:
388,260,72694,6,0,L|376:180,1,61.7499971733095,6|0,1:0|0:0,0:0:0:0:
357,54,72856,1,8,0:1:0:0:
355,49,72937,1,8,0:1:0:0:
353,44,73018,1,8,0:1:0:0:
502,190,73181,2,0,L|412:155,1,64.1250002446175,2|0,1:0|0:0,0:0:0:0:
286,106,73342,1,8,0:1:0:0:
281,105,73423,1,8,0:1:0:0:
276,103,73504,1,8,0:1:0:0:
480,50,73667,2,0,L|396:118,1,66.4999979705811,2|0,1:0|0:0,0:0:0:0:
287,211,73829,1,8,0:1:0:0:
283,216,73910,1,8,0:1:0:0:
279,220,73991,1,8,0:1:0:0:
279,220,74154,6,0,P|302:238|333:242,1,61.7499971733095,2|0,1:0|0:0,0:0:0:0:
444,295,74316,2,0,P|413:299|389:317,1,61.7499971733095,0|0,1:0|0:0,0:0:0:0:
385,166,74478,1,0,1:0:0:0:
385,166,74559,1,8,0:1:0:0:
385,166,74640,5,2,0:0:0:0:
346,126,74721,1,2,0:0:0:0:
292,109,74803,1,2,0:0:0:0:
236,111,74884,1,2,0:0:0:0:
193,147,74965,5,2,0:0:0:0:
183,176,75046,1,2,0:0:0:0:
183,206,75127,1,2,0:0:0:0:
194,234,75208,1,2,0:0:0:0:
210,253,75289,6,0,L|130:241,1,61.7499971733095,6|0,1:0|0:0,0:0:0:0:
10,221,75451,1,8,0:1:0:0:
5,219,75532,1,8,0:1:0:0:
0,217,75613,1,8,0:1:0:0:
146,377,75776,2,0,L|111:287,1,64.1250002446175,2|0,1:0|0:0,0:0:0:0:
62,161,75937,1,8,0:1:0:0:
61,156,76018,1,8,0:1:0:0:
59,151,76099,1,8,0:1:0:0:
6,355,76262,2,0,L|74:271,1,66.4999979705811,2|0,1:0|0:0,0:0:0:0:
167,162,76424,1,8,0:1:0:0:
172,158,76505,1,8,0:1:0:0:
176,154,76586,1,8,0:1:0:0:
176,154,76749,6,0,L|217:205,1,61.7499971733095,2|0,1:0|0:0,0:0:0:0:
305,94,76911,2,0,L|263:145,1,52.2500015945435,0|0,1:0|0:0,0:0:0:0:
178,46,77073,2,0,L|219:97,1,42.7499986953736,0|0,1:0|0:0,0:0:0:0:
359,199,77235,6,0,P|434:211|474:171,1,123.499994346619,2|8,1:0|0:1,0:0:0:0:
498,113,77478,1,8,0:1:0:0:
496,107,77559,1,2,1:0:0:0:
446,106,77640,1,2,0:0:0:0:
406,135,77721,1,2,1:0:0:0:
399,184,77803,1,2,0:0:0:0:
406,232,77884,6,0,L|431:402,1,123.499994346619,6|8,1:0|0:1,0:0:0:0:
427,366,78127,1,8,0:1:0:0:
429,377,78208,1,8,0:0:0:0:
480,182,78370,1,10,0:1:0:0:
203,208,78532,2,0,L|283:220,1,61.7499971733095,0|0,1:0|0:0,0:0:0:0:
406,232,78694,1,8,0:1:0:0:
203,208,78857,1,10,0:0:0:0:
318,120,79019,2,0,L|327:181,1,61.7499971733095,8|0,1:1|0:0,0:0:0:0:
340,318,79181,6,0,L|217:299,1,123.499994346619,6|8,1:0|0:1,0:0:0:0:
206,300,79424,1,8,0:1:0:0:
193,300,79505,1,8,0:0:0:0:
80,377,79667,1,8,0:1:0:0:
49,181,79830,5,0,1:0:0:0:
35,201,79911,1,0,3:0:0:0:
30,225,79992,1,8,3:1:0:0:
33,255,80073,1,0,3:0:0:0:
46,282,80154,2,0,L|102:244,1,61.7499971733095,8|0,0:0|3:0,0:0:0:0:
189,181,80316,1,8,1:1:0:0:
195,177,80397,1,0,3:0:0:0:
200,172,80478,6,0,P|217:109|170:36,1,123.499994346619,6|8,1:0|0:1,0:0:0:0:
186,48,80721,1,8,0:1:0:0:
175,41,80803,1,10,0:0:0:0:
97,247,80965,1,8,0:1:0:0:
0,92,81127,2,0,L|63:103,1,61.7499971733095,2|0,1:0|0:0,0:0:0:0:
134,116,81289,1,8,0:1:0:0:
341,31,81451,5,2,1:0:0:0:
311,23,81532,1,2,0:0:0:0:
281,32,81613,1,10,1:1:0:0:
253,18,81694,1,2,0:0:0:0:
225,33,81776,6,0,P|207:83|212:106,1,56.9999982604981,6|0,1:0|0:0,0:0:0:0:
134,116,81938,2,0,P|168:156|190:163,1,56.9999982604981,8|0,1:0|0:0,0:0:0:0:
155,237,82100,2,0,P|207:227|224:211,1,56.9999982604981,10|0,0:0|0:0,0:0:0:0:
269,280,82262,2,0,P|286:230|282:207,1,56.9999982604981,0|0,1:0|0:0,0:0:0:0:
362,199,82424,2,0,P|327:158|305:151,1,56.9999982604981,10|0,0:0|0:0,0:0:0:0:
342,80,82586,2,0,P|289:89|272:105,1,56.9999982604981,0|0,1:0|0:0,0:0:0:0:
72,273,82749,5,10,0:0:0:0:
62,230,82830,1,2,0:0:0:0:
72,187,82911,1,2,0:0:0:0:
61,145,82992,1,2,0:0:0:0:
76,104,83073,6,0,L|149:93,1,66.4999979705811,14|0,0:0|0:0,0:0:0:0:
176,6,83235,2,0,L|221:63,1,66.4999979705811,0|0,1:0|0:0,0:0:0:0:
312,28,83397,2,0,L|284:96,1,66.4999979705811,10|0,0:0|0:0,0:0:0:0:
363,157,83559,2,0,L|289:167,1,66.4999979705811,2|0,1:0|0:0,0:0:0:0:
270,251,83721,2,0,L|224:193,1,66.4999979705811,10|0,0:0|0:0,0:0:0:0:
135,234,83884,2,0,L|162:165,1,66.4999979705811,2|0,1:0|0:0,0:0:0:0:
230,25,84046,5,10,0:0:0:0:
233,50,84127,1,8,0:0:0:0:
236,76,84208,1,8,0:0:0:0:
240,103,84289,1,8,0:0:0:0:
279,162,84370,6,0,L|353:177,3,61.7499971733095,14|2|2|2,0:0|0:0|0:0|0:0,0:0:0:0:
458,109,84694,2,0,L|407:165,3,52.2500015945435,2|2|2|2,0:0|0:0|0:0|0:0,0:0:0:0:
417,270,85019,2,0,L|392:197,3,42.7499986953736,2|2|2|2,0:0|0:0|0:0|0:0,0:0:0:0:
339,174,85343,1,10,0:0:0:0:
326,169,85424,1,10,0:0:0:0:
314,165,85505,1,10,0:0:0:0:
301,161,85586,1,10,0:0:0:0:
230,185,85667,6,0,B|208:220|208:220|215:265,3,71.2500027179719,6|2|2|2,0:0|0:0|0:0|0:0,0:0:0:0:
362,345,85992,2,0,B|349:314|349:314|300:292,3,61.7499971733095,2|2|2|2,0:0|0:0|0:0|0:0,0:0:0:0:
191,373,86316,6,0,L|152:369,16,21.3749993476868,2|0|0|0|0|0|0|0|0|0|0|0|0|0|0|0|0,0:0|0:0|0:0|0:0|0:0|0:0|0:0|0:0|0:0|0:0|0:0|0:0|0:0|0:0|0:0|0:0|0:0,0:0:0:0:
191,373,87613,6,0,P|175:309|204:247,1,113.999996520996,0|0,1:0|0:0,0:0:0:0:
201,253,87857,2,0,L|280:259,1,56.9999982604981,0|0,1:0|0:0,0:0:0:0:
338,301,88019,5,0,1:0:0:0:
328,304,88100,1,0,1:0:0:0:
319,306,88181,1,0,1:0:0:0:
311,307,88262,6,0,L|289:135,1,170.999994781494,6|0,1:0|1:0,0:0:0:0:
280,51,88505,1,0,1:0:0:0:
288,52,88586,2,0,L|379:65,1,85.4999973907472,8|0,0:0|0:0,0:0:0:0:
479,158,88749,2,0,L|394:146,1,85.4999973907472,0|0,1:0|0:0,0:0:0:0:
24,244,88911,6,0,P|83:176|169:183,1,170.999994781494,2|0,1:0|1:0,0:0:0:0:
223,220,89154,1,0,1:0:0:0:
222,228,89235,2,0,L|207:324,1,85.4999973907472,8|0,0:0|0:0,0:0:0:0:
100,348,89397,2,0,L|114:260,1,85.4999973907472,0|0,1:0|0:0,0:0:0:0:
138,61,89559,6,0,B|213:115|213:115|299:83,1,170.999994781494,2|0,1:0|1:0,0:0:0:0:
302,81,89803,1,0,1:0:0:0:
318,75,89884,1,8,0:0:0:0:
208,312,90046,1,2,1:0:0:0:
49,94,90208,6,0,L|136:160,1,85.4999973907472,0|0,1:0|0:0,0:0:0:0:
200,221,90370,2,0,L|99:263,1,85.4999973907472,0|0,1:0|0:0,0:0:0:0:
25,293,90532,2,0,L|38:184,1,85.4999973907472,10|0,0:0|0:0,0:0:0:0:
49,94,90694,1,0,1:0:0:0:
51,85,90776,1,0,1:0:0:0:
53,76,90857,6,0,L|222:54,1,170.999994781494,2|0,1:0|1:0,0:0:0:0:
336,44,91100,1,0,1:0:0:0:
336,52,91181,2,0,L|314:221,1,170.999994781494,8|0,0:0|1:0,0:0:0:0:
304,296,91424,1,0,1:0:0:0:
302,304,91505,5,0,1:0:0:0:
342,335,91586,1,0,1:0:0:0:
392,344,91667,1,0,1:0:0:0:
443,341,91749,1,0,1:0:0:0:
486,314,91830,2,0,P|492:263|471:205,1,85.4999973907472,8|0,0:0|0:0,0:0:0:0:
431,134,91992,1,0,1:0:0:0:
424,127,92073,1,0,1:0:0:0:
417,120,92154,6,0,B|341:157|341:157|234:113,1,170.999994781494,2|0,1:0|1:0,0:0:0:0:
238,111,92397,1,0,1:0:0:0:
214,99,92478,1,8,0:0:0:0:
198,364,92640,1,0,1:0:0:0:
3,140,92803,5,8,1:2:0:0:
52,125,92884,1,8,0:2:0:0:
102,132,92965,1,8,1:2:0:0:
143,162,93046,1,8,0:2:0:0:
161,209,93127,1,8,0:2:0:0:
191,279,93208,1,8,0:2:0:0:
260,311,93289,1,8,1:2:0:0:
336,308,93370,1,8,0:2:0:0:
395,259,93451,6,0,L|373:90,1,170.999994781494,14|0,1:2|1:0,0:0:0:0:
329,12,93694,1,0,1:0:0:0:
321,16,93776,2,0,B|288:38|288:38|215:23,1,85.4999973907472,8|0,0:0|0:0,0:0:0:0:
143,116,93938,2,0,B|176:94|176:94|249:109,1,85.4999973907472,0|0,1:0|0:0,0:0:0:0:
484,220,94100,2,0,P|453:186|313:203,1,170.999994781494,2|0,1:0|1:0,0:0:0:0:
255,223,94343,1,0,1:0:0:0:
256,231,94424,2,0,L|267:315,1,85.4999973907472,8|0,0:0|0:0,0:0:0:0:
406,343,94586,2,0,L|394:258,1,85.4999973907472,0|0,1:0|0:0,0:0:0:0:
510,22,94749,6,0,P|454:83|371:81,1,170.999994781494,2|0,1:0|1:0,0:0:0:0:
349,68,94992,1,0,1:0:0:0:
332,48,95073,1,8,0:0:0:0:
267,315,95235,1,2,1:0:0:0:
469,283,95397,2,0,P|427:283|388:247,1,85.4999973907472,0|0,1:0|0:0,0:0:0:0:
315,228,95559,2,0,P|336:191|386:175,1,85.4999973907472,0|0,1:0|0:0,0:0:0:0:
439,128,95721,2,0,P|460:164|449:215,1,85.4999973907472,10|0,0:0|0:0,0:0:0:0:
324,351,95884,1,0,1:0:0:0:
315,349,95965,1,0,1:0:0:0:
306,347,96046,6,0,L|71:315,1,170.999994781494,2|0,1:0|1:0,0:0:0:0:
111,320,96289,1,0,1:0:0:0:
85,316,96370,1,8,0:0:0:0:
48,67,96532,2,0,L|63:159,1,85.4999973907472,0|0,1:0|0:0,0:0:0:0:
0,290,96694,5,2,1:0:0:0:
30,247,96776,1,0,1:0:0:0:
78,230,96857,1,0,1:0:0:0:
128,235,96938,1,0,1:0:0:0:
167,268,97019,2,0,P|225:283|260:270,1,85.4999973907472,8|0,0:0|0:0,0:0:0:0:
477,99,97181,5,0,1:0:0:0:
477,99,97262,1,0,1:0:0:0:
477,99,97343,2,0,L|383:171,1,85.4999973907472,10|8,1:0|1:0,0:0:0:0:
179,119,97505,2,0,L|288:163,1,85.4999973907472,8|8,1:0|1:0,0:0:0:0:
360,363,97667,2,0,L|344:246,1,85.4999973907472,8|8,1:0|1:0,0:0:0:0:
325,25,97830,1,8,1:0:0:0:
502,340,97992,5,8,0:0:0:0:
435,379,98073,1,8,0:0:0:0:
360,363,98154,1,8,0:0:0:0:
313,302,98235,1,8,0:0:0:0:
308,224,98316,2,0,L|395:174,1,85.4999973907472,8|8,0:0|0:0,0:0:0:0:
501,119,98478,1,8,0:0:0:0:
502,127,98559,1,8,0:0:0:0:
503,134,98640,6,0,P|412:165|322:87,1,190,6|0,1:0|1:0,0:0:0:0:
256,64,98884,1,0,1:0:0:0:
263,67,98965,2,0,P|314:80|369:58,1,85.4999973907472,8|0,0:0|0:0,0:0:0:0:
473,10,99127,2,0,P|436:47|427:106,1,85.4999973907472,0|0,1:0|0:0,0:0:0:0:
470,366,99289,6,0,P|483:257|406:175,1,170.999994781494,2|0,1:0|1:0,0:0:0:0:
377,174,99532,1,0,1:0:0:0:
368,174,99613,2,0,L|244:183,1,85.4999973907472,8|0,0:0|0:0,0:0:0:0:
161,287,99776,2,0,L|198:210,1,85.4999973907472,0|0,1:0|0:0,0:0:0:0:
31,15,99938,6,0,B|62:102|62:102|15:199,1,170.999994781494,2|0,1:0|1:0,0:0:0:0:
18,196,100181,1,0,1:0:0:0:
7,219,100262,1,8,0:0:0:0:
302,0,100424,1,2,1:0:0:0:
161,287,100586,2,0,L|123:210,1,85.4999973907472,0|0,1:0|0:0,0:0:0:0:
81,101,100749,2,0,L|166:107,1,85.4999973907472,0|0,1:0|0:0,0:0:0:0:
293,115,100911,2,0,L|245:185,1,85.4999973907472,10|0,0:0|0:0,0:0:0:0:
161,287,101073,1,0,1:0:0:0:
156,294,101154,1,0,1:0:0:0:
151,301,101235,6,0,L|328:328,1,170.999994781494,2|0,1:0|1:0,0:0:0:0:
402,283,101478,1,0,1:0:0:0:
402,291,101559,1,8,0:0:0:0:
370,331,101640,1,0,1:0:0:0:
320,343,101721,1,0,1:0:0:0:
268,333,101803,1,0,1:0:0:0:
237,292,101884,6,0,P|227:199|305:130,1,170.999994781494,0|0,1:0|1:0,0:0:0:0:
344,77,102127,1,0,1:0:0:0:
351,79,102208,1,8,0:0:0:0:
299,72,102289,1,0,1:0:0:0:
248,66,102370,1,0,1:0:0:0:
197,58,102451,1,0,1:0:0:0:
145,51,102532,6,0,L|131:157,1,85.4999973907472,2|0,1:0|0:0,0:0:0:0:
0,261,102694,2,0,L|98:220,1,85.4999973907472,0|0,1:0|0:0,0:0:0:0:
254,284,102856,2,0,L|169:218,1,85.4999973907472,8|0,0:0|0:0,0:0:0:0:
27,111,103018,1,0,1:0:0:0:
190,373,103181,5,8,0:0:0:0:
266,377,103262,1,8,0:0:0:0:
331,336,103343,1,8,0:0:0:0:
348,261,103424,1,8,0:0:0:0:
303,198,103505,1,8,0:0:0:0:
246,133,103586,1,8,0:0:0:0:
251,47,103667,1,8,0:0:0:0:
325,2,103749,1,8,0:0:0:0:
409,16,103830,6,0,L|429:248,1,170.999994781494,14|0,1:2|1:0,0:0:0:0:
435,298,104073,1,0,1:0:0:0:
426,295,104154,2,0,L|314:246,1,85.4999973907472,8|0,0:0|0:0,0:0:0:0:
194,320,104316,2,0,L|292:248,1,85.4999973907472,0|0,1:0|0:0,0:0:0:0:
287,104,104478,1,0,1:0:0:0:
287,104,104559,1,0,1:0:0:0:
287,104,104640,2,0,L|300:224,1,85.4999973907472,0|0,1:0|0:0,0:0:0:0:
321,356,104803,1,8,0:0:0:0:
228,29,104965,6,0,P|195:53|142:51,1,85.4999973907472,0|0,1:0|0:0,0:0:0:0:
37,96,105127,2,0,P|123:66|195:128,1,170.999994781494,2|0,1:0|1:0,0:0:0:0:
239,166,105370,1,0,1:0:0:0:
243,172,105451,2,0,P|307:185|327:173,1,85.4999973907472,8|0,0:0|0:0,0:0:0:0:
422,42,105613,2,0,P|378:90|379:114,1,85.4999973907472,0|0,1:0|0:0,0:0:0:0:
438,259,105776,1,0,1:0:0:0:
438,259,105857,1,0,1:0:0:0:
438,259,105938,2,0,P|417:197|396:185,1,85.4999973907472,0|0,1:0|0:0,0:0:0:0:
287,104,106100,1,8,0:0:0:0:
305,366,106262,6,0,L|206:388,1,85.4999973907472,0|0,1:0|0:0,0:0:0:0:
63,347,106424,2,0,L|295:367,1,170.999994781494,2|0,1:0|1:0,0:0:0:0:
337,258,106667,1,0,1:0:0:0:
328,259,106749,2,0,L|229:281,1,85.4999973907472,8|0,0:0|0:0,0:0:0:0:
102,197,106911,2,0,L|170:271,1,85.4999973907472,0|0,1:0|0:0,0:0:0:0:
244,369,107073,1,0,1:0:0:0:
244,369,107154,1,0,1:0:0:0:
244,369,107235,2,0,L|274:272,1,85.4999973907472,0|0,1:0|0:0,0:0:0:0:
317,132,107397,1,8,0:0:0:0:
488,363,107559,6,0,L|389:385,1,85.4999973907472,0|0,1:0|0:0,0:0:0:0:
317,132,107721,6,0,L|385:206,1,85.4999973907472,2|0,1:0|0:0,0:0:0:0:
459,286,107884,1,0,1:0:0:0:
465,291,107965,1,0,1:0:0:0:
470,297,108046,1,8,0:0:0:0:
420,34,108208,1,0,1:0:0:0:
192,214,108370,1,2,1:0:0:0:
179,182,108451,1,0,1:0:0:0:
182,147,108532,1,0,1:0:0:0:
173,113,108613,1,0,1:0:0:0:
177,79,108694,6,0,L|260:60,1,85.4999973907472,8|0,0:0|0:0,0:0:0:0:
440,142,108857,2,0,L|356:123,1,85.4999973907472,0|0,1:0|0:0,0:0:0:0:
96,260,109019,6,0,P|172:314|257:292,1,170.999994781494,6|8,1:0|0:1,0:0:0:0:
265,288,109262,1,8,0:1:0:0:
281,269,109343,1,8,0:0:0:0:
261,60,109505,1,8,0:1:0:0:
420,365,109667,6,0,L|440:122,1,170.999994781494,0|8,1:0|0:1,0:0:0:0:
437,168,109911,1,8,0:1:0:0:
440,142,109992,1,8,0:0:0:0:
288,384,110154,1,8,0:1:0:0:
458,43,110316,6,0,L|287:57,1,170.999994781494,0|8,1:0|0:1,0:0:0:0:
261,60,110560,1,8,0:1:0:0:
235,63,110641,1,8,0:0:0:0:
512,239,110803,1,8,0:1:0:0:
351,0,110965,5,0,1:0:0:0:
375,54,111046,1,8,0:0:0:0:
363,112,111127,1,8,0:1:0:0:
321,155,111208,1,8,0:0:0:0:
261,161,111289,1,8,0:0:0:0:
219,151,111370,1,8,0:0:0:0:
176,153,111451,1,8,0:1:0:0:
138,173,111532,1,8,0:0:0:0:
112,207,111613,6,0,L|132:-36,1,170.999994781494,2|8,1:0|0:1,0:0:0:0:
128,28,111857,1,8,0:1:0:0:
129,19,111938,1,8,0:0:0:0:
216,340,112100,1,8,0:1:0:0:
24,311,112262,5,8,0:0:0:0:
27,327,112343,1,8,0:0:0:0:
30,343,112424,1,8,0:0:0:0:
214,173,112586,5,8,0:0:0:0:
251,207,112667,1,8,0:0:0:0:
302,213,112749,1,8,0:0:0:0:
352,203,112830,1,8,0:0:0:0:
389,168,112911,5,8,0:0:0:0:
337,171,112992,1,8,0:0:0:0:
301,207,113073,1,8,0:0:0:0:
290,257,113154,1,8,0:0:0:0:
302,306,113235,1,8,0:0:0:0:
345,278,113316,1,8,0:0:0:0:
354,227,113397,1,8,0:0:0:0:
335,179,113478,1,8,0:0:0:0:
292,151,113559,5,8,0:0:0:0:
216,139,113640,1,8,0:0:0:0:
148,176,113721,1,8,0:0:0:0:
127,250,113803,1,8,0:0:0:0:
158,319,113884,1,8,0:0:0:0:
225,355,113965,1,8,0:0:0:0:
301,349,114046,1,12,0:0:0:0:
308,355,114532,6,0,L|326:229,1,71.2500027179719,4|0,1:0|0:0,0:0:0:0:
428,186,114694,2,0,L|309:233,1,71.2500027179719,8|0,1:1|0:0,0:0:0:0:
260,240,114857,5,0,3:0:0:0:
218,221,114938,1,0,3:0:0:0:
191,183,115019,1,8,1:1:0:0:
182,138,115100,1,0,3:0:0:0:
193,93,115181,2,0,L|355:109,1,142.500005435944,8|8,0:0|0:1,0:0:0:0:
348,108,115424,1,8,0:1:0:0:
361,111,115505,5,8,0:1:0:0:
150,4,115667,1,8,1:1:0:0:
150,4,115749,1,0,3:0:0:0:
150,4,115830,5,0,1:0:0:0:
95,20,115911,1,0,3:0:0:0:
63,67,115992,1,8,1:1:0:0:
62,123,116073,1,0,3:0:0:0:
88,173,116154,5,0,1:0:0:0:
138,212,116235,1,0,3:0:0:0:
164,270,116316,1,8,3:1:0:0:
156,333,116397,1,0,3:0:0:0:
115,383,116478,5,0,1:0:0:0:
87,361,116559,1,0,3:0:0:0:
81,325,116640,1,8,1:1:0:0:
93,291,116721,1,0,3:0:0:0:
120,267,116803,6,0,L|261:252,1,142.500005435944,12|8,0:0|0:1,0:0:0:0:
324,203,117046,1,0,3:0:0:0:
331,202,117127,1,8,0:0:0:0:
352,173,117208,1,0,3:0:0:0:
366,140,117289,1,8,1:1:0:0:
364,104,117370,1,0,3:0:0:0:
345,73,117451,5,0,3:0:0:0:
302,65,117532,1,0,3:0:0:0:
260,73,117613,1,8,1:1:0:0:
219,58,117694,1,0,3:0:0:0:
179,76,117776,2,0,B|140:136|140:136|169:239,1,142.500005435944,8|8,0:0|1:1,0:0:0:0:
163,217,118019,1,8,0:1:0:0:
168,230,118100,5,8,0:1:0:0:
56,41,118262,1,8,1:1:0:0:
56,41,118343,1,0,3:0:0:0:
56,41,118424,1,0,3:0:0:0:
47,82,118505,1,0,3:0:0:0:
41,124,118586,2,0,L|28:227,1,71.2500027179719,8|0,1:1|3:0,0:0:0:0:
18,322,118749,5,0,1:0:0:0:
55,303,118830,1,0,3:0:0:0:
97,302,118911,1,8,1:1:0:0:
137,315,118992,1,0,3:0:0:0:
171,339,119073,5,0,1:0:0:0:
238,361,119154,1,0,1:0:0:0:
307,346,119235,1,8,1:1:0:0:
345,286,119316,1,0,1:0:0:0:
338,215,119397,6,0,L|136:235,1,142.500005435944,12|8,1:0|0:1,0:0:0:0:
182,230,119640,1,8,0:1:0:0:
167,231,119721,1,8,0:0:0:0:
295,39,119884,1,8,1:1:0:0:
295,39,119965,1,0,3:0:0:0:
295,39,120046,5,0,3:0:0:0:
365,30,120127,1,0,3:0:0:0:
422,74,120208,1,8,1:1:0:0:
438,143,120289,1,0,3:0:0:0:
414,210,120370,5,8,0:0:0:0:
377,149,120451,1,0,3:0:0:0:
387,78,120532,1,8,3:1:0:0:
435,24,120613,1,0,3:0:0:0:
506,15,120694,5,0,3:0:0:0:
512,42,120776,1,0,3:0:0:0:
508,71,120857,1,8,1:1:0:0:
497,96,120938,1,0,3:0:0:0:
478,118,121019,5,0,3:0:0:0:
467,136,121100,1,0,3:0:0:0:
460,156,121181,1,8,1:1:0:0:
459,177,121262,1,0,3:0:0:0:
466,196,121343,5,0,1:0:0:0:
429,174,121424,1,0,3:0:0:0:
387,164,121505,1,8,3:1:0:0:
344,170,121586,1,0,3:0:0:0:
308,193,121667,6,0,P|266:197|237:184,1,71.2500027179719,0|0,1:0|1:0,0:0:0:0:
103,89,121830,1,8,1:1:0:0:
96,85,121911,1,0,1:0:0:0:
90,80,121992,6,0,L|71:278,1,142.500005435944,4|8,1:0|1:1,0:0:0:0:
74,243,122235,1,8,0:1:0:0:
72,264,122316,1,0,1:0:0:0:
163,12,122478,1,8,0:1:0:0:
389,253,122640,5,0,1:0:0:0:
371,214,122721,1,0,3:0:0:0:
371,170,122803,1,8,1:1:0:0:
385,129,122884,1,0,3:0:0:0:
417,100,122965,2,0,L|496:112,1,71.2500027179719,8|0,0:0|3:0,0:0:0:0:
246,2,123127,1,8,1:1:0:0:
247,8,123208,1,0,1:0:0:0:
248,15,123289,6,0,L|267:213,1,142.500005435944,4|8,1:0|0:1,0:0:0:0:
88,336,123613,5,0,1:0:0:0:
128,277,123694,1,0,3:0:0:0:
122,205,123776,1,8,3:1:0:0:
75,151,123857,1,0,3:0:0:0:
5,135,123938,5,0,1:0:0:0:
2,163,124019,1,0,3:0:0:0:
11,189,124100,1,8,3:1:0:0:
31,208,124181,1,0,3:0:0:0:
55,221,124262,1,0,1:0:0:0:
104,218,124343,1,0,3:0:0:0:
152,208,124424,2,0,P|190:217|229:258,1,71.2500027179719,8|0,1:1|1:0,0:0:0:0:
321,366,124586,6,0,P|297:301|355:204,1,142.500005435944,4|8,1:0|0:1,0:0:0:0:
335,219,124830,1,8,0:1:0:0:
353,209,124911,1,0,1:0:0:0:
196,358,125073,1,8,0:1:0:0:
475,89,125235,5,0,1:0:0:0:
437,109,125316,1,0,3:0:0:0:
394,115,125397,1,8,3:1:0:0:
352,104,125478,1,0,3:0:0:0:
320,75,125559,5,0,1:0:0:0:
390,81,125640,1,0,3:0:0:0:
445,125,125721,1,8,1:1:0:0:
463,194,125803,1,0,3:0:0:0:
440,261,125884,6,0,L|331:239,1,76,4|0,1:0|0:0,0:0:0:0:
169,196,126046,1,0,1:0:0:0:
162,193,126127,1,8,0:1:0:0:
155,190,126208,1,0,1:0:0:0:
322,372,126370,1,0,1:0:0:0:
389,58,126532,6,0,L|411:167,1,76,0|0,1:0|0:0,0:0:0:0:
448,338,126694,1,0,1:0:0:0:
451,345,126775,1,8,0:1:0:0:
454,352,126856,1,0,1:0:0:0:
493,81,127019,1,0,1:0:0:0:
33,289,127181,6,0,L|119:262,1,76,4|0,1:0|0:0,0:0:0:0:
283,200,127343,1,0,1:0:0:0:
291,199,127424,1,8,0:1:0:0:
298,197,127505,1,0,1:0:0:0:
16,80,127667,1,0,1:0:0:0:
187,366,127830,6,0,L|202:237,1,76,0|0,1:0|0:0,0:0:0:0:
218,61,127992,1,0,1:0:0:0:
219,54,128073,1,8,0:1:0:0:
220,47,128154,1,0,1:0:0:0:
59,360,128316,1,0,1:0:0:0:
449,136,128478,5,0,1:0:0:0:
443,211,128559,1,0,1:0:0:0:
393,268,128640,1,0,1:0:0:0:
318,282,128721,1,0,1:0:0:0:
246,254,128803,1,0,1:0:0:0:
210,187,128884,1,0,1:0:0:0:
211,111,128965,1,0,1:0:0:0:
261,53,129046,1,0,1:0:0:0:
335,40,129127,5,0,1:0:0:0:
368,116,129208,1,0,1:0:0:0:
368,199,129289,1,0,1:0:0:0:
308,258,129370,1,0,1:0:0:0:
228,284,129451,1,0,1:0:0:0:
146,266,129532,1,0,1:0:0:0:
96,199,129613,1,0,1:0:0:0:
91,115,129694,1,0,1:0:0:0:
137,44,129776,1,0,1:0:0:0:
137,44,130100,5,4,0:0:0:0:
382,253,130262,6,0,B|437:195|424:133|424:96|394:0|289:-14|176:-39|121:72|88:158|156:234|200:268|262:302|343:300|394:251|527:143|364:116|333:64|244:24|215:35|184:109|204:250|150:305|61:313|-23:226|-34:178|-1:83|121:27|188:153|139:281,1,1246.40001901855,4|0,0:0|0:0,0:0:0:0:
