osu file format v14

[General]
AudioFilename: audio.mp3
AudioLeadIn: 0
PreviewTime: 44316
Countdown: 0
SampleSet: Soft
StackLeniency: 0.7
Mode: 3
LetterboxInBreaks: 0
SpecialStyle: 0
WidescreenStoryboard: 0

[Editor]
Bookmarks: 136050
DistanceSpacing: 1.4
BeatDivisor: 4
GridSize: 32
TimelineZoom: 2.3

[Metadata]
Title:Xevel
TitleUnicode:Xevel
Artist:Tatsh
ArtistUnicode:Tatsh
Creator:Lirai
Version:Expert
Source:CHUNITHM STAR
Tags:TatshMusicCircle Xepher SOUND VOLTEX IV HEAVENLY HAVEN maimai MiLK PLUS GROOVE COASTER STARLIGHT ROAD グルーヴコースター 4 スターライトロード
BeatmapID:2053317
BeatmapSetID:981053

[Difficulty]
HPDrainRate:8.2
CircleSize:4
OverallDifficulty:8.2
ApproachRate:5
SliderMultiplier:1.4
SliderTickRate:1

[Events]
//Background and Video events
0,0,"BG.jpg",0,0
//Break Periods
//Storyboard Layer 0 (Background)
//Storyboard Layer 1 (Fail)
//Storyboard Layer 2 (Pass)
//Storyboard Layer 3 (Foreground)
//Storyboard Layer 4 (Overlay)
//Storyboard Sound Samples

[TimingPoints]
813,340.909090909091,4,2,1,40,1,0
11722,324.324324324324,4,2,1,40,1,0
44154,-100,4,2,1,40,0,1
64911,-100,4,2,1,40,0,0
88262,-100,4,2,1,40,0,1
114208,-100,4,2,1,40,0,0
129694,-71.4285714285714,4,2,1,30,0,0
129857,-166.666666666667,4,2,1,30,0,0
130019,-100,4,2,1,30,0,0
130100,-62.5,4,2,1,30,0,0
130140,-76.9230769230769,4,2,1,30,0,0
130181,-142.857142857143,4,2,1,30,0,0
130221,-250.000000000001,4,2,1,30,0,0
130262,-100,4,2,1,30,0,0

[HitObjects]
64,192,3540,5,4,0:0:0:0:
320,192,3540,1,0,0:0:0:0:
448,192,3540,128,0,4903:0:0:0:0:
192,192,3881,1,0,0:0:0:0:
320,192,4222,1,0,0:0:0:0:
192,192,4563,1,0,0:0:0:0:
64,192,4903,128,0,5415:0:0:0:0:
320,192,4903,1,0,0:0:0:0:
192,192,5585,1,0,0:0:0:0:
448,192,5585,1,0,0:0:0:0:
64,192,5926,1,0,0:0:0:0:
320,192,5926,1,0,0:0:0:0:
192,192,6267,128,0,6778:0:0:0:0:
448,192,6267,128,0,6778:0:0:0:0:
64,192,6949,128,0,7460:0:0:0:0:
320,192,6949,128,0,7460:0:0:0:0:
64,192,7631,128,0,11722:0:0:0:0:
448,192,7631,128,0,11722:0:0:0:0:
192,192,11722,1,0,0:0:0:0:
320,192,11722,1,0,0:0:0:0:
64,192,12370,1,2,0:0:0:0:
448,192,12370,1,0,0:0:0:0:
192,192,12451,1,2,0:0:0:0:
320,192,12451,1,0,0:0:0:0:
64,192,12532,1,2,0:0:0:0:
448,192,12532,1,0,0:0:0:0:
192,192,12613,1,2,0:0:0:0:
320,192,12613,1,0,0:0:0:0:
64,192,12694,1,2,0:0:0:0:
448,192,12694,1,0,0:0:0:0:
192,192,12776,1,2,0:0:0:0:
320,192,12776,1,0,0:0:0:0:
64,192,12857,1,2,0:0:0:0:
448,192,12857,1,0,0:0:0:0:
192,192,12938,1,2,0:0:0:0:
320,192,12938,1,0,0:0:0:0:
64,192,13019,1,2,0:0:0:0:
448,192,13019,1,4,0:0:0:0:
192,192,13181,1,0,0:0:0:0:
320,192,13343,1,2,0:0:0:0:
448,192,13343,1,0,0:0:0:0:
192,192,13424,1,0,0:0:0:0:
64,192,13505,1,0,0:0:0:0:
320,192,13667,1,2,0:0:0:0:
448,192,13667,1,0,0:0:0:0:
192,192,13749,1,0,0:0:0:0:
448,192,13830,1,0,0:0:0:0:
64,192,13992,1,2,0:0:0:0:
320,192,13992,1,0,0:0:0:0:
192,192,14154,1,0,0:0:0:0:
320,192,14235,1,0,0:0:0:0:
64,192,14316,1,2,0:0:0:0:
448,192,14316,1,0,0:0:0:0:
192,192,14478,1,0,0:0:0:0:
320,192,14559,1,0,0:0:0:0:
64,192,14640,1,2,0:0:0:0:
192,192,14640,1,0,0:0:0:0:
448,192,14803,1,0,0:0:0:0:
64,192,14965,1,2,0:0:0:0:
320,192,14965,1,0,0:0:0:0:
192,192,15046,1,0,0:0:0:0:
320,192,15127,1,0,0:0:0:0:
64,192,15289,1,2,0:0:0:0:
192,192,15289,1,0,0:0:0:0:
64,192,15451,1,2,0:0:0:0:
448,192,15451,1,0,0:0:0:0:
192,192,15613,1,2,0:0:0:0:
320,192,15613,1,0,0:0:0:0:
448,192,15776,1,0,0:0:0:0:
320,192,15857,1,0,0:0:0:0:
64,192,15938,1,2,0:0:0:0:
192,192,15938,1,0,0:0:0:0:
320,192,16100,1,0,0:0:0:0:
64,192,16262,1,2,0:0:0:0:
448,192,16262,1,0,0:0:0:0:
192,192,16343,1,0,0:0:0:0:
320,192,16424,1,0,0:0:0:0:
64,192,16586,1,2,0:0:0:0:
448,192,16586,1,0,0:0:0:0:
64,192,16749,1,2,0:0:0:0:
320,192,16749,1,0,0:0:0:0:
192,192,16911,1,2,0:0:0:0:
448,192,16911,1,0,0:0:0:0:
320,192,17073,1,0,0:0:0:0:
64,192,17235,1,0,0:0:0:0:
320,192,17397,1,0,0:0:0:0:
64,192,17559,1,2,0:0:0:0:
192,192,17559,1,0,0:0:0:0:
320,192,17640,1,2,0:0:0:0:
448,192,17640,1,0,0:0:0:0:
64,192,17721,1,2,0:0:0:0:
192,192,17721,1,0,0:0:0:0:
320,192,17803,1,2,0:0:0:0:
448,192,17803,1,0,0:0:0:0:
64,192,17884,1,2,0:0:0:0:
192,192,17884,1,0,0:0:0:0:
320,192,17965,1,2,0:0:0:0:
448,192,17965,1,0,0:0:0:0:
64,192,18046,1,2,0:0:0:0:
192,192,18046,1,0,0:0:0:0:
320,192,18127,1,2,0:0:0:0:
448,192,18127,1,0,0:0:0:0:
64,192,18208,1,2,0:0:0:0:
192,192,18208,1,4,0:0:0:0:
448,192,18289,1,0,0:0:0:0:
320,192,18370,1,0,0:0:0:0:
192,192,18451,1,0,0:0:0:0:
64,192,18532,1,2,0:0:0:0:
448,192,18532,1,0,0:0:0:0:
320,192,18613,1,0,0:0:0:0:
192,192,18694,1,0,0:0:0:0:
320,192,18776,1,0,0:0:0:0:
64,192,18857,1,2,0:0:0:0:
448,192,18857,1,0,0:0:0:0:
192,192,18938,1,0,0:0:0:0:
320,192,19019,1,0,0:0:0:0:
448,192,19100,1,0,0:0:0:0:
64,192,19181,1,2,0:0:0:0:
192,192,19181,1,0,0:0:0:0:
320,192,19262,1,0,0:0:0:0:
192,192,19343,1,0,0:0:0:0:
64,192,19424,1,0,0:0:0:0:
320,192,19505,1,2,0:0:0:0:
448,192,19505,1,0,0:0:0:0:
192,192,19586,1,0,0:0:0:0:
320,192,19667,1,0,0:0:0:0:
192,192,19749,1,0,0:0:0:0:
64,192,19830,1,2,0:0:0:0:
448,192,19830,1,0,0:0:0:0:
320,192,19911,1,0,0:0:0:0:
192,192,19992,1,0,0:0:0:0:
320,192,20073,1,0,0:0:0:0:
64,192,20154,1,2,0:0:0:0:
448,192,20154,1,0,0:0:0:0:
192,192,20235,1,0,0:0:0:0:
320,192,20316,1,0,0:0:0:0:
192,192,20397,1,0,0:0:0:0:
64,192,20478,1,2,0:0:0:0:
448,192,20478,1,0,0:0:0:0:
320,192,20559,1,0,0:0:0:0:
192,192,20640,1,0,0:0:0:0:
64,192,20721,1,0,0:0:0:0:
320,192,20803,1,2,0:0:0:0:
448,192,20803,1,0,0:0:0:0:
192,192,20884,1,0,0:0:0:0:
320,192,20965,1,0,0:0:0:0:
64,192,21046,1,0,0:0:0:0:
192,192,21127,1,2,0:0:0:0:
448,192,21127,1,0,0:0:0:0:
320,192,21208,1,0,0:0:0:0:
64,192,21289,1,0,0:0:0:0:
192,192,21370,1,0,0:0:0:0:
320,192,21451,1,2,0:0:0:0:
448,192,21451,1,0,0:0:0:0:
192,192,21532,1,0,0:0:0:0:
320,192,21613,1,0,0:0:0:0:
448,192,21694,1,0,0:0:0:0:
64,192,21776,1,2,0:0:0:0:
192,192,21776,1,0,0:0:0:0:
320,192,21857,1,0,0:0:0:0:
192,192,21938,1,2,0:0:0:0:
64,192,22019,1,0,0:0:0:0:
320,192,22100,1,2,0:0:0:0:
448,192,22100,1,0,0:0:0:0:
64,192,22181,1,0,0:0:0:0:
192,192,22262,1,0,0:0:0:0:
320,192,22343,1,0,0:0:0:0:
64,192,22424,1,2,0:0:0:0:
448,192,22424,1,0,0:0:0:0:
192,192,22505,1,0,0:0:0:0:
320,192,22586,1,0,0:0:0:0:
448,192,22667,1,0,0:0:0:0:
64,192,22749,1,2,0:0:0:0:
192,192,22749,1,4,0:0:0:0:
320,192,22830,1,0,0:0:0:0:
64,192,22911,1,2,0:0:0:0:
192,192,22911,1,4,0:0:0:0:
320,192,22992,1,0,0:0:0:0:
64,192,23073,1,2,0:0:0:0:
192,192,23073,1,4,0:0:0:0:
320,192,23154,1,0,0:0:0:0:
192,192,23235,1,0,0:0:0:0:
320,192,23316,1,0,0:0:0:0:
64,192,23397,1,2,0:0:0:0:
448,192,23397,1,4,0:0:0:0:
320,192,23478,1,0,0:0:0:0:
192,192,23559,1,0,0:0:0:0:
320,192,23640,1,0,0:0:0:0:
64,192,23721,1,2,0:0:0:0:
192,192,23721,1,0,0:0:0:0:
448,192,23803,1,0,0:0:0:0:
320,192,23884,1,0,0:0:0:0:
192,192,23965,1,0,0:0:0:0:
64,192,24046,1,2,0:0:0:0:
448,192,24046,1,0,0:0:0:0:
192,192,24127,1,0,0:0:0:0:
320,192,24208,1,0,0:0:0:0:
192,192,24289,1,0,0:0:0:0:
64,192,24370,1,2,0:0:0:0:
448,192,24370,1,0,0:0:0:0:
320,192,24451,1,0,0:0:0:0:
192,192,24532,1,0,0:0:0:0:
320,192,24613,1,0,0:0:0:0:
192,192,24694,1,2,0:0:0:0:
448,192,24694,1,0,0:0:0:0:
64,192,24776,1,0,0:0:0:0:
320,192,24857,1,0,0:0:0:0:
192,192,24938,1,0,0:0:0:0:
320,192,25019,1,2,0:0:0:0:
448,192,25019,1,0,0:0:0:0:
64,192,25100,1,0,0:0:0:0:
192,192,25181,1,0,0:0:0:0:
320,192,25262,1,0,0:0:0:0:
64,192,25343,1,2,0:0:0:0:
448,192,25343,1,0,0:0:0:0:
192,192,25424,1,0,0:0:0:0:
320,192,25505,1,0,0:0:0:0:
192,192,25586,1,0,0:0:0:0:
320,192,25667,1,2,0:0:0:0:
448,192,25667,1,0,0:0:0:0:
192,192,25749,1,0,0:0:0:0:
64,192,25830,1,2,0:0:0:0:
448,192,25911,1,0,0:0:0:0:
192,192,25992,1,2,0:0:0:0:
320,192,25992,1,0,0:0:0:0:
64,192,26073,1,0,0:0:0:0:
448,192,26154,1,0,0:0:0:0:
320,192,26235,1,0,0:0:0:0:
64,192,26316,1,2,0:0:0:0:
192,192,26316,1,0,0:0:0:0:
320,192,26397,1,0,0:0:0:0:
192,192,26478,1,0,0:0:0:0:
320,192,26559,1,0,0:0:0:0:
64,192,26640,1,2,0:0:0:0:
448,192,26640,1,0,0:0:0:0:
192,192,26721,1,0,0:0:0:0:
320,192,26803,1,0,0:0:0:0:
448,192,26884,1,0,0:0:0:0:
192,192,26965,1,2,0:0:0:0:
320,192,26965,1,0,0:0:0:0:
64,192,27046,1,0,0:0:0:0:
192,192,27127,1,0,0:0:0:0:
320,192,27208,1,0,0:0:0:0:
64,192,27289,1,4,0:0:0:0:
448,192,27289,1,2,0:0:0:0:
64,192,27613,1,4,0:0:0:0:
320,192,27613,1,2,0:0:0:0:
192,192,27938,1,2,0:0:0:0:
448,192,27938,1,0,0:0:0:0:
64,192,28019,1,2,0:0:0:0:
320,192,28019,1,0,0:0:0:0:
192,192,28100,1,2,0:0:0:0:
448,192,28100,1,4,0:0:0:0:
64,192,28262,1,2,0:0:0:0:
448,192,28262,1,4,0:0:0:0:
64,192,28424,1,2,0:0:0:0:
320,192,28424,1,4,0:0:0:0:
192,192,28586,1,4,0:0:0:0:
320,192,28586,1,2,0:0:0:0:
64,192,28667,1,0,0:0:0:0:
448,192,28749,1,0,0:0:0:0:
320,192,28830,1,0,0:0:0:0:
64,192,28911,1,2,0:0:0:0:
192,192,28911,1,0,0:0:0:0:
320,192,28992,1,0,0:0:0:0:
448,192,29073,1,0,0:0:0:0:
320,192,29154,1,0,0:0:0:0:
192,192,29235,1,2,0:0:0:0:
448,192,29235,1,0,0:0:0:0:
64,192,29316,1,0,0:0:0:0:
192,192,29397,1,0,0:0:0:0:
320,192,29478,1,0,0:0:0:0:
64,192,29559,1,2,0:0:0:0:
448,192,29559,1,0,0:0:0:0:
192,192,29640,1,0,0:0:0:0:
320,192,29721,1,0,0:0:0:0:
192,192,29803,1,0,0:0:0:0:
64,192,29884,1,2,0:0:0:0:
448,192,29884,1,0,0:0:0:0:
320,192,29965,1,0,0:0:0:0:
192,192,30046,1,0,0:0:0:0:
64,192,30127,1,0,0:0:0:0:
320,192,30208,1,2,0:0:0:0:
448,192,30208,1,0,0:0:0:0:
192,192,30289,1,0,0:0:0:0:
64,192,30370,1,0,0:0:0:0:
448,192,30451,1,0,0:0:0:0:
64,192,30532,1,2,0:0:0:0:
320,192,30532,1,0,0:0:0:0:
192,192,30613,1,0,0:0:0:0:
320,192,30694,1,0,0:0:0:0:
192,192,30776,1,0,0:0:0:0:
64,192,30857,1,2,0:0:0:0:
448,192,30857,1,0,0:0:0:0:
320,192,30938,1,0,0:0:0:0:
64,192,31019,1,2,0:0:0:0:
192,192,31019,1,0,0:0:0:0:
320,192,31100,1,0,0:0:0:0:
64,192,31181,1,2,0:0:0:0:
448,192,31181,1,0,0:0:0:0:
192,192,31262,1,0,0:0:0:0:
320,192,31343,1,0,0:0:0:0:
192,192,31424,1,0,0:0:0:0:
64,192,31505,1,2,0:0:0:0:
448,192,31505,1,0,0:0:0:0:
320,192,31586,1,0,0:0:0:0:
192,192,31667,1,0,0:0:0:0:
320,192,31749,1,0,0:0:0:0:
64,192,31830,1,2,0:0:0:0:
448,192,31830,1,0,0:0:0:0:
192,192,31911,1,0,0:0:0:0:
320,192,31992,1,0,0:0:0:0:
192,192,32073,1,0,0:0:0:0:
320,192,32154,1,2,0:0:0:0:
448,192,32154,1,0,0:0:0:0:
64,192,32235,1,0,0:0:0:0:
192,192,32316,1,2,0:0:0:0:
448,192,32316,1,0,0:0:0:0:
320,192,32397,1,0,0:0:0:0:
64,192,32478,1,2,0:0:0:0:
192,192,32478,1,4,0:0:0:0:
320,192,32559,1,0,0:0:0:0:
64,192,32640,1,4,0:0:0:0:
192,192,32640,1,2,0:0:0:0:
320,192,32721,1,0,0:0:0:0:
64,192,32803,1,4,0:0:0:0:
448,192,32803,1,2,0:0:0:0:
192,192,32884,1,0,0:0:0:0:
320,192,32965,1,0,0:0:0:0:
448,192,33046,1,0,0:0:0:0:
64,192,33127,1,2,0:0:0:0:
192,192,33127,1,0,0:0:0:0:
320,192,33208,1,2,0:0:0:0:
448,192,33208,1,0,0:0:0:0:
64,192,33289,1,2,0:0:0:0:
192,192,33289,1,0,0:0:0:0:
320,192,33451,1,2,0:0:0:0:
448,192,33451,1,0,0:0:0:0:
64,192,33532,1,2,0:0:0:0:
192,192,33532,1,0,0:0:0:0:
320,192,33613,1,2,0:0:0:0:
448,192,33613,1,0,0:0:0:0:
64,192,33694,1,2,0:0:0:0:
192,192,33694,1,0,0:0:0:0:
320,192,33776,1,2,0:0:0:0:
448,192,33776,1,4,0:0:0:0:
64,192,33938,1,0,0:0:0:0:
192,192,34100,1,0,0:0:0:0:
320,192,34262,1,0,0:0:0:0:
64,192,34424,1,0,0:0:0:0:
448,192,34424,1,0,0:0:0:0:
192,192,34586,1,0,0:0:0:0:
320,192,34667,1,0,0:0:0:0:
64,192,34749,1,0,0:0:0:0:
448,192,34911,1,0,0:0:0:0:
64,192,35073,1,0,0:0:0:0:
320,192,35073,1,0,0:0:0:0:
320,192,36208,1,0,0:0:0:0:
192,192,36289,1,0,0:0:0:0:
64,192,36370,1,0,0:0:0:0:
448,192,36370,1,0,0:0:0:0:
192,192,36532,1,0,0:0:0:0:
320,192,36694,1,0,0:0:0:0:
448,192,36857,1,0,0:0:0:0:
64,192,37019,1,0,0:0:0:0:
192,192,37019,1,0,0:0:0:0:
320,192,37181,1,0,0:0:0:0:
448,192,37262,1,0,0:0:0:0:
64,192,37343,1,0,0:0:0:0:
192,192,37505,1,0,0:0:0:0:
64,192,37667,1,0,0:0:0:0:
320,192,37667,1,0,0:0:0:0:
320,192,38316,1,2,0:0:0:0:
448,192,38316,1,0,0:0:0:0:
192,192,38397,1,2,0:0:0:0:
64,192,38478,1,2,0:0:0:0:
448,192,38478,1,0,0:0:0:0:
320,192,38559,1,2,0:0:0:0:
64,192,38640,1,2,0:0:0:0:
192,192,38640,1,0,0:0:0:0:
320,192,38721,1,2,0:0:0:0:
64,192,38803,1,2,0:0:0:0:
448,192,38803,1,0,0:0:0:0:
192,192,38884,1,2,0:0:0:0:
320,192,38965,1,2,0:0:0:0:
448,192,38965,1,4,0:0:0:0:
64,192,39046,1,0,0:0:0:0:
320,192,39127,1,0,0:0:0:0:
192,192,39208,1,0,0:0:0:0:
448,192,39289,1,0,0:0:0:0:
64,192,39370,1,0,0:0:0:0:
320,192,39451,1,0,0:0:0:0:
192,192,39532,1,0,0:0:0:0:
448,192,39613,1,0,0:0:0:0:
64,192,39694,1,0,0:0:0:0:
320,192,39776,1,0,0:0:0:0:
192,192,39857,1,0,0:0:0:0:
448,192,39938,1,0,0:0:0:0:
64,192,40019,1,0,0:0:0:0:
320,192,40100,1,0,0:0:0:0:
192,192,40181,1,0,0:0:0:0:
320,192,40262,1,2,0:0:0:0:
448,192,40262,1,0,0:0:0:0:
64,192,40343,1,0,0:0:0:0:
448,192,40424,1,0,0:0:0:0:
192,192,40505,1,0,0:0:0:0:
64,192,40586,1,2,0:0:0:0:
448,192,40586,1,4,0:0:0:0:
320,192,40667,1,0,0:0:0:0:
64,192,40749,1,2,0:0:0:0:
192,192,40749,1,0,0:0:0:0:
320,192,40830,1,0,0:0:0:0:
64,192,40911,1,2,0:0:0:0:
192,192,40911,1,0,0:0:0:0:
448,192,40992,1,0,0:0:0:0:
192,192,41073,1,0,0:0:0:0:
64,192,41154,1,0,0:0:0:0:
320,192,41235,1,2,0:0:0:0:
448,192,41235,1,0,0:0:0:0:
192,192,41316,1,0,0:0:0:0:
320,192,41397,1,2,0:0:0:0:
448,192,41397,1,0,0:0:0:0:
192,192,41478,1,0,0:0:0:0:
64,192,41559,1,2,0:0:0:0:
448,192,41559,1,4,0:0:0:0:
320,192,41640,1,0,0:0:0:0:
64,192,41721,1,2,0:0:0:0:
192,192,41721,1,0,0:0:0:0:
448,192,41803,1,0,0:0:0:0:
192,192,41884,1,2,0:0:0:0:
320,192,41884,1,0,0:0:0:0:
64,192,41965,1,0,0:0:0:0:
320,192,42046,1,2,0:0:0:0:
448,192,42046,1,0,0:0:0:0:
64,192,42127,1,0,0:0:0:0:
192,192,42208,1,2,0:0:0:0:
320,192,42208,1,0,0:0:0:0:
448,192,42289,1,0,0:0:0:0:
64,192,42370,1,2,0:0:0:0:
192,192,42370,1,0,0:0:0:0:
320,192,42451,1,0,0:0:0:0:
64,192,42532,1,2,0:0:0:0:
192,192,42532,1,0,0:0:0:0:
448,192,42613,1,0,0:0:0:0:
192,192,42694,1,2,0:0:0:0:
320,192,42694,1,0,0:0:0:0:
64,192,42776,1,0,0:0:0:0:
320,192,42857,1,2,0:0:0:0:
448,192,42857,1,0,0:0:0:0:
192,192,42938,1,2,0:0:0:0:
320,192,43019,1,2,0:0:0:0:
448,192,43019,1,0,0:0:0:0:
64,192,43100,1,2,0:0:0:0:
192,192,43181,1,2,0:0:0:0:
320,192,43181,1,0,0:0:0:0:
448,192,43262,1,2,0:0:0:0:
64,192,43343,1,2,0:0:0:0:
192,192,43343,1,0,0:0:0:0:
320,192,43424,1,2,0:0:0:0:
64,192,43505,1,2,0:0:0:0:
448,192,43505,1,4,0:0:0:0:
64,192,43749,1,0,0:0:0:0:
448,192,43749,1,0,0:0:0:0:
64,192,43992,1,2,0:0:0:0:
448,192,43992,1,0,0:0:0:0:
192,192,44073,1,2,0:0:0:0:
320,192,44073,1,0,0:0:0:0:
64,192,44154,128,2,44316:0:0:0:0:
448,192,44154,1,4,0:0:0:0:
320,192,44316,1,0,0:0:0:0:
192,192,44478,1,2,0:0:0:0:
448,192,44478,1,0,0:0:0:0:
64,192,44640,1,0,0:0:0:0:
320,192,44803,1,2,0:0:0:0:
448,192,44803,128,0,44965:0:0:0:0:
192,192,44965,1,0,0:0:0:0:
64,192,45127,1,2,0:0:0:0:
320,192,45127,1,0,0:0:0:0:
64,192,45289,1,2,0:0:0:0:
448,192,45289,1,0,0:0:0:0:
192,192,45451,1,2,0:0:0:0:
448,192,45451,128,0,45613:0:0:0:0:
320,192,45613,1,0,0:0:0:0:
64,192,45776,1,2,0:0:0:0:
192,192,45776,1,0,0:0:0:0:
320,192,45938,1,0,0:0:0:0:
192,192,46100,128,2,46262:0:0:0:0:
448,192,46100,1,0,0:0:0:0:
64,192,46262,1,0,0:0:0:0:
320,192,46424,1,2,0:0:0:0:
448,192,46424,1,0,0:0:0:0:
192,192,46586,1,2,0:0:0:0:
448,192,46586,1,0,0:0:0:0:
64,192,46749,128,2,46911:0:0:0:0:
448,192,46749,1,0,0:0:0:0:
192,192,46911,128,0,47073:0:0:0:0:
320,192,47073,1,2,0:0:0:0:
448,192,47073,128,0,47235:0:0:0:0:
192,192,47235,128,0,47397:0:0:0:0:
64,192,47397,1,2,0:0:0:0:
320,192,47397,128,0,47559:0:0:0:0:
192,192,47559,128,0,47721:0:0:0:0:
64,192,47721,1,2,0:0:0:0:
448,192,47721,128,0,47884:0:0:0:0:
320,192,47884,1,2,0:0:0:0:
64,192,48046,128,2,48208:0:0:0:0:
192,192,48046,1,0,0:0:0:0:
320,192,48208,128,0,48370:0:0:0:0:
64,192,48370,1,2,0:0:0:0:
192,192,48370,128,0,48532:0:0:0:0:
448,192,48532,128,0,48694:0:0:0:0:
64,192,48694,1,4,0:0:0:0:
192,192,48694,1,2,0:0:0:0:
320,192,48776,1,0,0:0:0:0:
64,192,48857,1,4,0:0:0:0:
192,192,48857,1,2,0:0:0:0:
320,192,48938,1,0,0:0:0:0:
64,192,49019,1,4,0:0:0:0:
448,192,49019,1,2,0:0:0:0:
192,192,49100,1,0,0:0:0:0:
320,192,49181,1,4,0:0:0:0:
448,192,49181,1,2,0:0:0:0:
192,192,49262,1,0,0:0:0:0:
64,192,49343,1,4,0:0:0:0:
320,192,49343,1,2,0:0:0:0:
448,192,49343,1,0,0:0:0:0:
192,192,49505,1,0,0:0:0:0:
64,192,49667,1,2,0:0:0:0:
448,192,49667,1,0,0:0:0:0:
320,192,49830,1,0,0:0:0:0:
192,192,49992,128,2,50154:0:0:0:0:
448,192,49992,1,0,0:0:0:0:
320,192,50154,1,0,0:0:0:0:
64,192,50316,1,2,0:0:0:0:
192,192,50316,1,0,0:0:0:0:
64,192,50478,1,2,0:0:0:0:
320,192,50478,1,0,0:0:0:0:
64,192,50640,1,2,0:0:0:0:
448,192,50640,128,0,50803:0:0:0:0:
192,192,50803,1,0,0:0:0:0:
64,192,50965,128,2,51127:0:0:0:0:
448,192,50965,1,0,0:0:0:0:
320,192,51127,1,0,0:0:0:0:
192,192,51289,1,2,0:0:0:0:
448,192,51289,128,0,51451:0:0:0:0:
64,192,51451,1,0,0:0:0:0:
192,192,51613,1,2,0:0:0:0:
320,192,51613,1,0,0:0:0:0:
320,192,51776,1,2,0:0:0:0:
448,192,51776,1,0,0:0:0:0:
64,192,51938,128,2,52100:0:0:0:0:
320,192,51938,1,0,0:0:0:0:
448,192,52100,1,0,0:0:0:0:
192,192,52262,1,2,0:0:0:0:
320,192,52262,128,0,52424:0:0:0:0:
64,192,52424,1,0,0:0:0:0:
320,192,52586,1,2,0:0:0:0:
448,192,52586,128,0,52749:0:0:0:0:
192,192,52749,1,0,0:0:0:0:
64,192,52911,1,2,0:0:0:0:
448,192,52911,128,0,53073:0:0:0:0:
320,192,53073,128,0,53235:0:0:0:0:
64,192,53235,1,2,0:0:0:0:
192,192,53235,1,4,0:0:0:0:
448,192,53235,1,0,0:0:0:0:
64,192,53397,1,2,0:0:0:0:
192,192,53397,1,4,0:0:0:0:
448,192,53397,1,0,0:0:0:0:
64,192,53559,1,2,0:0:0:0:
320,192,53559,1,4,0:0:0:0:
448,192,53559,1,0,0:0:0:0:
64,192,53721,1,2,0:0:0:0:
320,192,53721,1,4,0:0:0:0:
448,192,53721,1,0,0:0:0:0:
64,192,53884,1,2,0:0:0:0:
192,192,53884,1,0,0:0:0:0:
320,192,53965,1,2,0:0:0:0:
448,192,53965,1,0,0:0:0:0:
64,192,54046,1,2,0:0:0:0:
192,192,54046,1,0,0:0:0:0:
320,192,54127,1,2,0:0:0:0:
448,192,54127,1,0,0:0:0:0:
64,192,54208,1,2,0:0:0:0:
192,192,54208,1,0,0:0:0:0:
320,192,54289,1,2,0:0:0:0:
448,192,54289,1,0,0:0:0:0:
64,192,54370,1,2,0:0:0:0:
192,192,54370,1,0,0:0:0:0:
320,192,54451,1,2,0:0:0:0:
448,192,54451,1,0,0:0:0:0:
64,192,54532,1,4,0:0:0:0:
192,192,54532,1,2,0:0:0:0:
320,192,54694,1,0,0:0:0:0:
64,192,54857,1,2,0:0:0:0:
448,192,54857,1,0,0:0:0:0:
192,192,55019,1,0,0:0:0:0:
192,192,55181,128,2,55505:0:0:0:0:
448,192,55181,1,0,0:0:0:0:
320,192,55343,1,0,0:0:0:0:
64,192,55505,1,2,0:0:0:0:
448,192,55505,1,0,0:0:0:0:
320,192,55667,1,0,0:0:0:0:
64,192,55830,1,2,0:0:0:0:
320,192,55830,128,0,56154:0:0:0:0:
448,192,55992,1,0,0:0:0:0:
64,192,56154,1,2,0:0:0:0:
192,192,56154,1,0,0:0:0:0:
448,192,56316,1,0,0:0:0:0:
192,192,56478,1,2,0:0:0:0:
448,192,56478,128,0,56803:0:0:0:0:
64,192,56640,1,0,0:0:0:0:
192,192,56803,1,2,0:0:0:0:
320,192,56803,1,0,0:0:0:0:
64,192,56965,1,2,0:0:0:0:
448,192,56965,1,0,0:0:0:0:
64,192,57127,128,2,57451:0:0:0:0:
320,192,57127,1,0,0:0:0:0:
192,192,57289,1,0,0:0:0:0:
320,192,57451,1,2,0:0:0:0:
448,192,57451,1,0,0:0:0:0:
192,192,57613,1,0,0:0:0:0:
192,192,57776,128,2,58100:0:0:0:0:
448,192,57776,1,0,0:0:0:0:
320,192,57938,1,0,0:0:0:0:
64,192,58100,1,2,0:0:0:0:
448,192,58100,1,0,0:0:0:0:
64,192,58262,1,2,0:0:0:0:
320,192,58262,1,0,0:0:0:0:
192,192,58424,1,2,0:0:0:0:
320,192,58424,128,0,58749:0:0:0:0:
448,192,58586,1,0,0:0:0:0:
64,192,58749,1,2,0:0:0:0:
192,192,58749,1,0,0:0:0:0:
448,192,58911,1,0,0:0:0:0:
320,192,59073,1,2,0:0:0:0:
448,192,59073,1,0,0:0:0:0:
64,192,59154,1,2,0:0:0:0:
192,192,59154,1,0,0:0:0:0:
320,192,59235,1,2,0:0:0:0:
448,192,59235,1,0,0:0:0:0:
64,192,59316,1,2,0:0:0:0:
192,192,59316,1,0,0:0:0:0:
320,192,59397,1,2,0:0:0:0:
448,192,59397,1,0,0:0:0:0:
64,192,59478,1,2,0:0:0:0:
192,192,59478,1,0,0:0:0:0:
320,192,59559,1,2,0:0:0:0:
448,192,59559,1,0,0:0:0:0:
64,192,59640,1,2,0:0:0:0:
192,192,59640,1,0,0:0:0:0:
320,192,59721,1,4,0:0:0:0:
448,192,59721,1,2,0:0:0:0:
64,192,59803,1,0,0:0:0:0:
320,192,59884,1,0,0:0:0:0:
192,192,59965,1,0,0:0:0:0:
320,192,60046,1,2,0:0:0:0:
448,192,60046,1,0,0:0:0:0:
64,192,60127,1,0,0:0:0:0:
320,192,60208,1,0,0:0:0:0:
192,192,60289,1,0,0:0:0:0:
64,192,60370,1,2,0:0:0:0:
448,192,60370,1,0,0:0:0:0:
320,192,60451,1,0,0:0:0:0:
192,192,60532,1,0,0:0:0:0:
320,192,60613,1,0,0:0:0:0:
64,192,60694,1,2,0:0:0:0:
448,192,60694,1,0,0:0:0:0:
192,192,60776,1,0,0:0:0:0:
320,192,60857,1,2,0:0:0:0:
64,192,60938,1,0,0:0:0:0:
192,192,61019,1,2,0:0:0:0:
448,192,61019,1,0,0:0:0:0:
320,192,61100,1,0,0:0:0:0:
448,192,61181,1,0,0:0:0:0:
64,192,61262,1,0,0:0:0:0:
192,192,61343,1,2,0:0:0:0:
320,192,61343,1,0,0:0:0:0:
448,192,61424,1,0,0:0:0:0:
64,192,61505,1,0,0:0:0:0:
192,192,61586,1,0,0:0:0:0:
320,192,61667,1,2,0:0:0:0:
448,192,61667,1,0,0:0:0:0:
192,192,61749,1,0,0:0:0:0:
64,192,61830,1,0,0:0:0:0:
448,192,61911,1,0,0:0:0:0:
192,192,61992,1,2,0:0:0:0:
320,192,61992,1,0,0:0:0:0:
64,192,62073,1,0,0:0:0:0:
448,192,62154,1,2,0:0:0:0:
320,192,62235,1,0,0:0:0:0:
64,192,62316,1,2,0:0:0:0:
192,192,62316,1,0,0:0:0:0:
320,192,62397,1,0,0:0:0:0:
64,192,62478,1,0,0:0:0:0:
448,192,62559,1,0,0:0:0:0:
192,192,62640,1,2,0:0:0:0:
320,192,62640,1,0,0:0:0:0:
64,192,62721,1,0,0:0:0:0:
448,192,62803,1,0,0:0:0:0:
192,192,62884,1,0,0:0:0:0:
320,192,62965,1,2,0:0:0:0:
448,192,62965,1,0,0:0:0:0:
64,192,63046,1,0,0:0:0:0:
320,192,63127,1,0,0:0:0:0:
192,192,63208,1,0,0:0:0:0:
64,192,63289,1,2,0:0:0:0:
448,192,63289,1,0,0:0:0:0:
320,192,63370,1,0,0:0:0:0:
192,192,63451,1,2,0:0:0:0:
64,192,63532,1,0,0:0:0:0:
448,192,63613,1,2,0:0:0:0:
320,192,63613,1,0,0:0:0:0:
192,192,63694,1,2,0:0:0:0:
448,192,63776,1,2,0:0:0:0:
320,192,63857,1,2,0:0:0:0:
64,192,63938,1,2,0:0:0:0:
192,192,63938,1,0,0:0:0:0:
320,192,64019,1,2,0:0:0:0:
64,192,64100,1,2,0:0:0:0:
448,192,64100,1,0,0:0:0:0:
192,192,64181,1,2,0:0:0:0:
320,192,64262,1,2,0:0:0:0:
448,192,64262,1,0,0:0:0:0:
64,192,64343,1,2,0:0:0:0:
192,192,64343,1,0,0:0:0:0:
320,192,64424,1,2,0:0:0:0:
448,192,64424,1,0,0:0:0:0:
64,192,64505,1,2,0:0:0:0:
192,192,64505,1,0,0:0:0:0:
320,192,64586,1,2,0:0:0:0:
448,192,64586,1,0,0:0:0:0:
64,192,64667,1,2,0:0:0:0:
192,192,64667,1,0,0:0:0:0:
448,192,64749,1,2,0:0:0:0:
320,192,64789,1,2,0:0:0:0:
192,192,64830,1,2,0:0:0:0:
64,192,64870,1,2,0:0:0:0:
320,192,64911,1,2,0:0:0:0:
448,192,64911,1,4,0:0:0:0:
192,192,65073,1,0,0:0:0:0:
64,192,65235,1,2,0:0:0:0:
448,192,65235,1,0,0:0:0:0:
320,192,65397,1,2,0:0:0:0:
448,192,65397,1,0,0:0:0:0:
192,192,65721,1,0,0:0:0:0:
448,192,65721,1,0,0:0:0:0:
64,192,65884,1,2,0:0:0:0:
448,192,65884,1,0,0:0:0:0:
320,192,66046,1,0,0:0:0:0:
64,192,66370,1,2,0:0:0:0:
448,192,66370,1,0,0:0:0:0:
320,192,66532,1,0,0:0:0:0:
64,192,66694,1,2,0:0:0:0:
448,192,66694,1,0,0:0:0:0:
64,192,66857,1,2,0:0:0:0:
192,192,66857,1,0,0:0:0:0:
320,192,67019,1,0,0:0:0:0:
192,192,67181,1,2,0:0:0:0:
448,192,67181,1,0,0:0:0:0:
64,192,67343,1,0,0:0:0:0:
320,192,67505,1,2,0:0:0:0:
448,192,67505,1,0,0:0:0:0:
64,192,67667,1,0,0:0:0:0:
192,192,67830,1,2,0:0:0:0:
448,192,67830,1,0,0:0:0:0:
320,192,67992,1,2,0:0:0:0:
448,192,67992,1,0,0:0:0:0:
64,192,68316,1,0,0:0:0:0:
448,192,68316,1,0,0:0:0:0:
320,192,68478,1,2,0:0:0:0:
448,192,68478,1,0,0:0:0:0:
64,192,68640,1,0,0:0:0:0:
64,192,68803,1,2,0:0:0:0:
448,192,68803,1,0,0:0:0:0:
64,192,69776,1,2,0:0:0:0:
448,192,69776,1,0,0:0:0:0:
192,192,69857,1,2,0:0:0:0:
320,192,69857,1,0,0:0:0:0:
64,192,69938,1,2,0:0:0:0:
448,192,69938,1,0,0:0:0:0:
192,192,70019,1,2,0:0:0:0:
320,192,70019,1,0,0:0:0:0:
64,192,70100,1,2,0:0:0:0:
448,192,70100,128,4,70424:0:0:0:0:
192,192,70262,1,0,0:0:0:0:
320,192,70262,1,0,0:0:0:0:
64,192,70424,1,2,0:0:0:0:
192,192,70424,1,0,0:0:0:0:
64,192,70586,128,2,70911:0:0:0:0:
320,192,70586,1,0,0:0:0:0:
192,192,70749,1,0,0:0:0:0:
448,192,70749,1,0,0:0:0:0:
320,192,70911,1,2,0:0:0:0:
448,192,70911,1,0,0:0:0:0:
192,192,71073,1,2,0:0:0:0:
320,192,71073,128,0,71397:0:0:0:0:
64,192,71235,1,0,0:0:0:0:
448,192,71235,1,0,0:0:0:0:
64,192,71397,1,0,0:0:0:0:
192,192,71397,1,0,0:0:0:0:
192,192,71559,1,2,0:0:0:0:
448,192,71559,128,0,71884:0:0:0:0:
64,192,71721,1,0,0:0:0:0:
320,192,71721,1,0,0:0:0:0:
192,192,71884,1,2,0:0:0:0:
320,192,71884,1,0,0:0:0:0:
64,192,72046,1,2,0:0:0:0:
448,192,72046,1,0,0:0:0:0:
320,192,72127,1,0,0:0:0:0:
192,192,72208,1,0,0:0:0:0:
448,192,72208,1,0,0:0:0:0:
64,192,72370,1,2,0:0:0:0:
320,192,72370,1,0,0:0:0:0:
192,192,72532,1,0,0:0:0:0:
320,192,72613,1,0,0:0:0:0:
64,192,72694,128,2,73019:0:0:0:0:
448,192,72694,1,4,0:0:0:0:
192,192,72857,1,0,0:0:0:0:
320,192,72857,1,0,0:0:0:0:
320,192,73019,1,2,0:0:0:0:
448,192,73019,1,0,0:0:0:0:
192,192,73181,1,2,0:0:0:0:
448,192,73181,128,0,73505:0:0:0:0:
64,192,73343,1,0,0:0:0:0:
320,192,73343,1,0,0:0:0:0:
64,192,73505,1,2,0:0:0:0:
192,192,73505,1,0,0:0:0:0:
192,192,73667,128,2,73992:0:0:0:0:
320,192,73667,1,0,0:0:0:0:
64,192,73830,1,0,0:0:0:0:
448,192,73830,1,0,0:0:0:0:
320,192,73992,1,0,0:0:0:0:
448,192,73992,1,0,0:0:0:0:
64,192,74154,128,2,74478:0:0:0:0:
320,192,74154,1,0,0:0:0:0:
192,192,74316,1,0,0:0:0:0:
448,192,74316,1,0,0:0:0:0:
192,192,74478,1,2,0:0:0:0:
320,192,74478,1,0,0:0:0:0:
448,192,74559,1,0,0:0:0:0:
64,192,74640,1,0,0:0:0:0:
192,192,74721,1,0,0:0:0:0:
448,192,74803,1,0,0:0:0:0:
320,192,74884,1,0,0:0:0:0:
64,192,74965,1,0,0:0:0:0:
192,192,75046,1,0,0:0:0:0:
448,192,75127,1,0,0:0:0:0:
320,192,75208,1,0,0:0:0:0:
64,192,75289,128,2,75613:0:0:0:0:
192,192,75289,1,4,0:0:0:0:
320,192,75451,1,0,0:0:0:0:
448,192,75451,1,0,0:0:0:0:
192,192,75613,1,2,0:0:0:0:
320,192,75613,1,0,0:0:0:0:
192,192,75776,1,2,0:0:0:0:
448,192,75776,128,0,76100:0:0:0:0:
64,192,75938,1,0,0:0:0:0:
320,192,75938,1,0,0:0:0:0:
192,192,76100,1,2,0:0:0:0:
320,192,76100,1,0,0:0:0:0:
192,192,76262,128,2,76586:0:0:0:0:
448,192,76262,1,0,0:0:0:0:
64,192,76424,1,0,0:0:0:0:
320,192,76424,1,0,0:0:0:0:
64,192,76586,1,0,0:0:0:0:
448,192,76586,1,0,0:0:0:0:
192,192,76749,1,2,0:0:0:0:
448,192,76749,128,0,77073:0:0:0:0:
64,192,76911,1,0,0:0:0:0:
320,192,76911,1,0,0:0:0:0:
192,192,77073,1,2,0:0:0:0:
320,192,77073,1,0,0:0:0:0:
64,192,77235,128,2,77559:0:0:0:0:
448,192,77235,128,0,77397:0:0:0:0:
192,192,77397,1,0,0:0:0:0:
320,192,77478,1,0,0:0:0:0:
448,192,77559,1,2,0:0:0:0:
320,192,77640,1,0,0:0:0:0:
192,192,77721,1,2,0:0:0:0:
320,192,77803,1,0,0:0:0:0:
64,192,77884,1,4,0:0:0:0:
192,192,77884,1,2,0:0:0:0:
448,192,77884,1,0,0:0:0:0:
320,192,78046,1,0,0:0:0:0:
64,192,78208,1,2,0:0:0:0:
448,192,78208,1,0,0:0:0:0:
320,192,78370,1,0,0:0:0:0:
64,192,78532,1,2,0:0:0:0:
192,192,78532,1,0,0:0:0:0:
320,192,78694,1,0,0:0:0:0:
64,192,78857,1,2,0:0:0:0:
448,192,78857,1,0,0:0:0:0:
192,192,79019,1,2,0:0:0:0:
448,192,79019,1,0,0:0:0:0:
64,192,79181,1,4,0:0:0:0:
320,192,79181,1,2,0:0:0:0:
448,192,79181,1,0,0:0:0:0:
192,192,79343,1,0,0:0:0:0:
64,192,79505,1,2,0:0:0:0:
448,192,79505,1,0,0:0:0:0:
320,192,79667,1,0,0:0:0:0:
64,192,79830,1,2,0:0:0:0:
192,192,79830,1,0,0:0:0:0:
448,192,79992,1,0,0:0:0:0:
320,192,80073,1,0,0:0:0:0:
192,192,80154,1,2,0:0:0:0:
448,192,80154,1,0,0:0:0:0:
64,192,80316,1,2,0:0:0:0:
320,192,80316,1,0,0:0:0:0:
192,192,80397,1,0,0:0:0:0:
64,192,80478,1,2,0:0:0:0:
320,192,80478,1,4,0:0:0:0:
448,192,80478,1,0,0:0:0:0:
192,192,80640,1,0,0:0:0:0:
64,192,80803,1,2,0:0:0:0:
320,192,80803,1,0,0:0:0:0:
448,192,80965,1,0,0:0:0:0:
64,192,81127,1,2,0:0:0:0:
448,192,81127,1,0,0:0:0:0:
192,192,81289,1,0,0:0:0:0:
320,192,81451,1,2,0:0:0:0:
448,192,81451,1,0,0:0:0:0:
64,192,81532,1,0,0:0:0:0:
192,192,81613,1,2,0:0:0:0:
320,192,81694,1,0,0:0:0:0:
64,192,81776,1,4,0:0:0:0:
192,192,81776,1,2,0:0:0:0:
448,192,81776,1,0,0:0:0:0:
64,192,81938,1,2,0:0:0:0:
320,192,81938,1,0,0:0:0:0:
192,192,82100,1,2,0:0:0:0:
448,192,82100,1,0,0:0:0:0:
192,192,82262,1,2,0:0:0:0:
320,192,82262,1,0,0:0:0:0:
64,192,82424,1,2,0:0:0:0:
320,192,82424,1,0,0:0:0:0:
192,192,82586,1,2,0:0:0:0:
448,192,82586,1,0,0:0:0:0:
64,192,82749,1,2,0:0:0:0:
320,192,82749,1,0,0:0:0:0:
192,192,82830,1,0,0:0:0:0:
64,192,82911,1,2,0:0:0:0:
448,192,82911,1,0,0:0:0:0:
320,192,82992,1,0,0:0:0:0:
64,192,83073,1,2,0:0:0:0:
192,192,83073,1,4,0:0:0:0:
448,192,83073,1,0,0:0:0:0:
192,192,83235,1,2,0:0:0:0:
320,192,83235,1,0,0:0:0:0:
64,192,83397,1,2,0:0:0:0:
320,192,83397,1,0,0:0:0:0:
192,192,83559,1,2,0:0:0:0:
448,192,83559,1,0,0:0:0:0:
192,192,83721,1,2,0:0:0:0:
448,192,83721,1,0,0:0:0:0:
64,192,83884,1,2,0:0:0:0:
448,192,83884,1,0,0:0:0:0:
64,192,84046,1,2,0:0:0:0:
320,192,84046,1,0,0:0:0:0:
320,192,84208,1,2,0:0:0:0:
192,192,84208,1,0,0:0:0:0:
64,192,84370,1,4,0:0:0:0:
448,192,84370,1,2,0:0:0:0:
192,192,84451,1,0,0:0:0:0:
320,192,84532,1,0,0:0:0:0:
64,192,84613,1,0,0:0:0:0:
448,192,84694,1,0,0:0:0:0:
192,192,84776,1,0,0:0:0:0:
320,192,84857,1,0,0:0:0:0:
64,192,84938,1,0,0:0:0:0:
192,192,85019,1,0,0:0:0:0:
448,192,85100,1,0,0:0:0:0:
64,192,85181,1,0,0:0:0:0:
320,192,85262,1,0,0:0:0:0:
64,192,85343,1,0,0:0:0:0:
448,192,85424,1,0,0:0:0:0:
192,192,85505,1,0,0:0:0:0:
320,192,85586,1,0,0:0:0:0:
64,192,85667,1,4,0:0:0:0:
448,192,85667,1,2,0:0:0:0:
192,192,85749,1,0,0:0:0:0:
320,192,85830,1,0,0:0:0:0:
64,192,85911,1,0,0:0:0:0:
448,192,85992,1,0,0:0:0:0:
192,192,86073,1,0,0:0:0:0:
320,192,86154,1,0,0:0:0:0:
64,192,86235,1,0,0:0:0:0:
192,192,86316,1,2,0:0:0:0:
448,192,86397,1,2,0:0:0:0:
64,192,86478,1,2,0:0:0:0:
320,192,86559,1,2,0:0:0:0:
64,192,86640,1,2,0:0:0:0:
448,192,86721,1,2,0:0:0:0:
192,192,86803,1,2,0:0:0:0:
320,192,86884,1,2,0:0:0:0:
64,192,86965,1,2,0:0:0:0:
192,192,87046,1,0,0:0:0:0:
448,192,87127,1,0,0:0:0:0:
64,192,87208,1,0,0:0:0:0:
320,192,87289,1,0,0:0:0:0:
192,192,87370,1,0,0:0:0:0:
448,192,87451,1,0,0:0:0:0:
64,192,87532,1,0,0:0:0:0:
320,192,87613,1,2,0:0:0:0:
448,192,87613,1,0,0:0:0:0:
192,192,87694,1,0,0:0:0:0:
320,192,87776,1,0,0:0:0:0:
64,192,87857,1,2,0:0:0:0:
448,192,87857,1,0,0:0:0:0:
192,192,87938,1,0,0:0:0:0:
320,192,88019,1,2,0:0:0:0:
448,192,88019,1,0,0:0:0:0:
64,192,88100,1,2,0:0:0:0:
192,192,88100,1,0,0:0:0:0:
320,192,88181,1,2,0:0:0:0:
448,192,88181,1,0,0:0:0:0:
64,192,88262,1,2,0:0:0:0:
192,192,88262,1,4,0:0:0:0:
64,192,88424,1,2,0:0:0:0:
448,192,88424,1,0,0:0:0:0:
192,192,88586,1,2,0:0:0:0:
320,192,88586,1,0,0:0:0:0:
192,192,88749,1,2,0:0:0:0:
448,192,88749,1,0,0:0:0:0:
64,192,88911,1,2,0:0:0:0:
320,192,88911,1,0,0:0:0:0:
192,192,89073,1,2,0:0:0:0:
320,192,89073,1,0,0:0:0:0:
64,192,89235,1,2,0:0:0:0:
448,192,89235,1,0,0:0:0:0:
192,192,89397,1,2,0:0:0:0:
320,192,89397,1,0,0:0:0:0:
192,192,89559,1,2,0:0:0:0:
448,192,89559,1,0,0:0:0:0:
320,192,89721,1,2,0:0:0:0:
448,192,89721,1,0,0:0:0:0:
64,192,89884,1,2,0:0:0:0:
192,192,89884,1,0,0:0:0:0:
192,192,90046,1,2,0:0:0:0:
448,192,90046,1,0,0:0:0:0:
64,192,90208,1,2,0:0:0:0:
320,192,90208,1,0,0:0:0:0:
64,192,90370,1,2,0:0:0:0:
192,192,90370,1,0,0:0:0:0:
320,192,90532,1,2,0:0:0:0:
448,192,90532,1,0,0:0:0:0:
64,192,90694,1,2,0:0:0:0:
320,192,90694,1,0,0:0:0:0:
192,192,90857,128,2,91019:0:0:0:0:
448,192,90857,1,0,0:0:0:0:
64,192,91019,128,2,91181:0:0:0:0:
320,192,91019,1,0,0:0:0:0:
192,192,91181,1,2,0:0:0:0:
448,192,91181,128,0,91343:0:0:0:0:
64,192,91343,1,2,0:0:0:0:
320,192,91343,128,0,91505:0:0:0:0:
192,192,91505,1,2,0:0:0:0:
448,192,91505,128,0,91667:0:0:0:0:
64,192,91667,128,2,91830:0:0:0:0:
320,192,91667,1,0,0:0:0:0:
192,192,91830,1,2,0:0:0:0:
448,192,91830,128,0,91992:0:0:0:0:
64,192,91992,1,2,0:0:0:0:
320,192,91992,1,0,0:0:0:0:
64,192,92154,128,2,92316:0:0:0:0:
448,192,92154,1,0,0:0:0:0:
192,192,92316,1,2,0:0:0:0:
320,192,92316,1,0,0:0:0:0:
320,192,92478,1,2,0:0:0:0:
448,192,92478,128,0,92640:0:0:0:0:
64,192,92640,1,2,0:0:0:0:
192,192,92640,1,0,0:0:0:0:
64,192,92803,1,2,0:0:0:0:
320,192,92803,1,4,0:0:0:0:
448,192,92803,1,0,0:0:0:0:
320,192,92965,1,2,0:0:0:0:
448,192,92965,1,4,0:0:0:0:
64,192,93127,1,2,0:0:0:0:
192,192,93127,1,4,0:0:0:0:
448,192,93127,1,0,0:0:0:0:
192,192,93289,1,2,0:0:0:0:
320,192,93289,1,4,0:0:0:0:
64,192,93451,1,2,0:0:0:0:
320,192,93451,1,4,0:0:0:0:
448,192,93451,1,0,0:0:0:0:
64,192,93613,1,2,0:0:0:0:
192,192,93613,1,0,0:0:0:0:
192,192,93776,1,2,0:0:0:0:
448,192,93776,1,0,0:0:0:0:
320,192,93938,1,2,0:0:0:0:
448,192,93938,1,0,0:0:0:0:
64,192,94100,1,2,0:0:0:0:
192,192,94100,1,0,0:0:0:0:
64,192,94262,1,2,0:0:0:0:
448,192,94262,1,0,0:0:0:0:
192,192,94424,1,2,0:0:0:0:
320,192,94424,1,0,0:0:0:0:
64,192,94586,1,2,0:0:0:0:
192,192,94586,1,0,0:0:0:0:
64,192,94749,1,2,0:0:0:0:
320,192,94749,1,0,0:0:0:0:
192,192,94911,1,0,0:0:0:0:
448,192,94911,1,0,0:0:0:0:
64,192,95073,1,2,0:0:0:0:
320,192,95073,1,0,0:0:0:0:
320,192,95235,1,2,0:0:0:0:
448,192,95235,1,0,0:0:0:0:
64,192,95397,1,2,0:0:0:0:
192,192,95397,1,0,0:0:0:0:
64,192,95559,1,2,0:0:0:0:
320,192,95559,1,0,0:0:0:0:
192,192,95721,1,2,0:0:0:0:
448,192,95721,1,0,0:0:0:0:
320,192,95884,1,2,0:0:0:0:
448,192,95884,1,0,0:0:0:0:
64,192,96046,1,2,0:0:0:0:
192,192,96046,1,0,0:0:0:0:
192,192,96208,1,2,0:0:0:0:
448,192,96208,1,0,0:0:0:0:
64,192,96370,1,2,0:0:0:0:
320,192,96370,1,0,0:0:0:0:
320,192,96532,1,2,0:0:0:0:
448,192,96532,1,0,0:0:0:0:
64,192,96694,1,2,0:0:0:0:
192,192,96694,1,0,0:0:0:0:
192,192,96857,1,2,0:0:0:0:
448,192,96857,1,0,0:0:0:0:
64,192,97019,1,2,0:0:0:0:
320,192,97019,1,0,0:0:0:0:
192,192,97181,1,2,0:0:0:0:
320,192,97181,1,0,0:0:0:0:
64,192,97343,1,2,0:0:0:0:
192,192,97343,1,4,0:0:0:0:
448,192,97343,1,0,0:0:0:0:
64,192,97505,1,2,0:0:0:0:
448,192,97505,1,4,0:0:0:0:
192,192,97667,1,2,0:0:0:0:
320,192,97667,1,4,0:0:0:0:
448,192,97667,1,0,0:0:0:0:
64,192,97830,1,2,0:0:0:0:
320,192,97830,1,4,0:0:0:0:
64,192,97992,1,2,0:0:0:0:
192,192,97992,1,0,0:0:0:0:
320,192,98073,1,2,0:0:0:0:
64,192,98154,1,2,0:0:0:0:
192,192,98154,1,0,0:0:0:0:
320,192,98235,1,2,0:0:0:0:
64,192,98316,1,2,0:0:0:0:
448,192,98316,1,4,0:0:0:0:
192,192,98478,1,2,0:0:0:0:
448,192,98478,1,4,0:0:0:0:
64,192,98640,1,2,0:0:0:0:
192,192,98640,1,4,0:0:0:0:
320,192,98640,1,0,0:0:0:0:
320,192,98803,1,2,0:0:0:0:
448,192,98803,1,0,0:0:0:0:
64,192,98965,1,2,0:0:0:0:
192,192,98965,1,0,0:0:0:0:
64,192,99127,1,2,0:0:0:0:
448,192,99127,1,0,0:0:0:0:
192,192,99289,1,2,0:0:0:0:
320,192,99289,1,0,0:0:0:0:
192,192,99451,1,2,0:0:0:0:
448,192,99451,1,0,0:0:0:0:
64,192,99613,1,2,0:0:0:0:
320,192,99613,1,0,0:0:0:0:
320,192,99776,1,2,0:0:0:0:
448,192,99776,1,0,0:0:0:0:
64,192,99938,1,2,0:0:0:0:
192,192,99938,1,0,0:0:0:0:
64,192,100100,1,2,0:0:0:0:
320,192,100100,1,0,0:0:0:0:
192,192,100262,1,2,0:0:0:0:
448,192,100262,1,0,0:0:0:0:
320,192,100424,1,2,0:0:0:0:
448,192,100424,1,0,0:0:0:0:
64,192,100586,1,2,0:0:0:0:
192,192,100586,1,0,0:0:0:0:
192,192,100749,1,2,0:0:0:0:
448,192,100749,1,0,0:0:0:0:
64,192,100911,1,2,0:0:0:0:
320,192,100911,1,0,0:0:0:0:
192,192,101073,1,2,0:0:0:0:
320,192,101073,1,0,0:0:0:0:
64,192,101235,1,2,0:0:0:0:
448,192,101235,1,0,0:0:0:0:
64,192,101397,1,2,0:0:0:0:
320,192,101397,1,0,0:0:0:0:
192,192,101559,1,2,0:0:0:0:
448,192,101559,1,0,0:0:0:0:
64,192,101721,1,2,0:0:0:0:
448,192,101721,1,0,0:0:0:0:
192,192,101884,1,2,0:0:0:0:
320,192,101884,1,0,0:0:0:0:
192,192,102046,1,2,0:0:0:0:
448,192,102046,1,0,0:0:0:0:
64,192,102208,1,2,0:0:0:0:
320,192,102208,1,0,0:0:0:0:
192,192,102370,1,2,0:0:0:0:
320,192,102370,1,0,0:0:0:0:
64,192,102532,1,2,0:0:0:0:
192,192,102532,1,4,0:0:0:0:
448,192,102532,1,0,0:0:0:0:
64,192,102694,1,2,0:0:0:0:
192,192,102694,1,4,0:0:0:0:
64,192,102857,1,2,0:0:0:0:
320,192,102857,1,4,0:0:0:0:
448,192,102857,1,0,0:0:0:0:
320,192,103019,1,2,0:0:0:0:
448,192,103019,1,4,0:0:0:0:
192,192,103181,1,2,0:0:0:0:
448,192,103181,1,0,0:0:0:0:
320,192,103262,1,2,0:0:0:0:
64,192,103343,1,2,0:0:0:0:
192,192,103343,1,0,0:0:0:0:
320,192,103424,1,2,0:0:0:0:
64,192,103505,1,2,0:0:0:0:
448,192,103505,1,0,0:0:0:0:
192,192,103586,1,2,0:0:0:0:
320,192,103667,1,2,0:0:0:0:
448,192,103667,1,0,0:0:0:0:
192,192,103749,1,2,0:0:0:0:
64,192,103830,1,2,0:0:0:0:
320,192,103830,1,4,0:0:0:0:
448,192,103830,1,0,0:0:0:0:
64,192,103992,1,2,0:0:0:0:
192,192,103992,1,0,0:0:0:0:
320,192,104154,1,2,0:0:0:0:
448,192,104154,1,0,0:0:0:0:
64,192,104316,1,2,0:0:0:0:
448,192,104316,1,0,0:0:0:0:
192,192,104478,1,2,0:0:0:0:
320,192,104478,1,0,0:0:0:0:
64,192,104640,1,2,0:0:0:0:
192,192,104640,1,0,0:0:0:0:
320,192,104803,1,2,0:0:0:0:
448,192,104803,1,0,0:0:0:0:
64,192,104965,1,2,0:0:0:0:
192,192,104965,1,0,0:0:0:0:
320,192,105046,1,0,0:0:0:0:
64,192,105127,1,2,0:0:0:0:
448,192,105127,1,0,0:0:0:0:
192,192,105289,1,2,0:0:0:0:
448,192,105289,1,0,0:0:0:0:
64,192,105451,1,2,0:0:0:0:
320,192,105451,1,0,0:0:0:0:
64,192,105613,1,2,0:0:0:0:
192,192,105613,1,0,0:0:0:0:
320,192,105776,1,2,0:0:0:0:
448,192,105776,1,0,0:0:0:0:
64,192,105938,1,2,0:0:0:0:
448,192,105938,1,0,0:0:0:0:
192,192,106100,1,2,0:0:0:0:
320,192,106100,1,0,0:0:0:0:
64,192,106262,1,2,0:0:0:0:
448,192,106262,1,0,0:0:0:0:
320,192,106343,1,0,0:0:0:0:
192,192,106424,1,2,0:0:0:0:
448,192,106424,1,0,0:0:0:0:
64,192,106586,1,2,0:0:0:0:
192,192,106586,1,0,0:0:0:0:
320,192,106749,1,2,0:0:0:0:
448,192,106749,1,0,0:0:0:0:
64,192,106911,1,2,0:0:0:0:
448,192,106911,1,0,0:0:0:0:
192,192,107073,1,2,0:0:0:0:
320,192,107073,1,0,0:0:0:0:
192,192,107235,1,2,0:0:0:0:
448,192,107235,1,0,0:0:0:0:
64,192,107397,1,2,0:0:0:0:
320,192,107397,1,0,0:0:0:0:
64,192,107559,1,2,0:0:0:0:
192,192,107559,1,0,0:0:0:0:
320,192,107640,1,0,0:0:0:0:
192,192,107721,1,2,0:0:0:0:
448,192,107721,1,0,0:0:0:0:
64,192,107884,1,2,0:0:0:0:
448,192,107884,1,0,0:0:0:0:
64,192,108046,1,2,0:0:0:0:
320,192,108046,1,0,0:0:0:0:
192,192,108208,1,2,0:0:0:0:
320,192,108208,1,0,0:0:0:0:
192,192,108370,1,2,0:0:0:0:
448,192,108370,1,0,0:0:0:0:
64,192,108532,1,2,0:0:0:0:
320,192,108532,1,0,0:0:0:0:
192,192,108694,1,2,0:0:0:0:
448,192,108694,1,0,0:0:0:0:
192,192,108857,1,2,0:0:0:0:
448,192,108857,1,0,0:0:0:0:
64,192,109019,128,2,111127:0:0:0:0:
320,192,109019,1,4,0:0:0:0:
448,192,109019,1,0,0:0:0:0:
192,192,109181,1,2,0:0:0:0:
320,192,109181,1,0,0:0:0:0:
192,192,109343,1,2,0:0:0:0:
448,192,109343,1,0,0:0:0:0:
320,192,109505,1,2,0:0:0:0:
448,192,109505,1,0,0:0:0:0:
192,192,109667,1,2,0:0:0:0:
320,192,109667,1,0,0:0:0:0:
192,192,109830,1,2,0:0:0:0:
448,192,109830,1,0,0:0:0:0:
320,192,109992,1,2,0:0:0:0:
448,192,109992,1,0,0:0:0:0:
192,192,110154,1,2,0:0:0:0:
320,192,110154,1,0,0:0:0:0:
192,192,110316,1,2,0:0:0:0:
448,192,110316,1,0,0:0:0:0:
320,192,110478,1,2,0:0:0:0:
448,192,110478,1,0,0:0:0:0:
192,192,110640,1,2,0:0:0:0:
320,192,110640,1,0,0:0:0:0:
192,192,110803,1,2,0:0:0:0:
448,192,110803,1,0,0:0:0:0:
320,192,110965,1,2,0:0:0:0:
448,192,110965,1,0,0:0:0:0:
192,192,111127,1,2,0:0:0:0:
320,192,111127,1,0,0:0:0:0:
192,192,111289,1,2,0:0:0:0:
448,192,111289,1,0,0:0:0:0:
64,192,111451,1,2,0:0:0:0:
320,192,111451,1,0,0:0:0:0:
64,192,111613,1,2,0:0:0:0:
320,192,111613,1,0,0:0:0:0:
192,192,111776,1,2,0:0:0:0:
448,192,111776,1,0,0:0:0:0:
192,192,111938,1,2,0:0:0:0:
320,192,111938,1,0,0:0:0:0:
64,192,112100,1,2,0:0:0:0:
320,192,112100,1,0,0:0:0:0:
64,192,112262,1,2,0:0:0:0:
448,192,112262,1,0,0:0:0:0:
64,192,112424,1,2,0:0:0:0:
448,192,112424,1,0,0:0:0:0:
320,192,112586,1,2,0:0:0:0:
448,192,112586,1,0,0:0:0:0:
192,192,112667,1,2,0:0:0:0:
320,192,112749,1,2,0:0:0:0:
448,192,112749,1,0,0:0:0:0:
64,192,112911,1,2,0:0:0:0:
192,192,112911,1,0,0:0:0:0:
320,192,112992,1,2,0:0:0:0:
64,192,113073,1,2,0:0:0:0:
192,192,113073,1,0,0:0:0:0:
320,192,113235,1,2,0:0:0:0:
448,192,113235,1,0,0:0:0:0:
192,192,113316,1,2,0:0:0:0:
64,192,113397,1,2,0:0:0:0:
448,192,113397,1,0,0:0:0:0:
320,192,113478,1,0,0:0:0:0:
64,192,113559,1,2,0:0:0:0:
192,192,113559,1,0,0:0:0:0:
320,192,113640,1,2,0:0:0:0:
64,192,113721,1,2,0:0:0:0:
448,192,113721,1,0,0:0:0:0:
192,192,113803,1,2,0:0:0:0:
320,192,113884,1,2,0:0:0:0:
448,192,113884,1,0,0:0:0:0:
192,192,113965,1,2,0:0:0:0:
64,192,114046,1,2,0:0:0:0:
448,192,114046,1,0,0:0:0:0:
192,192,114127,1,2,0:0:0:0:
320,192,114127,1,0,0:0:0:0:
64,192,114532,1,2,0:0:0:0:
320,192,114532,1,4,0:0:0:0:
448,192,114532,1,0,0:0:0:0:
64,192,114694,1,2,0:0:0:0:
448,192,114694,1,0,0:0:0:0:
192,192,114857,1,0,0:0:0:0:
320,192,115019,1,0,0:0:0:0:
448,192,115019,1,0,0:0:0:0:
64,192,115181,1,2,0:0:0:0:
448,192,115181,1,0,0:0:0:0:
320,192,115343,1,0,0:0:0:0:
192,192,115424,1,0,0:0:0:0:
64,192,115505,1,0,0:0:0:0:
320,192,115505,1,0,0:0:0:0:
192,192,115667,1,2,0:0:0:0:
320,192,115749,1,0,0:0:0:0:
64,192,115830,1,2,0:0:0:0:
448,192,115830,1,0,0:0:0:0:
192,192,115992,1,2,0:0:0:0:
320,192,116073,1,0,0:0:0:0:
448,192,116154,1,2,0:0:0:0:
64,192,116235,1,0,0:0:0:0:
320,192,116316,1,0,0:0:0:0:
192,192,116397,1,0,0:0:0:0:
448,192,116478,1,2,0:0:0:0:
320,192,116559,1,0,0:0:0:0:
192,192,116640,1,2,0:0:0:0:
320,192,116721,1,0,0:0:0:0:
64,192,116803,1,2,0:0:0:0:
192,192,116803,1,4,0:0:0:0:
448,192,116803,1,0,0:0:0:0:
320,192,116965,1,0,0:0:0:0:
192,192,117046,1,0,0:0:0:0:
64,192,117127,1,2,0:0:0:0:
192,192,117208,1,0,0:0:0:0:
320,192,117289,1,2,0:0:0:0:
448,192,117370,1,0,0:0:0:0:
64,192,117451,1,0,0:0:0:0:
192,192,117532,1,0,0:0:0:0:
320,192,117613,1,0,0:0:0:0:
192,192,117694,1,0,0:0:0:0:
64,192,117776,1,2,0:0:0:0:
448,192,117857,1,0,0:0:0:0:
320,192,117938,1,0,0:0:0:0:
192,192,118019,1,0,0:0:0:0:
320,192,118100,1,0,0:0:0:0:
448,192,118100,1,0,0:0:0:0:
64,192,118262,1,2,0:0:0:0:
192,192,118343,1,0,0:0:0:0:
320,192,118424,1,0,0:0:0:0:
192,192,118505,1,0,0:0:0:0:
448,192,118586,1,2,0:0:0:0:
320,192,118667,1,0,0:0:0:0:
192,192,118749,1,2,0:0:0:0:
64,192,118830,1,0,0:0:0:0:
448,192,118911,1,2,0:0:0:0:
320,192,118992,1,0,0:0:0:0:
64,192,119073,1,2,0:0:0:0:
192,192,119073,1,0,0:0:0:0:
320,192,119154,1,2,0:0:0:0:
448,192,119154,1,0,0:0:0:0:
64,192,119235,1,2,0:0:0:0:
192,192,119235,1,0,0:0:0:0:
320,192,119316,1,2,0:0:0:0:
448,192,119316,1,0,0:0:0:0:
64,192,119397,1,2,0:0:0:0:
192,192,119397,1,4,0:0:0:0:
320,192,119559,1,0,0:0:0:0:
192,192,119640,1,0,0:0:0:0:
64,192,119721,1,0,0:0:0:0:
320,192,119721,1,0,0:0:0:0:
192,192,119884,1,2,0:0:0:0:
448,192,119884,1,0,0:0:0:0:
64,192,120046,1,0,0:0:0:0:
192,192,120127,1,0,0:0:0:0:
320,192,120208,1,2,0:0:0:0:
192,192,120289,1,0,0:0:0:0:
448,192,120370,1,2,0:0:0:0:
320,192,120451,1,0,0:0:0:0:
192,192,120532,1,0,0:0:0:0:
320,192,120613,1,0,0:0:0:0:
448,192,120694,1,0,0:0:0:0:
64,192,120776,1,0,0:0:0:0:
192,192,120857,1,2,0:0:0:0:
320,192,120938,1,0,0:0:0:0:
192,192,121019,1,0,0:0:0:0:
64,192,121100,1,0,0:0:0:0:
192,192,121181,1,0,0:0:0:0:
320,192,121262,1,0,0:0:0:0:
448,192,121343,1,2,0:0:0:0:
192,192,121424,1,0,0:0:0:0:
320,192,121505,1,0,0:0:0:0:
64,192,121586,1,0,0:0:0:0:
192,192,121667,1,2,0:0:0:0:
448,192,121667,1,0,0:0:0:0:
320,192,121749,1,0,0:0:0:0:
64,192,121830,1,2,0:0:0:0:
192,192,121830,1,0,0:0:0:0:
320,192,121911,1,2,0:0:0:0:
448,192,121911,1,0,0:0:0:0:
64,192,121992,1,2,0:0:0:0:
192,192,121992,1,4,0:0:0:0:
320,192,122073,1,0,0:0:0:0:
448,192,122154,1,0,0:0:0:0:
64,192,122235,1,0,0:0:0:0:
192,192,122316,1,0,0:0:0:0:
320,192,122397,1,0,0:0:0:0:
64,192,122478,1,0,0:0:0:0:
192,192,122559,1,0,0:0:0:0:
448,192,122640,1,0,0:0:0:0:
64,192,122721,1,0,0:0:0:0:
320,192,122803,1,0,0:0:0:0:
448,192,122884,1,0,0:0:0:0:
64,192,122965,1,0,0:0:0:0:
192,192,122965,1,0,0:0:0:0:
320,192,123046,1,0,0:0:0:0:
64,192,123127,1,2,0:0:0:0:
448,192,123127,1,0,0:0:0:0:
192,192,123208,1,2,0:0:0:0:
320,192,123208,1,0,0:0:0:0:
64,192,123289,1,2,0:0:0:0:
448,192,123289,1,4,0:0:0:0:
192,192,123370,1,0,0:0:0:0:
320,192,123451,1,0,0:0:0:0:
192,192,123532,1,0,0:0:0:0:
64,192,123613,1,2,0:0:0:0:
448,192,123694,1,0,0:0:0:0:
320,192,123776,1,0,0:0:0:0:
192,192,123857,1,0,0:0:0:0:
448,192,123938,1,2,0:0:0:0:
64,192,124019,1,0,0:0:0:0:
320,192,124100,1,0,0:0:0:0:
192,192,124181,1,0,0:0:0:0:
64,192,124262,1,2,0:0:0:0:
448,192,124262,1,0,0:0:0:0:
320,192,124343,1,0,0:0:0:0:
64,192,124424,1,2,0:0:0:0:
192,192,124424,1,0,0:0:0:0:
320,192,124505,1,2,0:0:0:0:
448,192,124505,1,0,0:0:0:0:
64,192,124586,1,4,0:0:0:0:
192,192,124586,1,2,0:0:0:0:
320,192,124667,1,0,0:0:0:0:
448,192,124749,1,0,0:0:0:0:
64,192,124830,1,0,0:0:0:0:
192,192,124911,1,2,0:0:0:0:
320,192,124911,1,0,0:0:0:0:
64,192,125073,1,0,0:0:0:0:
192,192,125154,1,0,0:0:0:0:
320,192,125235,1,2,0:0:0:0:
448,192,125235,1,0,0:0:0:0:
192,192,125397,1,0,0:0:0:0:
320,192,125397,1,0,0:0:0:0:
64,192,125559,1,2,0:0:0:0:
192,192,125559,1,0,0:0:0:0:
448,192,125640,1,0,0:0:0:0:
320,192,125721,1,2,0:0:0:0:
192,192,125803,1,2,0:0:0:0:
64,192,125884,1,2,0:0:0:0:
320,192,125884,1,4,0:0:0:0:
448,192,125884,1,0,0:0:0:0:
192,192,126046,1,2,0:0:0:0:
448,192,126046,1,0,0:0:0:0:
192,192,126208,1,2,0:0:0:0:
320,192,126208,1,0,0:0:0:0:
64,192,126370,1,2,0:0:0:0:
320,192,126370,1,0,0:0:0:0:
64,192,126532,1,2,0:0:0:0:
448,192,126532,1,0,0:0:0:0:
192,192,126694,1,2,0:0:0:0:
448,192,126694,1,0,0:0:0:0:
192,192,126857,1,2,0:0:0:0:
320,192,126857,1,0,0:0:0:0:
64,192,127019,1,2,0:0:0:0:
320,192,127019,1,0,0:0:0:0:
192,192,127181,1,2,0:0:0:0:
320,192,127181,1,4,0:0:0:0:
448,192,127181,1,0,0:0:0:0:
64,192,127343,1,2,0:0:0:0:
448,192,127343,1,0,0:0:0:0:
64,192,127505,1,2,0:0:0:0:
192,192,127505,1,0,0:0:0:0:
192,192,127667,1,2,0:0:0:0:
320,192,127667,1,0,0:0:0:0:
320,192,127830,1,2,0:0:0:0:
448,192,127830,1,0,0:0:0:0:
64,192,127992,1,2,0:0:0:0:
448,192,127992,1,0,0:0:0:0:
64,192,128154,1,2,0:0:0:0:
192,192,128154,1,0,0:0:0:0:
192,192,128316,1,2,0:0:0:0:
320,192,128316,1,0,0:0:0:0:
320,192,128478,1,2,0:0:0:0:
448,192,128478,1,4,0:0:0:0:
64,192,128559,1,2,0:0:0:0:
192,192,128559,1,0,0:0:0:0:
320,192,128640,1,2,0:0:0:0:
448,192,128640,1,0,0:0:0:0:
64,192,128721,1,2,0:0:0:0:
192,192,128721,1,0,0:0:0:0:
320,192,128803,1,2,0:0:0:0:
448,192,128803,1,0,0:0:0:0:
64,192,128884,1,2,0:0:0:0:
192,192,128884,1,0,0:0:0:0:
320,192,128965,1,2,0:0:0:0:
448,192,128965,1,0,0:0:0:0:
64,192,129046,1,2,0:0:0:0:
192,192,129046,1,0,0:0:0:0:
320,192,129127,1,2,0:0:0:0:
448,192,129127,1,0,0:0:0:0:
64,192,129208,1,2,0:0:0:0:
192,192,129208,1,0,0:0:0:0:
320,192,129289,1,2,0:0:0:0:
448,192,129289,1,0,0:0:0:0:
64,192,129370,1,2,0:0:0:0:
192,192,129370,1,0,0:0:0:0:
320,192,129451,1,2,0:0:0:0:
448,192,129451,1,0,0:0:0:0:
64,192,129532,1,2,0:0:0:0:
192,192,129532,1,0,0:0:0:0:
320,192,129613,1,2,0:0:0:0:
448,192,129613,1,0,0:0:0:0:
64,192,129694,1,2,0:0:0:0:
192,192,129694,1,0,0:0:0:0:
64,192,130100,1,2,0:0:0:0:
192,192,130100,1,4,0:0:0:0:
320,192,130100,1,0,0:0:0:0:
448,192,130100,1,0,0:0:0:0:
64,192,130262,1,2,0:0:0:0:
192,192,130262,128,4,135451:0:0:0:0:
320,192,130262,128,0,135451:0:0:0:0:
448,192,130262,1,0,0:0:0:0:
