osu file format v14

[General]
AudioFilename: 13. Xepher.mp3
AudioLeadIn: 0
PreviewTime: 65523
Countdown: 1
SampleSet: Soft
StackLeniency: 0.7
Mode: 0
LetterboxInBreaks: 1
WidescreenStoryboard: 0

[Editor]
DistanceSpacing: 1.3
BeatDivisor: 4
GridSize: 4
TimelineZoom: 1.1

[Metadata]
Title:Xepher
TitleUnicode:Xepher
Artist:Tatsh
ArtistUnicode:Tatsh
Creator:Minegamezz
Version:Crash
Source:
Tags:
BeatmapID:1079630
BeatmapSetID:507602

[Difficulty]
HPDrainRate:6
CircleSize:4
OverallDifficulty:8
ApproachRate:8
SliderMultiplier:1.5
SliderTickRate:2

[Events]
//Background and Video events
0,0,"bg.jpg",0,0
//Break Periods
2,80378,83665
//Storyboard Layer 0 (Background)
//Storyboard Layer 1 (Fail)
//Storyboard Layer 2 (Pass)
Sprite,Pass,Centre,"white2.png",320,240 F,0,39193,39237,0,1 F,0,39237,39944,1,0 F,0,39944,53318,0 F,0,53318,53362,0,1 F,0,53362,54069,1,0 F,0,54069,57909,0 F,0,57909,57953,0,1 F,0,57953,58306,1,0 F,0,58306,58615,0 F,0,58615,58659,0,1 F,0,58659,59013,1,0 F,0,59013,61749,0 F,0,61749,61838,0,1 F,0,61838,62897,1,0 F,0,62897,80156,0 F,0,80156,80200,0,1 F,0,80200,80553,1,0 F,0,80553,81569,0 F,0,81569,81613,0,1 F,0,81613,81966,1,0 F,0,81966,82981,0 F,0,82981,83025,0,1 F,0,83025,83378,1,0 F,0,83378,84394,0 F,0,84394,84438,0,1 F,0,84438,84791,1,0 F,0,84791,85806,0 F,0,85806,85850,0,1 F,0,85850,87263,1,0 F,0,87263,97447,0 F,0,97447,97491,0,1 F,0,97491,97844,1,0 F,0,97844,98153,0 F,0,98153,98197,0,1 F,0,98197,98551,1,0 F,0,98551,104520,0 F,0,104520,104565,0,1 F,0,104565,104741,1,0 F,0,104741,105227,0 F,0,105227,105271,0,1 F,0,105271,105403,1,0 F,0,105403,105447,0 F,0,105447,113702,0 F,0,113702,113746,0 F,0,113746,114099,0 F,0,114099,118292,0 F,0,118292,118337,0,1 F,0,118337,119396,1,0
//Storyboard Layer 3 (Foreground)
Sprite,Foreground,Centre,"bg.jpg",320,240 M,0,0,,320,240 F,0,0,,0 S,0,0,27841,0.6544001,0.6376138 M,0,0,27937,440.4364,297.0182,324.0727,234.7637 S,0,0,27937,0.904582,0.513091 V,0,0,28555,0.6218182,1.465455,1.279273,1.261818 S,0,27841,,0.6376138 F,0,27893,,0 F,0,27893,,0 F,0,27937,,1 F,0,27937,,1 F,0,27937,27981,1,0 S,0,27937,33546,0.513091,0.6525972 S,0,27937,37472,0.1,0.8674232 S,0,27937,115385,0.5270684,0.7137476 F,0,27981,28026,0,1 F,0,28026,28070,1,0 F,0,28070,28114,0,1 F,0,28114,28158,1,0 F,0,28158,28202,0,1 F,0,28202,28246,1,0 F,0,28246,28290,0,1 F,0,28290,28335,1,0 F,0,28335,28379,0,1 F,0,28379,28423,1,0 F,0,28423,28467,0,1 F,0,28467,28511,1,0 F,0,28511,28555,0,1 F,0,28555,28599,1,0 S,0,28555,92548,0.6563877,0.6494085 F,0,28599,28643,0,1 F,0,28643,28688,1,0 F,0,28688,28732,0,1 F,0,28732,28776,1,0 F,0,28776,28820,0,1 F,0,28820,28864,1,0 F,0,28864,28908,0,1 F,0,28908,28952,1,0 F,0,28952,28997,0,1 F,0,28997,,1 F,0,28997,29306,1,0 S,0,28997,104035,0.971513,0.1 F,0,29306,29350,0,1 F,0,29350,29394,1,0 F,0,29394,29438,0,1 F,0,29438,29482,1,0 F,0,29482,29526,0,1 F,0,29526,29570,1,0 F,0,29570,29615,0,1 F,0,29615,29659,1,0 F,0,29659,29703,0,1 F,0,29703,29747,1,0 F,0,29747,29791,0,1 F,0,29791,29835,1,0 F,0,29835,29879,0,1 F,0,29879,29924,1,0 F,0,29924,29968,0,1 F,0,29968,30012,1,0 F,0,30012,30056,0,1 F,0,30056,30100,1,0 F,0,30100,30144,0,1 F,0,30144,30188,1,0 F,0,30188,30233,0,1 F,0,30233,30277,1,0 F,0,30277,30321,0,1 F,0,30321,30365,1,0 F,0,30365,30409,0,1 F,0,30409,30453,1,0 F,0,30453,30542,0 F,0,30542,30586,0,1 F,0,30586,30630,1,0 S,0,30586,104212,0.6665415,0.412822 F,0,30630,30718,0 F,0,30718,30762,0,1 F,0,30762,30806,1,0 F,0,30806,30851,0,1 F,0,30851,30895,1,0 F,0,30895,30939,0,1 F,0,30939,30983,1,0 F,0,30983,31027,0,1 F,0,31027,31071,1,0 F,0,31071,31115,0,1 F,0,31115,31160,1,0 F,0,31160,31204,0,1 F,0,31204,31248,1,0 F,0,31248,31292,0,1 F,0,31292,31336,1,0 F,0,31336,31380,0,1 F,0,31380,31424,1,0 F,0,31424,31469,0,1 F,0,31469,31513,1,0 F,0,31513,31557,0,1 F,0,31557,31601,1,0 F,0,31601,31645,0,1 F,0,31645,31689,1,0 F,0,31689,31733,0,1 F,0,31733,31778,1,0 F,0,31778,31822,0,1 F,0,31822,32131,1,0 S,0,32078,,0.6440002 F,0,32131,32175,0,1 S,0,32167,,0.646903 S,0,32167,33491,0.646903,0.6823999 F,0,32175,32219,1,0 F,0,32219,32263,0,1 F,0,32263,32307,1,0 F,0,32307,32351,0,1 F,0,32351,32395,1,0 F,0,32395,32440,0,1 F,0,32440,32484,1,0 F,0,32484,32528,0,1 F,0,32528,32572,1,0 F,0,32572,32616,0,1 F,0,32616,32660,1,0 F,0,32660,32704,0,1 F,0,32704,32749,1,0 F,0,32749,32793,0,1 F,0,32793,32837,1,0 F,0,32837,32881,0,1 F,0,32881,32925,1,0 F,0,32925,32969,0,1 F,0,32969,33013,1,0 F,0,33013,33058,0,1 F,0,33058,33102,1,0 F,0,33102,33146,0,1 F,0,33146,33190,1,0 F,0,33190,33234,0,1 F,0,33234,33278,1,0 F,0,33278,33322,0,1 F,0,33322,33367,1,0 F,0,33367,33411,0,1 F,0,33411,33455,1,0 F,0,33455,33499,0,1 F,0,33499,33543,1,0 F,0,33543,33587,0,1 S,0,33546,33579,0.6525972,0.6397954 S,0,33579,38401,0.6397954,0.6523362 F,0,33587,33631,1,0 F,0,33631,33720,0 F,0,33720,33764,0,1 F,0,33764,33808,1,0 F,0,33808,33852,0,1 F,0,33852,33896,1,0 F,0,33896,33985,0 F,0,33985,34029,0,1 F,0,34029,34073,1,0 F,0,34073,34117,0,1 F,0,34117,34161,1,0 F,0,34161,34249,0 F,0,34249,34294,0,1 F,0,34294,34338,1,0 F,0,34338,34382,0,1 F,0,34382,34426,1,0 F,0,34426,34514,0 F,0,34514,34558,0,1 F,0,34558,34603,1,0 F,0,34603,34647,0,1 F,0,34647,34691,1,0 F,0,34691,34956,0 F,0,34956,35000,0,1 F,0,35000,35044,1,0 F,0,35044,35132,0 F,0,35132,35176,0,1 F,0,35176,35221,1,0 F,0,35221,35265,0,1 F,0,35265,35309,1,0 F,0,35309,35397,0 F,0,35397,35441,0,1 F,0,35441,35485,1,0 F,0,35485,35529,0,1 F,0,35529,35574,1,0 F,0,35574,35662,0 F,0,35662,35706,0,1 F,0,35706,35750,1,0 F,0,35750,35794,0,1 F,0,35794,35838,1,0 F,0,35838,35927,0 F,0,35927,35971,0,1 F,0,35971,36015,1,0 F,0,36015,36059,0,1 F,0,36059,36103,1,0 F,0,36103,36192,0 F,0,36192,36236,0,1 F,0,36236,36280,1,0 F,0,36280,36368,0 F,0,36368,36412,0,1 F,0,36412,36456,1,0 F,0,36456,36545,0 F,0,36545,36589,0,1 F,0,36589,36633,1,0 F,0,36633,36677,0,1 F,0,36677,36721,1,0 F,0,36721,36810,0 F,0,36810,36854,0,1 F,0,36854,36898,1,0 F,0,36898,36942,0,1 F,0,36942,36986,1,0 F,0,36986,37074,0 F,0,37074,37119,0,1 F,0,37119,37163,1,0 F,0,37163,37207,0,1 F,0,37207,37251,1,0 F,0,37251,37339,0 F,0,37339,37383,0,1 F,0,37383,37428,1,0 F,0,37428,37472,0,1 F,0,37472,37781,1,0 S,0,37472,92118,0.8674232,0.6535488 F,0,37781,37869,0,1 F,0,37869,38001,1 F,0,38001,,1 F,0,38001,38355,1,0 F,0,38355,38487,0 S,0,38401,39195,0.6523362,0.7674937 F,0,38487,38531,0,1 F,0,38531,38575,1,0 F,0,38575,38619,0,1 F,0,38619,38664,1,0 F,0,38664,38708,0,1 F,0,38708,38752,1,0 F,0,38752,38796,0,1 F,0,38796,38840,1,0 F,0,38840,38884,0,1 F,0,38884,38928,1,0 F,0,38928,38972,0,1 F,0,38972,39017,1,0 F,0,39017,39061,0,1 F,0,39061,39105,1,0 F,0,39105,39149,0,1 F,0,39149,39193,1,0 F,0,39193,39237,0,1 S,0,39195,39891,0.7674937,0.6516634 F,0,39237,,1 F,0,39237,39281,1,0 F,0,39281,39899,0 S,0,39891,40597,0.6516634,0.6501963 F,0,39899,39944,0,1 F,0,39944,39988,1,0 F,0,39988,40606,0 F,0,40597,,0 S,0,40597,51941,0.6501963,0.6434786 F,0,40606,40650,0,1 F,0,40650,40694,1,0 F,0,40694,41312,0 F,0,41312,41356,0,1 F,0,41356,41400,1,0 F,0,41400,42018,0 F,0,42018,42062,0,1 F,0,42062,42107,1,0 F,0,42107,42724,0 F,0,42724,42769,0,1 F,0,42769,42813,1,0 F,0,42813,43431,0 F,0,43431,43475,0,1 F,0,43475,43519,1,0 F,0,43519,44137,0 F,0,44137,44181,0,1 F,0,44181,44225,1,0 F,0,44225,44843,0 F,0,44843,44887,0,1 F,0,44887,44932,1,0 F,0,44932,45550,0 F,0,45550,,0 F,0,45550,45594,0,1 F,0,45594,45638,1,0 F,0,45638,,0 F,0,45638,46256,0 F,0,46256,46300,0,1 F,0,46300,46344,1,0 F,0,46344,46962,0 F,0,46962,47006,0,1 F,0,47006,47050,1,0 F,0,47050,47668,0 F,0,47668,47712,0,1 F,0,47712,47757,1,0 F,0,47757,48021,0 F,0,48021,48066,0,1 F,0,48066,48110,1,0 F,0,48110,48375,0 F,0,48375,48419,0,1 F,0,48419,48463,1,0 F,0,48463,48728,0 F,0,48728,48772,0,1 F,0,48772,48816,1,0 F,0,48816,,0 F,0,48816,49081,0 F,0,49081,49125,0,1 F,0,49125,,1 F,0,49125,49169,1,0 F,0,49169,49257,0 F,0,49257,49301,0,1 F,0,49301,49346,1,0 F,0,49346,49434,0 F,0,49434,49478,0,1 F,0,49478,49522,1,0 F,0,49522,49610,0 F,0,49610,49655,0,1 F,0,49655,49699,1,0 F,0,49699,49787,0 F,0,49787,49831,0,1 F,0,49831,49875,1,0 F,0,49875,50140,0 F,0,50140,50184,0,1 F,0,50184,50228,1,0 F,0,50228,50493,0 F,0,50493,50537,0,1 F,0,50537,50582,1,0 F,0,50582,50670,0 F,0,50670,50714,0,1 F,0,50714,50758,1,0 F,0,50758,50846,0 F,0,50846,50891,0,1 F,0,50891,50935,1,0 F,0,50935,51023,0 F,0,51023,51067,0,1 F,0,51067,51111,1,0 F,0,51111,51200,0 F,0,51200,51244,0,1 F,0,51244,51288,1,0 F,0,51288,51376,0 F,0,51288,51420,0,1 F,0,51376,51420,0,1 F,0,51420,51464,1,0 F,0,51464,,0 F,0,51464,51553,0 F,0,51553,51597,0,1 F,0,51597,,1 F,0,51597,51641,1,0 F,0,51641,51729,0 F,0,51729,51773,0,1 F,0,51773,51818,1,0 F,0,51818,,0 F,0,51818,51897,0 F,0,51897,51950,0,1 S,0,51941,53353,0.6434786,0.7331737 F,0,51950,51994,1,0 F,0,51994,52038,0,1 F,0,52038,52082,1,0 F,0,52082,52127,0,1 F,0,52127,52171,1,0 F,0,52171,52215,0,1 F,0,52215,52259,1,0 F,0,52259,52303,0,1 F,0,52303,52347,1,0 F,0,52347,52391,0,1 F,0,52391,52436,1,0 F,0,52436,52480,0,1 F,0,52480,52524,1,0 F,0,52524,52568,0,1 F,0,52568,52612,1,0 F,0,52612,52656,0,1 F,0,52656,52700,1,0 F,0,52700,52744,0,1 F,0,52744,52789,1,0 F,0,52789,52833,0,1 F,0,52833,52877,1,0 F,0,52877,52921,0,1 F,0,52921,52965,1,0 F,0,52965,53009,0,1 F,0,53009,53053,1,0 F,0,53053,53098,0,1 F,0,53098,53142,1,0 F,0,53142,53186,0,1 F,0,53186,53230,1,0 F,0,53230,53274,0,1 F,0,53274,53318,1,0 F,0,53318,53362,0,1 S,0,53353,53397,0.7331737,0.6499167 F,0,53362,53407,1,0 S,0,53397,74142,0.6499167,0.6493112 F,0,53407,54731,0 F,0,54731,54775,0,1 F,0,54775,54819,1,0 F,0,54819,55437,0 F,0,55437,55481,0,1 F,0,55481,55525,1,0 F,0,55525,56143,0 F,0,56143,56187,0,1 F,0,56187,56232,1,0 F,0,56232,56850,0 F,0,56850,56894,0,1 F,0,56894,56938,1,0 F,0,56938,57556,0 F,0,57556,57600,0,1 F,0,57600,57644,1,0 F,0,57644,58262,0 F,0,58262,58306,0,1 F,0,58306,58350,1,0 F,0,58350,58968,0 F,0,58968,59013,0,1 F,0,59013,59057,1,0 F,0,59057,59675,0 F,0,59675,59719,0,1 F,0,59719,59763,1,0 F,0,59763,60381,0 F,0,60381,60425,0,1 F,0,60425,60469,1,0 F,0,60469,60513,0,1 F,0,60513,60557,1,0 F,0,60557,60602,0,1 F,0,60602,60646,1,0 F,0,60646,60734,0 F,0,60734,60778,0,1 F,0,60778,60822,1,0 F,0,60822,60866,0,1 F,0,60866,60911,1,0 F,0,60911,60955,0,1 F,0,60955,60999,1,0 F,0,60999,61087,0 F,0,61087,61131,0,1 F,0,61131,61175,1,0 F,0,61175,61220,0,1 F,0,61220,61264,1,0 F,0,61264,61308,0,1 F,0,61308,61352,1,0 F,0,61352,61440,0 F,0,61440,61484,0,1 F,0,61484,61529,1,0 F,0,61529,61573,0,1 F,0,61573,61617,1,0 F,0,61617,61661,0,1 F,0,61661,61705,1,0 F,0,61705,61749,0,1 F,0,61749,61838,1,0 F,0,61838,67797,0 F,0,67797,67841,0,1 F,0,67841,67885,1,0 F,0,67885,68503,0 F,0,68503,68547,0,1 F,0,68547,68591,1,0 F,0,68591,68856,0 F,0,68856,68900,0,1 F,0,68900,68944,1,0 F,0,68944,,0 F,0,68944,69121,0 F,0,69121,69165,0,1 F,0,69165,69209,1,0 F,0,69209,69253,0,1 F,0,69253,69297,1,0 F,0,69297,69386,0 F,0,69386,69430,0,1 F,0,69430,69474,1,0 F,0,69474,69518,0,1 F,0,69518,69562,1,0 F,0,69562,69650,0 F,0,69650,69695,0,1 F,0,69695,69739,1,0 F,0,69739,69783,0,1 F,0,69783,69827,1,0 F,0,69827,69915,0 F,0,69915,69959,0,1 F,0,69959,70268,1,0 F,0,70268,70313,0,1 F,0,70313,70357,1,0 F,0,70357,70533,0 F,0,70533,70577,0,1 F,0,70577,70622,1,0 F,0,70622,70666,0,1 F,0,70666,70710,1,0 F,0,70710,70798,0 F,0,70798,70842,0,1 F,0,70842,70886,1,0 F,0,70886,70931,0,1 F,0,70931,70975,1,0 F,0,70975,71063,0 F,0,71063,71107,0,1 F,0,71107,71151,1,0 F,0,71151,71195,0,1 F,0,71195,71240,1,0 F,0,71240,71328,0 F,0,71328,71372,0,1 F,0,71372,71416,1,0 F,0,71416,71504,0 F,0,71504,71549,0,1 F,0,71549,71593,1,0 F,0,71593,71681,0 F,0,71681,71725,0,1 F,0,71725,71769,1,0 F,0,71769,71946,0 F,0,71946,71990,0,1 F,0,71990,72034,1,0 F,0,72034,72078,0,1 F,0,72078,72122,1,0 F,0,72122,72211,0 F,0,72211,72255,0,1 F,0,72255,72299,1,0 F,0,72299,72343,0,1 F,0,72343,72387,1,0 F,0,72387,72476,0 F,0,72476,72520,0,1 F,0,72520,72564,1,0 F,0,72564,72608,0,1 F,0,72608,72652,1,0 F,0,72652,72696,0,1 F,0,72696,72740,1,0 F,0,72740,72785,0,1 F,0,72785,73093,1,0 F,0,73049,,0 F,0,73093,,0 F,0,73093,,0 F,0,73138,,1 F,0,73182,,0 F,0,73182,,0 F,0,73226,73270,1,0 F,0,73270,73314,0,1 F,0,73314,73358,1,0 F,0,73358,73402,0,1 F,0,73402,73447,1,0 F,0,73447,73491,0,1 F,0,73491,73535,1,0 F,0,73535,73579,0,1 F,0,73579,73623,1,0 F,0,73623,73667,0,1 F,0,73667,73711,1,0 F,0,73711,73756,0,1 F,0,73756,73800,1,0 F,0,73800,73844,0,1 F,0,73844,73888,1,0 F,0,73888,73932,0,1 F,0,73932,73976,1,0 F,0,73976,74020,0,1 F,0,74020,74065,1,0 F,0,74065,74109,0,1 F,0,74109,74153,1,0 F,0,74142,,0 S,0,74142,74186,0.6493112,0.73891 F,0,74153,74197,0,1 S,0,74186,74495,0.73891,0.7742546 F,0,74197,74219,1,0 F,0,74219,74241,0,1 F,0,74241,74263,1,0 F,0,74263,74285,0,1 F,0,74285,74307,1,0 F,0,74307,74329,0,1 F,0,74329,74352,1,0 F,0,74352,74374,0,1 F,0,74374,74396,1,0 F,0,74396,74418,0,1 F,0,74418,74440,1,0 F,0,74440,74462,0,1 F,0,74462,74484,1,0 F,0,74484,74506,0,1 S,0,74495,74539,0.7742546,0.6549948 F,0,74506,74528,1,0 F,0,74528,74550,0,1 S,0,74539,81248,0.6549948,0.6555434 F,0,74550,74594,1,0 F,0,74594,74683,0 F,0,74683,74727,0,1 F,0,74727,74771,1,0 F,0,74771,74815,0,1 F,0,74815,74859,1,0 F,0,74859,74947,0 F,0,74947,74992,0,1 F,0,74992,75036,1,0 F,0,75036,75080,0,1 F,0,75080,75124,1,0 F,0,75124,75212,0 F,0,75212,75256,0,1 F,0,75256,75301,1,0 F,0,75301,75345,0,1 F,0,75345,75389,1,0 F,0,75389,75477,0 F,0,75477,75521,0,1 F,0,75510,,1 F,0,75521,75565,1,0 F,0,75565,,0 F,0,75599,,1 F,0,75610,,1 F,0,75610,75919,1,0 F,0,75919,,0 F,0,75919,75963,0,1 F,0,75963,76007,1,0 F,0,76007,76095,0 F,0,76095,76139,0,1 F,0,76139,76183,1,0.2309204 F,0,76183,76228,0.2309204,1 F,0,76228,76272,1,0 F,0,76272,76360,0 F,0,76360,76404,0,1 F,0,76404,76448,1,0 F,0,76448,76492,0,1 F,0,76492,76536,1,0 F,0,76536,76625,0 F,0,76625,76669,0,1 F,0,76669,76713,1,0 F,0,76713,76757,0,1 F,0,76757,76801,1,0 F,0,76801,76890,0 F,0,76890,76934,0,1 F,0,76934,76978,1,0 F,0,76978,77022,0,1 F,0,77022,77066,1,0 F,0,77066,77154,0 F,0,77154,77199,0,1 F,0,77199,77243,1,0 F,0,77243,77331,0 F,0,77331,77375,0,1 F,0,77375,77419,1,0 F,0,77419,77508,0 F,0,77508,77552,0,1 F,0,77552,77596,1,0 F,0,77596,77640,0,1 F,0,77640,77684,1,0 F,0,77684,77772,0 F,0,77772,77817,0,1 F,0,77817,77861,1,0 F,0,77861,77905,0,1 F,0,77905,77949,1,0 F,0,77949,78037,0 F,0,78037,78081,0,1 F,0,78081,78126,1,0 F,0,78126,78170,0,1 F,0,78170,78214,1,0 F,0,78214,78302,0 F,0,78302,78346,0,1 F,0,78346,78390,1,0 F,0,78390,78435,0,1 F,0,78435,78699,1,0 F,0,78699,78744,0 F,0,78744,78832,0,1 F,0,78832,,1 F,0,78832,79450,1,0 F,0,79450,79494,0,1 F,0,79494,79538,1,0 F,0,79538,79582,0,1 F,0,79582,79626,1,0 F,0,79626,79671,0,1 F,0,79671,79715,1,0 F,0,79715,79759,0,1 F,0,79759,79803,1,0 F,0,79803,79847,0,1 F,0,79847,79891,1,0 F,0,79891,79935,0,1 F,0,79935,79979,1,0 F,0,79979,80024,0,1 F,0,80024,80068,1,0 F,0,80057,,0 F,0,80068,80112,0,1 F,0,80112,80156,1,0 F,0,80156,80200,0,1 F,0,80200,80244,1,0 F,0,81248,,0 F,0,81248,81602,0,1 S,0,81248,81602,0.6555434,0.7131725 F,0,81602,81955,1,0 F,0,81602,82661,1,0 S,0,81602,85486,0.7131725,0.7917507 F,0,81955,82661,0 F,0,82661,83014,0,1 F,0,83014,83367,1,0 F,0,83014,84073,1,0 F,0,83367,84073,0 F,0,84073,84426,0,1 F,0,84426,84824,1,0 F,0,84426,85486,1,0 F,0,84824,85486,0 F,0,85486,85839,0,1 S,0,85486,86192,0.7917507,1.195355 F,0,85839,85886,1,0 F,0,85886,86192,0 S,0,86192,92018,1.195355,0.6623993 S,0,92118,92910,0.6535488,0.7903277 F,0,92162,92207,0,1 F,0,92207,92251,1,0 F,0,92251,92295,0,1 F,0,92295,92339,1,0 F,0,92339,92383,0,1 F,0,92383,92427,1,0 F,0,92427,92471,0,1 F,0,92471,92516,1,0 F,0,92516,92560,0,1 F,0,92560,92604,1,0 F,0,92604,92648,0,1 F,0,92648,92692,1,0 F,0,92692,92736,0,1 F,0,92736,92780,1,0 F,0,92780,92825,0,1 F,0,92825,92869,1,0 F,0,92869,92913,0,1 S,0,92910,92913,0.7903277,0.7073312 F,0,92913,92957,1,0 S,0,92913,92957,0.7073312,0.6561438 F,0,92957,93575,0 F,0,93575,93619,0,1 F,0,93619,93663,1,0 F,0,93663,94281,0 F,0,94281,94325,0,1 F,0,94325,94369,1,0 F,0,94369,94987,0 F,0,94987,95032,0,1 F,0,95032,95076,1,0 F,0,95076,95694,0 F,0,95694,95738,0,1 F,0,95738,95782,1,0 F,0,96400,96444,0,1 F,0,96444,96488,1,0 F,0,96488,97106,0 F,0,97106,97150,0,1 F,0,97150,97194,1,0 F,0,97194,97812,0 F,0,97503,,0 F,0,97503,,0 F,0,97503,,0 F,0,97812,97857,0,1 F,0,97857,97901,1,0 F,0,97901,98519,0 F,0,98210,,0 F,0,98519,98563,0,1 F,0,98563,98607,1,0 F,0,98607,98872,0 F,0,98872,98916,0,1 F,0,98916,98960,1,0 F,0,98960,99225,0 F,0,99225,99269,0,1 F,0,99269,99313,1,0 F,0,99313,99490,0 F,0,99490,99534,0,1 F,0,99534,99578,1,0 F,0,99578,99755,0 F,0,99755,99799,0,1 F,0,99799,99843,1,0 F,0,99843,99931,0 F,0,99931,99975,0,1 F,0,99975,100020,1,0 F,0,100020,100284,0 F,0,100284,100329,0,1 F,0,100329,100373,1,0 F,0,100373,100637,0 F,0,100637,100682,0,1 F,0,100682,100726,1,0 F,0,100726,100902,0 F,0,100902,100946,0,1 F,0,100946,100991,1,0 F,0,101331,,0 F,0,101331,101375,0,1 S,0,101331,102082,0.6571859,0.7527969 F,0,101375,102082,1,0 S,0,102082,102174,0.7527969,0.6562293 F,0,102082,102700,0 S,0,102174,102567,0.6562293,0.6560378 S,0,102567,104172,0.6560378,0.8984562 F,0,102700,102754,0 F,0,102754,,0 F,0,102788,,0 F,0,102800,104212,0,1 S,0,104172,104260,0.8984562,0.6607811 F,0,104212,104256,1,0 S,0,104256,104300,0.7611844,0.395992 F,0,104256,104344,0 S,0,104260,108338,0.6607811,0.6530957 S,0,104300,108338,0.395992,0.6530957 F,0,104344,104388,0,1 F,0,104388,104432,1,0 F,0,104432,104520,0 F,0,104520,104565,0,1 F,0,104565,104609,1,0 F,0,104609,104697,0 F,0,104697,104741,0,1 F,0,104741,104785,1,0 F,0,104785,104874,0 F,0,104874,104918,0,1 F,0,104918,104962,1,0 F,0,104962,105050,0 F,0,105050,105094,0,1 F,0,105094,105138,1,0 F,0,105138,105227,0 F,0,105227,105271,0,1 F,0,105271,105315,1,0.01061368 F,0,105315,105359,0.01061368,0 F,0,105359,105403,0 F,0,105403,105447,0,1 F,0,105447,105492,1,0 S,0,108338,114099,0.6530957,0.7026794 F,0,108405,108449,0,1 F,0,108449,108493,1,0 F,0,108493,108537,0,1 F,0,108537,108581,1,0 F,0,108581,108670,0 F,0,108670,108714,0,1 F,0,108714,108758,1,0 F,0,108758,108802,0,1 F,0,108802,108846,1,0 F,0,108846,108935,0 F,0,108935,108979,0,1 F,0,108979,109023,1,0 F,0,109023,109067,0,1 F,0,109067,109111,1,0 F,0,109111,109199,0 F,0,109199,109244,0,1 F,0,109244,109288,1,0 F,0,109288,109332,0,1 F,0,109332,109376,1,0 F,0,109376,109464,0 F,0,109464,109508,0,1 F,0,109508,109553,1,0 F,0,109553,109641,0 F,0,109641,109685,0,1 F,0,109685,109729,1,0 F,0,109729,109817,0 F,0,109817,109862,0,1 F,0,109862,109906,1,0 F,0,109906,109950,0,1 F,0,109950,109994,1,0 F,0,109994,110038,0,1 F,0,110038,110082,1,0 F,0,110082,110126,0,1 F,0,110126,110171,1,0 F,0,110171,110215,0,1 F,0,110215,110259,1,0 F,0,110259,110347,0 F,0,110347,110391,0,1 F,0,110391,110435,1,0 F,0,110435,110480,0,1 F,0,110480,110524,1,0 F,0,110524,110612,0 F,0,110612,110656,0,1 F,0,110656,110700,1,0 F,0,110700,110744,0,1 F,0,110744,110789,1,0 F,0,110789,110877,0 F,0,110877,110921,0,1 F,0,110921,110965,1,0 F,0,110965,111053,0 F,0,111053,111097,0,1 F,0,111097,111142,1,0 F,0,111142,111230,0 F,0,111230,111274,0,1 F,0,111274,111318,1,0 F,0,111318,111362,0,1 F,0,111362,111406,1,0 F,0,111406,111451,0,1 F,0,111451,111495,1,0 F,0,111495,111539,0,1 F,0,111539,111583,1,0 F,0,111583,111627,0,1 F,0,111627,111671,1,0 F,0,111671,111760,0 F,0,111760,111804,0,1 F,0,111804,111848,1,0 F,0,111848,111892,0,1 F,0,111892,111936,1,0 F,0,111936,112024,0 F,0,112024,112069,0,1 F,0,112069,112113,1,0 F,0,112113,112157,0,1 F,0,112157,112201,1,0 F,0,112201,112289,0 F,0,112289,112333,0,1 F,0,112333,112378,1,0 F,0,112378,112466,0 F,0,112466,112510,0,1 F,0,112510,112554,1,0 F,0,112554,112642,0 F,0,112642,112687,0,1 F,0,112687,112731,1,0 F,0,112731,112775,0,1 F,0,112775,112819,1,0 F,0,112819,112863,0,1 F,0,112863,112907,1,0 F,0,112907,112951,0,1 F,0,112951,112996,1,0 F,0,112996,113040,0,1 F,0,113040,113084,1,0 F,0,113084,113172,0 F,0,113172,113216,0,1 F,0,113216,113260,1,0 F,0,113260,113305,0,1 F,0,113305,113349,1,0 F,0,113349,113437,0 F,0,113437,113481,0,1 F,0,113481,113525,1,0 F,0,113525,113569,0,1 F,0,113569,113614,1,0 F,0,113614,113702,0 F,0,113702,113746,0,1 F,0,113746,113790,1,0 F,0,113790,113878,0 F,0,113878,113923,0,1 F,0,113923,113967,1,0 F,0,113967,114055,0 F,0,114055,114099,0,1 F,0,114099,114143,1,0 S,0,114099,115026,0.7026794,0.7938576 F,0,114143,114187,0,1 F,0,114187,114232,1,0 F,0,114232,114276,0,1 F,0,114276,114320,1,0 F,0,114320,114364,0,1 F,0,114364,114408,1,0 F,0,114408,114452,0,1 F,0,114452,114496,1,0 F,0,114496,114540,0,1 F,0,114540,114585,1,0 F,0,114585,114629,0,1 F,0,114629,114673,1,0 F,0,114673,114717,0,1 F,0,114717,114761,1,0 F,0,114761,114805,0,1 F,0,114805,114849,1,0 F,0,114849,114894,0,1 F,0,114894,114938,1,0 F,0,114938,114982,0,1 F,0,114982,115026,1,0 S,0,115026,115070,0.7938576,0.662439 F,0,115026,115114,0 S,0,115070,115385,0.662439,0.7137476 F,0,115114,115158,0,1 F,0,115158,115203,1,0 F,0,115203,115291,0 F,0,115291,115335,0,1 F,0,115335,115379,1,0 F,0,115379,116892,0 S,0,115385,116892,0.7137476,0.6568001 F,0,116892,,0 F,0,116892,,0 S,0,116892,118311,0.6568001,0.9693135 F,0,116892,118355,0,1 S,0,118311,118355,0.9693135,0.6754751 S,0,118355,119064,0.6754751,0.6287997
//Storyboard Sound Samples

[TimingPoints]
1100,353.128126655288,4,2,0,100,1,0
27584,-50,4,2,0,100,0,0
29151,353.128126655288,4,2,0,5,1,0
29191,-50,4,2,0,100,0,0
37811,-200,4,2,0,100,0,0
38531,-50,4,2,0,100,0,0
61765,-200,4,2,0,100,0,0
68701,-50,4,2,0,100,0,0
78752,-200,4,2,0,100,0,0
79458,-100,4,2,0,100,0,0
84150,-50,4,2,0,100,0,0
102800,1412.49588022035,4,2,0,100,1,0
104212,353.982300884956,4,2,0,100,1,0

[Colours]
Combo1 : 71,111,150
Combo2 : 0,119,119
Combo3 : 173,173,90

[HitObjects]
256,40,1100,6,0,P|360:96|288:228,1,300,4|2,0:0|0:0,0:0:0:0:
256,344,2512,2,4,P|152:287|224:156,1,300,4|2,0:0|0:0,0:0:0:0:
188,64,3925,6,0,B|100:32|72:72|136:120,1,150,4|2,0:0|0:0,0:0:0:0:
324,320,4631,2,0,B|412:352|440:312|376:264,1,150,4|2,0:0|0:0,0:0:0:0:
176,260,5337,2,0,L|404:64,1,300,4|2,0:0|0:0,0:0:0:0:
116,192,6750,6,0,P|108:320|256:312,1,300,4|2,0:0|0:0,0:0:0:0:
408,60,8162,2,0,L|180:256,1,300,4|2,0:0|0:0,0:0:0:0:
188,96,9575,1,2,0:0:0:0:
324,288,10281,1,2,0:0:0:0:
256,192,10987,12,0,12400,0:0:0:0:
216,88,13636,5,2,0:0:0:0:
296,88,13724,1,2,0:0:0:0:
256,156,13812,1,2,0:0:0:0:
256,240,14871,1,2,0:0:0:0:
212,196,15225,2,0,P|260:304|288:188,1,300,4|8,0:0|0:0,0:0:0:0:
212,196,16637,6,0,P|260:88|288:204,1,300,4|8,0:0|0:0,0:0:0:0:
256,152,17873,1,2,0:0:0:0:
256,152,17962,1,2,0:0:0:0:
256,152,18050,1,2,0:0:0:0:
356,60,18756,6,0,B|444:28|472:68|408:116,1,150,4|2,0:0|0:0,0:0:0:0:
192,332,19462,2,0,B|60:364|80:336|260:184,1,300,4|2,0:0|0:0,0:0:0:0:
256,192,20875,1,2,0:0:0:0:
256,192,22287,12,0,26525,0:0:0:0:
396,156,27937,5,4,0:0:0:0:
392,152,28026,1,2,0:0:0:0:
384,148,28114,1,2,0:0:0:0:
372,144,28202,1,2,0:0:0:0:
356,140,28290,1,2,0:0:0:0:
336,140,28379,1,2,0:0:0:0:
312,144,28467,1,2,0:0:0:0:
288,156,28555,1,2,0:0:0:0:
264,176,28643,1,2,0:0:0:0:
252,208,28732,1,2,0:0:0:0:
236,240,28820,1,2,0:0:0:0:
204,268,28908,1,2,0:0:0:0:
160,280,28997,2,0,L|40:187,1,150,4|0,0:0|0:0,0:0:0:0:
120,84,29350,5,4,0:0:0:0:
124,88,29438,1,2,0:0:0:0:
128,96,29526,1,2,0:0:0:0:
136,104,29615,1,2,0:0:0:0:
152,116,29703,1,2,0:0:0:0:
168,124,29791,1,2,0:0:0:0:
188,132,29879,1,2,0:0:0:0:
212,140,29968,1,2,0:0:0:0:
240,148,30056,1,2,0:0:0:0:
268,168,30144,1,2,0:0:0:0:
296,196,30233,1,2,0:0:0:0:
324,228,30321,1,2,0:0:0:0:
280,260,30409,6,8,L|244:224,1,37.5,8|0,0:0|0:0,0:0:0:0:
336,160,30586,6,8,L|372:196,1,37.5,8|0,0:0|0:0,0:0:0:0:
336,280,30762,5,4,0:0:0:0:
332,284,30851,1,2,0:0:0:0:
328,292,30939,1,2,0:0:0:0:
320,300,31027,1,2,0:0:0:0:
308,308,31115,1,2,0:0:0:0:
292,316,31204,1,2,0:0:0:0:
272,320,31292,1,2,0:0:0:0:
248,320,31380,1,2,0:0:0:0:
224,308,31469,1,2,0:0:0:0:
204,284,31557,1,2,0:0:0:0:
200,252,31645,1,2,0:0:0:0:
216,212,31733,1,2,0:0:0:0:
252,188,31822,1,4,0:0:0:0:
44,56,32175,5,4,0:0:0:0:
64,76,32263,1,2,0:0:0:0:
76,104,32351,1,2,0:0:0:0:
80,132,32440,1,2,0:0:0:0:
84,160,32528,1,2,0:0:0:0:
88,188,32616,1,2,0:0:0:0:
100,216,32704,1,2,0:0:0:0:
112,244,32793,1,2,0:0:0:0:
128,268,32881,1,2,0:0:0:0:
148,288,32969,1,2,0:0:0:0:
176,300,33058,1,2,0:0:0:0:
204,308,33146,1,2,0:0:0:0:
248,336,33234,6,0,L|276:304,1,37.5,8|0,0:0|0:0,0:0:0:0:
216,256,33411,6,0,L|184:288,1,37.5,8|0,0:0|0:0,0:0:0:0:
304,144,33587,5,4,0:0:0:0:
300,148,33676,1,2,0:0:0:0:
296,156,33764,1,2,0:0:0:0:
288,164,33852,1,2,0:0:0:0:
276,176,33940,1,2,0:0:0:0:
260,188,34029,1,2,0:0:0:0:
240,200,34117,1,2,0:0:0:0:
216,208,34205,1,2,0:0:0:0:
188,216,34294,1,2,0:0:0:0:
156,220,34382,1,2,0:0:0:0:
120,208,34470,1,2,0:0:0:0:
88,184,34558,1,2,0:0:0:0:
68,144,34647,2,0,L|68:32,1,112.5,4|0,0:0|0:0,0:0:0:0:
256,60,35000,5,4,0:0:0:0:
284,72,35088,1,2,0:0:0:0:
312,88,35176,1,2,0:0:0:0:
328,116,35265,1,2,0:0:0:0:
328,144,35353,1,2,0:0:0:0:
308,168,35441,1,2,0:0:0:0:
280,180,35529,1,2,0:0:0:0:
248,180,35618,1,2,0:0:0:0:
220,180,35706,1,2,0:0:0:0:
196,164,35794,1,2,0:0:0:0:
172,148,35883,1,2,0:0:0:0:
168,120,35971,1,2,0:0:0:0:
328,116,36059,6,0,L|288:116,1,37.5,8|0,0:0|0:0,0:0:0:0:
164,116,36236,6,0,L|216:116,1,37.5,8|0,0:0|0:0,0:0:0:0:
248,84,36412,5,4,0:0:0:0:
248,100,36501,1,2,0:0:0:0:
248,116,36589,1,2,0:0:0:0:
248,132,36677,1,2,0:0:0:0:
248,148,36765,1,2,0:0:0:0:
248,164,36854,1,2,0:0:0:0:
248,180,36942,1,2,0:0:0:0:
248,196,37030,1,2,0:0:0:0:
248,212,37119,1,2,0:0:0:0:
248,228,37207,1,2,0:0:0:0:
248,244,37295,1,2,0:0:0:0:
248,260,37383,1,2,0:0:0:0:
248,276,37472,1,4,0:0:0:0:
212,92,37825,6,8,L|212:144,1,37.5
300,132,38178,6,8,L|300:88,1,37.5
380,116,38508,5,8,0:0:0:0:
400,128,38597,1,8,0:0:0:0:
380,168,38685,5,8,0:0:0:0:
400,180,38774,1,8,0:0:0:0:
380,220,38862,5,8,0:0:0:0:
400,232,38951,1,8,0:0:0:0:
380,272,39039,5,8,0:0:0:0:
400,284,39126,1,8,0:0:0:0:
320,332,39215,5,4,0:0:0:0:
160,236,39391,1,2,0:0:0:0:
348,224,39568,1,2,0:0:0:0:
188,128,39744,1,2,0:0:0:0:
376,112,39921,1,2,0:0:0:0:
68,328,40097,6,2,L|92:296,1,37.5,8|2,0:0|0:0,0:0:0:0:
444,328,40362,6,2,L|420:296,1,37.5,8|2,0:0|0:0,0:0:0:0:
320,332,40627,5,4,0:0:0:0:
160,236,40803,1,2,0:0:0:0:
336,172,40980,1,4,0:0:0:0:
176,76,41156,1,2,0:0:0:0:
272,236,41333,5,2,0:0:0:0:
432,176,41509,1,2,0:0:0:0:
272,76,41687,1,2,0:0:0:0:
112,172,41863,1,2,0:0:0:0:
255,311,42040,5,4,0:0:0:0:
360,248,42216,1,2,0:0:0:0:
276,228,42393,1,2,0:0:0:0:
194,208,42569,1,2,0:0:0:0:
297,147,42746,1,2,0:0:0:0:
96,260,42922,6,2,L|88:224,1,37.5,8|2,0:0|0:0,0:0:0:0:
428,328,43187,6,2,L|456:296,1,37.5,8|2,0:0|0:0,0:0:0:0:
256,188,43452,5,4,0:0:0:0:
406,120,43629,1,2,0:0:0:0:
332,268,43805,2,0,P|284:316|200:300,1,150,4|2,0:0|0:0,0:0:0:0:
76,208,44158,6,2,P|56:168|92:144,1,75
212,60,44423,1,2,0:0:0:0:
360,132,44600,2,2,P|380:172|344:196,1,75
220,276,44865,5,4,0:0:0:0:
136,136,45041,1,2,0:0:0:0:
300,152,45218,1,2,0:0:0:0:
176,260,45394,5,2,0:0:0:0:
168,96,45571,1,2,0:0:0:0:
304,192,45748,2,2,L|228:180,1,75,8|2,0:0|0:0,0:0:0:0:
392,204,46012,2,2,L|480:216,1,75,8|2,0:0|0:0,0:0:0:0:
304,192,46277,5,4,0:0:0:0:
228,176,46630,1,4,0:0:0:0:
154,157,46983,5,2,0:0:0:0:
124,256,47160,2,2,L|200:276,1,75
256,72,47425,2,2,L|176:52,1,75
332,204,47690,5,4,0:0:0:0:
124,228,47866,1,4,0:0:0:0:
228,40,48043,1,4,0:0:0:0:
304,208,48219,6,2,L|248:264,1,75,2|2,0:0|0:0,0:0:0:0:
100,192,48484,2,2,L|80:120,1,75,2|2,0:0|0:0,0:0:0:0:
240,76,48749,2,2,L|180:216,1,150,4|2,0:0|0:0,0:0:0:0:
284,344,49102,5,4,0:0:0:0:
436,284,49279,1,2,0:0:0:0:
288,212,49455,1,4,0:0:0:0:
144,288,49632,1,2,0:0:0:0:
152,124,49808,2,4,P|292:60|420:120,1,300
416,116,50515,5,8,0:0:0:0:
380,276,50691,1,2,0:0:0:0:
268,152,50868,1,8,0:0:0:0:
220,308,51044,1,2,0:0:0:0:
108,188,51221,5,8,0:0:0:0:
164,32,51398,1,2,0:0:0:0:
324,0,51574,1,8,0:0:0:0:
268,152,51751,1,2,0:0:0:0:
168,284,51927,6,2,L|240:320,1,75,8|2,0:0|0:0,0:0:0:0:
388,252,52104,2,2,L|444:188,1,75,8|2,0:0|0:0,0:0:0:0:
360,52,52280,2,2,L|300:8,1,75,8|2,0:0|0:0,0:0:0:0:
144,72,52457,2,2,L|96:140,1,75,8|2,0:0|0:0,0:0:0:0:
168,284,52634,5,8,0:0:0:0:
236,332,52722,1,8,0:0:0:0:
316,352,52810,1,8,0:0:0:0:
396,336,52898,1,8,0:0:0:0:
460,280,52987,1,8,0:0:0:0:
472,200,53075,1,8,0:0:0:0:
428,132,53163,1,8,0:0:0:0:
348,116,53251,1,8,0:0:0:0:
272,148,53340,1,4,0:0:0:0:
272,148,54752,5,8,0:0:0:0:
164,292,54929,1,2,0:0:0:0:
72,136,55105,1,2,0:0:0:0:
248,104,55282,5,8,0:0:0:0:
204,280,55459,1,2,0:0:0:0:
376,224,55635,1,2,0:0:0:0:
264,80,55812,5,8,0:0:0:0:
184,240,55988,1,2,0:0:0:0:
84,92,56165,1,8,0:0:0:0:
272,148,56341,5,2,0:0:0:0:
164,292,56518,1,2,0:0:0:0:
72,136,56694,1,8,0:0:0:0:
248,104,56871,5,2,0:0:0:0:
204,280,57048,1,2,0:0:0:0:
376,224,57224,1,8,0:0:0:0:
264,80,57401,5,2,0:0:0:0:
184,240,57577,1,8,0:0:0:0:
84,92,57754,1,8,0:0:0:0:
352,332,57930,6,4,P|436:292|440:240,1,150
192,300,58284,5,8,0:0:0:0:
320,80,58460,1,8,0:0:0:0:
72,144,58637,6,4,P|91:74|161:55,1,150
412,96,58990,5,8,0:0:0:0:
432,108,59079,1,0,0:0:0:0:
412,148,59167,5,8,0:0:0:0:
432,160,59256,1,0,0:0:0:0:
412,200,59344,5,8,0:0:0:0:
432,212,59431,1,0,0:0:0:0:
412,252,59521,5,8,0:0:0:0:
432,264,59608,1,0,0:0:0:0:
372,264,59696,5,8,0:0:0:0:
384,284,59784,1,0,0:0:0:0:
320,264,59873,5,8,0:0:0:0:
332,284,59961,1,0,0:0:0:0:
268,264,60049,5,8,0:0:0:0:
280,284,60137,1,0,0:0:0:0:
216,264,60226,5,8,0:0:0:0:
228,284,60314,1,0,0:0:0:0:
188,248,60402,5,8,0:0:0:0:
168,260,60491,1,0,0:0:0:0:
188,196,60579,5,8,0:0:0:0:
168,208,60667,1,0,0:0:0:0:
188,144,60755,5,8,0:0:0:0:
168,156,60844,1,0,0:0:0:0:
188,92,60931,5,8,0:0:0:0:
168,104,61020,1,0,0:0:0:0:
204,64,61110,5,8,0:0:0:0:
192,44,61197,1,0,0:0:0:0:
256,64,61284,5,8,0:0:0:0:
244,44,61373,1,0,0:0:0:0:
308,64,61461,5,8,0:0:0:0:
296,44,61550,1,0,0:0:0:0:
360,64,61638,5,8,0:0:0:0:
348,44,61727,1,0,0:0:0:0:
412,68,61815,6,4,L|416:220,1,150
340,268,63227,6,4,L|188:268,1,150
184,268,64640,6,4,P|256:164|344:272,1,300
172,196,66406,5,4,0:0:0:0:
332,100,66759,5,2,0:0:0:0:
344,288,67112,5,2,0:0:0:0:
164,232,67465,5,4,0:0:0:0:
288,92,67818,5,2,0:0:0:0:
380,256,68171,5,4,0:0:0:0:
272,200,68524,5,2,0:0:0:0:
272,200,68877,5,4,0:0:0:0:
256,172,68966,1,2,0:0:0:0:
236,148,69054,1,2,0:0:0:0:
208,132,69142,1,2,0:0:0:0:
180,124,69231,1,2,0:0:0:0:
152,128,69319,1,2,0:0:0:0:
124,132,69407,1,4,0:0:0:0:
96,148,69495,1,2,0:0:0:0:
76,168,69584,1,2,0:0:0:0:
60,192,69672,1,2,0:0:0:0:
52,220,69760,1,2,0:0:0:0:
56,252,69849,1,2,0:0:0:0:
76,276,69937,2,0,L|216:348,1,150,4|0,0:0|0:0,0:0:0:0:
376,276,70290,5,4,0:0:0:0:
400,256,70378,1,2,0:0:0:0:
416,228,70466,1,2,0:0:0:0:
424,200,70555,1,2,0:0:0:0:
420,172,70643,1,2,0:0:0:0:
404,144,70731,1,2,0:0:0:0:
384,124,70820,1,4,0:0:0:0:
360,108,70908,1,2,0:0:0:0:
332,104,70996,1,2,0:0:0:0:
304,108,71084,1,2,0:0:0:0:
280,124,71173,1,2,0:0:0:0:
260,144,71261,1,2,0:0:0:0:
344,228,71349,6,0,L|260:236,1,75,8|0,0:0|0:0,0:0:0:0:
212,48,71526,6,0,L|172:120,1,75,8|0,0:0|0:0,0:0:0:0:
232,164,71702,5,4,0:0:0:0:
212,188,71791,1,2,0:0:0:0:
196,212,71879,1,2,0:0:0:0:
184,240,71967,1,4,0:0:0:0:
180,268,72056,1,2,0:0:0:0:
184,296,72144,1,2,0:0:0:0:
200,320,72232,1,4,0:0:0:0:
224,340,72320,1,2,0:0:0:0:
252,348,72409,1,2,0:0:0:0:
280,344,72497,1,4,0:0:0:0:
308,332,72585,1,2,0:0:0:0:
328,308,72674,1,2,0:0:0:0:
336,280,72762,2,0,L|360:132,1,150,4|0,0:0|0:0,0:0:0:0:
192,68,73115,5,4,0:0:0:0:
144,104,73203,1,0,0:0:0:0:
104,152,73292,1,4,0:0:0:0:
92,212,73380,1,0,0:0:0:0:
108,268,73468,1,4,0:0:0:0:
148,312,73556,1,0,0:0:0:0:
208,328,73645,1,4,0:0:0:0:
268,316,73733,1,0,0:0:0:0:
316,284,73821,6,0,L|352:312,1,37.5,4|0,0:0|0:0,0:0:0:0:
348,228,73909,2,0,L|388:248,1,37.5,4|0,0:0|0:0,0:0:0:0:
356,164,73998,2,0,L|400:172,1,37.5,4|0,0:0|0:0,0:0:0:0:
352,104,74086,2,0,L|404:92,1,37.5,4|0,0:0|0:0,0:0:0:0:
284,100,74174,6,0,L|232:92,1,37.5,4|0,0:0|0:0,0:0:0:0:
276,164,74263,2,0,L|232:172,1,37.5,4|0,0:0|0:0,0:0:0:0:
284,228,74351,2,0,L|244:248,1,37.5,4|0,0:0|0:0,0:0:0:0:
316,284,74439,2,0,L|280:312,1,37.5,4|0,0:0|0:0,0:0:0:0:
272,316,74527,5,4,0:0:0:0:
244,320,74616,1,0,0:0:0:0:
216,312,74704,1,0,0:0:0:0:
188,296,74792,1,4,0:0:0:0:
168,272,74881,1,0,0:0:0:0:
160,244,74969,1,0,0:0:0:0:
164,216,75057,1,4,0:0:0:0:
160,188,75145,1,0,0:0:0:0:
144,164,75234,1,0,0:0:0:0:
116,152,75322,1,4,0:0:0:0:
88,164,75410,1,0,0:0:0:0:
72,192,75499,1,0,0:0:0:0:
64,220,75587,2,0,L|80:376,1,150,4|0,0:0|0:0,0:0:0:0:
252,320,75940,5,4,0:0:0:0:
276,304,76028,1,0,0:0:0:0:
304,300,76117,1,0,0:0:0:0:
332,308,76205,1,4,0:0:0:0:
360,324,76293,1,0,0:0:0:0:
388,324,76381,1,0,0:0:0:0:
416,312,76470,1,4,0:0:0:0:
432,288,76558,1,0,0:0:0:0:
432,260,76646,1,0,0:0:0:0:
416,236,76735,1,4,0:0:0:0:
396,216,76823,1,0,0:0:0:0:
368,208,76911,1,0,0:0:0:0:
344,152,76999,6,0,L|324:80,1,75,8|0,0:0|0:0,0:0:0:0:
308,216,77176,6,0,L|232:244,1,75,8|0,0:0|0:0,0:0:0:0:
280,160,77352,5,4,0:0:0:0:
244,132,77441,1,0,0:0:0:0:
200,120,77529,1,0,0:0:0:0:
156,128,77617,1,4,0:0:0:0:
116,148,77706,1,0,0:0:0:0:
84,180,77794,1,0,0:0:0:0:
72,224,77882,1,4,0:0:0:0:
72,268,77970,1,0,0:0:0:0:
92,308,78059,1,0,0:0:0:0:
132,328,78147,1,4,0:0:0:0:
176,332,78235,1,0,0:0:0:0:
220,316,78324,1,0,0:0:0:0:
252,284,78412,2,0,L|352:172,1,150,4|0,0:0|0:0,0:0:0:0:
288,108,78765,6,8,L|252:144,1,37.5
432,200,79118,2,8,L|420:244,1,37.5
344,184,79471,5,2,0:0:0:0:
340,196,79560,1,2,0:0:0:0:
332,208,79648,1,2,0:0:0:0:
316,220,79736,1,2,0:0:0:0:
296,224,79824,1,2,0:0:0:0:
268,220,79913,1,2,0:0:0:0:
244,200,80001,1,2,0:0:0:0:
240,168,80089,1,2,0:0:0:0:
268,144,80178,1,4,0:0:0:0:
132,120,84415,5,4,0:0:0:0:
244,80,84592,5,2,0:0:0:0:
256,108,84680,1,2,0:0:0:0:
260,136,84768,1,2,0:0:0:0:
252,164,84856,1,2,0:0:0:0:
236,192,84945,1,2,0:0:0:0:
216,216,85033,1,2,0:0:0:0:
188,232,85121,1,2,0:0:0:0:
160,240,85210,1,2,0:0:0:0:
132,236,85298,1,2,0:0:0:0:
104,240,85386,1,2,0:0:0:0:
80,256,85474,1,2,0:0:0:0:
68,284,85563,1,2,0:0:0:0:
72,312,85651,1,10,0:0:0:0:
92,332,85739,1,2,0:0:0:0:
124,332,85828,1,8,0:0:0:0:
244,324,86004,5,2,0:0:0:0:
300,304,86092,1,2,0:0:0:0:
344,260,86181,1,2,0:0:0:0:
356,200,86269,1,2,0:0:0:0:
348,140,86357,1,2,0:0:0:0:
300,104,86446,1,2,0:0:0:0:
240,108,86534,1,2,0:0:0:0:
196,148,86622,1,2,0:0:0:0:
180,208,86710,2,2,L|172:288,3,75,10|2|10|2,0:0|0:0|0:0|0:0,0:0:0:0:
204,336,87064,5,2,0:0:0:0:
264,352,87151,1,2,0:0:0:0:
320,332,87240,1,2,0:0:0:0:
356,284,87328,1,2,0:0:0:0:
348,224,87416,1,2,0:0:0:0:
312,176,87505,1,2,0:0:0:0:
252,164,87593,1,2,0:0:0:0:
196,188,87681,1,2,0:0:0:0:
152,228,87770,2,2,L|108:288,3,75,10|2|10|2,0:0|0:0|0:0|0:0,0:0:0:0:
52,308,88123,5,2,0:0:0:0:
12,264,88211,1,2,0:0:0:0:
24,204,88299,1,2,0:0:0:0:
76,172,88388,1,2,0:0:0:0:
136,184,88476,1,2,0:0:0:0:
172,232,88564,1,2,0:0:0:0:
204,284,88653,1,2,0:0:0:0:
260,308,88741,1,2,0:0:0:0:
316,292,88829,1,10,0:0:0:0:
352,244,88917,5,2,0:0:0:0:
348,184,89006,1,10,0:0:0:0:
308,140,89094,1,2,0:0:0:0:
248,132,89182,1,2,0:0:0:0:
196,164,89271,1,2,0:0:0:0:
180,220,89359,1,2,0:0:0:0:
204,284,89447,1,2,0:0:0:0:
260,308,89535,1,2,0:0:0:0:
316,292,89624,1,2,0:0:0:0:
352,244,89712,1,2,0:0:0:0:
348,184,89800,1,2,0:0:0:0:
308,140,89889,1,10,0:0:0:0:
248,132,89977,1,2,0:0:0:0:
196,164,90065,5,10,0:0:0:0:
136,176,90153,1,2,0:0:0:0:
96,132,90242,1,2,0:0:0:0:
108,72,90330,1,2,0:0:0:0:
164,48,90418,1,2,0:0:0:0:
220,72,90507,1,2,0:0:0:0:
232,132,90595,1,2,0:0:0:0:
268,180,90683,1,2,0:0:0:0:
320,208,90771,1,2,0:0:0:0:
376,188,90860,5,2,0:0:0:0:
384,128,90948,1,10,0:0:0:0:
340,88,91036,1,2,0:0:0:0:
280,88,91124,1,10,0:0:0:0:
224,112,91213,1,2,0:0:0:0:
176,148,91301,1,2,0:0:0:0:
152,204,91389,1,2,0:0:0:0:
156,264,91478,1,10,0:0:0:0:
188,316,91566,1,2,0:0:0:0:
244,332,91654,1,2,0:0:0:0:
292,300,91742,1,2,0:0:0:0:
304,240,91831,1,10,0:0:0:0:
272,188,91919,1,2,0:0:0:0:
212,176,92007,1,2,0:0:0:0:
152,204,92096,1,2,0:0:0:0:
116,252,92184,5,10,0:0:0:0:
108,264,92272,1,2,0:0:0:0:
100,276,92360,1,2,0:0:0:0:
92,288,92449,1,2,0:0:0:0:
84,300,92537,1,2,0:0:0:0:
76,312,92625,1,2,0:0:0:0:
68,324,92714,1,2,0:0:0:0:
60,336,92802,1,2,0:0:0:0:
52,348,92890,1,10,0:0:0:0:
188,232,93243,5,4,0:0:0:0:
324,116,93596,5,0,0:0:0:0:
320,236,93950,5,0,0:0:0:0:
188,112,94303,5,2,0:0:0:0:
152,276,94656,5,4,0:0:0:0:
360,280,95009,5,0,0:0:0:0:
360,80,95362,5,0,0:0:0:0:
152,72,95715,5,2,0:0:0:0:
408,324,96068,5,4,0:0:0:0:
412,44,96421,5,0,0:0:0:0:
104,316,96775,5,0,0:0:0:0:
108,44,97128,5,2,0:0:0:0:
408,200,97481,1,4,0:0:0:0:
108,184,97834,5,2,0:0:0:0:
408,344,98187,1,4,0:0:0:0:
416,48,98540,5,2,0:0:0:0:
148,288,98893,1,6,0:0:0:0:
372,104,99246,5,2,0:0:0:0:
372,104,99335,1,6,0:0:0:0:
268,252,99511,5,2,0:0:0:0:
268,252,99600,1,6,0:0:0:0:
156,112,99775,5,2,0:0:0:0:
156,112,99864,1,6,0:0:0:0:
156,112,99952,1,6,0:0:0:0:
456,316,100306,5,6,0:0:0:0:
104,236,100659,5,2,0:0:0:0:
104,236,100747,1,6,0:0:0:0:
244,124,100924,5,2,0:0:0:0:
244,124,101012,1,6,0:0:0:0:
252,304,101189,5,2,0:0:0:0:
252,304,101277,1,6,0:0:0:0:
252,304,101365,1,6,0:0:0:0:
120,144,104212,5,6,0:0:0:0:
132,136,104300,1,2,0:0:0:0:
152,128,104388,1,2,0:0:0:0:
180,124,104477,1,6,0:0:0:0:
216,128,104565,1,2,0:0:0:0:
256,144,104654,1,2,0:0:0:0:
284,188,104742,1,6,0:0:0:0:
288,240,104831,1,2,0:0:0:0:
256,280,104919,1,2,0:0:0:0:
204,280,105008,1,6,0:0:0:0:
180,232,105096,1,2,0:0:0:0:
204,188,105185,5,2,0:0:0:0:
256,172,105273,1,6,0:0:0:0:
308,180,105362,1,2,0:0:0:0:
356,200,105450,1,6,0:0:0:0:
404,180,105539,1,6,0:0:0:0:
420,132,105627,1,6,0:0:0:0:
396,84,105716,1,2,0:0:0:0:
348,68,105804,1,2,0:0:0:0:
296,80,105893,1,6,0:0:0:0:
264,120,105981,1,2,0:0:0:0:
228,160,106070,1,2,0:0:0:0:
184,188,106158,5,6,0:0:0:0:
136,208,106247,1,2,0:0:0:0:
108,252,106335,1,2,0:0:0:0:
104,304,106424,1,6,0:0:0:0:
144,336,106512,1,2,0:0:0:0:
196,320,106601,1,2,0:0:0:0:
232,284,106689,1,6,0:0:0:0:
272,248,106778,1,2,0:0:0:0:
300,204,106866,1,2,0:0:0:0:
340,168,106955,1,2,0:0:0:0:
388,152,107043,1,6,0:0:0:0:
384,136,107751,5,6,0:0:0:0:
376,116,108459,5,6,0:0:0:0:
368,148,108548,1,2,0:0:0:0:
348,172,108636,1,2,0:0:0:0:
316,184,108725,1,2,0:0:0:0:
284,180,108813,1,2,0:0:0:0:
272,112,108990,5,6,0:0:0:0:
272,112,109079,1,6,0:0:0:0:
324,68,109256,5,6,0:0:0:0:
324,68,109344,1,6,0:0:0:0:
260,52,109521,2,2,L|192:84,1,75,6|2,0:0|0:0,0:0:0:0:
132,152,109875,5,6,0:0:0:0:
128,196,109964,1,2,0:0:0:0:
152,236,110052,1,2,0:0:0:0:
192,252,110141,1,2,0:0:0:0:
236,240,110229,1,2,0:0:0:0:
260,152,110406,5,6,0:0:0:0:
260,152,110495,1,6,0:0:0:0:
188,100,110672,5,6,0:0:0:0:
188,100,110760,1,6,0:0:0:0:
272,64,110937,2,2,L|348:44,1,75,6|2,0:0|0:0,0:0:0:0:
388,124,111291,5,6,0:0:0:0:
416,168,111380,1,2,0:0:0:0:
420,220,111468,1,2,0:0:0:0:
396,268,111557,1,2,0:0:0:0:
348,292,111645,1,2,0:0:0:0:
264,228,111822,5,6,0:0:0:0:
264,228,111911,1,6,0:0:0:0:
300,128,112088,5,6,0:0:0:0:
300,128,112176,1,6,0:0:0:0:
196,148,112353,2,2,L|124:172,1,75,6|2,0:0|0:0,0:0:0:0:
68,276,112707,5,6,0:0:0:0:
88,332,112796,1,2,0:0:0:0:
140,360,112884,1,2,0:0:0:0:
200,348,112973,1,2,0:0:0:0:
244,304,113061,1,2,0:0:0:0:
232,184,113238,5,6,0:0:0:0:
232,184,113327,1,6,0:0:0:0:
112,168,113504,5,6,0:0:0:0:
112,168,113592,1,6,0:0:0:0:
180,72,113769,2,2,L|244:28,1,75,6|2,0:0|0:0,0:0:0:0:
372,68,114123,5,6,0:0:0:0:
404,128,114212,1,2,0:0:0:0:
412,196,114300,1,2,0:0:0:0:
368,248,114388,1,2,0:0:0:0:
308,276,114477,1,2,0:0:0:0:
204,192,114654,5,6,0:0:0:0:
204,192,114742,1,6,0:0:0:0:
252,68,114919,5,6,0:0:0:0:
252,68,115008,1,6,0:0:0:0:
120,100,115185,5,4,0:0:0:0:
348,164,115362,5,4,0:0:0:0:
96,184,116955,5,2,0:0:0:0:
124,136,117043,1,2,0:0:0:0:
168,100,117132,1,2,0:0:0:0:
220,84,117220,1,2,0:0:0:0:
276,84,117309,1,2,0:0:0:0:
328,104,117397,1,2,0:0:0:0:
344,156,117486,1,2,0:0:0:0:
308,196,117574,1,2,0:0:0:0:
252,208,117663,5,2,0:0:0:0:
200,224,117751,1,2,0:0:0:0:
164,268,117840,1,2,0:0:0:0:
168,324,117928,1,2,0:0:0:0:
220,344,118017,1,2,0:0:0:0:
268,316,118105,1,2,0:0:0:0:
320,292,118194,1,2,0:0:0:0:
376,288,118282,1,2,0:0:0:0:
428,312,118371,1,6,0:0:0:0:
