osu file format v14

[General]
AudioFilename: audio.mp3
AudioLeadIn: 0
PreviewTime: 80205
Countdown: 1
SampleSet: Normal
StackLeniency: 0.2
Mode: 0
LetterboxInBreaks: 0
WidescreenStoryboard: 0

[Editor]
DistanceSpacing: 1.5
BeatDivisor: 4
GridSize: 4
TimelineZoom: 1

[Metadata]
Title:Xepher
TitleUnicode:Xepher
Artist:Tatsh
ArtistUnicode:Tatsh
Creator:Broly
Version:Unrequited existence
Source:beatmania IIDX HAPPY SKY
Tags:MEDIEVAL CHOIR. Junko Hirata, Yumi Natori, MAYA,
BeatmapID:1607815
BeatmapSetID:764626

[Difficulty]
HPDrainRate:6
CircleSize:5
OverallDifficulty:9
ApproachRate:9
SliderMultiplier:2
SliderTickRate:1

[Events]
//Background and Video events
0,0,"Xepher.full.693940.jpg",0,0
//Break Periods
//Storyboard Layer 0 (Background)
//Storyboard Layer 1 (Fail)
//Storyboard Layer 2 (Pass)
//Storyboard Layer 3 (Foreground)
//Storyboard Sound Samples

[TimingPoints]
27920,353.77358490566,4,1,0,70,1,0
28981,-80,4,1,0,70,0,0
29335,-100,4,1,0,70,0,0
30750,352.63003232442,4,1,0,70,1,0
34628,-80,4,1,0,70,0,0
34981,-100,4,1,0,70,0,0
37449,-80,4,1,0,70,0,0
37802,-100,4,1,0,70,0,0
39213,-90.9090909090909,4,1,0,60,0,0
43444,-100,4,1,0,60,0,0
44855,352.941176470588,4,1,0,60,1,0
44855,-90.9090909090909,4,1,0,60,0,0
45560,-100,4,1,0,60,0,0
53325,-500,4,1,0,40,0,0
54790,353.77358490566,4,2,0,60,1,0
54790,-100,4,2,0,60,0,1
60433,353.565114908662,4,2,0,60,1,1
63261,-100,4,2,0,70,0,1
63968,-100,4,2,0,80,0,1
64675,-100,4,2,0,90,0,1
66443,-100,4,2,0,60,0,1
67857,-80,4,2,0,60,0,1
68211,-200,4,2,0,60,0,1
68918,-100,4,2,0,70,0,0
69979,-300,4,2,0,70,0,0
70332,-100,4,2,0,70,0,0
73861,353.77358490566,4,1,0,70,1,0
74558,352.941176470588,4,1,0,60,1,0
75616,-300,4,1,0,60,0,0
75969,-100,4,1,0,60,0,0
80204,-133.333333333333,4,1,0,30,0,0
85146,-450,4,1,0,30,0,0
85852,-100,4,1,0,30,0,1
86205,-100,4,1,0,40,0,1
86558,-100,4,1,0,50,0,1
86910,-100,4,1,0,60,0,1
87616,-100,4,1,0,70,0,1
87969,-100,4,1,0,60,0,1
88322,-100,4,1,0,50,0,1
88669,352.941176470588,4,1,0,40,1,1
89021,-100,4,1,0,30,0,1
89374,-100,4,1,0,20,0,1
89727,-100,4,1,0,10,0,1
90080,-100,4,1,0,40,0,1
90433,-100,4,1,0,30,0,1
90786,-100,4,1,0,40,0,1
91139,-100,4,1,0,30,0,1
91492,-100,4,1,0,40,0,0
92904,-100,4,1,0,60,0,1
97492,-80,4,1,0,60,0,1
97845,-100,4,1,0,60,0,1
98198,-80,4,1,0,60,0,1
98551,-100,4,1,0,60,0,1
102786,-100,4,1,0,70,0,1
103492,-100,4,1,0,80,0,1
104198,-100,4,1,0,90,0,1
105610,-100,4,1,0,95,0,1
107065,359.281437125748,4,1,0,100,1,0
108466,359.281437125748,4,1,0,80,1,0
109899,353.356890459364,4,1,0,80,1,0
114133,353.356890459364,4,1,0,80,1,0
114133,-100,4,1,0,60,0,0
115193,-100,4,1,0,70,0,0
116959,-100,4,1,0,40,0,0
117313,-100,4,1,0,60,0,0
117666,-100,4,1,0,70,0,0
118019,-100,4,1,0,80,0,0
118356,353.356890459364,4,1,0,100,1,0

[HitObjects]
112,100,27920,5,6,0:0:0:0:
136,100,28008,2,8,L|184:44,1,50
228,144,28185,1,2,0:0:0:0:
248,155,28273,2,8,L|317:130,1,50
340,228,28450,1,2,0:0:0:0:
351,247,28539,2,8,L|423:260,1,50
472,324,28715,1,2,0:0:0:0:
472,345,28804,2,8,L|527:392,1,50
416,348,28981,6,0,P|312:320|224:364,1,187.5,6|0,0:0|0:0,0:0:0:0:
112,284,29335,5,2,0:0:0:0:
136,284,29423,2,8,L|168:321,1,50
228,240,29600,1,2,0:0:0:0:
248,229,29688,2,8,L|295:246,1,50
340,156,29865,1,2,0:0:0:0:
351,137,29954,2,8,L|400:128,1,50
472,60,30131,1,2,0:0:0:0:
472,39,30219,2,8,L|510:6,1,50
504,108,30396,5,6,0:0:0:0:
504,364,30573,1,6,0:0:0:0:
400,284,30750,5,2,0:0:0:0:
376,284,30838,2,0,L|344:321,1,50
284,240,31014,1,2,0:0:0:0:
264,229,31102,2,0,L|217:246,1,50
172,156,31278,1,2,0:0:0:0:
161,137,31367,2,0,L|112:128,1,50
40,60,31543,1,2,0:0:0:0:
40,39,31631,2,0,L|2:6,1,50
8,108,31807,5,6,0:0:0:0:
8,108,31896,1,6,0:0:0:0:
8,108,31984,1,6,0:0:0:0:
132,204,32160,5,0,0:0:0:0:
178,216,32248,1,0,0:0:0:0:
213,183,32336,1,0,0:0:0:0:
204,136,32424,1,0,0:0:0:0:
160,118,32513,1,0,0:0:0:0:
174,71,32601,1,0,0:0:0:0:
214,43,32689,1,0,0:0:0:0:
263,47,32777,1,0,0:0:0:0:
298,82,32865,5,0,0:0:0:0:
304,132,32953,1,0,0:0:0:0:
348,182,33042,1,0,0:0:0:0:
415,172,33130,1,0,0:0:0:0:
444,111,33218,5,0,0:0:0:0:
405,82,33306,1,0,0:0:0:0:
358,94,33394,1,0,0:0:0:0:
339,138,33482,1,0,0:0:0:0:
361,181,33571,5,2,0:0:0:0:
361,181,33659,2,8,L|376:248,1,50
276,204,33835,1,2,0:0:0:0:
276,204,33923,2,8,L|321:254,1,50
212,264,34099,1,2,0:0:0:0:
212,264,34188,2,8,L|277:284,1,50
188,348,34364,1,2,0:0:0:0:
188,348,34452,2,8,L|254:333,1,50
140,336,34628,6,0,P|108:269|160:152,1,187.5,6|0,0:0|0:0,0:0:0:0:
132,96,34981,5,2,0:0:0:0:
132,96,35069,2,8,L|82:26,1,50
204,44,35246,1,2,0:0:0:0:
204,44,35334,2,8,L|195:129,1,50
300,92,35510,1,2,0:0:0:0:
300,92,35598,2,8,L|250:22,1,50
372,40,35774,1,2,0:0:0:0:
372,40,35863,2,8,L|363:125,1,50
472,76,36039,5,6,0:0:0:0:
40,32,36215,1,6,0:0:0:0:
151,181,36392,5,2,0:0:0:0:
151,181,36480,2,8,L|136:248,1,50
236,204,36656,1,2,0:0:0:0:
236,204,36744,2,8,L|191:254,1,50
300,264,36921,1,2,0:0:0:0:
300,264,37009,2,8,L|235:284,1,50
324,348,37185,1,2,0:0:0:0:
324,348,37273,2,8,L|258:333,1,50
372,336,37449,6,0,P|404:269|368:156,1,187.5,6|0,0:0|0:0,0:0:0:0:
375,164,37802,6,0,P|355:96|379:48,1,100,2|0,0:0|0:0,0:0:0:0:
432,116,38155,1,10,0:0:0:0:
432,116,38243,1,8,0:0:0:0:
432,116,38331,1,8,0:0:0:0:
256,56,38507,5,10,0:0:0:0:
209,70,38596,1,10,0:0:0:0:
189,114,38684,1,10,0:0:0:0:
209,159,38772,1,10,0:0:0:0:
255,174,38860,1,10,0:0:0:0:
287,209,38948,1,10,0:0:0:0:
283,258,39036,1,10,0:0:0:0:
244,287,39124,1,10,0:0:0:0:
196,277,39213,6,0,P|175:236|216:152,1,110.000003356934,14|0,0:0|0:0,0:0:0:0:
181,74,39565,2,0,P|202:115|161:199,1,110.000003356934,6|0,0:0|0:0,0:0:0:0:
128,128,39918,1,2,0:0:0:0:
128,96,40094,1,0,0:0:0:0:
128,96,40182,1,0,0:0:0:0:
128,104,40271,1,2,0:0:0:0:
128,116,40359,1,0,0:0:0:0:
128,128,40447,1,0,0:0:0:0:
280,92,40623,5,2,0:0:0:0:
180,92,40799,1,0,0:0:0:0:
332,192,40976,5,2,0:0:0:0:
432,192,41152,1,0,0:0:0:0:
280,292,41328,5,2,0:0:0:0:
180,292,41505,1,0,0:0:0:0:
60,240,41681,5,2,0:0:0:0:
60,340,41857,1,0,0:0:0:0:
180,292,42034,6,0,L|180:172,1,110.000003356934,6|0,0:0|0:0,0:0:0:0:
280,192,42386,2,0,L|280:308,1,110.000003356934,6|0,0:0|0:0,0:0:0:0:
180,182,42739,1,2,0:0:0:0:
292,120,42915,1,0,0:0:0:0:
292,120,43003,2,0,L|292:64,1,55.0000016784668,0|2,0:0|0:0,0:0:0:0:
292,21,43180,1,0,0:0:0:0:
292,21,43268,1,0,0:0:0:0:
292,120,43444,6,0,B|300:64|300:64|292:16,1,100,2|0,0:0|0:0,0:0:0:0:
396,200,43797,2,0,B|388:256|388:256|396:304,1,100,2|0,0:0|0:0,0:0:0:0:
175,330,44149,1,2,0:0:0:0:
175,330,44238,1,0,0:0:0:0:
175,180,44414,1,0,0:0:0:0:
175,230,44502,1,2,0:0:0:0:
175,280,44590,1,0,0:0:0:0:
175,330,44678,1,0,0:0:0:0:
176,80,44855,6,0,P|192:152|168:188,1,110.000003356934,6|0,0:0|0:0,0:0:0:0:
75,79,45207,2,0,P|147:63|183:87,1,110.000003356934,6|0,0:0|0:0,0:0:0:0:
256,128,45560,1,2,0:0:0:0:
128,132,45737,1,0,0:0:0:0:
128,132,45825,1,0,0:0:0:0:
256,52,46002,1,0,0:0:0:0:
256,52,46090,1,0,0:0:0:0:
256,232,46266,6,0,L|256:368,1,100,2|0,0:0|0:0,0:0:0:0:
256,152,46619,2,0,L|256:16,1,100,2|0,0:0|0:0,0:0:0:0:
432,192,46972,1,2,0:0:0:0:
432,292,47149,1,0,0:0:0:0:
432,292,47237,1,0,0:0:0:0:
432,92,47413,1,0,0:0:0:0:
432,92,47502,1,0,0:0:0:0:
80,192,47678,6,0,L|80:92,1,100,2|0,0:0|0:0,0:0:0:0:
192,192,48031,2,0,L|192:292,1,100,2|0,0:0|0:0,0:0:0:0:
192,292,48296,1,0,0:0:0:0:
192,292,48384,2,0,L|192:216,1,50,2|0,0:0|0:0,0:0:0:0:
76,292,48560,2,0,L|76:368,1,50
80,192,48737,1,2,0:0:0:0:
80,192,48913,1,0,0:0:0:0:
192,192,49090,5,2,0:0:0:0:
217,192,49266,1,2,0:0:0:0:
242,192,49443,1,2,0:0:0:0:
267,192,49619,1,2,0:0:0:0:
292,192,49796,1,2,0:0:0:0:
317,192,49972,1,2,0:0:0:0:
342,192,50149,1,2,0:0:0:0:
367,192,50325,1,2,0:0:0:0:
392,192,50502,5,2,0:0:0:0:
354,192,50678,1,2,0:0:0:0:
317,192,50855,1,2,0:0:0:0:
279,192,51031,1,2,0:0:0:0:
242,192,51207,1,2,0:0:0:0:
204,192,51384,1,2,0:0:0:0:
167,192,51560,1,2,0:0:0:0:
129,192,51737,1,2,0:0:0:0:
92,192,51913,5,2,0:0:0:0:
110,192,52002,1,8,0:0:0:0:
129,192,52090,1,2,0:0:0:0:
148,192,52178,1,8,0:0:0:0:
167,192,52266,1,2,0:0:0:0:
185,192,52354,1,8,0:0:0:0:
204,192,52443,1,2,0:0:0:0:
223,192,52531,1,8,0:0:0:0:
242,192,52619,1,2,0:0:0:0:
260,192,52707,1,8,0:0:0:0:
279,192,52796,1,2,0:0:0:0:
298,192,52884,1,8,0:0:0:0:
317,192,52972,1,2,0:0:0:0:
335,192,53060,1,8,0:0:0:0:
354,192,53149,1,2,0:0:0:0:
373,192,53237,1,8,0:0:0:0:
392,192,53325,6,0,B|368:144|408:108|384:60,1,130,14|0,0:0|0:0,0:0:0:0:
160,248,54790,6,0,L|160:356,1,100,6|0,0:0|0:0,0:0:0:0:
248,248,55143,2,0,L|248:356,1,100,2|0,0:0|0:0,0:0:0:0:
412,136,55497,6,0,L|412:28,1,100,2|0,0:0|0:0,0:0:0:0:
324,136,55851,2,0,L|324:28,1,100,2|0,0:0|0:0,0:0:0:0:
212,140,56205,5,10,0:0:0:0:
202,148,56293,1,8,0:0:0:0:
192,154,56381,1,8,0:0:0:0:
180,158,56470,1,8,0:0:0:0:
167,160,56558,1,10,0:0:0:0:
155,159,56647,1,8,0:0:0:0:
143,156,56735,1,8,0:0:0:0:
132,150,56824,1,8,0:0:0:0:
120,140,56912,2,0,L|248:108,1,100,10|0,0:0|0:0,0:0:0:0:
369,312,57266,2,0,L|272:288,1,100,2|0,0:0|0:0,0:0:0:0:
408,176,57620,5,2,0:0:0:0:
272,288,57797,1,0,0:0:0:0:
264,64,57973,5,6,0:0:0:0:
356,172,58150,1,0,0:0:0:0:
456,72,58327,5,2,0:0:0:0:
316,248,58504,1,0,0:0:0:0:
316,120,58681,5,6,0:0:0:0:
416,292,58858,1,0,0:0:0:0:
296,176,59035,5,10,0:0:0:0:
307,171,59123,1,8,0:0:0:0:
319,166,59212,1,8,0:0:0:0:
330,162,59300,1,8,0:0:0:0:
342,157,59389,1,10,0:0:0:0:
354,153,59477,1,8,0:0:0:0:
364,148,59565,1,8,0:0:0:0:
377,144,59654,1,8,0:0:0:0:
389,139,59742,2,0,P|340:112|297:121,1,100,10|0,0:0|0:0,0:0:0:0:
123,245,60096,2,0,P|172:272|215:263,1,100,2|0,0:0|0:0,0:0:0:0:
184,188,60433,5,10,0:0:0:0:
171,209,60521,1,8,0:0:0:0:
163,233,60609,1,8,0:0:0:0:
163,258,60698,1,8,0:0:0:0:
168,282,60786,1,10,0:0:0:0:
180,304,60874,1,8,0:0:0:0:
197,322,60963,1,8,0:0:0:0:
218,335,61051,1,8,0:0:0:0:
242,343,61140,2,0,L|360:316,1,100,10|0,0:0|0:0,0:0:0:0:
168,248,61493,2,0,L|50:275,1,100,2|0,0:0|0:0,0:0:0:0:
160,176,61847,5,10,0:0:0:0:
184,175,61935,1,8,0:0:0:0:
208,183,62024,1,8,0:0:0:0:
227,199,62112,1,8,0:0:0:0:
240,220,62200,1,10,0:0:0:0:
245,244,62289,1,8,0:0:0:0:
242,269,62377,1,8,0:0:0:0:
230,291,62465,1,8,0:0:0:0:
211,307,62554,1,10,0:0:0:0:
212,276,62642,1,8,0:0:0:0:
221,246,62731,1,8,0:0:0:0:
236,219,62819,1,8,0:0:0:0:
258,197,62907,1,10,0:0:0:0:
285,181,62996,1,8,0:0:0:0:
314,172,63084,1,8,0:0:0:0:
346,170,63173,1,8,0:0:0:0:
376,177,63261,5,10,0:0:0:0:
343,195,63349,1,8,0:0:0:0:
307,202,63438,1,8,0:0:0:0:
270,198,63526,1,8,0:0:0:0:
236,183,63615,1,10,0:0:0:0:
208,158,63703,1,8,0:0:0:0:
189,126,63791,1,8,0:0:0:0:
181,89,63880,1,8,0:0:0:0:
184,52,63968,5,10,0:0:0:0:
184,89,64057,1,8,0:0:0:0:
184,127,64145,1,8,0:0:0:0:
184,164,64233,1,8,0:0:0:0:
184,202,64322,1,10,0:0:0:0:
184,239,64410,1,8,0:0:0:0:
184,277,64498,1,8,0:0:0:0:
184,314,64587,1,8,0:0:0:0:
184,352,64675,5,10,0:0:0:0:
192,324,64764,1,8,0:0:0:0:
216,313,64852,1,8,0:0:0:0:
224,284,64940,1,8,0:0:0:0:
248,275,65029,1,10,0:0:0:0:
256,248,65117,1,8,0:0:0:0:
280,236,65206,1,8,0:0:0:0:
288,208,65294,1,8,0:0:0:0:
312,198,65382,1,10,0:0:0:0:
320,168,65471,1,8,0:0:0:0:
344,160,65559,1,8,0:0:0:0:
352,132,65648,1,8,0:0:0:0:
376,121,65736,1,10,0:0:0:0:
384,96,65824,1,8,0:0:0:0:
408,83,65913,1,8,0:0:0:0:
416,60,66001,1,8,0:0:0:0:
440,44,66090,6,0,B|452:96|452:96|440:180,1,100,10|0,0:0|0:0,0:0:0:0:
268,248,66443,6,0,B|248:196|268:112,1,100,2|0,0:0|0:0,0:0:0:0:
404,376,66797,2,0,B|352:388|268:376,1,100,2|0,0:0|0:0,0:0:0:0:
120,8,67150,2,0,B|172:-4|256:8,1,100,2|0,0:0|0:0,0:0:0:0:
72,340,67504,6,0,B|60:292|60:292|66:241,1,100,2|0,0:0|0:0,0:0:0:0:
288,280,67857,2,0,B|224:292|224:292|144:280,1,125,6|0,0:0|0:0,0:0:0:0:
280,181,68211,2,0,B|280:214|280:214|288:248|288:248|288:289,1,100,2|6,0:0|0:0,0:0:0:0:
404,168,68918,5,14,0:0:0:0:
397,192,69006,1,8,0:0:0:0:
390,216,69094,1,8,0:0:0:0:
404,168,69183,5,8,0:0:0:0:
397,192,69272,1,10,0:0:0:0:
390,216,69360,1,8,0:0:0:0:
404,168,69448,5,8,0:0:0:0:
397,192,69537,1,8,0:0:0:0:
390,216,69624,1,10,0:0:0:0:
404,168,69714,5,8,0:0:0:0:
397,192,69802,1,8,0:0:0:0:
390,216,69890,1,8,0:0:0:0:
404,168,69979,6,0,L|381:253,1,50,6|0,0:0|0:0,0:0:0:0:
108,168,70332,5,2,0:0:0:0:
115,192,70420,1,8,0:0:0:0:
122,216,70508,1,8,0:0:0:0:
108,168,70598,5,8,0:0:0:0:
115,192,70686,1,10,0:0:0:0:
122,216,70774,1,8,0:0:0:0:
108,168,70862,5,8,0:0:0:0:
115,192,70950,1,8,0:0:0:0:
122,216,71038,1,10,0:0:0:0:
108,168,71128,5,8,0:0:0:0:
115,192,71216,1,8,0:0:0:0:
122,216,71304,1,8,0:0:0:0:
108,168,71393,5,14,0:0:0:0:
108,168,71570,1,6,0:0:0:0:
256,142,71747,5,10,0:0:0:0:
256,167,71835,1,8,0:0:0:0:
256,192,71923,1,8,0:0:0:0:
320,192,72012,5,8,0:0:0:0:
320,167,72100,1,10,0:0:0:0:
320,142,72188,1,8,0:0:0:0:
384,142,72277,5,8,0:0:0:0:
384,167,72365,1,8,0:0:0:0:
384,192,72453,1,10,0:0:0:0:
448,192,72542,5,8,0:0:0:0:
448,167,72630,1,8,0:0:0:0:
448,142,72718,1,8,0:0:0:0:
452,120,72807,5,14,0:0:0:0:
452,120,72896,1,12,0:0:0:0:
452,120,72984,2,8,P|418:115|396:100,1,50,12|8,0:0|0:0,0:0:0:0:
312,96,73161,5,10,0:0:0:0:
285,136,73249,1,8,0:0:0:0:
302,181,73337,1,8,0:0:0:0:
349,194,73426,1,8,0:0:0:0:
387,164,73514,5,10,0:0:0:0:
337,198,73602,1,8,0:0:0:0:
337,258,73690,1,8,0:0:0:0:
386,293,73780,1,8,0:0:0:0:
443,273,73861,5,10,0:0:0:0:
407,209,73949,1,10,0:0:0:0:
338,183,74038,1,10,0:0:0:0:
269,208,74126,1,10,0:0:0:0:
233,272,74215,5,10,0:0:0:0:
197,305,74303,1,10,0:0:0:0:
149,298,74391,5,10,0:0:0:0:
125,256,74480,1,10,0:0:0:0:
143,211,74558,5,10,0:0:0:0:
167,217,74646,1,8,0:0:0:0:
191,224,74734,1,8,0:0:0:0:
143,211,74823,5,8,0:0:0:0:
167,204,74911,5,10,0:0:0:0:
191,197,74999,1,8,0:0:0:0:
143,211,75088,5,8,0:0:0:0:
160,193,75176,1,8,0:0:0:0:
178,176,75264,5,10,0:0:0:0:
143,211,75352,5,8,0:0:0:0:
149,186,75440,1,8,0:0:0:0:
155,162,75528,1,8,0:0:0:0:
143,211,75616,6,0,L|127:152,1,50,6|0,0:0|0:0,0:0:0:0:
369,173,75969,5,10,0:0:0:0:
345,167,76057,1,8,0:0:0:0:
321,160,76145,1,8,0:0:0:0:
369,173,76234,5,8,0:0:0:0:
345,180,76322,5,10,0:0:0:0:
321,187,76410,1,8,0:0:0:0:
369,173,76499,5,8,0:0:0:0:
352,191,76587,1,8,0:0:0:0:
334,208,76675,5,10,0:0:0:0:
369,173,76763,5,8,0:0:0:0:
363,198,76852,1,8,0:0:0:0:
357,222,76941,1,8,0:0:0:0:
369,173,77028,5,14,0:0:0:0:
369,173,77205,1,4,0:0:0:0:
256,142,77381,5,10,0:0:0:0:
256,167,77469,1,8,0:0:0:0:
256,192,77557,1,8,0:0:0:0:
192,192,77646,5,8,0:0:0:0:
192,167,77734,1,10,0:0:0:0:
192,142,77822,1,8,0:0:0:0:
128,142,77911,5,8,0:0:0:0:
128,167,77999,1,8,0:0:0:0:
128,192,78087,1,10,0:0:0:0:
64,192,78175,5,8,0:0:0:0:
64,167,78263,1,8,0:0:0:0:
64,142,78351,1,8,0:0:0:0:
68,120,78441,5,14,0:0:0:0:
68,120,78528,1,12,0:0:0:0:
68,120,78616,2,8,P|102:115|124:100,1,50,12|8,0:0|0:0,0:0:0:0:
136,12,78793,2,0,B|115:50|115:50|115:154,1,100,2|0,0:0|0:0,0:0:0:0:
116,216,79146,5,10,0:0:0:0:
116,216,79234,1,8,0:0:0:0:
116,216,79322,1,8,0:0:0:0:
116,216,79410,1,8,0:0:0:0:
116,216,79499,5,10,0:0:0:0:
161,235,79587,1,10,0:0:0:0:
209,228,79675,1,10,0:0:0:0:
246,195,79763,1,10,0:0:0:0:
258,147,79852,1,10,0:0:0:0:
277,101,79940,1,10,0:0:0:0:
319,77,80028,1,10,0:0:0:0:
368,84,80116,1,10,0:0:0:0:
402,119,80205,6,0,L|420:208,1,75.0000028610231,6|0,0:0|0:0,0:0:0:0:
95,192,80558,2,0,L|109:119,1,75.0000028610231
402,119,80910,6,0,L|420:208,1,75.0000028610231
95,192,81263,2,0,L|109:119,1,75.0000028610231
256,192,81616,1,0,0:0:0:0:
256,192,81793,1,0,0:0:0:0:
256,192,81969,1,0,0:0:0:0:
256,192,82146,1,0,0:0:0:0:
256,192,82322,6,0,L|256:267,1,75.0000028610231
256,192,82675,2,0,L|256:117,1,75.0000028610231
402,264,83028,6,0,L|420:176,1,75.0000028610231
95,191,83381,2,0,L|109:264,1,75.0000028610231
402,264,83733,6,0,L|420:176,1,75.0000028610231
95,191,84086,2,0,L|109:264,1,75.0000028610231
256,192,84440,1,0,0:0:0:0:
256,192,84616,1,0,0:0:0:0:
256,192,84793,1,0,0:0:0:0:
256,192,84969,1,0,0:0:0:0:
256,192,85146,6,0,L|256:272,1,77.7777777777778
256,128,85852,5,14,0:0:0:0:
250,117,85940,5,8,0:0:0:0:
239,110,86028,5,8,0:0:0:0:
227,112,86116,5,8,0:0:0:0:
216,120,86205,5,10,0:0:0:0:
227,141,86293,5,8,0:0:0:0:
250,149,86381,5,8,0:0:0:0:
273,140,86469,5,8,0:0:0:0:
283,118,86558,5,10,0:0:0:0:
276,70,86646,5,8,0:0:0:0:
234,48,86734,5,8,0:0:0:0:
191,71,86822,5,8,0:0:0:0:
185,119,86910,5,10,0:0:0:0:
211,184,86999,5,8,0:0:0:0:
192,252,87087,6,8,B|222:245|222:245|274:253,1,50
404,280,87263,5,10,0:0:0:0:
475,271,87352,5,8,0:0:0:0:
506,206,87440,5,8,0:0:0:0:
468,145,87528,5,8,0:0:0:0:
396,142,87616,5,10,0:0:0:0:
384,124,87705,5,8,0:0:0:0:
336,104,87793,5,8,0:0:0:0:
340,88,87881,5,8,0:0:0:0:
368,68,87969,5,10,0:0:0:0:
351,49,88057,5,8,0:0:0:0:
327,46,88146,5,8,0:0:0:0:
307,61,88234,5,8,0:0:0:0:
300,84,88322,1,10,0:0:0:0:
288,87,88410,1,8,0:0:0:0:
275,87,88498,1,8,0:0:0:0:
263,83,88587,1,8,0:0:0:0:
252,76,88669,5,10,0:0:0:0:
262,82,88757,1,8,0:0:0:0:
270,92,88845,1,8,0:0:0:0:
275,103,88933,1,8,0:0:0:0:
256,124,89021,5,10,0:0:0:0:
245,117,89109,1,8,0:0:0:0:
237,107,89198,1,8,0:0:0:0:
232,96,89285,1,8,0:0:0:0:
228,84,89374,5,10,0:0:0:0:
222,85,89463,1,8,0:0:0:0:
216,86,89551,1,8,0:0:0:0:
210,89,89639,1,8,0:0:0:0:
205,93,89727,6,0,P|204:156|232:120,1,150,2|0,0:0|0:0,0:0:0:0:
160,84,90080,5,10,0:0:0:0:
111,83,90169,1,8,0:0:0:0:
77,118,90257,1,8,0:0:0:0:
80,166,90345,1,8,0:0:0:0:
118,197,90433,5,10,0:0:0:0:
108,205,90521,1,8,0:0:0:0:
99,213,90610,1,8,0:0:0:0:
89,222,90698,1,8,0:0:0:0:
80,232,90786,5,10,0:0:0:0:
107,191,90874,1,8,0:0:0:0:
154,175,90963,1,8,0:0:0:0:
201,190,91051,1,8,0:0:0:0:
232,232,91139,5,10,0:0:0:0:
244,232,91227,1,8,0:0:0:0:
257,232,91316,1,8,0:0:0:0:
269,232,91404,1,8,0:0:0:0:
282,232,91492,5,10,0:0:0:0:
282,223,91580,1,8,0:0:0:0:
282,213,91669,1,8,0:0:0:0:
282,204,91757,1,8,0:0:0:0:
282,194,91845,1,10,0:0:0:0:
282,185,91933,1,8,0:0:0:0:
282,176,92021,1,8,0:0:0:0:
282,166,92110,1,8,0:0:0:0:
282,157,92198,1,10,0:0:0:0:
282,148,92286,1,10,0:0:0:0:
282,138,92374,1,10,0:0:0:0:
282,129,92463,1,10,0:0:0:0:
282,119,92551,1,10,0:0:0:0:
282,110,92639,1,10,0:0:0:0:
282,101,92727,1,10,0:0:0:0:
282,91,92816,1,10,0:0:0:0:
282,80,92904,6,0,B|322:56|322:56|490:56,2,200,6|2|2,0:0|0:0|0:0,0:0:0:0:
288,176,93786,1,0,0:0:0:0:
288,176,93963,6,0,B|248:200|248:200|94:200,2,200,2|2|2,0:0|0:0|0:0,0:0:0:0:
404,144,94845,1,0,0:0:0:0:
404,176,95021,1,2,0:0:0:0:
404,108,95198,1,0,0:0:0:0:
484,216,95374,1,2,0:0:0:0:
484,268,95551,1,0,0:0:0:0:
484,320,95727,6,0,B|416:336|416:336|256:336,1,200,2|2,0:0|0:0,0:0:0:0:
206,234,96257,1,0,0:0:0:0:
112,240,96433,2,0,P|176:224|236:260,1,100,2|0,0:0|0:0,0:0:0:0:
156,324,96786,2,0,P|92:340|32:304,1,100,2|0,0:0|0:0,0:0:0:0:
206,234,97139,6,0,L|206:374,1,100,2|0,0:0|0:0,0:0:0:0:
64,192,97492,2,0,L|64:44,1,125,6|0,0:0|0:0,0:0:0:0:
206,134,97845,6,0,L|206:274,1,100,2|0,0:0|0:0,0:0:0:0:
61,329,98198,2,0,L|61:204,1,125,6|0,0:0|0:0,0:0:0:0:
112,140,98551,5,10,0:0:0:0:
136,136,98639,1,8,0:0:0:0:
161,140,98727,1,8,0:0:0:0:
183,150,98816,1,8,0:0:0:0:
202,167,98904,1,10,0:0:0:0:
215,188,98992,1,8,0:0:0:0:
222,212,99080,1,8,0:0:0:0:
221,237,99169,1,8,0:0:0:0:
214,260,99257,2,0,P|160:296|112:300,1,100,10|0,0:0|0:0,0:0:0:0:
164,184,99610,2,0,P|218:148|266:144,1,100,2|0,0:0|0:0,0:0:0:0:
400,140,99963,5,10,0:0:0:0:
376,136,100051,1,8,0:0:0:0:
351,140,100139,1,8,0:0:0:0:
329,150,100227,1,8,0:0:0:0:
310,167,100316,1,10,0:0:0:0:
297,188,100404,1,8,0:0:0:0:
290,212,100492,1,8,0:0:0:0:
291,237,100580,1,8,0:0:0:0:
298,260,100669,2,0,P|352:296|400:300,1,100,10|0,0:0|0:0,0:0:0:0:
348,184,101021,2,0,P|294:148|246:144,1,100,2|0,0:0|0:0,0:0:0:0:
132,144,101374,5,10,0:0:0:0:
112,159,101463,1,8,0:0:0:0:
100,181,101551,1,8,0:0:0:0:
98,206,101639,1,8,0:0:0:0:
105,230,101727,1,10,0:0:0:0:
121,249,101816,1,8,0:0:0:0:
142,261,101904,1,8,0:0:0:0:
167,263,101992,1,8,0:0:0:0:
192,256,102080,5,10,0:0:0:0:
211,240,102168,1,8,0:0:0:0:
234,232,102257,1,8,0:0:0:0:
259,232,102345,1,8,0:0:0:0:
282,242,102433,1,10,0:0:0:0:
300,258,102521,1,8,0:0:0:0:
312,280,102610,1,8,0:0:0:0:
315,305,102698,1,8,0:0:0:0:
309,329,102786,5,10,0:0:0:0:
297,300,102874,1,8,0:0:0:0:
289,270,102963,1,8,0:0:0:0:
285,239,103051,1,8,0:0:0:0:
284,208,103139,1,10,0:0:0:0:
286,177,103227,1,8,0:0:0:0:
292,146,103316,1,8,0:0:0:0:
302,116,103404,1,8,0:0:0:0:
315,88,103492,5,10,0:0:0:0:
296,121,103580,1,8,0:0:0:0:
271,148,103668,1,8,0:0:0:0:
239,168,103757,1,8,0:0:0:0:
204,180,103845,1,10,0:0:0:0:
167,183,103933,1,8,0:0:0:0:
130,178,104021,1,8,0:0:0:0:
95,163,104110,1,8,0:0:0:0:
65,141,104198,5,10,0:0:0:0:
102,108,104286,1,8,0:0:0:0:
150,95,104374,1,8,0:0:0:0:
198,104,104463,1,8,0:0:0:0:
238,134,104551,5,14,0:0:0:0:
280,161,104639,1,8,0:0:0:0:
329,167,104727,1,8,0:0:0:0:
377,153,104816,1,8,0:0:0:0:
414,120,104904,5,10,0:0:0:0:
385,68,104992,1,8,0:0:0:0:
325,59,105080,1,8,0:0:0:0:
282,102,105168,1,8,0:0:0:0:
291,161,105257,5,14,0:0:0:0:
307,208,105345,1,8,0:0:0:0:
296,256,105433,1,8,0:0:0:0:
261,290,105521,1,8,0:0:0:0:
213,301,105610,5,10,0:0:0:0:
208,235,105698,1,8,0:0:0:0:
231,173,105786,1,8,0:0:0:0:
278,126,105874,1,8,0:0:0:0:
340,104,105963,5,14,0:0:0:0:
310,163,106051,1,8,0:0:0:0:
255,200,106139,1,8,0:0:0:0:
190,206,106227,1,8,0:0:0:0:
129,179,106316,2,8,L|88:96,1,50,10|8,0:0|0:0,0:0:0:0:
0,40,106492,2,8,L|68:100,1,50
106,134,106668,1,14,0:0:0:0:
158,176,106756,1,8,0:0:0:0:
207,221,106844,1,8,0:0:0:0:
256,268,106933,1,8,0:0:0:0:
280,286,107021,1,14,0:0:0:0:
280,286,107065,6,0,B|300:204|300:204|292:144|292:144|304:66,1,200,14|0,0:0|0:0,0:0:0:0:
136,12,107783,6,0,B|116:94|116:94|124:154|124:154|112:232,1,200,4|4,0:0|0:0,0:0:0:0:
368,144,108466,5,6,0:0:0:0:
368,144,108555,1,2,0:0:0:0:
368,144,108645,1,2,0:0:0:0:
368,144,108735,1,2,0:0:0:0:
368,144,108825,1,2,0:0:0:0:
296,92,109004,1,2,0:0:0:0:
296,92,109094,1,2,0:0:0:0:
280,286,109274,1,2,0:0:0:0:
280,286,109364,1,2,0:0:0:0:
420,240,109543,1,2,0:0:0:0:
288,164,109723,1,2,0:0:0:0:
200,112,109899,5,2,0:0:0:0:
200,112,109987,1,2,0:0:0:0:
200,112,110075,1,2,0:0:0:0:
200,112,110164,1,2,0:0:0:0:
200,112,110252,1,2,0:0:0:0:
272,60,110429,1,2,0:0:0:0:
272,60,110517,1,2,0:0:0:0:
288,254,110694,1,2,0:0:0:0:
288,254,110782,1,2,0:0:0:0:
148,208,110959,1,2,0:0:0:0:
280,132,111135,1,2,0:0:0:0:
88,56,111312,5,2,0:0:0:0:
88,56,111400,1,2,0:0:0:0:
88,56,111489,1,2,0:0:0:0:
88,56,111577,1,2,0:0:0:0:
88,56,111665,1,2,0:0:0:0:
212,44,111842,1,2,0:0:0:0:
212,44,111930,1,2,0:0:0:0:
92,60,112107,1,2,0:0:0:0:
92,60,112195,1,2,0:0:0:0:
212,44,112372,1,2,0:0:0:0:
256,192,112549,1,2,0:0:0:0:
424,328,112725,5,2,0:0:0:0:
424,328,112814,1,2,0:0:0:0:
424,328,112902,1,2,0:0:0:0:
424,328,112990,1,2,0:0:0:0:
424,328,113079,1,2,0:0:0:0:
300,340,113255,1,2,0:0:0:0:
300,340,113344,1,2,0:0:0:0:
432,336,113520,1,2,0:0:0:0:
432,336,113609,1,2,0:0:0:0:
300,340,113785,1,2,0:0:0:0:
256,192,113962,1,2,0:0:0:0:
256,192,114133,6,0,L|256:108,4,50
112,244,114663,6,0,L|112:312,1,50
400,140,114928,2,0,L|400:72,1,50
116,88,115193,5,6,0:0:0:0:
396,296,115369,1,6,0:0:0:0:
432,192,116959,5,8,0:0:0:0:
386,172,117048,1,8,0:0:0:0:
336,175,117136,1,8,0:0:0:0:
293,200,117224,1,8,0:0:0:0:
266,241,117313,5,8,0:0:0:0:
241,296,117401,1,8,0:0:0:0:
183,311,117489,1,8,0:0:0:0:
135,275,117578,1,8,0:0:0:0:
134,215,117666,1,8,0:0:0:0:
176,162,117754,5,8,0:0:0:0:
194,92,117842,1,8,0:0:0:0:
143,42,117930,1,8,0:0:0:0:
74,61,118019,1,8,0:0:0:0:
55,130,118108,5,8,0:0:0:0:
84,208,118196,1,8,0:0:0:0:
68,289,118284,1,8,0:0:0:0:
111,358,118356,5,12,0:0:0:0:
