osu file format v14

[General]
AudioFilename: audio.mp3
AudioLeadIn: 0
PreviewTime: 53370
Countdown: 0
SampleSet: Normal
StackLeniency: 0
Mode: 0
LetterboxInBreaks: 0
WidescreenStoryboard: 0

[Editor]
Bookmarks: 27958,54782,85840
DistanceSpacing: 1.5
BeatDivisor: 4
GridSize: 4
TimelineZoom: 1.8

[Metadata]
Title:Xepher
TitleUnicode:Xepher
Artist:Tatsh
ArtistUnicode:Tatsh
Creator:Amos
Version:100%
Source:beatmania IIDX
Tags:
BeatmapID:1615771
BeatmapSetID:768291

[Difficulty]
HPDrainRate:6
CircleSize:3.8
OverallDifficulty:8
ApproachRate:10
SliderMultiplier:1.9
SliderTickRate:1

[Events]
//Background and Video events
0,0,"716538.jpg",0,0
//Break Periods
//Storyboard Layer 0 (Background)
//Storyboard Layer 1 (Fail)
//Storyboard Layer 2 (Pass)
//Storyboard Layer 3 (Foreground)
//Storyboard Sound Samples

[TimingPoints]
1135,352.941176470588,4,1,0,30,1,0
107811,352.941176470588,4,1,0,30,1,0

[HitObjects]
12,380,27958,5,0,0:0:0:0:
12,307,28046,1,0,0:0:0:0:
73,344,28135,1,0,0:0:0:0:
73,271,28223,1,0,0:0:0:0:
12,236,28312,1,0,0:0:0:0:
12,307,28400,1,0,0:0:0:0:
12,236,28487,1,0,0:0:0:0:
12,164,28575,1,0,0:0:0:0:
73,200,28664,1,0,0:0:0:0:
73,127,28752,1,0,0:0:0:0:
12,91,28841,1,0,0:0:0:0:
12,164,28929,1,0,0:0:0:0:
12,380,29017,5,0,0:0:0:0:
134,380,29370,5,0,0:0:0:0:
134,307,29458,1,0,0:0:0:0:
73,344,29547,1,0,0:0:0:0:
73,271,29635,1,0,0:0:0:0:
134,236,29724,1,0,0:0:0:0:
134,307,29812,1,0,0:0:0:0:
134,236,29899,1,0,0:0:0:0:
134,164,29987,1,0,0:0:0:0:
73,200,30076,1,0,0:0:0:0:
73,127,30164,1,0,0:0:0:0:
134,91,30253,1,0,0:0:0:0:
134,164,30341,1,0,0:0:0:0:
134,380,30429,5,0,0:0:0:0:
12,91,30605,5,0,0:0:0:0:
134,380,30782,5,0,0:0:0:0:
134,307,30870,1,0,0:0:0:0:
195,344,30959,1,0,0:0:0:0:
195,271,31047,1,0,0:0:0:0:
134,236,31134,1,0,0:0:0:0:
134,307,31224,1,0,0:0:0:0:
134,236,31311,1,0,0:0:0:0:
134,164,31399,1,0,0:0:0:0:
195,200,31488,1,0,0:0:0:0:
195,127,31576,1,0,0:0:0:0:
134,91,31665,1,0,0:0:0:0:
134,164,31753,1,0,0:0:0:0:
134,380,31841,5,0,0:0:0:0:
134,91,32193,5,0,0:0:0:0:
134,19,32281,1,0,0:0:0:0:
195,55,32370,1,0,0:0:0:0:
195,127,32458,1,0,0:0:0:0:
195,55,32546,1,0,0:0:0:0:
256,91,32635,1,0,0:0:0:0:
317,127,32723,1,0,0:0:0:0:
317,55,32811,1,0,0:0:0:0:
378,91,32900,1,0,0:0:0:0:
378,163,32987,1,0,0:0:0:0:
378,91,33075,1,0,0:0:0:0:
439,127,33164,1,0,0:0:0:0:
378,235,33252,1,0,0:0:0:0:
378,163,33340,1,0,0:0:0:0:
439,199,33429,1,0,0:0:0:0:
439,271,33517,1,0,0:0:0:0:
378,235,33605,5,0,0:0:0:0:
378,163,33693,1,0,0:0:0:0:
439,199,33782,1,0,0:0:0:0:
317,199,33870,1,0,0:0:0:0:
317,127,33958,1,0,0:0:0:0:
378,163,34047,1,0,0:0:0:0:
256,163,34134,1,0,0:0:0:0:
256,91,34222,1,0,0:0:0:0:
317,127,34311,1,0,0:0:0:0:
195,127,34399,1,0,0:0:0:0:
195,55,34487,1,0,0:0:0:0:
256,91,34576,1,0,0:0:0:0:
378,235,34664,5,0,0:0:0:0:
134,235,35017,5,0,0:0:0:0:
134,163,35105,1,0,0:0:0:0:
73,199,35194,1,0,0:0:0:0:
195,199,35282,1,0,0:0:0:0:
195,127,35370,1,0,0:0:0:0:
134,163,35459,1,0,0:0:0:0:
256,163,35546,1,0,0:0:0:0:
256,91,35634,1,0,0:0:0:0:
195,127,35723,1,0,0:0:0:0:
317,127,35811,1,0,0:0:0:0:
317,55,35899,1,0,0:0:0:0:
256,91,35988,1,0,0:0:0:0:
134,235,36076,5,0,0:0:0:0:
195,55,36252,5,0,0:0:0:0:
378,235,36429,5,0,0:0:0:0:
378,163,36517,1,0,0:0:0:0:
439,199,36606,1,0,0:0:0:0:
317,199,36694,1,0,0:0:0:0:
317,127,36782,1,0,0:0:0:0:
378,163,36871,1,0,0:0:0:0:
256,163,36958,1,0,0:0:0:0:
256,91,37046,1,0,0:0:0:0:
317,127,37135,1,0,0:0:0:0:
195,127,37223,1,0,0:0:0:0:
195,55,37311,1,0,0:0:0:0:
256,91,37400,1,0,0:0:0:0:
378,235,37488,5,0,0:0:0:0:
195,271,37840,5,0,0:0:0:0:
317,199,38016,1,0,0:0:0:0:
195,344,38193,5,0,0:0:0:0:
378,235,38369,1,0,0:0:0:0:
439,271,38546,5,0,0:0:0:0:
378,235,38635,1,0,0:0:0:0:
378,307,38723,1,0,0:0:0:0:
317,271,38811,1,0,0:0:0:0:
378,235,38899,5,0,0:0:0:0:
317,199,38988,1,0,0:0:0:0:
317,271,39076,1,0,0:0:0:0:
256,235,39164,1,0,0:0:0:0:
439,271,39252,5,0,0:0:0:0:
378,91,39429,1,0,0:0:0:0:
378,307,39605,1,0,0:0:0:0:
378,91,39782,1,0,0:0:0:0:
317,271,39958,5,0,0:0:0:0:
256,163,40134,5,0,0:0:0:0:
377,20,40223,1,0,0:0:0:0:
377,20,40399,5,0,0:0:0:0:
256,163,40488,1,0,0:0:0:0:
134,19,40664,5,0,0:0:0:0:
377,20,40840,5,0,0:0:0:0:
134,19,41017,1,0,0:0:0:0:
256,163,41193,1,0,0:0:0:0:
377,306,41370,5,0,0:0:0:0:
134,307,41547,1,0,0:0:0:0:
135,164,41723,1,0,0:0:0:0:
378,163,41900,1,0,0:0:0:0:
74,56,42076,5,0,0:0:0:0:
135,236,42253,1,0,0:0:0:0:
134,19,42429,1,0,0:0:0:0:
135,236,42606,1,0,0:0:0:0:
196,56,42782,5,0,0:0:0:0:
257,164,42958,5,0,0:0:0:0:
136,307,43047,1,0,0:0:0:0:
136,307,43223,5,0,0:0:0:0:
257,164,43312,1,0,0:0:0:0:
379,308,43488,5,0,0:0:0:0:
136,307,43664,5,0,0:0:0:0:
379,308,43841,1,0,0:0:0:0:
257,164,44017,1,0,0:0:0:0:
136,21,44194,5,0,0:0:0:0:
379,20,44282,1,0,0:0:0:0:
135,164,44458,1,0,0:0:0:0:
378,163,44634,1,0,0:0:0:0:
135,164,44723,1,0,0:0:0:0:
195,271,44899,5,0,0:0:0:0:
256,91,45076,1,0,0:0:0:0:
256,307,45252,1,0,0:0:0:0:
256,91,45429,1,0,0:0:0:0:
317,271,45605,5,0,0:0:0:0:
378,163,45781,5,0,0:0:0:0:
257,20,45870,1,0,0:0:0:0:
257,20,46046,5,0,0:0:0:0:
378,163,46135,1,0,0:0:0:0:
500,19,46311,5,0,0:0:0:0:
257,306,46664,1,0,0:0:0:0:
378,163,47017,5,0,0:0:0:0:
257,306,47193,1,0,0:0:0:0:
500,307,47281,1,0,0:0:0:0:
499,164,47458,1,0,0:0:0:0:
256,163,47546,1,0,0:0:0:0:
500,19,47723,5,0,0:0:0:0:
257,20,47899,1,0,0:0:0:0:
499,164,48076,1,0,0:0:0:0:
378,163,48252,5,0,0:0:0:0:
256,163,48340,1,0,0:0:0:0:
134,163,48517,1,0,0:0:0:0:
256,163,48605,1,0,0:0:0:0:
134,163,48782,1,0,0:0:0:0:
378,163,48958,1,0,0:0:0:0:
317,271,49134,5,0,0:0:0:0:
73,271,49310,1,0,0:0:0:0:
378,163,49487,1,0,0:0:0:0:
134,163,49663,1,0,0:0:0:0:
439,55,49840,1,0,0:0:0:0:
195,55,50016,1,0,0:0:0:0:
439,55,50193,1,0,0:0:0:0:
317,271,50370,1,0,0:0:0:0:
195,55,50546,5,0,0:0:0:0:
195,55,50723,1,0,0:0:0:0:
317,271,50899,5,0,0:0:0:0:
317,271,51076,1,0,0:0:0:0:
439,55,51252,5,0,0:0:0:0:
439,55,51429,1,0,0:0:0:0:
73,271,51605,5,0,0:0:0:0:
73,271,51782,1,0,0:0:0:0:
195,127,51958,5,0,0:0:0:0:
195,55,52046,1,0,0:0:0:0:
256,91,52134,1,0,0:0:0:0:
256,163,52223,1,0,0:0:0:0:
195,199,52311,5,0,0:0:0:0:
195,127,52399,1,0,0:0:0:0:
256,163,52487,1,0,0:0:0:0:
256,235,52576,1,0,0:0:0:0:
256,163,52664,5,0,0:0:0:0:
256,91,52752,1,0,0:0:0:0:
317,127,52840,1,0,0:0:0:0:
317,199,52929,1,0,0:0:0:0:
256,235,53017,5,0,0:0:0:0:
256,163,53105,1,0,0:0:0:0:
317,199,53193,1,0,0:0:0:0:
317,271,53282,1,0,0:0:0:0:
195,55,53370,5,0,0:0:0:0:
195,55,54782,5,0,0:0:0:0:
256,19,54870,1,0,0:0:0:0:
317,55,54958,1,0,0:0:0:0:
378,91,55046,1,0,0:0:0:0:
439,127,55134,1,0,0:0:0:0:
500,91,55223,1,0,0:0:0:0:
439,55,55311,1,0,0:0:0:0:
439,127,55399,1,0,0:0:0:0:
439,199,55487,5,0,0:0:0:0:
500,163,55576,1,0,0:0:0:0:
500,235,55664,1,0,0:0:0:0:
438,270,55752,1,0,0:0:0:0:
377,234,55840,1,0,0:0:0:0:
316,198,55929,1,0,0:0:0:0:
255,162,56017,1,0,0:0:0:0:
194,126,56106,1,0,0:0:0:0:
194,54,56193,5,0,0:0:0:0:
255,90,56281,1,0,0:0:0:0:
194,126,56369,1,0,0:0:0:0:
133,162,56458,1,0,0:0:0:0:
72,198,56546,1,0,0:0:0:0:
72,270,56634,1,0,0:0:0:0:
133,306,56723,1,0,0:0:0:0:
194,270,56811,1,0,0:0:0:0:
194,198,56899,5,0,0:0:0:0:
255,234,56988,1,0,0:0:0:0:
316,270,57076,1,0,0:0:0:0:
377,306,57164,1,0,0:0:0:0:
438,342,57252,5,0,0:0:0:0:
438,270,57340,1,0,0:0:0:0:
438,198,57429,1,0,0:0:0:0:
438,126,57517,1,0,0:0:0:0:
438,54,57605,5,0,0:0:0:0:
377,90,57694,1,0,0:0:0:0:
316,126,57782,1,0,0:0:0:0:
255,162,57870,1,0,0:0:0:0:
316,198,57958,5,0,0:0:0:0:
377,234,58046,1,0,0:0:0:0:
438,270,58134,1,0,0:0:0:0:
377,306,58223,1,0,0:0:0:0:
438,342,58311,5,0,0:0:0:0:
377,378,58399,1,0,0:0:0:0:
316,342,58487,1,0,0:0:0:0:
316,270,58576,1,0,0:0:0:0:
377,234,58664,5,0,0:0:0:0:
316,198,58752,1,0,0:0:0:0:
255,162,58840,1,0,0:0:0:0:
194,126,58928,1,0,0:0:0:0:
133,90,59017,5,0,0:0:0:0:
194,54,59105,1,0,0:0:0:0:
255,90,59193,1,0,0:0:0:0:
255,162,59282,1,0,0:0:0:0:
194,198,59370,1,0,0:0:0:0:
194,270,59458,1,0,0:0:0:0:
255,306,59546,1,0,0:0:0:0:
316,270,59634,1,0,0:0:0:0:
377,234,59723,5,0,0:0:0:0:
316,198,59811,1,0,0:0:0:0:
255,162,59899,1,0,0:0:0:0:
194,126,59987,1,0,0:0:0:0:
133,90,60076,5,0,0:0:0:0:
133,162,60164,1,0,0:0:0:0:
133,234,60252,1,0,0:0:0:0:
133,306,60340,1,0,0:0:0:0:
133,378,60428,5,0,0:0:0:0:
72,342,60517,1,0,0:0:0:0:
72,270,60605,1,0,0:0:0:0:
133,234,60693,1,0,0:0:0:0:
194,198,60782,1,0,0:0:0:0:
255,234,60870,1,0,0:0:0:0:
255,306,60958,1,0,0:0:0:0:
316,342,61046,1,0,0:0:0:0:
377,306,61134,5,0,0:0:0:0:
316,270,61223,1,0,0:0:0:0:
255,234,61311,1,0,0:0:0:0:
194,198,61399,1,0,0:0:0:0:
133,162,61487,5,0,0:0:0:0:
194,126,61576,1,0,0:0:0:0:
255,90,61664,1,0,0:0:0:0:
316,54,61752,1,0,0:0:0:0:
377,18,61840,5,0,0:0:0:0:
377,90,61929,1,0,0:0:0:0:
316,126,62017,1,0,0:0:0:0:
255,90,62105,1,0,0:0:0:0:
194,126,62193,1,0,0:0:0:0:
194,198,62282,1,0,0:0:0:0:
255,234,62370,1,0,0:0:0:0:
316,198,62458,1,0,0:0:0:0:
377,162,62546,5,0,0:0:0:0:
316,126,62634,1,0,0:0:0:0:
255,90,62723,1,0,0:0:0:0:
194,54,62811,1,0,0:0:0:0:
133,18,62900,1,0,0:0:0:0:
72,54,62987,1,0,0:0:0:0:
72,126,63076,1,0,0:0:0:0:
133,162,63164,1,0,0:0:0:0:
194,126,63252,5,0,0:0:0:0:
255,90,63340,1,0,0:0:0:0:
316,126,63429,1,0,0:0:0:0:
377,162,63517,1,0,0:0:0:0:
377,234,63605,1,0,0:0:0:0:
316,270,63693,1,0,0:0:0:0:
255,306,63782,1,0,0:0:0:0:
194,270,63870,1,0,0:0:0:0:
133,234,63958,5,0,0:0:0:0:
194,198,64046,1,0,0:0:0:0:
255,162,64134,1,0,0:0:0:0:
316,198,64223,1,0,0:0:0:0:
377,234,64311,1,0,0:0:0:0:
377,306,64399,1,0,0:0:0:0:
316,342,64487,1,0,0:0:0:0:
255,378,64576,1,0,0:0:0:0:
194,342,64664,5,0,0:0:0:0:
255,306,64752,1,0,0:0:0:0:
194,270,64841,1,0,0:0:0:0:
194,198,64929,1,0,0:0:0:0:
255,234,65018,1,0,0:0:0:0:
316,198,65105,1,0,0:0:0:0:
316,126,65193,1,0,0:0:0:0:
255,90,65282,1,0,0:0:0:0:
194,126,65370,5,0,0:0:0:0:
255,162,65458,1,0,0:0:0:0:
255,90,65546,1,0,0:0:0:0:
194,54,65634,1,0,0:0:0:0:
194,126,65723,1,0,0:0:0:0:
133,90,65811,1,0,0:0:0:0:
133,162,65899,1,0,0:0:0:0:
72,126,65987,1,0,0:0:0:0:
72,198,66076,5,0,0:0:0:0:
72,198,66164,1,0,0:0:0:0:
72,198,66252,1,0,0:0:0:0:
72,198,66340,1,0,0:0:0:0:
72,198,66429,5,0,0:0:0:0:
133,234,66517,1,0,0:0:0:0:
194,270,66605,1,0,0:0:0:0:
255,306,66693,1,0,0:0:0:0:
316,342,66782,5,0,0:0:0:0:
316,270,66870,1,0,0:0:0:0:
316,198,66958,1,0,0:0:0:0:
316,126,67046,1,0,0:0:0:0:
316,54,67134,5,0,0:0:0:0:
255,90,67223,1,0,0:0:0:0:
194,126,67311,1,0,0:0:0:0:
133,162,67399,1,0,0:0:0:0:
72,198,67487,5,0,0:0:0:0:
133,234,67576,1,0,0:0:0:0:
194,198,67664,1,0,0:0:0:0:
255,162,67752,1,0,0:0:0:0:
316,126,67840,5,0,0:0:0:0:
255,90,67929,1,0,0:0:0:0:
194,54,68017,1,0,0:0:0:0:
133,18,68105,1,0,0:0:0:0:
72,54,68194,5,0,0:0:0:0:
133,90,68282,1,0,0:0:0:0:
194,126,68370,1,0,0:0:0:0:
255,162,68458,1,0,0:0:0:0:
316,198,68547,5,0,0:0:0:0:
255,234,68634,1,0,0:0:0:0:
194,198,68723,1,0,0:0:0:0:
194,126,68811,1,0,0:0:0:0:
255,90,68899,5,0,0:0:0:0:
193,54,68987,1,0,0:0:0:0:
193,125,69076,1,0,0:0:0:0:
255,161,69164,1,0,0:0:0:0:
193,125,69252,1,0,0:0:0:0:
193,196,69341,1,0,0:0:0:0:
255,232,69429,1,0,0:0:0:0:
193,196,69517,1,0,0:0:0:0:
193,267,69606,1,0,0:0:0:0:
255,303,69694,1,0,0:0:0:0:
193,267,69782,1,0,0:0:0:0:
193,338,69871,1,0,0:0:0:0:
193,54,69958,5,0,0:0:0:0:
255,90,70311,5,0,0:0:0:0:
317,54,70399,1,0,0:0:0:0:
317,125,70488,1,0,0:0:0:0:
255,161,70576,1,0,0:0:0:0:
317,125,70664,1,0,0:0:0:0:
317,196,70753,1,0,0:0:0:0:
255,232,70841,1,0,0:0:0:0:
317,196,70929,1,0,0:0:0:0:
317,267,71018,1,0,0:0:0:0:
255,303,71106,1,0,0:0:0:0:
317,267,71194,1,0,0:0:0:0:
317,338,71283,1,0,0:0:0:0:
317,54,71370,5,0,0:0:0:0:
193,338,71546,1,0,0:0:0:0:
379,90,71723,5,0,0:0:0:0:
317,54,71811,1,0,0:0:0:0:
317,125,71900,1,0,0:0:0:0:
379,161,71988,1,0,0:0:0:0:
317,125,72076,1,0,0:0:0:0:
317,196,72165,1,0,0:0:0:0:
379,232,72253,1,0,0:0:0:0:
317,196,72341,1,0,0:0:0:0:
317,267,72430,1,0,0:0:0:0:
379,303,72518,1,0,0:0:0:0:
317,267,72606,1,0,0:0:0:0:
317,338,72693,1,0,0:0:0:0:
317,54,72782,5,0,0:0:0:0:
73,269,73134,5,0,0:0:0:0:
73,341,73222,1,0,0:0:0:0:
134,305,73311,1,0,0:0:0:0:
134,233,73399,1,0,0:0:0:0:
134,305,73487,1,0,0:0:0:0:
195,269,73576,1,0,0:0:0:0:
256,233,73664,1,0,0:0:0:0:
256,305,73752,1,0,0:0:0:0:
317,269,73841,1,0,0:0:0:0:
317,197,73928,1,0,0:0:0:0:
317,269,74016,1,0,0:0:0:0:
378,233,74105,1,0,0:0:0:0:
317,125,74193,1,0,0:0:0:0:
317,197,74281,1,0,0:0:0:0:
378,161,74370,1,0,0:0:0:0:
378,89,74458,1,0,0:0:0:0:
378,89,74546,5,0,0:0:0:0:
378,17,74634,1,0,0:0:0:0:
317,53,74723,1,0,0:0:0:0:
317,125,74811,1,0,0:0:0:0:
317,53,74899,1,0,0:0:0:0:
256,89,74988,1,0,0:0:0:0:
256,161,75076,1,0,0:0:0:0:
256,89,75164,1,0,0:0:0:0:
195,125,75252,1,0,0:0:0:0:
195,197,75341,1,0,0:0:0:0:
195,125,75429,1,0,0:0:0:0:
134,161,75518,1,0,0:0:0:0:
378,17,75605,5,0,0:0:0:0:
256,161,75958,5,0,0:0:0:0:
256,89,76046,1,0,0:0:0:0:
317,125,76135,1,0,0:0:0:0:
317,197,76223,1,0,0:0:0:0:
317,125,76311,1,0,0:0:0:0:
378,161,76400,1,0,0:0:0:0:
378,233,76488,1,0,0:0:0:0:
378,161,76576,1,0,0:0:0:0:
439,197,76665,1,0,0:0:0:0:
439,269,76753,1,0,0:0:0:0:
439,197,76841,1,0,0:0:0:0:
500,233,76930,1,0,0:0:0:0:
256,89,77017,5,0,0:0:0:0:
500,233,77193,5,0,0:0:0:0:
378,233,77370,5,0,0:0:0:0:
378,161,77458,1,0,0:0:0:0:
317,197,77547,1,0,0:0:0:0:
317,269,77635,1,0,0:0:0:0:
317,197,77723,1,0,0:0:0:0:
256,233,77812,1,0,0:0:0:0:
256,305,77900,1,0,0:0:0:0:
256,233,77988,1,0,0:0:0:0:
195,269,78077,1,0,0:0:0:0:
195,341,78165,1,0,0:0:0:0:
195,269,78253,1,0,0:0:0:0:
134,305,78340,1,0,0:0:0:0:
378,161,78429,5,0,0:0:0:0:
317,269,78782,5,0,0:0:0:0:
195,125,78958,1,0,0:0:0:0:
195,341,79134,1,0,0:0:0:0:
73,197,79310,1,0,0:0:0:0:
195,125,79487,1,0,0:0:0:0:
256,89,79576,1,0,0:0:0:0:
317,125,79664,1,0,0:0:0:0:
256,89,79753,1,0,0:0:0:0:
195,53,79840,1,0,0:0:0:0:
256,89,79929,1,0,0:0:0:0:
317,53,80017,1,0,0:0:0:0:
256,89,80106,1,0,0:0:0:0:
256,20,80193,5,0,0:0:0:0:
256,20,80546,1,0,0:0:0:0:
256,20,80899,1,0,0:0:0:0:
256,20,81252,1,0,0:0:0:0:
378,161,83017,5,0,0:0:0:0:
378,161,83370,1,0,0:0:0:0:
378,161,83723,1,0,0:0:0:0:
378,161,84076,1,0,0:0:0:0:
378,161,85840,5,0,0:0:0:0:
133,18,86017,5,0,0:0:0:0:
194,54,86105,1,0,0:0:0:0:
133,18,86193,1,0,0:0:0:0:
133,90,86282,1,0,0:0:0:0:
194,126,86370,1,0,0:0:0:0:
194,198,86458,1,0,0:0:0:0:
255,234,86546,1,0,0:0:0:0:
316,198,86634,1,0,0:0:0:0:
255,162,86722,1,0,0:0:0:0:
194,126,86811,1,0,0:0:0:0:
194,198,86899,5,0,0:0:0:0:
255,234,86987,1,0,0:0:0:0:
255,162,87075,1,0,0:0:0:0:
316,198,87163,1,0,0:0:0:0:
255,234,87252,1,0,0:0:0:0:
316,270,87341,1,0,0:0:0:0:
316,198,87429,1,0,0:0:0:0:
255,162,87517,1,0,0:0:0:0:
255,90,87605,5,0,0:0:0:0:
316,54,87693,1,0,0:0:0:0:
377,90,87782,1,0,0:0:0:0:
316,126,87870,1,0,0:0:0:0:
377,162,87958,5,0,0:0:0:0:
377,234,88046,1,0,0:0:0:0:
316,198,88134,1,0,0:0:0:0:
316,126,88222,1,0,0:0:0:0:
377,90,88311,1,0,0:0:0:0:
377,162,88399,1,0,0:0:0:0:
316,126,88487,1,0,0:0:0:0:
316,198,88576,1,0,0:0:0:0:
377,162,88664,5,0,0:0:0:0:
377,234,88753,1,0,0:0:0:0:
316,198,88840,1,0,0:0:0:0:
316,270,88929,1,0,0:0:0:0:
377,234,89017,1,0,0:0:0:0:
377,306,89106,1,0,0:0:0:0:
316,270,89193,1,0,0:0:0:0:
316,342,89282,1,0,0:0:0:0:
255,306,89370,5,0,0:0:0:0:
255,234,89459,1,0,0:0:0:0:
194,270,89546,1,0,0:0:0:0:
194,198,89635,1,0,0:0:0:0:
255,234,89723,1,0,0:0:0:0:
255,162,89812,1,0,0:0:0:0:
194,198,89899,1,0,0:0:0:0:
194,126,89987,1,0,0:0:0:0:
194,198,90076,5,0,0:0:0:0:
194,126,90165,1,0,0:0:0:0:
255,162,90252,1,0,0:0:0:0:
255,90,90341,1,0,0:0:0:0:
194,126,90429,1,0,0:0:0:0:
194,54,90518,1,0,0:0:0:0:
255,90,90605,1,0,0:0:0:0:
255,18,90694,1,0,0:0:0:0:
316,54,90782,5,0,0:0:0:0:
316,126,90871,1,0,0:0:0:0:
377,90,90958,1,0,0:0:0:0:
377,162,91047,1,0,0:0:0:0:
316,126,91135,1,0,0:0:0:0:
316,198,91224,1,0,0:0:0:0:
377,162,91311,1,0,0:0:0:0:
377,234,91400,1,0,0:0:0:0:
316,198,91487,5,0,0:0:0:0:
316,126,91576,1,0,0:0:0:0:
316,198,91664,1,0,0:0:0:0:
316,126,91752,1,0,0:0:0:0:
316,198,91840,1,0,0:0:0:0:
316,126,91929,1,0,0:0:0:0:
316,198,92017,1,0,0:0:0:0:
316,126,92105,1,0,0:0:0:0:
316,198,92193,1,0,0:0:0:0:
316,126,92282,1,0,0:0:0:0:
316,198,92370,1,0,0:0:0:0:
316,126,92458,1,0,0:0:0:0:
316,198,92546,1,0,0:0:0:0:
316,126,92634,1,0,0:0:0:0:
316,198,92723,1,0,0:0:0:0:
316,126,92811,1,0,0:0:0:0:
316,198,92899,5,0,0:0:0:0:
255,162,92987,1,0,0:0:0:0:
194,198,93076,1,0,0:0:0:0:
194,270,93164,1,0,0:0:0:0:
133,306,93252,1,0,0:0:0:0:
72,270,93340,1,0,0:0:0:0:
72,198,93429,1,0,0:0:0:0:
133,162,93517,1,0,0:0:0:0:
194,198,93605,5,0,0:0:0:0:
194,126,93693,1,0,0:0:0:0:
255,162,93781,1,0,0:0:0:0:
255,234,93870,1,0,0:0:0:0:
194,270,93958,5,0,0:0:0:0:
255,306,94046,1,0,0:0:0:0:
316,270,94134,1,0,0:0:0:0:
377,234,94223,1,0,0:0:0:0:
438,198,94311,5,0,0:0:0:0:
377,162,94399,1,0,0:0:0:0:
316,198,94487,1,0,0:0:0:0:
316,270,94576,1,0,0:0:0:0:
377,306,94664,1,0,0:0:0:0:
438,270,94752,1,0,0:0:0:0:
377,234,94840,1,0,0:0:0:0:
316,198,94929,1,0,0:0:0:0:
255,162,95017,5,0,0:0:0:0:
316,126,95105,1,0,0:0:0:0:
316,198,95193,1,0,0:0:0:0:
255,234,95282,1,0,0:0:0:0:
194,198,95370,1,0,0:0:0:0:
194,126,95458,1,0,0:0:0:0:
255,90,95546,1,0,0:0:0:0:
316,54,95634,1,0,0:0:0:0:
377,18,95723,5,0,0:0:0:0:
377,90,95811,1,0,0:0:0:0:
316,126,95899,1,0,0:0:0:0:
316,198,95987,1,0,0:0:0:0:
377,234,96076,1,0,0:0:0:0:
377,306,96164,1,0,0:0:0:0:
316,342,96252,1,0,0:0:0:0:
255,306,96340,1,0,0:0:0:0:
255,234,96429,5,0,0:0:0:0:
194,270,96517,1,0,0:0:0:0:
133,306,96605,1,0,0:0:0:0:
72,270,96693,1,0,0:0:0:0:
72,198,96782,5,0,0:0:0:0:
133,234,96870,1,0,0:0:0:0:
194,270,96958,1,0,0:0:0:0:
255,306,97046,1,0,0:0:0:0:
316,342,97134,5,0,0:0:0:0:
316,270,97223,1,0,0:0:0:0:
316,198,97311,1,0,0:0:0:0:
316,126,97399,1,0,0:0:0:0:
316,54,97487,5,0,0:0:0:0:
255,90,97576,1,0,0:0:0:0:
316,126,97664,1,0,0:0:0:0:
316,198,97752,1,0,0:0:0:0:
255,234,97840,5,0,0:0:0:0:
255,162,97929,1,0,0:0:0:0:
194,126,98017,1,0,0:0:0:0:
133,162,98105,1,0,0:0:0:0:
133,234,98193,5,0,0:0:0:0:
194,198,98282,1,0,0:0:0:0:
133,162,98370,1,0,0:0:0:0:
133,90,98458,1,0,0:0:0:0:
194,54,98546,5,0,0:0:0:0:
194,126,98634,1,0,0:0:0:0:
255,162,98723,1,0,0:0:0:0:
316,126,98811,1,0,0:0:0:0:
316,54,98899,1,0,0:0:0:0:
255,18,98987,1,0,0:0:0:0:
255,90,99076,1,0,0:0:0:0:
255,162,99164,1,0,0:0:0:0:
255,234,99252,5,0,0:0:0:0:
194,198,99340,1,0,0:0:0:0:
133,162,99429,1,0,0:0:0:0:
133,90,99517,1,0,0:0:0:0:
194,54,99605,5,0,0:0:0:0:
194,126,99693,1,0,0:0:0:0:
194,198,99782,1,0,0:0:0:0:
194,270,99870,1,0,0:0:0:0:
194,342,99959,5,0,0:0:0:0:
255,306,100046,1,0,0:0:0:0:
255,234,100134,1,0,0:0:0:0:
194,198,100223,1,0,0:0:0:0:
133,162,100311,1,0,0:0:0:0:
133,90,100399,1,0,0:0:0:0:
194,54,100487,1,0,0:0:0:0:
255,90,100576,1,0,0:0:0:0:
255,162,100664,5,0,0:0:0:0:
316,126,100752,1,0,0:0:0:0:
377,90,100840,1,0,0:0:0:0:
438,54,100929,1,0,0:0:0:0:
499,18,101017,5,0,0:0:0:0:
499,90,101105,1,0,0:0:0:0:
438,126,101193,1,0,0:0:0:0:
438,198,101282,1,0,0:0:0:0:
499,234,101370,5,0,0:0:0:0:
438,270,101458,1,0,0:0:0:0:
377,234,101546,1,0,0:0:0:0:
377,162,101634,1,0,0:0:0:0:
316,126,101723,1,0,0:0:0:0:
255,162,101811,1,0,0:0:0:0:
255,234,101899,1,0,0:0:0:0:
194,270,101987,1,0,0:0:0:0:
133,234,102076,5,0,0:0:0:0:
194,198,102164,1,0,0:0:0:0:
133,162,102252,1,0,0:0:0:0:
72,198,102340,1,0,0:0:0:0:
72,270,102429,1,0,0:0:0:0:
133,306,102517,1,0,0:0:0:0:
194,270,102605,1,0,0:0:0:0:
194,198,102693,1,0,0:0:0:0:
255,162,102782,5,0,0:0:0:0:
255,234,102870,1,0,0:0:0:0:
194,270,102958,1,0,0:0:0:0:
133,306,103046,1,0,0:0:0:0:
133,234,103134,1,0,0:0:0:0:
133,162,103223,1,0,0:0:0:0:
194,126,103311,1,0,0:0:0:0:
255,90,103399,1,0,0:0:0:0:
316,126,103487,5,0,0:0:0:0:
316,198,103575,1,0,0:0:0:0:
255,234,103663,1,0,0:0:0:0:
194,270,103751,1,0,0:0:0:0:
194,198,103839,1,0,0:0:0:0:
194,126,103928,1,0,0:0:0:0:
255,90,104016,1,0,0:0:0:0:
316,54,104104,1,0,0:0:0:0:
377,90,104193,5,0,0:0:0:0:
316,126,104282,1,0,0:0:0:0:
316,198,104370,1,0,0:0:0:0:
255,162,104458,1,0,0:0:0:0:
255,90,104546,1,0,0:0:0:0:
316,126,104635,1,0,0:0:0:0:
316,54,104723,1,0,0:0:0:0:
255,18,104811,1,0,0:0:0:0:
194,54,104899,5,0,0:0:0:0:
194,126,104988,1,0,0:0:0:0:
255,162,105076,1,0,0:0:0:0:
255,90,105165,1,0,0:0:0:0:
316,126,105252,1,0,0:0:0:0:
316,198,105341,1,0,0:0:0:0:
377,234,105429,1,0,0:0:0:0:
377,162,105518,1,0,0:0:0:0:
438,198,105605,5,0,0:0:0:0:
438,198,105693,1,0,0:0:0:0:
438,198,105782,1,0,0:0:0:0:
438,198,105870,1,0,0:0:0:0:
438,198,105959,1,0,0:0:0:0:
438,198,106046,1,0,0:0:0:0:
438,198,106135,1,0,0:0:0:0:
438,198,106223,1,0,0:0:0:0:
438,198,106312,1,0,0:0:0:0:
438,198,106399,1,0,0:0:0:0:
438,198,106488,1,0,0:0:0:0:
438,198,106576,1,0,0:0:0:0:
438,198,106665,1,0,0:0:0:0:
438,198,106752,1,0,0:0:0:0:
438,198,106841,1,0,0:0:0:0:
438,198,106929,1,0,0:0:0:0:
438,198,107018,5,0,0:0:0:0:
195,55,107811,5,0,0:0:0:0:
317,271,108517,5,0,0:0:0:0:
194,270,108605,1,0,0:0:0:0:
255,162,108693,1,0,0:0:0:0:
132,161,108781,1,0,0:0:0:0:
195,55,108870,1,0,0:0:0:0:
378,163,109046,5,0,0:0:0:0:
255,162,109134,1,0,0:0:0:0:
132,161,109311,5,0,0:0:0:0:
255,162,109399,1,0,0:0:0:0:
195,55,109576,5,0,0:0:0:0:
194,270,109752,1,0,0:0:0:0:
440,272,109929,5,0,0:0:0:0:
317,271,110017,1,0,0:0:0:0:
378,163,110105,1,0,0:0:0:0:
255,162,110193,1,0,0:0:0:0:
318,56,110282,1,0,0:0:0:0:
501,164,110458,5,0,0:0:0:0:
378,163,110546,1,0,0:0:0:0:
255,162,110723,5,0,0:0:0:0:
378,163,110811,1,0,0:0:0:0:
318,56,110988,5,0,0:0:0:0:
317,271,111164,1,0,0:0:0:0:
256,163,111340,5,0,0:0:0:0:
133,164,111428,1,0,0:0:0:0:
194,272,111516,1,0,0:0:0:0:
71,273,111604,1,0,0:0:0:0:
134,379,111693,1,0,0:0:0:0:
317,271,111869,5,0,0:0:0:0:
194,272,111957,1,0,0:0:0:0:
71,273,112134,5,0,0:0:0:0:
194,272,112222,1,0,0:0:0:0:
134,379,112399,5,0,0:0:0:0:
133,164,112575,1,0,0:0:0:0:
317,55,112752,5,0,0:0:0:0:
440,56,112840,1,0,0:0:0:0:
379,164,112928,1,0,0:0:0:0:
502,165,113016,1,0,0:0:0:0:
439,271,113105,1,0,0:0:0:0:
256,163,113281,5,0,0:0:0:0:
379,164,113369,1,0,0:0:0:0:
502,165,113546,5,0,0:0:0:0:
379,164,113634,1,0,0:0:0:0:
439,271,113811,5,0,0:0:0:0:
440,56,113987,1,0,0:0:0:0:
133,164,114164,5,0,0:0:0:0:
133,164,114252,1,0,0:0:0:0:
133,164,114340,1,0,0:0:0:0:
133,164,114429,1,0,0:0:0:0:
133,164,114517,1,0,0:0:0:0:
133,164,114693,5,0,0:0:0:0:
133,164,114782,1,0,0:0:0:0:
133,164,114958,5,0,0:0:0:0:
133,164,115046,1,0,0:0:0:0:
133,164,115223,5,0,0:0:0:0:
440,56,115399,1,0,0:0:0:0:
256,163,116987,5,0,0:0:0:0:
256,91,117075,1,0,0:0:0:0:
317,127,117163,1,0,0:0:0:0:
317,199,117252,1,0,0:0:0:0:
256,235,117340,5,0,0:0:0:0:
256,163,117428,1,0,0:0:0:0:
317,199,117516,1,0,0:0:0:0:
317,271,117605,1,0,0:0:0:0:
317,199,117693,5,0,0:0:0:0:
317,127,117781,1,0,0:0:0:0:
378,163,117869,1,0,0:0:0:0:
378,235,117958,1,0,0:0:0:0:
317,271,118046,5,0,0:0:0:0:
317,199,118134,1,0,0:0:0:0:
378,235,118222,1,0,0:0:0:0:
378,307,118311,1,0,0:0:0:0:
256,91,118399,5,0,0:0:0:0:
