osu file format v14

[General]
AudioFilename: audio.mp3
AudioLeadIn: 0
PreviewTime: 29556
Countdown: 0
SampleSet: None
StackLeniency: 0.4
Mode: 0
LetterboxInBreaks: 0
WidescreenStoryboard: 0

[Editor]
Bookmarks: 24288,25636,26984,50580
DistanceSpacing: 1
BeatDivisor: 4
GridSize: 4
TimelineZoom: 1

[Metadata]
Title:Raiko -3rd Desire-
TitleUnicode:雷洸 -3rd Desire-
Artist:Tatsh
ArtistUnicode:Tatsh
Creator:sinn
Version:Extra Stage
Source:東方Project
Tags:touhou 10
BeatmapID:1740917
BeatmapSetID:830945

[Difficulty]
HPDrainRate:4
CircleSize:5
OverallDifficulty:8
ApproachRate:8
SliderMultiplier:1.78
SliderTickRate:1

[Events]
//Background and Video events
0,0,"cropped-1920-1080-770508.png",0,0
//Break Periods
//Storyboard Layer 0 (Background)
//Storyboard Layer 1 (Fail)
//Storyboard Layer 2 (Pass)
//Storyboard Layer 3 (Foreground)
//Storyboard Sound Samples

[TimingPoints]
2715,337.078651685393,4,2,1,70,1,0
8108,-66.6666666666667,4,2,1,70,0,0
8445,-100,4,2,1,70,0,0
12827,-133.333333333333,4,2,1,70,0,0
13501,-66.6666666666667,4,2,1,70,0,0
13838,-100,4,2,1,70,0,0
15861,-80,4,2,1,70,0,0
16198,-100,4,2,1,70,0,0
18220,-133.333333333333,4,2,1,70,0,0
18894,-66.6666666666667,4,2,1,70,0,0
19231,-100,4,2,1,70,0,0
23276,-80,4,2,1,70,0,0
23613,-66.6666666666667,4,2,1,70,0,0
23950,-133.333333333333,4,2,1,70,0,0
24288,-100,4,2,1,70,0,0
29681,-83.3333333333333,4,2,1,70,0,1
51254,-100,4,2,1,70,0,0
63389,-66.6666666666667,4,2,1,70,0,1
101141,-100,4,2,1,70,0,0

[HitObjects]
60,136,2715,6,0,L|60:36,1,89,4|0,0:0|0:0,0:0:0:0:
162,134,3052,2,0,L|162:234,1,89,8|0,0:0|0:0,0:0:0:0:
248,70,3389,1,2,0:0:0:0:
248,70,3473,1,0,0:0:0:0:
248,70,3557,1,2,0:0:0:0:
247,155,3726,1,8,0:0:0:0:
247,155,4063,6,0,L|358:155,1,89,4|0,0:0|0:0,0:0:0:0:
237,245,4400,2,0,L|126:245,1,89,8|0,0:0|0:0,0:0:0:0:
294,348,4737,1,2,0:0:0:0:
294,348,4821,1,0,0:0:0:0:
294,348,4906,1,2,0:0:0:0:
383,349,5074,1,8,0:0:0:0:
383,349,5411,6,0,B|383:254|383:254|356:217,1,133.5,4|0,0:0|0:0,0:0:0:0:
342,203,5748,2,0,B|342:108|342:108|369:71,1,133.5,8|0,0:0|0:0,0:0:0:0:
380,55,6085,1,2,0:0:0:0:
469,58,6254,1,0,0:0:0:0:
424,133,6422,1,8,0:0:0:0:
424,133,6759,6,0,L|327:132,1,89,2|0,0:0|0:0,0:0:0:0:
245,132,7097,1,8,0:0:0:0:
245,132,7265,1,2,0:0:0:0:
245,132,8108,6,0,B|245:102|245:102|212:102|212:102|212:174,1,133.500005092621,4|0,0:0|0:0,0:0:0:0:
256,251,8445,2,0,L|361:252,1,89,8|0,0:0|0:0,0:0:0:0:
196,350,8782,1,2,0:0:0:0:
196,350,8866,1,0,0:0:0:0:
196,350,8950,1,2,0:0:0:0:
135,284,9119,1,8,0:0:0:0:
79,353,9288,1,2,0:0:0:0:
22,284,9456,6,0,L|23:183,1,89,4|0,0:0|0:0,0:0:0:0:
128,112,9793,2,0,L|127:213,1,89,8|0,0:0|0:0,0:0:0:0:
205,44,10130,1,2,0:0:0:0:
205,44,10214,1,0,0:0:0:0:
205,44,10299,1,2,0:0:0:0:
255,116,10467,1,8,0:0:0:0:
304,41,10636,1,2,0:0:0:0:
355,113,10804,5,4,0:0:0:0:
322,196,10973,1,0,0:0:0:0:
373,268,11141,1,8,0:0:0:0:
324,343,11310,1,2,0:0:0:0:
256,284,11479,5,2,0:0:0:0:
256,284,11563,1,0,0:0:0:0:
256,284,11647,1,2,0:0:0:0:
185,339,11816,1,8,0:0:0:0:
136,264,11985,1,0,0:0:0:0:
187,192,12153,1,2,0:0:0:0:
154,109,12322,1,0,0:0:0:0:
91,171,12490,5,4,0:0:0:0:
91,171,12574,1,0,0:0:0:0:
91,171,12658,1,2,0:0:0:0:
91,171,12743,1,0,0:0:0:0:
91,171,12827,6,0,B|92:216|92:216|154:216|154:216|154:164|154:164|233:163,1,233.625008912087,4|0,0:0|0:0,0:0:0:0:
285,203,13501,6,0,B|311:204|311:204|310:230|310:230|221:231,1,133.500005092621,4|0,0:0|0:0,0:0:0:0:
180,306,13838,2,0,L|279:309,1,89,8|0,0:0|0:0,0:0:0:0:
105,379,14175,1,2,0:0:0:0:
105,379,14259,1,0,0:0:0:0:
105,379,14344,1,2,0:0:0:0:
44,313,14512,1,8,0:0:0:0:
103,246,14681,1,0,0:0:0:0:
39,183,14849,6,0,L|40:91,1,89,4|0,0:0|0:0,0:0:0:0:
95,23,15186,2,0,L|192:23,1,89,8|0,0:0|0:0,0:0:0:0:
255,76,15523,1,2,0:0:0:0:
255,76,15608,1,0,0:0:0:0:
255,76,15692,1,2,0:0:0:0:
327,24,15861,6,0,B|436:24|436:24|436:83,1,166.875,2|0,0:3|0:0,0:0:0:0:
414,143,16198,6,0,B|368:142|368:142|368:81,1,89,4|0,0:0|0:0,0:0:0:0:
282,125,16535,2,0,L|281:218,1,89,8|0,0:0|0:0,0:0:0:0:
240,293,16872,1,2,0:0:0:0:
240,293,16956,1,0,0:0:0:0:
240,293,17040,1,2,0:0:0:0:
177,228,17209,2,0,L|81:227,1,89,8|0,0:0|0:0,0:0:0:0:
60,311,17546,6,0,L|156:312,1,89,4|0,0:0|0:0,0:0:0:0:
238,309,17883,1,8,0:0:0:0:
327,310,18052,1,2,0:0:0:0:
415,311,18220,6,0,B|463:311|463:311|464:251|464:251|332:248,1,233.625008912087,4|0,0:0|0:0,0:0:0:0:
270,230,18894,6,0,B|270:179|270:179|372:179,1,133.500005092621,4|0,0:0|0:0,0:0:0:0:
441,179,19231,2,0,L|441:86,1,89,8|0,0:0|0:0,0:0:0:0:
392,14,19568,1,2,0:0:0:0:
392,14,19653,1,0,0:0:0:0:
392,14,19737,1,2,0:0:0:0:
328,77,19906,2,0,L|237:77,1,89,8|0,0:0|0:0,0:0:0:0:
158,115,20243,6,0,B|141:143|141:143|141:211,1,89,4|0,0:0|0:0,0:0:0:0:
181,278,20580,2,0,L|272:278,1,89,8|0,0:0|0:0,0:0:0:0:
342,330,20917,1,2,0:0:0:0:
342,330,21001,1,0,0:0:0:0:
342,330,21085,1,2,0:0:0:0:
404,265,21254,2,0,L|405:170,1,89,8|0,0:0|0:0,0:0:0:0:
352,104,21591,6,0,B|331:136|331:136|330:194,1,89,4|0,0:0|0:0,0:0:0:0:
404,235,21928,2,0,L|403:329,1,89,8|0,0:0|0:0,0:0:0:0:
328,275,22265,1,2,0:0:0:0:
328,275,22349,1,0,0:0:0:0:
328,275,22434,1,2,0:0:0:0:
273,344,22602,2,0,L|180:344,1,89,8|0,0:0|0:0,0:0:0:0:
105,301,22939,6,0,B|49:301|49:301|48:263,1,89,4|0,0:0|0:0,0:0:0:0:
108,232,23276,2,0,L|234:232,1,111.25,4|0,0:0|0:0,0:0:0:0:
298,253,23613,2,0,B|297:167|297:167|242:166,1,133.500005092621,4|0,0:0|0:0,0:0:0:0:
208,97,23950,6,0,B|265:97|265:97|266:53,1,100.125003819466,4|0,0:0|0:0,0:0:0:0:
206,11,24288,5,4,0:0:0:0:
117,12,24456,1,0,0:0:0:0:
117,101,24625,1,8,0:0:0:0:
116,189,24793,1,0,0:0:0:0:
205,189,24962,1,2,0:0:0:0:
293,191,25130,1,0,0:0:0:0:
294,280,25299,1,8,0:0:0:0:
205,281,25467,1,0,0:0:0:0:
115,281,25636,5,6,0:0:0:0:
117,101,25804,1,4,0:0:0:0:
292,100,25973,1,12,0:0:0:0:
294,280,26141,1,4,0:0:0:0:
78,156,26310,5,6,0:0:0:0:
206,30,26478,1,4,0:0:0:0:
331,153,26647,1,12,0:0:0:0:
205,281,26815,1,4,0:0:0:0:
206,156,26984,5,4,0:0:0:0:
234,121,27068,1,0,0:0:0:0:
261,85,27153,1,6,0:0:0:0:
288,50,27237,1,0,0:0:0:0:
314,14,27321,5,14,0:0:0:0:
340,50,27406,1,0,0:0:0:0:
363,87,27490,1,6,0:0:0:0:
385,125,27574,1,0,0:0:0:0:
402,165,27658,5,6,0:0:0:0:
380,204,27743,1,0,0:0:0:0:
357,241,27827,1,4,0:0:0:0:
331,277,27911,1,0,0:0:0:0:
307,314,27995,6,0,L|256:314,1,44.5,12|0,0:0|0:0,0:0:0:0:
198,282,28164,2,0,L|147:282,1,44.5,6|0,0:0|0:0,0:0:0:0:
89,252,28332,5,4,0:0:0:0:
89,252,29681,6,0,B|66:211|70:187|99:148,1,106.799996740723,4|0,0:0|0:0,0:0:0:0:
186,210,30018,1,8,0:0:0:0:
292,210,30186,1,0,0:0:0:0:
383,154,30355,2,0,B|408:187|412:211|389:252,1,106.799996740723,2|0,0:0|0:0,0:0:0:0:
333,344,30692,1,8,0:0:0:0:
225,344,30861,1,0,0:0:0:0:
136,284,31029,6,0,L|26:283,1,106.799996740723,4|0,0:0|0:0,0:0:0:0:
86,192,31366,2,0,L|87:82,1,106.799996740723,8|0,0:0|0:0,0:0:0:0:
179,139,31703,2,0,L|289:140,1,106.799996740723,2|0,0:0|0:0,0:0:0:0:
229,231,32040,2,0,L|228:341,1,106.799996740723,8|0,0:0|0:0,0:0:0:0:
320,284,32377,6,0,B|461:284|461:284|463:205,2,213.599993481446,4|8|2,0:0|0:0|0:0,0:0:0:0:
320,284,33389,1,8,0:0:0:0:
257,198,33557,1,2,0:0:0:0:
257,198,33641,1,0,0:0:0:0:
257,198,33726,6,0,B|213:192|188:202|156:258,2,106.799996740723,4|0|8,0:0|0:0|0:0,0:0:0:0:
320,284,34231,2,0,B|348:254|350:226|331:177,1,106.799996740723,2|0,0:0|0:0,0:0:0:0:
308,137,34484,1,0,0:0:0:0:
270,99,34568,6,0,L|274:41,1,53.3999983703614,2|0,0:0|0:0,0:0:0:0:
316,12,34737,2,0,L|374:16,1,53.3999983703614,8|0,0:0|0:0,0:0:0:0:
398,60,34906,2,0,L|394:118,1,53.3999983703614,2|0,0:0|0:0,0:0:0:0:
368,159,35074,6,0,B|346:204|348:230|384:286,1,106.799996740723,4|0,0:0|0:0,0:0:0:0:
413,358,35411,1,8,0:0:0:0:
306,344,35580,1,0,0:0:0:0:
203,374,35748,6,0,B|181:329|183:303|219:247,1,106.799996740723,4|0,0:0|0:0,0:0:0:0:
248,175,36085,1,8,0:0:0:0:
141,189,36254,1,0,0:0:0:0:
53,128,36422,5,4,0:0:0:0:
133,57,36591,1,0,0:0:0:0:
236,31,36759,1,8,0:0:0:0:
329,82,36928,1,2,0:0:0:0:
386,172,37097,5,0,0:0:0:0:
329,286,37265,1,2,0:0:0:0:
204,316,37434,1,10,0:0:0:0:
94,250,37602,1,2,0:0:0:0:
53,128,37771,5,4,0:0:0:0:
211,109,38023,1,2,0:0:0:0:
369,85,38276,1,2,0:0:0:0:
369,85,38445,5,4,0:0:0:0:
306,231,38697,1,2,0:0:0:0:
248,380,38950,1,2,0:0:0:0:
248,380,39119,5,4,0:0:0:0:
144,351,39288,1,2,0:0:0:0:
144,351,39372,1,0,0:0:0:0:
144,351,39456,1,10,0:0:0:0:
109,249,39625,1,2,0:0:0:0:
109,249,39709,1,0,0:0:0:0:
109,249,39793,5,2,0:0:0:0:
88,200,39877,1,0,0:0:0:0:
96,146,39962,1,2,0:0:0:0:
134,109,40046,1,0,0:0:0:0:
187,106,40130,1,8,0:0:0:0:
229,137,40214,1,0,0:0:0:0:
280,151,40299,1,2,0:0:0:0:
332,142,40383,1,0,0:0:0:0:
378,116,40467,6,0,B|403:79|406:48|370:14,1,106.799996740723,4|0,0:0|0:0,0:0:0:0:
281,70,40804,1,8,0:0:0:0:
189,13,40973,1,0,0:0:0:0:
105,78,41141,6,0,B|80:115|77:146|113:180,1,106.799996740723,2|0,0:0|0:0,0:0:0:0:
202,124,41478,1,8,0:0:0:0:
287,189,41647,2,0,B|346:199|411:182|456:160|456:90,1,213.599993481446,4|0,0:0|0:0,0:0:0:0:
455,101,42068,1,0,0:0:0:0:
455,101,42153,1,8,0:0:0:0:
388,18,42321,1,0,0:0:0:0:
333,110,42490,5,2,0:0:0:0:
333,110,42574,1,0,0:0:0:0:
333,110,42658,1,2,0:0:0:0:
315,160,42743,1,0,0:0:0:0:
315,213,42827,2,0,B|321:238|321:238|340:268,1,53.3999983703614,8|0,0:0|0:0,0:0:0:0:
372,299,42995,6,0,B|399:264|403:246|392:186,1,106.799996740723,4|0,0:0|0:0,0:0:0:0:
342,105,43332,1,0,0:0:0:0:
263,31,43501,2,0,B|222:27|191:31|160:64,1,106.799996740723,8|0,0:0|0:0,0:0:0:0:
97,143,43838,1,2,0:0:0:0:
201,167,44007,1,0,0:0:0:0:
125,241,44175,1,8,0:0:0:0:
230,257,44344,1,0,0:0:0:0:
327,213,44512,5,4,0:0:0:0:
214,326,44765,1,2,0:0:0:0:
201,167,45018,1,2,0:0:0:0:
201,167,45186,6,0,B|263:170|290:150|283:49,1,160.199995111084,2|0,0:0|0:0,0:0:0:0:
256,16,45523,1,4,0:0:0:0:
203,3,45608,1,0,0:0:0:0:
154,24,45692,1,2,0:0:0:0:
125,68,45776,1,0,0:0:0:0:
130,121,45861,6,0,B|170:170|175:207|142:285,1,160.199995111084,4|0,0:0|0:0,0:0:0:0:
108,306,46198,1,8,0:0:0:0:
67,207,46366,1,2,0:0:0:0:
130,121,46535,1,2,0:0:0:0:
130,121,46703,1,0,0:0:0:0:
208,194,46872,1,8,0:0:0:0:
289,125,47040,6,0,B|336:113|356:126|380:179,1,106.799996740723,4|2,0:0|0:0,0:0:0:0:
412,267,47377,1,0,0:0:0:0:
355,357,47546,1,8,0:0:0:0:
251,333,47714,1,0,0:0:0:0:
239,226,47883,1,2,0:0:0:0:
160,153,48052,1,0,0:0:0:0:
77,220,48220,1,10,0:0:0:0:
65,326,48389,1,2,0:0:0:0:
168,300,48557,5,4,0:0:0:0:
168,300,48641,1,0,0:0:0:0:
168,300,48726,1,2,0:0:0:0:
168,300,48810,1,0,0:0:0:0:
168,300,48894,1,8,0:0:0:0:
168,300,48979,1,0,0:0:0:0:
168,300,49063,1,2,0:0:0:0:
168,300,49147,1,0,0:0:0:0:
168,300,49231,6,0,L|174:238,1,53.3999983703614,4|0,0:0|0:0,0:0:0:0:
214,280,49400,2,0,L|220:218,1,53.3999983703614,2|0,0:0|0:0,0:0:0:0:
251,269,49568,2,0,L|257:207,1,53.3999983703614,8|0,0:0|0:0,0:0:0:0:
287,259,49737,2,0,L|293:197,1,53.3999983703614,2|0,0:0|0:0,0:0:0:0:
339,230,49906,5,4,0:0:0:0:
390,213,49990,1,0,0:0:0:0:
390,160,50074,1,2,0:0:0:0:
339,143,50158,1,0,0:0:0:0:
308,187,50243,5,12,0:0:0:0:
257,171,50327,1,0,0:0:0:0:
257,118,50411,1,2,0:0:0:0:
308,101,50495,1,0,0:0:0:0:
339,144,50580,5,6,0:0:0:0:
400,125,50664,1,2,0:0:0:0:
453,89,50748,1,6,0:0:0:0:
460,152,50832,1,2,0:0:0:0:
480,213,50917,5,14,0:0:0:0:
485,233,51001,1,0,0:0:0:0:
486,254,51085,1,6,0:0:0:0:
483,275,51170,1,0,0:0:0:0:
479,292,51254,5,4,0:0:0:0:
422,360,51422,1,2,0:0:0:0:
358,297,51591,1,2,0:0:0:0:
358,297,51675,1,2,0:0:0:0:
291,356,51844,1,2,0:0:0:0:
291,356,51928,5,2,0:0:0:0:
214,309,52097,1,2,0:0:0:0:
146,366,52265,1,8,0:0:0:0:
214,309,52434,1,2,0:0:0:0:
221,265,52518,1,0,0:0:0:0:
208,222,52602,5,4,0:0:0:0:
134,272,52771,1,2,0:0:0:0:
92,193,52939,1,2,0:0:0:0:
92,193,53023,1,2,0:0:0:0:
163,139,53192,1,2,0:0:0:0:
163,139,53276,5,2,0:0:0:0:
249,162,53445,1,2,0:0:0:0:
309,97,53613,1,8,0:0:0:0:
249,162,53782,1,2,0:0:0:0:
243,206,53866,1,0,0:0:0:0:
255,248,53950,5,4,0:0:0:0:
332,204,54119,1,2,0:0:0:0:
375,282,54288,1,2,0:0:0:0:
375,282,54372,1,2,0:0:0:0:
301,332,54540,1,2,0:0:0:0:
301,332,54625,5,2,0:0:0:0:
223,289,54793,1,2,0:0:0:0:
161,353,54962,1,8,0:0:0:0:
223,289,55130,1,2,0:0:0:0:
230,245,55214,1,0,0:0:0:0:
215,202,55299,5,4,0:0:0:0:
144,255,55467,1,2,0:0:0:0:
73,201,55636,1,2,0:0:0:0:
73,201,55720,1,2,0:0:0:0:
124,128,55889,1,2,0:0:0:0:
124,128,55973,6,0,B|139:93|141:68|114:34,1,89,4|0,0:0|0:0,0:0:0:0:
120,43,56226,2,0,B|142:73|163:87|206:81,1,89,2|0,0:0|0:0,0:0:0:0:
194,82,56479,6,0,B|156:86|133:97|117:137,1,89,2|4,0:0|0:0,0:0:0:0:
105,213,56816,1,2,0:0:0:0:
182,256,56984,1,2,0:0:0:0:
182,256,57068,1,2,0:0:0:0:
215,173,57237,1,2,0:0:0:0:
215,173,57321,5,2,0:0:0:0:
295,211,57490,1,2,0:0:0:0:
362,153,57658,1,8,0:0:0:0:
295,211,57827,1,2,0:0:0:0:
286,254,57911,1,0,0:0:0:0:
297,296,57995,5,4,0:0:0:0:
376,254,58164,1,2,0:0:0:0:
435,320,58333,1,2,0:0:0:0:
435,320,58417,1,2,0:0:0:0:
475,241,58585,1,2,0:0:0:0:
475,241,58670,5,2,0:0:0:0:
399,194,58838,1,2,0:0:0:0:
379,106,59007,1,8,0:0:0:0:
399,192,59175,1,2,0:0:0:0:
386,234,59259,1,0,0:0:0:0:
351,263,59344,5,4,0:0:0:0:
263,278,59512,1,2,0:0:0:0:
207,208,59681,1,2,0:0:0:0:
207,208,59765,1,2,0:0:0:0:
123,240,59934,1,2,0:0:0:0:
123,240,60018,5,6,0:0:0:0:
22,207,60186,1,2,0:0:0:0:
22,207,60271,1,2,0:0:0:0:
22,101,60438,1,2,0:0:0:0:
22,101,60523,1,2,0:0:0:0:
123,68,60692,5,4,0:0:0:0:
170,91,60776,1,0,0:0:0:0:
191,140,60861,1,2,0:0:0:0:
196,192,60945,1,0,0:0:0:0:
191,245,61029,5,4,0:0:0:0:
229,208,61113,1,0,0:0:0:0:
276,183,61198,1,2,0:0:0:0:
329,181,61282,1,0,0:0:0:0:
380,194,61366,5,4,0:0:0:0:
401,242,61450,1,2,0:0:0:0:
347,238,61535,1,2,0:0:0:0:
376,282,61619,1,2,0:0:0:0:
323,276,61703,1,10,0:0:0:0:
344,325,61788,1,2,0:0:0:0:
291,313,61872,1,2,0:0:0:0:
305,364,61956,1,2,0:0:0:0:
253,349,62040,5,6,0:0:0:0:
253,349,63389,6,0,B|198:331|166:337|125:380,1,133.500005092621,4|0,0:0|0:0,0:0:0:0:
10,314,63726,1,8,0:0:0:0:
111,227,63894,1,0,0:0:0:0:
