osu file format v14

[General]
AudioFilename: audio.mp3
AudioLeadIn: 0
PreviewTime: 137576
Countdown: 0
SampleSet: Soft
StackLeniency: 0.7
Mode: 0
LetterboxInBreaks: 0
WidescreenStoryboard: 0

[Editor]
Bookmarks: 26184,38456,54820,71184,86184,97093,113456,138002,166638,177547,188456,203456,214366,230729,255275,283229,310501
DistanceSpacing: 0.6
BeatDivisor: 4
GridSize: 32
TimelineZoom: 2.1

[Metadata]
Title:Lunatic Tears... (Tatsh Remix)
TitleUnicode:Lunatic Tears... (Tatsh Remix)
Artist:Tatsh
ArtistUnicode:Tatsh
Creator:Mordred
Version:Insane
Source:11eyes -罪と罰と贖いの少女-
Tags:niii_san tsumi to batsu to aganai no shoujo visual novel vn instrumental electronic original soundtrack ost arrange
BeatmapID:3001358
BeatmapSetID:1460718

[Difficulty]
HPDrainRate:7
CircleSize:4
OverallDifficulty:8
ApproachRate:8
SliderMultiplier:1.8
SliderTickRate:1

[Events]
//Background and Video events
0,0,"fd_shi14_22.jpg",0,0
//Break Periods
2,86384,95729
2,177746,184979
2,203656,213002
//Storyboard Layer 0 (Background)
//Storyboard Layer 1 (Fail)
//Storyboard Layer 2 (Pass)
//Storyboard Layer 3 (Foreground)
//Storyboard Layer 4 (Overlay)
//Storyboard Sound Samples

[TimingPoints]
4366,340.909090909091,4,2,1,70,1,0
283229,340.909090909091,4,2,1,80,1,0

[Colours]
Combo1 : 250,180,240
Combo2 : 110,190,225
Combo3 : 255,230,130
Combo4 : 150,230,140

[HitObjects]
64,36,4366,5,4,1:2:0:0:
128,132,4536,1,0,0:2:0:0:
128,132,4621,1,0,0:2:0:0:
128,132,4706,2,0,L|218:142,1,90,8|0,0:2|0:2,0:0:0:0:
412,0,5047,1,0,1:2:0:0:
316,64,5217,1,0,0:2:0:0:
316,64,5302,1,0,0:2:0:0:
316,64,5388,2,0,L|306:154,1,90,8|0,0:2|0:2,0:0:0:0:
447,347,5729,1,0,1:2:0:0:
384,251,5899,1,0,0:2:0:0:
384,251,5984,1,0,0:2:0:0:
384,251,6070,2,0,L|294:242,1,90,8|0,0:2|0:2,0:0:0:0:
100,384,6410,1,0,1:2:0:0:
196,320,6580,1,0,0:2:0:0:
196,320,6667,1,0,0:2:0:0:
196,320,6752,2,0,L|206:230,1,90,8|0,0:2|0:2,0:0:0:0:
278,57,7093,5,0,1:2:0:0:
360,146,7263,1,0,0:2:0:0:
360,146,7348,1,0,0:2:0:0:
360,146,7434,2,0,P|403:156|448:154,1,90,8|0,0:2|0:2,0:0:0:0:
121,170,7775,1,0,1:2:0:0:
210,88,7945,1,0,0:2:0:0:
210,88,8030,1,0,0:2:0:0:
210,88,8116,2,0,P|220:44|218:0,1,90,8|0,0:2|0:2,0:0:0:0:
234,327,8456,1,0,1:2:0:0:
152,238,8626,1,0,0:2:0:0:
152,238,8711,1,0,0:2:0:0:
152,238,8797,2,0,P|108:227|63:229,1,90,8|0,0:2|0:2,0:0:0:0:
391,214,9138,1,0,1:2:0:0:
302,295,9308,1,0,0:2:0:0:
302,295,9393,1,0,0:2:0:0:
302,295,9479,2,0,P|291:339|293:384,1,90,8|0,0:2|0:2,0:0:0:0:
289,83,9820,6,0,B|323:30|392:13|448:44,1,180,2|8,1:2|0:2,0:0:0:0:
365,225,10502,2,0,B|417:259|434:328|403:384,1,180,2|8,1:2|0:2,0:0:0:0:
223,301,11184,2,0,B|188:353|119:370|63:339,1,180,2|8,1:2|0:2,0:0:0:0:
147,159,11866,2,0,B|94:124|77:55|108:0,1,180,2|8,1:2|0:2,0:0:0:0:
470,203,12547,6,0,L|292:158,1,180,2|8,1:2|0:2,0:0:0:0:
138,372,13229,2,0,L|266:240,1,180,2|8,1:2|0:2,0:0:0:0:
159,0,13911,2,0,L|209:176,1,180,2|8,1:2|0:2,0:0:0:0:
480,192,14593,5,2,1:2:0:0:
438,130,14763,1,2,1:2:0:0:
369,102,14934,1,10,0:2:0:0:
297,114,15104,1,2,1:2:0:0:
222,367,15275,5,6,1:2:0:0:
159,320,15445,2,0,P|73:319|31:244,1,180,2|0,0:2|0:2,0:0:0:0:
141,67,15956,1,2,1:2:0:0:
141,67,16127,2,0,L|114:259,1,180,2|0,0:2|0:2,0:0:0:0:
320,384,16638,1,2,1:2:0:0:
320,384,16809,2,0,L|347:192,1,180,2|0,0:2|0:2,0:0:0:0:
409,158,17320,2,0,L|505:171,1,90,2|0,1:2|0:2,0:0:0:0:
263,209,17661,2,0,L|173:196,1,90,10|0,0:2|0:2,0:0:0:0:
0,32,18002,5,2,1:2:0:0:
0,32,18172,2,0,P|83:53|106:135,1,180,2|0,0:2|0:2,0:0:0:0:
0,295,18684,1,2,1:2:0:0:
0,295,18854,2,0,L|27:103,1,180,2|0,0:2|0:2,0:0:0:0:
288,0,19366,1,2,1:2:0:0:
288,0,19536,2,0,L|261:192,1,180,2|0,0:2|0:2,0:0:0:0:
364,101,20047,2,0,L|460:114,1,90,2|0,1:2|0:2,0:0:0:0:
186,76,20388,2,0,L|89:62,1,90,10|0,0:2|0:2,0:0:0:0:
0,288,20729,5,2,1:2:0:0:
0,288,20900,2,0,P|84:275|105:193,1,180,2|0,0:2|0:2,0:0:0:0:
342,378,21411,1,2,1:2:0:0:
341,378,21582,2,0,P|256:365|235:283,1,180,2|0,0:2|0:2,0:0:0:0:
303,218,22093,1,2,1:2:0:0:
303,218,22263,2,0,L|485:200,1,180,2|0,0:2|0:2,0:0:0:0:
512,127,22775,2,0,L|503:37,1,90,2|0,1:2|0:2,0:0:0:0:
243,60,23116,2,0,L|251:149,1,90,10|0,0:2|0:2,0:0:0:0:
408,384,23456,5,2,1:2:0:0:
408,384,23627,2,0,L|391:195,1,180,2|0,0:2|0:2,0:0:0:0:
480,64,24138,1,2,1:2:0:0:
480,64,24309,2,0,L|291:81,1,180,2|0,0:2|0:2,0:0:0:0:
104,51,24820,5,2,1:2:0:0:
118,124,24991,1,0,0:2:0:0:
135,195,25161,1,10,0:2:0:0:
153,269,25331,1,0,0:2:0:0:
39,103,25502,5,6,1:2:0:0:
183,72,25672,1,2,1:2:0:0:
72,250,25843,1,14,0:2:0:0:
217,215,26013,1,2,1:2:0:0:
178,350,26184,5,6,1:1:0:0:
178,350,26354,1,2,0:2:0:0:
178,350,26695,2,0,L|273:364,1,90,2|0,0:2|1:2,0:0:0:0:
18,236,27036,2,0,L|208:264,1,180,2|2,0:2|0:2,0:0:0:0:
334,34,27547,5,2,1:2:0:0:
334,34,27717,1,2,0:2:0:0:
334,34,28058,2,0,L|239:20,1,90,2|0,0:2|1:2,0:0:0:0:
494,148,28400,2,0,L|304:120,1,180,2|2,0:2|0:2,0:0:0:0:
114,174,28911,5,2,1:2:0:0:
114,174,29081,1,2,0:2:0:0:
114,174,29422,2,0,L|128:269,1,90,2|0,0:2|1:2,0:0:0:0:
0,14,29763,2,0,L|28:204,1,180,2|2,0:2|0:2,0:0:0:0:
398,210,30275,5,2,1:2:0:0:
398,210,30445,1,2,0:2:0:0:
398,210,30786,2,0,L|384:115,1,90,2|0,0:2|1:2,0:0:0:0:
512,370,31127,2,0,L|484:180,1,180,2|2,0:2|0:2,0:0:0:0:
284,50,31638,5,6,1:2:0:0:
284,50,31809,2,0,P|242:65|198:72,1,90,2|8,0:2|0:2,0:0:0:0:
0,96,32150,2,0,P|42:80|86:73,1,90,2|0,0:2|1:2,0:0:0:0:
117,105,32405,1,0,3:2:0:0:
147,135,32491,2,0,P|162:177|169:221,1,90,2|8,0:2|0:2,0:0:0:0:
128,311,32831,1,2,0:2:0:0:
228,334,33002,5,2,1:2:0:0:
228,334,33173,2,0,P|270:319|314:312,1,90,2|8,0:2|0:2,0:0:0:0:
512,288,33514,2,0,P|469:303|425:310,1,90,2|0,0:2|1:2,0:0:0:0:
395,279,33769,1,0,3:2:0:0:
365,249,33855,2,0,P|349:206|342:162,1,90,2|8,0:2|0:2,0:0:0:0:
384,73,34195,1,2,0:2:0:0:
160,0,34366,5,0,1:2:0:0:
216,69,34536,1,0,3:2:0:0:
238,64,34621,1,0,3:2:0:0:
260,58,34706,1,8,0:2:0:0:
170,147,34877,1,0,3:2:0:0:
148,142,34962,1,0,3:2:0:0:
126,136,35047,1,0,1:2:0:0:
63,70,35218,2,0,L|51:22,2,45,0|0|8,3:2|3:2|0:2,0:0:0:0:
124,225,35559,1,0,3:2:0:0:
146,231,35644,1,0,3:2:0:0:
168,236,35729,1,0,1:2:0:0:
260,146,35900,1,0,3:2:0:0:
282,151,35985,1,0,3:2:0:0:
304,157,36070,2,0,L|363:149,3,45,8|0|0|0,3:2|3:2|3:2|3:2,0:0:0:0:
379,184,36411,1,0,1:2:0:0:
409,216,36496,1,0,3:2:0:0:
439,248,36581,1,0,3:2:0:0:
469,281,36667,1,0,3:2:0:0:
499,313,36752,2,0,L|527:318,6,22.5,8|0|0|0|0|0|0,3:2|0:0|3:2|0:0|3:2|0:0|0:0,0:0:0:0:
256,192,37093,12,6,38456,1:1:0:0:
184,192,38797,5,2,1:2:0:0:
108,241,38968,1,2,0:2:0:0:
27,199,39138,2,0,L|14:109,1,90,2|0,1:2|0:2,0:0:0:0:
265,234,39479,2,0,L|277:323,1,90,2|0,1:2|0:2,0:0:0:0:
39,348,39820,2,0,L|128:335,1,90,2|0,1:2|0:2,0:0:0:0:
163,97,40161,2,0,L|252:84,1,90,2|0,1:2|0:2,0:0:0:0:
448,317,40502,5,2,1:2:0:0:
512,221,40672,1,2,0:2:0:0:
489,107,40843,1,2,1:2:0:0:
393,43,41013,1,2,0:2:0:0:
280,65,41184,5,2,1:2:0:0:
269,88,41354,1,0,0:2:0:0:
293,98,41525,1,0,1:2:0:0:
303,75,41695,1,0,0:2:0:0:
286,82,41866,5,2,1:2:0:0:
350,178,42036,1,0,0:2:0:0:
327,292,42207,1,0,1:2:0:0:
231,356,42377,1,0,0:2:0:0:
118,334,42547,5,2,1:2:0:0:
107,311,42718,1,0,0:2:0:0:
131,301,42888,1,2,1:2:0:0:
141,324,43059,1,0,0:2:0:0:
124,318,43229,5,2,1:2:0:0:
282,300,43400,1,2,0:2:0:0:
440,282,43570,1,2,1:2:0:0:
0,224,43911,5,2,1:2:0:0:
256,32,44252,1,2,1:2:0:0:
323,90,44422,1,2,0:2:0:0:
408,61,44593,2,0,L|496:78,1,90,2|0,1:2|0:2,0:0:0:0:
171,61,44934,2,0,L|82:43,1,90,2|0,1:2|0:2,0:0:0:0:
305,178,45275,2,0,L|323:90,1,90,2|0,1:2|0:2,0:0:0:0:
512,167,45616,2,0,L|494:255,1,90,2|0,1:2|0:2,0:0:0:0:
358,384,45956,5,2,1:2:0:0:
390,212,46127,1,2,0:2:0:0:
218,180,46297,1,2,1:2:0:0:
186,351,46468,1,2,0:2:0:0:
298,297,46638,5,2,1:2:0:0:
272,292,46809,1,0,0:2:0:0:
277,266,46980,1,0,1:2:0:0:
303,271,47150,1,0,0:2:0:0:
288,282,47320,5,2,1:2:0:0:
116,249,47491,1,0,0:2:0:0:
148,78,47662,1,0,1:2:0:0:
320,110,47832,1,0,0:2:0:0:
233,169,48002,5,2,1:2:0:0:
207,164,48172,1,0,0:2:0:0:
202,190,48343,1,2,1:2:0:0:
228,195,48513,1,0,0:2:0:0:
218,180,48684,5,2,1:2:0:0:
23,157,48854,1,2,0:2:0:0:
0,352,49025,1,2,1:2:0:0:
436,8,49366,5,2,1:2:0:0:
512,256,49706,1,2,1:2:0:0:
436,305,49877,1,2,0:2:0:0:
355,263,50047,2,0,L|342:173,1,90,2|0,1:2|0:2,0:0:0:0:
128,96,50388,2,0,L|141:186,1,90,2|0,1:2|0:2,0:0:0:0:
195,276,50729,2,0,L|105:289,1,90,2|0,1:2|0:2,0:0:0:0:
288,83,51070,2,0,L|378:70,1,90,2|0,1:2|0:2,0:0:0:0:
512,353,51411,5,2,1:2:0:0:
489,239,51581,1,2,0:2:0:0:
392,175,51752,1,2,1:2:0:0:
279,198,51922,1,2,0:2:0:0:
215,293,52093,5,2,1:2:0:0:
223,317,52263,1,0,0:2:0:0:
247,307,52434,1,0,1:2:0:0:
238,284,52604,1,0,0:2:0:0:
231,301,52775,5,2,1:2:0:0:
116,314,52945,1,0,0:2:0:0:
25,241,53116,1,0,1:2:0:0:
12,126,53286,1,0,0:2:0:0:
84,36,53456,5,2,1:2:0:0:
106,25,53626,1,0,0:2:0:0:
116,48,53797,1,2,1:2:0:0:
93,58,53967,1,0,0:2:0:0:
100,42,54138,5,2,1:2:0:0:
82,197,54309,1,2,0:2:0:0:
64,352,54479,1,2,1:2:0:0:
375,384,54820,5,2,1:2:0:0:
411,74,55161,1,2,1:2:0:0:
339,128,55331,1,2,0:2:0:0:
256,93,55502,2,0,L|240:4,1,90,2|0,1:2|0:2,0:0:0:0:
494,109,55843,2,0,L|510:198,1,90,2|0,1:2|0:2,0:0:0:0:
267,182,56184,2,0,L|178:198,1,90,2|0,1:2|0:2,0:0:0:0:
32,352,56525,2,0,L|121:336,1,90,2|0,1:2|0:2,0:0:0:0:
352,384,56866,5,2,1:2:0:0:
512,288,57036,1,2,0:2:0:0:
508,101,57206,1,2,1:2:0:0:
348,197,57377,1,2,0:2:0:0:
419,261,57547,5,2,1:2:0:0:
418,236,57718,1,0,0:2:0:0:
440,223,57888,1,0,1:2:0:0:
441,248,58059,1,0,0:2:0:0:
430,242,58229,5,2,1:2:0:0:
248,287,58399,1,0,0:2:0:0:
119,152,58569,1,0,1:2:0:0:
300,106,58740,1,0,0:2:0:0:
295,202,58911,5,2,1:2:0:0:
277,184,59081,1,0,0:2:0:0:
252,190,59252,1,2,1:2:0:0:
270,209,59422,1,0,0:2:0:0:
274,197,59593,5,2,1:2:0:0:
185,35,59763,1,2,0:2:0:0:
0,16,59934,1,2,1:2:0:0:
487,54,60275,5,2,1:2:0:0:
501,280,60616,1,2,1:2:0:0:
425,231,60787,1,2,0:2:0:0:
344,273,60957,2,0,L|331:363,1,90,2|0,1:2|0:2,0:0:0:0:
337,104,61297,2,0,L|427:117,1,90,2|0,1:2|0:2,0:0:0:0:
168,111,61638,2,0,L|181:21,1,90,2|0,1:2|0:2,0:0:0:0:
175,280,61979,2,0,L|85:267,1,90,2|0,1:2|0:2,0:0:0:0:
375,187,62320,5,2,1:2:0:0:
251,72,62491,1,2,0:2:0:0:
136,196,62661,1,2,1:2:0:0:
260,311,62831,1,2,0:2:0:0:
275,191,63002,5,2,1:2:0:0:
256,211,63172,1,0,0:2:0:0:
236,192,63342,1,0,1:2:0:0:
255,172,63513,1,0,0:2:0:0:
256,192,63684,5,2,1:2:0:0:
94,243,63855,1,0,0:2:0:0:
43,82,64025,1,0,1:2:0:0:
204,30,64195,1,0,0:2:0:0:
167,146,64366,5,2,1:2:0:0:
158,119,64536,1,0,0:2:0:0:
132,127,64706,1,2,1:2:0:0:
140,154,64877,1,0,0:2:0:0:
150,137,65047,5,2,1:2:0:0:
331,117,65218,1,2,0:2:0:0:
512,96,65388,1,2,1:2:0:0:
32,32,65729,5,2,1:2:0:0:
0,320,66070,1,2,1:2:0:0:
82,357,66241,1,2,0:2:0:0:
156,305,66411,2,0,L|171:216,1,90,2|0,1:2|0:2,0:0:0:0:
356,79,66752,2,0,L|340:167,1,90,2|0,1:2|0:2,0:0:0:0:
382,248,67093,2,0,L|470:263,1,90,2|0,1:2|0:2,0:0:0:0:
130,136,67434,2,0,L|41:120,1,90,2|0,1:2|0:2,0:0:0:0:
0,320,67775,5,2,1:2:0:0:
96,384,67945,1,2,0:2:0:0:
210,361,68116,1,2,1:2:0:0:
274,264,68286,1,2,0:2:0:0:
252,152,68457,5,2,1:2:0:0:
229,141,68627,1,0,0:2:0:0:
219,165,68798,1,0,1:2:0:0:
242,175,68968,1,0,0:2:0:0:
235,158,69138,5,2,1:2:0:0:
298,38,69309,1,0,0:2:0:0:
432,61,69479,1,0,1:2:0:0:
452,196,69650,1,0,0:2:0:0:
329,256,69820,1,2,1:2:0:0:
331,242,69905,1,0,3:2:0:0:
333,228,69991,1,0,3:2:0:0:
335,214,70076,1,0,3:2:0:0:
337,200,70161,1,2,1:2:0:0:
339,186,70246,1,0,3:2:0:0:
341,172,70331,1,0,3:2:0:0:
343,158,70417,1,0,3:2:0:0:
346,144,70502,2,0,L|338:99,3,45,2|0|0|0,1:2|3:2|3:2|3:2,0:0:0:0:
359,72,70843,2,0,L|351:27,3,45,2|0|0|0,1:2|3:2|3:2|3:2,0:0:0:0:
317,5,71184,6,0,P|252:4|213:56,1,135,6|0,1:1|0:0,0:0:0:0:
213,95,71525,2,0,L|237:206,1,90,8|0,0:2|0:0,0:0:0:0:
333,292,71866,1,2,1:2:0:0:
228,287,72036,1,0,0:2:0:0:
337,187,72206,2,0,L|424:206,1,90,8|0,0:2|0:2,0:0:0:0:
228,287,72547,2,0,L|52:248,2,180,2|8|2,1:2|0:2|1:2,0:0:0:0:
345,384,73400,1,0,0:2:0:0:
488,332,73570,1,8,0:2:0:0:
512,182,73741,1,0,0:2:0:0:
395,86,73911,6,0,L|263:116,1,135,2|0,1:2|0:0,0:0:0:0:
246,153,74252,2,0,L|158:133,1,90,8|0,0:2|0:2,0:0:0:0:
3,35,74593,1,0,1:2:0:0:
105,10,74763,1,0,0:2:0:0:
130,113,74933,1,8,0:2:0:0:
27,137,75103,1,0,0:2:0:0:
105,10,75275,6,0,L|280:48,1,180,2|8,1:2|0:2,0:0:0:0:
281,49,75956,2,0,L|300:136,1,90,2|0,1:2|0:2,0:0:0:0:
27,137,76297,2,0,L|46:224,1,90,10|0,0:2|0:2,0:0:0:0:
261,384,76638,6,0,P|314:347|311:282,1,135,2|0,1:2|0:0,0:0:0:0:
280,264,76979,2,0,L|190:252,1,90,8|0,0:2|0:2,0:0:0:0:
47,225,77320,1,2,1:2:0:0:
105,310,77491,1,0,0:2:0:0:
132,166,77661,1,8,0:2:0:0:
190,252,77831,1,0,0:2:0:0:
47,225,78002,6,0,L|28:138,1,90,2|0,1:2|0:2,0:0:0:0:
175,18,78343,2,0,L|194:105,1,90,8|0,0:2|0:2,0:0:0:0:
300,199,78684,1,2,1:2:0:0:
433,159,78854,1,0,0:2:0:0:
512,273,79025,1,8,0:2:0:0:
428,384,79195,1,0,0:2:0:0:
295,336,79366,6,0,L|194:351,1,90,2|0,1:2|0:2,0:0:0:0:
215,44,79706,2,0,L|316:29,1,90,8|0,0:2|0:2,0:0:0:0:
414,239,80047,2,0,L|401:150,1,90,2|0,1:2|0:2,0:0:0:0:
95,140,80388,2,0,L|109:230,1,90,10|0,0:2|0:2,0:0:0:0:
260,208,80729,5,2,1:2:0:0:
273,185,80900,1,0,0:2:0:0:
250,171,81070,1,8,0:2:0:0:
236,195,81241,1,0,0:2:0:0:
305,30,81411,5,2,1:2:0:0:
305,30,81581,1,0,0:2:0:0:
205,349,81752,1,10,0:2:0:0:
205,349,81922,1,0,0:2:0:0:
16,256,82093,6,0,P|-13:197|14:139,1,135,2|0,1:2|0:2,0:0:0:0:
45,129,82434,2,0,L|134:115,1,90,8|0,0:2|0:2,0:0:0:0:
266,225,82775,2,0,L|280:314,1,90,2|0,1:2|0:2,0:0:0:0:
406,88,83116,2,0,L|392:-1,1,90,10|0,0:2|0:2,0:0:0:0:
256,192,83456,12,2,84820,1:2:0:0:
256,192,84905,12,4,86184,1:1:0:0:
96,288,97093,6,0,P|184:304|271:327,1,180,6|10,1:2|0:2,0:0:0:0:
32,192,97604,2,0,P|120:175|207:152,1,180,2|2,0:2|0:2,0:0:0:0:
258,12,98116,1,10,0:2:0:0:
372,116,98286,2,0,P|416:122|461:123,1,90,2|0,0:2|1:2,0:0:0:0:
290,265,98627,2,0,P|296:220|297:175,1,90,2|8,0:2|0:2,0:0:0:0:
439,345,98968,2,0,P|394:338|349:337,1,90,2|0,0:2|1:2,0:0:0:0:
512,284,99309,1,2,0:2:0:0:
278,380,99479,2,0,P|233:378|188:372,1,90,10|0,0:2|0:2,0:0:0:0:
0,192,99820,6,0,P|84:202|113:283,1,180,2|10,1:2|0:2,0:0:0:0:
352,96,100331,2,0,P|267:106|238:187,1,180,2|2,0:2|0:2,0:0:0:0:
272,272,100843,1,10,0:2:0:0:
192,64,101013,6,0,P|147:58|102:56,1,90,2|0,0:2|1:2,0:0:0:0:
318,173,101354,2,0,P|362:178|407:180,1,90,2|8,0:2|0:2,0:0:0:0:
154,318,101695,2,0,P|155:273|161:228,1,90,2|0,0:2|1:2,0:0:0:0:
232,162,102036,1,2,0:2:0:0:
232,162,102206,1,10,0:2:0:0:
232,162,102377,1,2,0:2:0:0:
352,352,102547,6,0,P|434:371|493:306,1,180,2|10,1:2|0:2,0:0:0:0:
374,120,103059,2,0,P|395:207|410:296,1,180,2|2,0:2|0:2,0:0:0:0:
469,74,103570,1,10,0:2:0:0:
380,15,103741,2,0,P|338:29|294:36,1,90,2|0,0:2|1:2,0:0:0:0:
85,34,104081,2,0,P|127:20|171:13,1,90,2|8,0:2|0:2,0:0:0:0:
233,242,104422,2,0,P|219:200|211:156,1,90,2|0,0:2|1:2,0:0:0:0:
222,78,104763,1,2,0:2:0:0:
32,160,104934,2,0,P|18:202|10:246,1,90,10|0,0:2|0:2,0:0:0:0:
239,310,105275,6,0,P|194:235|108:233,1,180,2|10,1:2|0:2,0:0:0:0:
320,384,105786,2,0,P|337:295|366:210,2,180,2|2|2,0:2|0:2|0:2,0:0:0:0:
497,237,106638,2,0,L|488:192,3,45,2|0|0|0,1:2|3:2|3:2|3:2,0:0:0:0:
512,162,106979,2,0,L|503:117,3,45,8|0|0|0,3:2|3:2|3:2|3:2,0:0:0:0:
506,83,107320,1,2,1:2:0:0:
484,78,107405,1,0,1:2:0:0:
461,73,107491,1,0,1:2:0:0:
439,68,107576,1,0,1:2:0:0:
416,63,107661,1,8,1:2:0:0:
393,58,107746,1,0,1:2:0:0:
370,53,107831,1,0,1:2:0:0:
347,48,107917,1,0,1:2:0:0:
324,44,108002,1,4,1:1:0:0:
169,164,108343,6,0,P|119:170|70:170,1,90,10|0,0:2|0:2,0:0:0:0:
275,281,108684,2,0,P|305:320|330:363,1,90,2|0,1:2|0:2,0:0:0:0:
323,130,109025,2,0,P|342:84|367:41,1,90,10|0,0:2|0:2,0:0:0:0:
144,342,109366,6,0,P|169:299|188:253,1,90,2|0,1:2|0:2,0:0:0:0:
181,20,109706,2,0,P|206:63|236:102,1,90,10|0,0:2|0:2,0:0:0:0:
441,213,110047,2,0,P|392:213|342:219,1,90,2|0,1:2|0:2,0:0:0:0:
256,192,110388,1,10,0:2:0:0:
0,256,110729,6,0,L|-15:344,1,90,2|0,1:2|0:2,0:0:0:0:
240,280,111070,2,0,L|256:192,1,90,10|0,0:2|0:2,0:0:0:0:
98,47,111411,2,0,L|128:224,1,180,2|8,1:2|0:2,0:0:0:0:
512,344,112093,6,0,L|512:256,1,90,2|0,1:2|0:2,0:0:0:0:
271,280,112434,2,0,L|256:192,1,90,10|0,0:2|0:2,0:0:0:0:
442,0,112775,2,0,L|411:177,1,180,2|8,1:2|0:2,0:0:0:0:
376,203,113201,1,8,0:2:0:0:
341,229,113286,1,8,0:2:0:0:
306,255,113371,1,8,0:2:0:0:
271,281,113456,6,0,P|183:259|95:241,1,180,6|2,1:1|1:2,0:0:0:0:
304,384,113968,2,0,P|392:362|480:344,1,180,2|0,0:2|0:2,0:0:0:0:
512,256,114479,2,0,P|502:211|492:168,1,90,2|0,1:2|0:2,0:0:0:0:
322,9,114820,2,0,P|402:36|418:121,1,180,2|2,1:2|1:2,0:0:0:0:
284,262,115331,2,0,P|308:175|340:91,1,180,2|0,0:2|0:2,0:0:0:0:
225,149,115843,2,0,P|181:136|139:120,1,90,2|0,1:2|0:2,0:0:0:0:
0,310,116184,6,0,P|84:278|170:252,1,180,2|0,1:2|1:2,0:0:0:0:
284,262,116695,1,2,0:2:0:0:
396,271,116866,2,0,P|478:246|496:162,1,180,2|0,1:2|1:2,0:0:0:0:
288,32,117547,2,0,L|109:54,2,180,0|0|0,1:2|1:2|1:2,0:0:0:0:
436,104,118570,1,2,1:2:0:0:
416,185,118741,1,2,0:2:0:0:
496,162,118911,6,0,P|478:246|396:271,1,180,2|0,1:2|1:2,0:0:0:0:
211,384,119422,2,0,P|292:358|310:274,1,180,2|0,0:2|0:2,0:0:0:0:
254,210,119934,2,0,P|209:205|164:202,1,90,2|0,1:2|0:2,0:0:0:0:
0,107,120275,2,0,P|89:115|179:121,1,180,2|2,1:2|1:2,0:0:0:0:
373,54,120786,2,0,P|284:46|194:40,1,180,2|0,0:2|0:2,0:0:0:0:
124,4,121297,1,2,1:2:0:0:
50,29,121468,1,2,0:2:0:0:
33,106,121638,6,0,P|12:193|0:282,1,180,2|2,1:2|1:2,0:0:0:0:
103,199,122150,2,0,P|190:178|279:165,1,180,2|0,0:2|0:2,0:0:0:0:
422,253,122661,2,0,P|377:246|333:236,1,90,2|0,1:2|0:2,0:0:0:0:
467,32,123002,2,0,P|487:119|500:208,2,180,2|0|0,1:2|1:2|1:2,0:0:0:0:
320,352,124025,5,2,1:2:0:0:
320,352,124196,1,2,0:2:0:0:
320,352,124366,2,0,P|395:308|480:330,1,180,2|0,1:2|1:2,0:0:0:0:
201,378,124877,2,0,P|233:295|256:208,1,180,2|0,0:2|0:2,0:0:0:0:
320,32,125388,1,2,1:2:0:0:
320,32,125559,1,2,0:2:0:0:
320,32,125729,2,0,P|395:76|480:54,1,180,2|0,1:2|1:2,0:0:0:0:
201,5,126241,2,0,P|233:88|256:176,1,180,2|0,0:2|0:2,0:0:0:0:
156,311,126752,2,0,P|167:267|183:225,1,90,2|0,1:2|0:2,0:0:0:0:
442,288,127093,6,0,P|352:278|264:264,1,180,2|0,1:2|1:2,0:0:0:0:
131,132,127604,1,2,0:2:0:0:
131,132,127775,2,0,P|146:221|156:311,3,180,2|0|0|0,1:2|1:2|1:2|1:2,0:0:0:0:
0,64,129138,2,0,P|44:56|89:51,1,90,2|0,1:2|0:0,0:0:0:0:
217,136,129479,2,0,P|261:131|306:123,1,90,2|0,1:2|0:0,0:0:0:0:
512,19,129820,6,0,P|428:10|394:88,1,180,2|0,1:2|1:2,0:0:0:0:
512,241,130331,2,0,P|423:223|334:209,1,180,2|0,0:2|0:2,0:0:0:0:
267,266,130843,2,0,P|259:310|251:354,1,90,2|0,1:2|0:2,0:0:0:0:
64,384,131184,2,0,P|81:295|95:206,1,180,2|0,1:2|1:2,0:0:0:0:
0,32,131866,2,0,P|44:40|89:45,1,90,2|0,1:2|0:2,0:0:0:0:
312,12,132206,2,0,P|268:4|224:0,1,90,0|0,1:2|0:2,0:0:0:0:
240,224,132547,6,0,P|329:214|417:198,3,180,2|0|0|0,1:2|1:2|1:2|1:2,0:0:0:0:
480,128,133741,1,2,0:2:0:0:
433,48,133911,1,2,1:2:0:0:
433,48,134081,1,2,0:2:0:0:
343,67,134252,1,2,1:2:0:0:
343,67,134422,1,2,0:2:0:0:
334,159,134593,1,2,1:2:0:0:
243,178,134763,2,0,P|199:173|154:165,1,90,2|0,0:2|1:2,0:0:0:0:
0,288,135104,6,0,P|88:272|177:262,1,180,2|0,0:2|0:2,0:0:0:0:
256,320,135616,1,0,1:2:0:0:
256,320,135786,1,0,0:2:0:0:
345,290,135956,1,0,1:2:0:0:
345,290,136042,1,0,0:0:0:0:
345,290,136127,1,0,0:0:0:0:
432,324,136297,1,0,1:2:0:0:
432,324,136638,1,0,0:2:0:0:
512,62,137661,5,0,0:2:0:0:
442,118,137831,1,0,0:2:0:0:
361,77,138002,2,0,P|272:61|182:50,1,180,6|8,1:1|3:2,0:0:0:0:
32,96,138513,1,2,3:2:0:0:
32,96,138598,1,0,0:0:0:0:
32,96,138684,2,0,P|26:51|18:7,2,90,0|0|8,1:2|3:2|3:2,0:0:0:0:
0,176,139195,1,2,3:2:0:0:
66,319,139366,5,2,1:2:0:0:
131,258,139536,1,2,3:2:0:0:
192,323,139706,1,10,3:2:0:0:
127,384,139877,2,0,P|145:295|169:209,1,180,2|0,3:2|3:2,0:0:0:0:
118,130,140388,2,0,P|73:120|30:108,1,90,10|0,3:2|3:2,0:0:0:0:
287,5,140729,5,2,1:2:0:0:
374,0,140900,1,0,3:2:0:0:
445,54,141070,1,8,3:2:0:0:
465,140,141241,1,0,3:2:0:0:
426,219,141411,2,0,L|377:227,2,45,0|0|0,1:2|3:2|3:2,0:0:0:0:
494,278,141752,1,8,3:2:0:0:
465,140,141922,1,2,3:2:0:0:
411,351,142093,5,2,1:2:0:0:
410,351,142263,2,0,P|367:362|322:368,1,90,2|8,3:2|3:2,0:0:0:0:
465,140,142604,2,0,P|421:128|376:122,1,90,2|0,3:2|1:2,0:0:0:0:
204,304,142945,2,0,P|281:264|283:179,1,180,2|0,3:2|3:2,0:0:0:0:
0,109,143456,5,6,1:1:0:0:
128,132,143627,1,2,3:2:0:0:
0,109,143797,1,10,3:2:0:0:
127,132,143968,2,0,L|216:119,1,90,2|0,3:2|1:2,0:0:0:0:
241,81,144223,1,0,3:2:0:0:
266,43,144309,2,0,L|355:30,1,90,0|8,3:2|3:2,0:0:0:0:
448,64,144650,1,2,3:2:0:0:
440,316,144820,5,6,1:1:0:0:
444,190,144990,1,2,3:2:0:0:
379,251,145160,1,10,3:2:0:0:
505,255,145331,2,0,P|416:237|330:213,1,180,2|0,3:2|3:2,0:0:0:0:
240,252,145843,1,8,3:2:0:0:
240,252,146013,1,0,3:2:0:0:
6,129,146184,6,0,P|95:146|181:170,1,180,6|10,1:1|3:2,0:0:0:0:
384,0,146695,2,0,P|295:18|209:42,1,180,2|2,3:2|3:2,0:0:0:0:
116,3,147206,1,10,3:2:0:0:
255,121,147377,2,0,P|268:163|278:207,1,90,6|0,3:2|1:2,0:0:0:0:
29,42,147718,2,0,P|19:86|6:129,1,90,2|8,3:2|3:2,0:0:0:0:
80,336,148059,2,0,P|90:292|103:249,1,90,6|0,3:2|1:2,0:0:0:0:
278,208,148400,1,2,3:2:0:0:
170,141,148570,1,10,3:2:0:0:
211,316,148741,1,2,3:2:0:0:
170,141,148911,6,0,P|106:127|-17:112,1,180,6|8,1:1|3:2,0:0:0:0:
211,316,149422,1,2,3:2:0:0:
211,316,149508,1,0,0:0:0:0:
211,316,149593,2,0,P|255:310|299:301,2,90,0|0|8,1:2|3:2|3:2,0:0:0:0:
160,384,150104,1,2,3:2:0:0:
379,245,150275,5,6,1:1:0:0:
504,260,150445,1,2,3:2:0:0:
449,190,150615,1,10,3:2:0:0:
434,315,150786,2,0,P|460:228|491:144,1,180,2|0,3:2|3:2,0:0:0:0:
432,64,151297,2,0,P|387:51|346:35,1,90,10|0,3:2|3:2,0:0:0:0:
69,237,151638,5,2,1:2:0:0:
62,150,151809,1,0,3:2:0:0:
117,78,151979,1,8,3:2:0:0:
203,58,152150,1,0,3:2:0:0:
282,98,152320,2,0,L|289:147,2,45,0|0|0,1:2|3:2|3:2,0:0:0:0:
347,35,152661,1,8,3:2:0:0:
203,58,152831,1,2,3:2:0:0:
236,224,153002,5,2,1:2:0:0:
236,224,153172,2,0,P|280:231|324:241,1,90,2|8,3:2|3:2,0:0:0:0:
106,353,153513,2,0,P|150:345|194:335,1,90,2|0,3:2|1:2,0:0:0:0:
14,94,153854,2,0,P|68:166|117:242,1,180,2|0,3:2|3:2,0:0:0:0:
306,369,154366,5,6,1:1:0:0:
306,369,154536,1,2,3:2:0:0:
306,369,154706,1,10,3:2:0:0:
388,302,154877,2,0,P|474:309|520:383,1,180,2|0,3:2|3:2,0:0:0:0:
306,369,155388,2,0,P|288:312|285:268,1,90,8|0,3:2|3:2,0:0:0:0:
512,64,155729,5,6,1:1:0:0:
512,64,155900,2,0,P|505:108|490:150,1,90,2|8,3:2|3:2,0:0:0:0:
374,273,156241,2,0,L|284:281,1,90,2|0,3:2|1:2,0:0:0:0:
242,266,156496,1,0,3:2:0:0:
199,251,156581,2,0,L|109:259,2,90,0|8|0,3:2|3:2|3:2,0:0:0:0:
421,86,157093,6,0,P|360:23|275:37,1,180,6|10,1:1|3:2,0:0:0:0:
403,172,157604,2,0,P|447:165|490:150,1,90,2|0,3:2|1:2,0:0:0:0:
512,61,157945,1,2,3:2:0:0:
512,61,158116,1,10,3:2:0:0:
423,272,158286,6,0,L|334:242,1,90,6|0,3:2|1:2,0:0:0:0:
241,7,158627,2,0,L|260:99,1,90,2|8,3:2|3:2,0:0:0:0:
103,296,158968,2,0,L|173:234,1,90,6|0,3:2|1:2,0:0:0:0:
340,146,159309,5,2,3:2:0:0:
173,140,159479,1,10,3:2:0:0:
251,288,159650,1,2,3:2:0:0:
256,191,159820,6,0,P|273:280|297:366,2,180,6|8|0,1:1|3:2|1:2,0:0:0:0:
329,139,160672,1,0,3:2:0:0:
402,86,160843,1,8,3:2:0:0:
475,34,161013,1,0,3:2:0:0:
256,192,161184,6,0,P|167:174|81:150,1,180,6|8,1:1|3:2,0:0:0:0:
329,139,161695,1,2,3:2:0:0:
143,264,161866,1,2,1:2:0:0:
143,264,162036,2,0,P|130:307|122:351,1,90,2|8,3:2|3:2,0:0:0:0:
398,367,162377,2,0,P|311:342|223:325,1,180,2|2,3:2|3:2,0:0:0:0:
32,334,162888,2,0,P|40:289|53:246,1,90,10|0,3:2|3:2,0:0:0:0:
115,124,163229,1,0,1:2:0:0:
115,124,163314,1,0,3:2:0:0:
115,124,163400,2,0,P|70:133|26:137,2,90,0|8|0,3:2|3:2|3:2,0:0:0:0:
212,67,163911,5,2,1:2:0:0:
212,67,164081,1,2,3:2:0:0:
131,235,164252,1,10,3:2:0:0:
131,235,164422,1,2,3:2:0:0:
299,316,164593,1,2,1:2:0:0:
299,316,164763,1,2,1:2:0:0:
380,148,164934,1,10,1:2:0:0:
380,148,165104,1,2,1:2:0:0:
82,34,166638,5,6,1:2:0:0:
82,34,166809,1,2,0:2:0:0:
82,34,167150,2,0,L|171:46,1,90,2|0,0:2|1:2,0:0:0:0:
16,112,167491,2,0,L|194:136,1,180,2|2,0:2|0:2,0:0:0:0:
430,34,168002,5,2,1:2:0:0:
430,34,168173,1,2,0:2:0:0:
430,34,168514,2,0,L|340:46,1,90,2|0,0:2|1:2,0:0:0:0:
496,112,168855,2,0,L|317:136,1,180,2|2,0:2|0:2,0:0:0:0:
82,350,169366,5,2,1:2:0:0:
82,350,169537,1,2,0:2:0:0:
82,350,169878,2,0,L|171:337,1,90,2|0,0:2|1:2,0:0:0:0:
16,272,170219,2,0,L|194:247,1,180,2|2,0:2|0:2,0:0:0:0:
320,352,170729,5,2,0:2:0:0:
320,352,170900,1,0,0:2:0:0:
383,311,171241,1,0,0:2:0:0:
445,355,171581,1,0,0:2:0:0:
370,12,171922,1,0,0:2:0:0:
228,50,172093,5,6,1:2:0:0:
228,50,172264,2,0,P|270:65|314:72,1,90,2|8,0:2|0:2,0:0:0:0:
512,96,172605,2,0,P|470:80|426:73,1,90,2|0,0:2|1:2,0:0:0:0:
395,105,172860,1,0,3:2:0:0:
365,135,172946,2,0,P|350:177|343:221,1,90,2|8,0:2|0:2,0:0:0:0:
384,311,173286,1,2,0:2:0:0:
284,334,173457,5,2,1:2:0:0:
284,334,173628,2,0,P|242:319|198:312,1,90,2|8,0:2|0:2,0:0:0:0:
0,288,173969,2,0,P|43:303|87:310,1,90,2|0,0:2|1:2,0:0:0:0:
117,279,174224,1,0,3:2:0:0:
147,249,174310,2,0,P|163:206|170:162,1,90,2|8,0:2|0:2,0:0:0:0:
128,73,174650,1,2,0:2:0:0:
352,0,174820,5,2,1:2:0:0:
296,69,174990,1,0,3:2:0:0:
274,64,175075,1,0,3:2:0:0:
252,58,175160,1,8,0:2:0:0:
342,147,175331,1,0,3:2:0:0:
364,142,175416,1,0,3:2:0:0:
386,136,175501,1,0,1:2:0:0:
449,70,175672,2,0,L|461:22,2,45,0|0|8,3:2|3:2|0:2,0:0:0:0:
388,225,176013,1,0,3:2:0:0:
366,231,176098,1,0,3:2:0:0:
344,236,176183,1,0,1:2:0:0:
219,306,176354,1,0,3:2:0:0:
214,284,176439,1,0,3:2:0:0:
208,262,176525,2,0,L|216:203,3,45,8|0|0|0,3:2|3:2|3:2|3:2,0:0:0:0:
183,176,176866,2,0,L|176:131,5,30,0|0|0|0|0|0,1:2|3:2|3:2|3:2|3:2|3:2,0:0:0:0:
204,116,177206,2,0,L|207:93,8,22.5,8|0|0|0|0|0|0|0|4,3:2|3:2|3:2|3:2|3:2|3:2|3:2|0:0|1:1,0:0:0:0:
256,192,185729,5,0,3:2:0:0:
197,122,185900,5,0,3:2:0:0:
175,116,185985,1,0,3:2:0:0:
152,111,186070,1,0,3:2:0:0:
325,133,186241,1,0,3:2:0:0:
331,111,186326,1,0,3:2:0:0:
336,88,186411,1,0,3:2:0:0:
314,261,186581,1,0,3:2:0:0:
336,267,186666,1,0,3:2:0:0:
359,272,186751,1,0,3:2:0:0:
186,250,186922,1,0,3:2:0:0:
180,272,187007,1,0,3:2:0:0:
175,295,187092,1,0,3:2:0:0:
256,192,187263,5,0,3:2:0:0:
256,192,187348,1,0,3:2:0:0:
256,192,187434,2,0,L|305:183,3,45,0|0|0|0,3:2|3:2|3:2|3:2,0:0:0:0:
343,201,187775,2,0,L|392:192,5,30,0|0|0|0|0|0,3:2|0:0|0:0|3:2|0:0|0:0,0:0:0:0:
406,208,188116,2,0,L|430:203,6,22.5,0|0|0|0|0|0|0,3:2|3:2|3:2|3:2|3:2|3:2|3:2,0:0:0:0:
466,190,188456,6,0,P|498:134|471:65,1,135,6|0,1:1|0:0,0:0:0:0:
443,52,188797,2,0,L|353:60,1,90,8|0,0:2|0:0,0:0:0:0:
196,97,189138,1,2,1:2:0:0:
256,0,189309,1,0,0:2:0:0:
293,158,189479,1,8,0:2:0:0:
196,97,189650,1,0,0:2:0:0:
106,174,189820,2,0,L|79:365,2,180,2|8|2,1:2|0:2|1:2,0:0:0:0:
61,107,190672,1,0,0:2:0:0:
181,205,190843,1,8,0:2:0:0:
0,288,191013,1,0,0:2:0:0:
191,384,191184,6,0,P|258:372|324:359,1,135,2|0,1:2|0:0,0:0:0:0:
354,331,191525,2,0,P|364:287|372:242,1,90,8|0,0:2|0:2,0:0:0:0:
254,129,191866,1,2,1:2:0:0:
278,232,192036,1,0,0:2:0:0:
381,206,192206,1,8,0:2:0:0:
356,105,192376,1,0,0:2:0:0:
278,232,192547,6,0,P|189:249|101:265,1,180,2|8,1:2|0:2,0:0:0:0:
101,265,193229,2,0,P|145:272|189:281,1,90,2|0,1:2|0:2,0:0:0:0:
416,384,193570,2,0,P|371:376|327:367,1,90,10|0,0:2|0:2,0:0:0:0:
37,313,193911,6,0,P|23:248|61:195,1,135,6|0,1:1|0:0,0:0:0:0:
92,185,194252,2,0,P|136:177|180:168,1,90,8|0,0:2|0:2,0:0:0:0:
286,91,194593,1,2,1:2:0:0:
195,77,194763,1,0,0:2:0:0:
272,182,194934,1,8,0:2:0:0:
181,168,195104,1,0,0:2:0:0:
349,287,195275,6,0,P|393:279|437:270,1,90,2|0,1:2|0:2,0:0:0:0:
163,287,195616,2,0,P|118:279|74:270,1,90,8|0,0:2|0:2,0:0:0:0:
256,384,195956,1,2,1:2:0:0:
256,256,196127,1,0,0:2:0:0:
256,128,196297,1,8,0:2:0:0:
256,0,196468,1,0,0:2:0:0:
402,152,196638,6,0,L|417:253,1,90,2|0,1:2|0:2,0:0:0:0:
110,232,196979,2,0,L|95:131,1,90,8|0,0:2|0:2,0:0:0:0:
305,33,197320,2,0,L|215:46,1,90,2|0,1:2|0:2,0:0:0:0:
205,352,197661,2,0,L|296:338,1,90,10|0,0:2|0:2,0:0:0:0:
272,188,198002,5,2,1:2:0:0:
249,175,198173,1,0,0:2:0:0:
235,198,198343,1,8,0:2:0:0:
259,212,198514,1,0,0:2:0:0:
460,258,198684,5,2,1:2:0:0:
460,258,198854,1,0,0:2:0:0:
46,128,199025,1,10,0:2:0:0:
46,128,199195,1,0,0:2:0:0:
288,0,199366,6,0,B|324:34|324:34|305:117,1,135,2|0,1:2|0:2,0:0:0:0:
276,141,199706,2,0,L|186:151,1,90,8|0,0:2|0:2,0:0:0:0:
108,118,200047,2,0,L|97:28,1,90,2|0,1:2|0:2,0:0:0:0:
0,256,200388,2,0,L|10:345,1,90,8|0,0:2|0:2,0:0:0:0:
256,192,200729,12,0,201922,0:2:0:0:
0,224,202093,5,2,1:2:0:0:
512,160,202434,1,10,0:2:0:0:
224,0,202775,1,2,1:2:0:0:
288,384,203116,1,10,0:2:0:0:
256,192,203456,5,4,1:1:0:0:
404,174,214366,6,0,P|453:102|426:20,1,180,6|10,1:1|0:2,0:0:0:0:
512,288,214877,2,0,P|424:265|336:251,1,180,2|2,0:2|0:2,0:0:0:0:
224,320,215388,1,10,0:2:0:0:
111,254,215559,2,0,P|99:210|92:166,1,90,2|0,0:2|1:2,0:0:0:0:
224,320,215900,1,2,0:2:0:0:
98,381,216070,1,10,0:2:0:0:
224,320,216241,2,0,P|235:276|242:232,1,90,2|0,0:2|1:2,0:0:0:0:
211,145,216581,1,2,0:2:0:0:
304,375,216752,2,0,P|348:367|392:356,1,90,10|0,0:2|0:2,0:0:0:0:
512,144,217093,6,0,P|444:198|449:285,1,180,2|10,1:2|0:2,0:0:0:0:
190,59,217604,2,0,P|271:87|297:170,1,180,2|2,0:2|0:2,0:0:0:0:
256,256,218116,1,10,0:2:0:0:
362,65,218286,6,0,P|405:54|449:46,1,90,2|0,0:2|1:2,0:0:0:0:
205,151,218627,2,0,P|161:161|117:169,1,90,2|8,0:2|0:2,0:0:0:0:
379,334,218968,2,0,P|370:289|360:246,1,90,2|0,0:2|1:2,0:0:0:0:
309,160,219309,1,2,0:2:0:0:
309,160,219479,1,10,0:2:0:0:
309,160,219650,1,2,0:2:0:0:
177,344,219820,6,0,P|88:328|0:316,1,180,2|10,1:2|0:2,0:0:0:0:
271,384,220331,2,0,P|359:368|448:356,1,180,2|2,0:2|0:2,0:0:0:0:
259,283,220843,1,10,0:2:0:0:
442,174,221013,2,0,P|435:218|428:262,1,90,2|0,0:2|1:2,0:0:0:0:
259,283,221354,2,0,P|265:238|272:194,1,90,2|8,0:2|0:2,0:0:0:0:
157,38,221695,2,0,P|150:82|143:126,1,90,2|0,0:2|1:2,0:0:0:0:
67,184,222036,1,2,0:2:0:0:
240,95,222206,2,0,P|284:101|328:108,1,90,10|2,0:2|0:2,0:0:0:0:
480,320,222547,6,0,P|409:268|408:180,1,180,2|10,1:2|0:2,0:0:0:0:
157,384,223059,2,0,P|243:359|331:341,2,180,2|2|2,0:2|0:2|0:2,0:0:0:0:
15,322,223911,2,0,L|24:277,3,45,2|0|0|0,1:2|3:2|3:2|3:2,0:0:0:0:
0,247,224252,2,0,L|9:202,3,45,8|0|0|0,3:2|3:2|3:2|3:2,0:0:0:0:
6,168,224593,1,0,1:2:0:0:
28,163,224678,1,0,1:2:0:0:
51,158,224764,1,0,1:2:0:0:
73,153,224849,1,0,1:2:0:0:
96,148,224934,1,8,1:2:0:0:
119,143,225019,1,0,1:2:0:0:
142,138,225104,1,0,1:2:0:0:
165,133,225190,1,0,1:2:0:0:
188,129,225275,1,4,1:1:0:0:
343,164,225616,6,0,P|387:169|432:170,1,90,10|0,0:2|0:2,0:0:0:0:
236,281,225956,2,0,P|209:316|186:354,1,90,2|0,1:2|0:2,0:0:0:0:
188,129,226298,2,0,P|172:88|150:49,1,90,10|0,0:2|0:2,0:0:0:0:
368,342,226639,6,0,P|343:299|324:253,1,90,2|0,1:2|0:2,0:0:0:0:
331,20,226979,2,0,P|306:63|276:102,1,90,10|0,0:2|0:2,0:0:0:0:
71,213,227320,2,0,P|120:213|170:219,1,90,2|0,1:2|0:2,0:0:0:0:
256,192,227661,1,10,0:2:0:0:
430,356,228002,6,0,P|387:339|344:328,1,90,2|0,1:2|0:2,0:0:0:0:
468,136,228343,2,0,P|423:136|378:132,1,90,10|0,0:2|0:2,0:0:0:0:
512,257,228684,2,0,L|334:225,1,180,2|8,1:2|0:2,0:0:0:0:
111,367,229366,6,0,P|153:350|196:339,1,90,2|0,1:2|0:2,0:0:0:0:
145,48,229706,2,0,P|100:52|55:51,1,90,10|0,0:2|0:2,0:0:0:0:
0,224,230047,2,0,L|177:192,1,180,2|8,1:2|0:2,0:0:0:0:
214,217,230473,1,8,0:2:0:0:
251,242,230559,1,8,0:2:0:0:
288,267,230644,1,8,0:2:0:0:
325,292,230729,6,0,L|502:260,1,180,6|2,1:1|1:2,0:0:0:0:
256,384,231241,2,0,L|79:352,1,180,2|0,0:2|0:2,0:0:0:0:
0,288,231752,2,0,L|16:199,1,90,2|0,1:2|0:2,0:0:0:0:
222,45,232093,2,0,P|171:115|84:123,1,180,2|2,1:2|1:2,0:0:0:0:
284,111,232604,2,0,P|372:97|462:91,1,180,2|0,0:2|0:2,0:0:0:0:
503,170,233116,2,0,P|509:214|512:259,1,90,2|0,1:2|0:2,0:0:0:0:
253,366,233456,6,0,P|241:278|235:188,1,180,2|0,1:2|1:2,0:0:0:0:
157,286,233968,1,2,0:2:0:0:
79,384,234138,2,0,P|73:294|60:205,1,180,2|0,1:2|1:2,0:0:0:0:
155,80,234820,2,0,P|244:85|333:98,2,180,0|0|0,1:2|1:2|1:2,0:0:0:0:
2,247,235843,1,2,1:2:0:0:
73,290,236014,1,2,0:2:0:0:
0,330,236184,6,0,P|72:376|147:336,1,180,2|0,1:2|1:2,0:0:0:0:
329,206,236695,2,0,P|240:221|153:244,1,180,2|0,0:2|0:2,0:0:0:0:
83,193,237206,2,0,P|71:149|63:105,1,90,2|0,1:2|0:2,0:0:0:0:
337,102,237547,2,0,P|360:188|375:277,1,180,2|2,1:2|1:2,0:0:0:0:
495,324,238059,2,0,P|471:237|456:148,1,180,2|0,0:2|0:2,0:0:0:0:
500,85,238570,1,2,1:2:0:0:
466,15,238741,1,2,0:2:0:0:
390,0,238911,6,0,P|301:15|214:38,1,180,2|2,1:2|1:2,0:0:0:0:
141,267,239422,2,0,P|209:213|200:128,1,180,2|0,0:2|0:2,0:0:0:0:
126,72,239934,2,0,P|81:64|36:60,1,90,2|0,1:2|0:2,0:0:0:0:
58,310,240275,2,0,P|147:317|236:332,2,180,2|0|0,1:2|1:2|1:2,0:0:0:0:
8,73,241297,5,2,1:2:0:0:
8,73,241468,1,2,0:2:0:0:
8,73,241638,2,0,P|92:93|152:31,1,180,2|0,1:2|1:2,0:0:0:0:
144,288,242150,2,0,P|177:204|213:122,1,180,2|0,0:2|0:2,0:0:0:0:
504,73,242661,1,2,1:2:0:0:
504,73,242832,1,2,0:2:0:0:
504,73,243002,2,0,P|420:93|360:31,1,180,2|0,1:2|1:2,0:0:0:0:
368,288,243514,2,0,P|334:204|298:122,1,180,2|0,0:2|0:2,0:0:0:0:
208,96,244025,2,0,P|166:113|124:130,1,90,2|0,1:2|0:2,0:0:0:0:
0,352,244366,6,0,P|82:316|166:283,1,180,2|0,1:2|1:2,0:0:0:0:
307,384,244877,1,2,0:2:0:0:
307,384,245047,2,0,P|270:301|237:218,3,180,2|0|0|0,1:2|1:2|1:2|1:2,0:0:0:0:
480,32,246411,2,0,L|470:121,1,90,2|0,1:2|0:2,0:0:0:0:
512,224,246752,2,0,L|502:313,1,90,2|0,1:2|0:2,0:0:0:0:
272,384,247093,6,0,P|323:312|413:324,1,180,2|0,1:2|1:2,0:0:0:0:
205,290,247604,2,0,P|115:277|27:258,1,180,2|0,0:2|0:2,0:0:0:0:
0,176,248116,2,0,P|6:131|15:87,1,90,2|0,1:2|0:2,0:0:0:0:
272,112,248456,2,0,P|184:130|94:143,2,180,2|0|2,1:2|1:2|1:2,0:0:0:0:
512,192,249479,1,2,1:2:0:0:
336,384,249820,6,0,P|348:294|367:206,3,180,2|0|0|0,1:2|1:2|1:2|1:2,0:0:0:0:
441,154,251013,1,2,0:2:0:0:
417,66,251184,1,2,1:2:0:0:
396,57,251354,1,0,0:2:0:0:
375,49,251525,1,2,1:2:0:0:
354,41,251695,1,0,0:2:0:0:
332,32,251866,1,2,1:2:0:0:
248,65,252036,2,0,P|203:70|158:73,1,90,2|0,0:2|1:2,0:0:0:0:
0,31,252377,6,0,P|67:86|60:172,1,180,2|0,0:2|0:2,0:0:0:0:
4,244,252888,1,0,1:2:0:0:
4,244,253059,1,0,0:2:0:0:
45,334,253229,1,0,1:2:0:0:
45,334,253314,1,0,0:2:0:0:
45,334,253400,1,0,0:2:0:0:
137,322,253570,1,0,1:2:0:0:
137,322,253911,1,0,0:2:0:0:
37,58,254934,5,0,0:2:0:0:
118,20,255104,1,0,0:2:0:0:
194,68,255275,2,0,P|209:156|219:246,1,180,6|8,1:1|3:2,0:0:0:0:
156,329,255786,1,2,3:2:0:0:
156,329,255871,1,0,3:0:0:0:
156,329,255956,2,0,P|111:336|66:341,2,90,0|0|8,1:2|3:2|3:2,0:0:0:0:
249,350,256468,1,2,3:2:0:0:
33,189,256638,5,2,1:2:0:0:
121,151,256809,1,2,3:2:0:0:
45,94,256979,1,10,3:2:0:0:
109,246,257150,2,0,L|294:265,1,180,2|0,3:2|3:2,0:0:0:0:
441,326,257661,2,0,L|352:336,1,90,10|0,3:2|3:2,0:0:0:0:
219,125,258002,5,2,1:2:0:0:
249,35,258172,1,0,3:2:0:0:
343,35,258343,1,8,3:2:0:0:
372,125,258513,1,0,3:2:0:0:
303,187,258684,1,0,1:2:0:0:
303,187,258769,1,0,3:2:0:0:
303,187,258854,2,0,P|292:241|286:283,1,90,0|8,3:2|3:2,0:0:0:0:
372,125,259195,1,2,3:2:0:0:
249,35,259366,5,2,1:2:0:0:
249,35,259536,2,0,P|204:27|159:23,1,90,2|8,3:2|3:2,0:0:0:0:
73,177,259877,2,0,P|118:168|163:165,1,90,2|0,3:2|1:2,0:0:0:0:
385,353,260218,2,0,P|302:331|281:248,1,180,2|0,3:2|3:2,0:0:0:0:
505,104,260729,5,6,1:1:0:0:
424,47,260900,1,2,3:2:0:0:
512,5,261070,1,10,3:2:0:0:
416,145,261241,2,0,P|371:153|327:158,1,90,2|0,3:2|1:2,0:0:0:0:
285,142,261496,1,0,3:2:0:0:
243,126,261581,2,0,P|198:130|154:139,1,90,0|8,3:2|3:2,0:0:0:0:
77,90,261922,1,2,3:2:0:0:
3,362,262093,5,6,1:1:0:0:
40,226,262263,1,2,3:2:0:0:
132,331,262434,1,10,3:2:0:0:
56,304,262604,2,0,P|145:317|235:321,1,180,2|0,3:2|3:2,0:0:0:0:
318,369,263116,1,8,3:2:0:0:
318,369,263286,1,0,3:2:0:0:
480,192,263456,6,0,P|398:220|379:304,1,180,6|10,1:1|3:2,0:0:0:0:
512,64,263968,2,0,P|422:76|333:82,1,180,2|2,3:2|3:2,0:0:0:0:
192,32,264479,1,10,3:2:0:0:
215,258,264650,2,0,P|224:213|231:169,1,90,6|0,3:2|1:2,0:0:0:0:
96,384,264991,2,0,P|86:339|79:295,1,90,2|8,3:2|3:2,0:0:0:0:
351,221,265331,2,0,P|360:265|367:309,1,90,6|0,3:2|1:2,0:0:0:0:
113,198,265672,1,2,3:2:0:0:
257,345,265843,1,10,3:2:0:0:
313,146,266013,1,2,3:2:0:0:
79,295,266184,6,0,P|24:240|35:133,1,180,6|8,1:1|3:2,0:0:0:0:
160,32,266695,1,2,3:2:0:0:
160,32,266780,1,0,3:0:0:0:
160,32,266866,2,0,P|204:25|249:22,2,90,0|0|8,1:2|3:2|3:2,0:0:0:0:
95,88,267377,1,2,3:2:0:0:
353,217,267547,5,6,1:1:0:0:
267,174,267718,1,2,3:2:0:0:
273,270,267888,1,10,3:2:0:0:
347,121,268059,2,0,P|435:105|525:95,1,180,2|0,3:2|3:2,0:0:0:0:
362,282,268570,2,0,P|317:277|273:270,1,90,10|0,3:2|3:2,0:0:0:0:
153,118,268911,5,2,1:2:0:0:
123,28,269081,1,0,3:2:0:0:
29,28,269252,1,8,3:2:0:0:
0,118,269422,1,0,3:2:0:0:
75,186,269593,1,0,1:2:0:0:
75,186,269678,1,0,3:2:0:0:
75,186,269763,2,0,P|86:240|92:282,1,90,0|8,3:2|3:2,0:0:0:0:
0,118,270104,1,2,3:2:0:0:
172,226,270275,5,2,1:2:0:0:
172,226,270445,2,0,P|214:240|258:250,1,90,2|8,3:2|3:2,0:0:0:0:
0,118,270786,2,0,P|42:104|86:94,1,90,2|0,3:2|1:2,0:0:0:0:
342,38,271127,2,0,P|255:41|207:113,1,180,2|0,3:2|3:2,0:0:0:0:
256,352,271638,5,6,1:1:0:0:
256,352,271809,1,2,3:2:0:0:
256,352,271979,1,10,3:2:0:0:
178,274,272150,2,0,P|89:260|0:257,1,180,2|0,3:2|3:2,0:0:0:0:
256,352,272661,2,0,P|300:350|345:343,1,90,8|0,3:2|3:2,0:0:0:0:
512,96,273002,5,6,1:1:0:0:
512,96,273172,2,0,P|467:97|422:104,1,90,2|8,3:2|3:2,0:0:0:0:
297,269,273513,2,0,P|295:224|288:179,1,90,2|0,3:2|1:2,0:0:0:0:
252,152,273769,1,0,3:2:0:0:
215,125,273854,2,0,P|170:131|125:133,2,90,0|8|0,3:2|3:2|3:2,0:0:0:0:
512,208,274366,6,0,P|426:214|388:296,1,180,6|10,1:1|3:2,0:0:0:0:
493,379,274877,2,0,P|487:334|476:290,1,90,2|0,3:2|1:2,0:0:0:0:
416,192,275218,1,2,3:2:0:0:
416,192,275388,1,10,3:2:0:0:
174,243,275559,6,0,L|89:272,1,90,6|0,3:2|1:2,0:0:0:0:
252,95,275900,2,0,L|271:7,1,90,2|8,3:2|3:2,0:0:0:0:
341,236,276241,2,0,L|409:296,1,90,6|0,3:2|1:2,0:0:0:0:
173,140,276581,5,2,3:2:0:0:
340,146,276751,1,10,3:2:0:0:
251,288,276922,1,2,3:2:0:0:
256,192,277093,6,0,P|344:177|434:169,2,180,6|8|0,1:1|3:2|1:2,0:0:0:0:
173,140,277945,1,0,3:2:0:0:
90,88,278116,1,8,3:2:0:0:
7,36,278286,1,0,3:2:0:0:
256,193,278456,6,0,L|290:374,1,180,6|8,1:1|3:2,0:0:0:0:
258,94,278968,1,2,3:2:0:0:
170,241,279138,1,2,1:2:0:0:
170,241,279309,2,0,L|79:257,1,90,2|8,3:2|3:2,0:0:0:0:
368,288,279650,2,0,L|458:271,1,90,2|0,3:2|1:2,0:0:0:0:
512,128,279991,5,2,3:2:0:0:
512,128,280161,2,0,L|423:144,1,90,10|0,3:2|3:2,0:0:0:0:
256,96,280502,1,0,1:2:0:0:
256,96,280587,1,0,3:2:0:0:
256,96,280672,2,0,L|239:7,2,90,0|8|0,3:2|3:2|3:2,0:0:0:0:
88,144,281184,6,0,L|0:128,1,90,2|0,1:2|3:2,0:0:0:0:
423,239,281525,2,0,L|512:256,1,90,10|0,3:2|3:2,0:0:0:0:
256,384,281866,1,2,1:2:0:0:
256,384,281951,1,0,3:2:0:0:
256,384,282036,1,0,3:2:0:0:
376,336,282206,1,10,0:2:0:0:
160,288,282377,1,2,3:2:0:0:
96,64,283229,5,6,1:1:0:0:
160,288,283399,1,2,3:2:0:0:
96,64,283569,1,10,3:2:0:0:
160,288,283740,2,0,L|249:299,1,90,2|0,3:2|1:2,0:0:0:0:
96,64,284081,2,0,L|6:52,1,90,0|8,3:2|3:2,0:0:0:0:
128,176,284422,1,2,3:2:0:0:
283,38,284592,5,2,1:2:0:0:
387,7,284763,1,2,3:2:0:0:
482,57,284933,1,10,3:2:0:0:
512,160,285104,2,0,L|476:336,1,180,2|0,3:2|3:2,0:0:0:0:
352,384,285615,2,0,L|369:295,1,90,10|0,3:2|3:2,0:0:0:0:
261,187,285956,5,2,1:2:0:0:
171,227,286126,1,0,3:2:0:0:
105,153,286297,1,8,3:2:0:0:
155,68,286467,1,0,3:2:0:0:
252,90,286638,2,0,L|260:135,2,45,0|0|0,1:2|3:2|3:2,0:0:0:0:
342,50,286979,1,8,3:2:0:0:
439,72,287149,1,0,3:2:0:0:
155,68,287319,6,0,P|111:58|68:42,1,90,2|0,1:2|3:2,0:0:0:0:
236,309,287660,1,10,3:2:0:0:
254,234,287831,2,0,P|296:218|340:208,1,90,2|0,3:2|1:2,0:0:0:0:
63,259,288172,1,2,3:2:0:0:
124,187,288342,1,10,3:2:0:0:
2,331,288513,1,2,3:2:0:0:
185,115,288683,6,0,L|364:96,1,180,2|8,1:2|3:2,0:0:0:0:
448,32,289194,1,0,3:2:0:0:
480,192,289365,1,0,1:2:0:0:
480,192,289535,1,0,3:2:0:0:
272,16,289706,1,8,3:2:0:0:
272,16,289876,1,0,3:2:0:0:
123,186,290047,6,0,P|50:141|50:54,1,180,2|8,1:2|3:2,0:0:0:0:
128,0,290558,1,0,3:2:0:0:
0,160,290729,1,0,1:2:0:0:
0,160,290899,1,0,3:2:0:0:
224,224,291069,1,8,3:2:0:0:
224,224,291240,1,0,3:2:0:0:
64,383,291410,6,0,P|82:296|108:209,1,180,2|8,1:2|3:2,0:0:0:0:
404,175,291922,1,0,3:2:0:0:
239,44,292093,1,2,1:2:0:0:
239,44,292263,1,0,3:2:0:0:
273,340,292433,1,8,3:2:0:0:
273,340,292603,1,0,3:2:0:0:
343,110,292774,6,0,P|382:93|429:86,1,90,2|0,1:2|3:2,0:0:0:0:
169,274,293115,2,0,P|129:290|82:297,1,90,8|0,3:2|3:2,0:0:0:0:
34,165,293456,5,2,1:2:0:0:
188,184,293626,1,2,3:3:0:0:
340,202,293796,1,8,3:2:0:0:
494,222,293967,1,2,3:3:0:0:
389,97,294138,5,6,1:1:0:0:
291,307,294308,1,2,3:2:0:0:
389,97,294479,1,10,3:2:0:0:
291,307,294649,2,0,L|201:316,1,90,2|0,3:2|1:2,0:0:0:0:
389,97,294990,2,0,L|478:87,1,90,0|8,3:2|3:2,0:0:0:0:
340,202,295331,1,2,3:2:0:0:
96,96,295501,5,2,1:2:0:0:
190,67,295672,1,2,3:2:0:0:
119,0,295842,1,10,3:2:0:0:
166,162,296013,2,0,P|82:184|11:135,1,180,2|0,3:2|3:2,0:0:0:0:
257,133,296524,2,0,P|300:145|341:162,1,90,10|0,3:2|3:2,0:0:0:0:
480,232,296865,5,2,1:2:0:0:
512,325,297035,1,0,3:2:0:0:
432,384,297206,1,8,3:2:0:0:
352,326,297376,1,0,3:2:0:0:
382,232,297547,2,0,L|427:227,2,45,0|0|0,1:2|3:2|3:2,0:0:0:0:
350,139,297888,1,8,3:2:0:0:
380,44,298058,1,0,3:2:0:0:
351,326,298229,6,0,L|245:347,1,90,2|0,1:2|3:2,0:0:0:0:
432,384,298569,1,10,3:2:0:0:
280,218,298740,2,0,L|191:200,1,90,2|0,3:2|1:2,0:0:0:0:
35,275,299081,1,2,3:2:0:0:
17,182,299251,1,10,3:2:0:0:
51,366,299422,1,2,3:2:0:0:
0,89,299592,6,0,L|176:124,1,180,2|8,1:2|3:2,0:0:0:0:
272,80,300104,1,0,3:2:0:0:
107,213,300274,1,0,1:2:0:0:
107,213,300444,1,0,3:2:0:0:
304,289,300615,1,8,3:2:0:0:
304,289,300785,1,0,3:2:0:0:
178,384,300956,6,0,L|213:208,1,180,6|8,1:2|3:2,0:0:0:0:
288,128,301467,1,0,3:2:0:0:
384,320,301638,1,0,1:2:0:0:
384,320,301808,1,0,3:2:0:0:
480,64,301979,1,8,3:2:0:0:
480,64,302149,1,0,3:2:0:0:
512,320,302319,6,0,L|336:285,1,180,6|8,1:2|3:2,0:0:0:0:
240,320,302831,1,0,3:2:0:0:
438,206,303001,1,2,1:2:0:0:
438,206,303172,1,0,3:2:0:0:
126,122,303342,1,8,3:2:0:0:
126,122,303513,1,0,3:2:0:0:
324,8,303683,6,0,L|413:0,1,90,2|0,1:2|3:2,0:0:0:0:
240,320,304024,2,0,L|150:327,1,90,8|0,3:2|3:2,0:0:0:0:
64,128,304365,5,2,1:2:0:0:
64,128,304535,1,2,3:3:0:0:
448,256,304706,1,8,3:2:0:0:
448,256,304876,1,2,3:3:0:0:
320,0,305047,5,6,1:1:0:0:
314,17,305132,1,0,3:2:0:0:
308,34,305217,1,0,3:2:0:0:
302,51,305302,1,0,3:2:0:0:
296,68,305388,2,0,L|251:76,11,45,8|0|0|0|0|0|0|0|8|0|0|0,3:2|3:2|3:2|3:2|1:2|3:2|3:2|3:2|3:2|3:2|3:2|3:2,0:0:0:0:
217,141,306410,5,6,1:1:0:0:
223,158,306495,1,0,3:2:0:0:
229,175,306580,1,0,3:2:0:0:
235,192,306665,1,0,3:2:0:0:
241,209,306751,2,0,L|285:217,11,45,8|0|0|0|0|0|0|0|8|0|0|0,3:2|3:2|3:2|3:2|1:2|3:2|3:2|3:2|3:2|3:2|3:2|3:2,0:0:0:0:
322,285,307774,5,6,1:1:0:0:
316,302,307859,1,0,3:2:0:0:
310,319,307944,1,0,3:2:0:0:
304,336,308029,1,0,3:2:0:0:
298,353,308115,2,0,L|253:361,3,45,8|0|0|0,3:2|3:2|3:2|3:2,0:0:0:0:
195,316,308456,1,0,1:2:0:0:
177,322,308541,1,0,3:2:0:0:
160,328,308626,1,0,3:2:0:0:
143,334,308711,1,0,3:2:0:0:
126,340,308797,2,0,L|117:384,3,45,8|0|0|0,3:2|3:2|3:2|3:2,3:0:0:0:
62,299,309138,5,2,1:2:0:0:
56,272,309223,1,0,3:2:0:0:
50,245,309308,1,0,3:2:0:0:
44,218,309393,1,0,3:2:0:0:
38,191,309479,1,8,3:2:0:0:
33,164,309564,1,0,3:2:0:0:
28,137,309649,1,0,3:2:0:0:
23,110,309734,1,0,3:2:0:0:
18,83,309819,2,0,L|24:52,5,30,0|0|0|0|0|0,1:2|3:2|3:2|3:2|0:0|0:0,0:0:0:0:
57,23,310160,2,0,L|88:17,8,22.5,8|0|0|0|0|0|0|0|4,3:2|3:2|3:2|3:2|3:2|3:2|3:2|0:0|1:1,0:0:0:0:
