osu file format v14

[General]
AudioFilename: audio.mp3
AudioLeadIn: 0
PreviewTime: 137576
Countdown: 0
SampleSet: Soft
StackLeniency: 0.7
Mode: 0
LetterboxInBreaks: 0
WidescreenStoryboard: 1

[Editor]
Bookmarks: 26184,38456,54820,71184,86184,97093,113456,138002,166638,177547,188456,203456,214366,230729,255275,283229,310501,332319
DistanceSpacing: 0.2
BeatDivisor: 4
GridSize: 32
TimelineZoom: 2.5

[Metadata]
Title:Lunatic Tears... (Tatsh Remix)
TitleUnicode:Lunatic Tears... (Tatsh Remix)
Artist:Tatsh
ArtistUnicode:Tatsh
Creator:Mordred
Version:Hard
Source:11eyes -罪と罰と贖いの少女-
Tags:niii_san tsumi to batsu to aganai no shoujo visual novel vn instrumental electronic original soundtrack ost arrange
BeatmapID:3001357
BeatmapSetID:1460718

[Difficulty]
HPDrainRate:5
CircleSize:4
OverallDifficulty:6
ApproachRate:7
SliderMultiplier:1.4
SliderTickRate:1

[Events]
//Background and Video events
0,0,"fd_shi14_22.jpg",0,0
//Break Periods
2,86384,95729
2,177747,184829
2,203656,213002
//Storyboard Layer 0 (Background)
//Storyboard Layer 1 (Fail)
//Storyboard Layer 2 (Pass)
//Storyboard Layer 3 (Foreground)
//Storyboard Layer 4 (Overlay)
//Storyboard Sound Samples

[TimingPoints]
4366,340.909090909091,4,2,1,70,1,0
283229,340.909090909091,4,2,1,80,1,0

[Colours]
Combo1 : 250,180,240
Combo2 : 110,190,225
Combo3 : 255,230,130
Combo4 : 150,230,140

[HitObjects]
56,357,4366,6,0,P|25:295|46:230,1,140,4|8,1:2|0:2,0:0:0:0:
120,193,4877,1,0,0:2:0:0:
194,232,5047,2,0,P|271:243|336:209,1,140,0|8,1:2|0:2,0:0:0:0:
373,148,5559,1,0,0:2:0:0:
324,79,5729,2,0,L|176:58,2,140,0|8|0,1:2|0:2|1:2,0:0:0:0:
399,41,6581,1,0,0:2:0:0:
469,87,6752,2,0,L|484:155,1,70,8|0,0:2|0:2,0:0:0:0:
504,237,7093,6,0,L|482:377,2,140,0|8|0,1:2|0:2|1:2,0:0:0:0:
484,155,7945,1,0,0:2:0:0:
420,210,8116,2,0,L|345:223,1,70,8|0,0:2|0:2,0:0:0:0:
308,294,8456,2,0,L|169:277,1,140,0|8,1:2|0:2,0:0:0:0:
98,324,8968,1,0,0:2:0:0:
33,270,9138,2,0,P|9:204|18:136,1,140,0|8,1:2|0:2,0:0:0:0:
69,68,9650,1,0,0:2:0:0:
146,35,9820,6,0,L|284:52,1,140,2|8,1:2|0:2,0:0:0:0:
448,11,10502,2,0,L|430:149,1,140,2|8,1:2|0:2,0:0:0:0:
472,313,11184,2,0,L|333:295,1,140,2|8,1:2|0:2,0:0:0:0:
170,337,11866,2,0,L|187:198,1,140,2|8,1:2|0:2,0:0:0:0:
284,52,12547,6,0,L|146:35,1,140,2|8,1:2|0:2,0:0:0:0:
11,136,13229,2,0,L|149:118,1,140,2|8,1:2|0:2,0:0:0:0:
284,219,13911,2,0,L|145:201,1,140,2|8,1:2|0:2,0:0:0:0:
18,313,14593,1,2,1:2:0:0:
84,363,14763,1,2,1:2:0:0:
167,371,14934,1,10,0:2:0:0:
247,349,15104,1,2,1:2:0:0:
305,287,15275,5,6,1:2:0:0:
305,287,15445,2,0,L|322:148,1,140,2|0,0:2|0:2,0:0:0:0:
242,161,15956,1,2,1:2:0:0:
242,161,16127,2,0,L|224:22,1,140,2|0,0:2|0:2,0:0:0:0:
309,5,16638,1,2,1:2:0:0:
309,5,16809,2,0,L|447:22,1,140,2|0,0:2|0:2,0:0:0:0:
503,85,17320,1,2,1:2:0:0:
357,168,17661,1,10,0:2:0:0:
502,253,18002,5,2,1:2:0:0:
501,252,18172,2,0,P|486:319|427:353,1,140,2|0,0:2|0:2,0:0:0:0:
347,366,18684,1,2,1:2:0:0:
347,366,18854,2,0,L|207:351,1,140,2|0,0:2|0:2,0:0:0:0:
152,294,19366,1,2,1:2:0:0:
152,294,19536,2,0,P|167:227|226:193,1,140,2|0,0:2|0:2,0:0:0:0:
300,232,20047,1,2,1:2:0:0:
452,161,20388,1,10,0:2:0:0:
381,9,20729,5,2,1:2:0:0:
381,9,20900,2,0,L|241:23,1,140,2|0,0:2|0:2,0:0:0:0:
197,96,21411,1,2,1:2:0:0:
197,96,21581,2,0,L|57:81,1,140,2|0,0:2|0:2,0:0:0:0:
6,149,22093,1,2,1:2:0:0:
6,149,22263,2,0,L|20:288,1,140,2|0,0:2|0:2,0:0:0:0:
7,371,22775,1,2,1:2:0:0:
167,320,23116,1,10,0:2:0:0:
327,366,23456,5,2,1:2:0:0:
326,365,23627,2,0,P|389:339|411:271,1,140,2|0,0:2|0:2,0:0:0:0:
369,202,24138,1,2,1:2:0:0:
369,202,24309,2,0,L|225:191,1,140,2|0,0:2|0:2,0:0:0:0:
154,153,24820,1,2,1:2:0:0:
154,153,24991,2,0,L|145:83,1,70,0|10,0:2|0:2,0:0:0:0:
210,29,25331,1,0,0:2:0:0:
210,29,25502,2,0,L|279:20,1,70,6|2,1:2|1:2,0:0:0:0:
343,75,25843,1,14,0:2:0:0:
419,40,26013,1,2,1:2:0:0:
494,76,26184,5,6,1:1:0:0:
494,76,26354,2,0,L|507:144,1,70,2|8,0:2|0:2,0:0:0:0:
428,175,26695,2,0,L|414:243,1,70,2|0,0:2|1:2,0:0:0:0:
464,311,27036,2,0,L|532:297,2,70,2|8|2,0:2|0:2|0:2,0:0:0:0:
410,376,27547,5,2,1:2:0:0:
410,376,27718,2,0,L|341:362,1,70,2|8,0:2|0:2,0:0:0:0:
284,300,28059,2,0,L|215:286,1,70,2|0,0:2|1:2,0:0:0:0:
136,315,28400,2,0,L|149:383,2,70,2|8|2,0:2|0:2|0:2,0:0:0:0:
63,282,28911,5,2,1:2:0:0:
63,282,29081,2,0,L|49:213,1,70,2|8,0:2|0:2,0:0:0:0:
1,145,29422,2,0,L|14:76,1,70,2|0,0:2|1:2,0:0:0:0:
69,12,29763,2,0,L|0:-1,2,70,2|8|2,0:2|0:2|0:2,0:0:0:0:
139,58,30275,5,2,1:2:0:0:
139,58,30445,2,0,L|208:45,1,70,2|8,0:2|0:2,0:0:0:0:
277,92,30786,2,0,L|290:161,1,70,2|0,0:2|1:2,0:0:0:0:
235,224,31127,2,0,L|166:237,2,70,2|8|2,0:2|0:2|0:2,0:0:0:0:
310,262,31638,5,6,1:2:0:0:
336,341,31809,2,0,P|369:350|404:351,1,70,2|8,0:2|0:2,0:0:0:0:
472,302,32150,2,0,L|486:233,1,70,2|0,0:2|1:2,0:0:0:0:
421,179,32491,2,0,L|435:110,1,70,2|8,0:2|0:2,0:0:0:0:
492,49,32831,1,2,0:2:0:0:
422,10,33002,5,2,1:2:0:0:
422,10,33172,2,0,P|387:11|353:20,1,70,2|8,0:2|0:2,0:0:0:0:
303,88,33513,2,0,P|268:86|234:77,1,70,2|0,0:2|1:2,0:0:0:0:
170,21,33854,2,0,P|135:22|101:31,1,70,2|8,0:2|0:2,0:0:0:0:
45,95,34195,1,2,0:2:0:0:
94,169,34366,5,0,1:2:0:0:
94,169,34536,2,0,L|140:176,2,35,0|0|8,3:2|3:2|0:2,0:0:0:0:
36,230,34877,2,0,L|-10:237,2,35,0|0|0,3:2|3:2|1:2,0:0:0:0:
82,311,35218,1,0,3:2:0:0:
82,311,35303,1,0,3:2:0:0:
82,311,35388,1,8,0:2:0:0:
165,322,35559,2,0,L|172:368,2,35,0|0|0,3:2|3:2|1:2,0:0:0:0:
222,261,35900,2,0,L|270:272,3,35,0|0|8|0,3:2|3:2|3:2|3:2,0:0:0:0:
286,298,36241,2,0,L|334:287,3,35,0|0|0|0,3:2|3:2|1:2|3:2,0:0:0:0:
352,263,36581,2,0,L|400:274,3,35,0|0|8|0,3:2|3:2|3:2|3:2,0:0:0:0:
421,309,36922,1,0,3:2:0:0:
421,309,37008,1,0,3:0:0:0:
5,97,38456,5,0,0:0:0:0:
46,259,38797,1,2,1:2:0:0:
127,280,38968,1,2,0:2:0:0:
208,300,39138,2,0,L|277:290,1,70,2|0,1:2|0:2,0:0:0:0:
332,355,39479,2,0,L|374:299,1,70,2|0,1:2|0:2,0:0:0:0:
458,306,39820,2,0,L|448:236,1,70,2|0,1:2|0:2,0:0:0:0:
512,182,40161,2,0,L|456:139,1,70,2|0,1:2|0:2,0:0:0:0:
433,58,40502,1,2,1:2:0:0:
354,27,40672,1,2,0:2:0:0:
269,26,40843,1,2,1:2:0:0:
196,67,41013,1,2,0:2:0:0:
169,146,41184,6,0,P|172:181|180:215,1,70,2|0,1:2|0:2,0:0:0:0:
247,266,41525,2,0,P|281:262|315:254,1,70,0|0,1:2|0:2,0:0:0:0:
363,184,41866,1,2,1:2:0:0:
446,188,42036,1,0,0:2:0:0:
497,254,42206,1,0,1:2:0:0:
491,338,42377,1,0,0:2:0:0:
415,373,42547,2,0,P|380:381|346:384,1,70,2|0,1:2|0:2,0:0:0:0:
277,335,42888,2,0,P|268:300|265:266,1,70,2|0,1:2|0:2,0:0:0:0:
312,196,43229,1,2,1:2:0:0:
322,112,43400,1,2,0:2:0:0:
276,41,43570,1,2,1:2:0:0:
114,86,43911,5,2,1:2:0:0:
322,112,44252,1,2,1:2:0:0:
390,64,44422,1,2,0:2:0:0:
466,100,44593,2,0,L|484:167,1,70,2|0,1:2|0:2,0:0:0:0:
498,250,44934,2,0,L|479:317,1,70,2|0,1:2|0:2,0:0:0:0:
411,366,45275,2,0,L|343:384,1,70,2|0,1:2|0:2,0:0:0:0:
259,380,45616,2,0,L|190:367,1,70,2|0,1:2|0:2,0:0:0:0:
138,301,45956,1,2,1:2:0:0:
162,220,46127,1,2,0:2:0:0:
230,171,46297,1,2,1:2:0:0:
314,169,46468,1,2,0:2:0:0:
394,192,46638,6,0,P|450:192|479:187,1,70,2|0,1:2|0:2,0:0:0:0:
512,121,46979,2,0,P|512:65|507:36,1,70,0|0,1:2|0:2,0:0:0:0:
441,2,47320,1,2,1:2:0:0:
356,1,47491,1,0,0:2:0:0:
285,46,47661,1,0,1:2:0:0:
268,128,47831,1,0,0:2:0:0:
303,204,48002,2,0,P|314:257|315:294,1,70,2|0,1:2|0:2,0:0:0:0:
279,349,48343,2,0,P|225:360|188:361,1,70,2|0,1:2|0:2,0:0:0:0:
126,352,48684,1,2,1:2:0:0:
57,304,48854,1,2,0:2:0:0:
13,231,49025,1,2,1:2:0:0:
48,66,49366,5,2,1:2:0:0:
164,187,49706,1,2,1:2:0:0:
188,267,49877,1,2,0:2:0:0:
213,346,50047,2,0,L|282:354,1,70,2|0,1:2|0:2,0:0:0:0:
362,382,50388,2,0,L|370:312,1,70,2|0,1:2|0:2,0:0:0:0:
306,257,50729,2,0,L|297:187,1,70,2|0,1:2|0:2,0:0:0:0:
233,132,51070,2,0,L|241:62,1,70,2|0,1:2|0:2,0:0:0:0:
308,10,51411,1,2,1:2:0:0:
391,2,51581,1,2,0:2:0:0:
467,37,51752,1,2,1:2:0:0:
511,108,51922,1,2,0:2:0:0:
505,192,52093,6,0,P|496:225|484:258,1,70,2|0,1:2|0:2,0:0:0:0:
412,303,52434,2,0,P|378:294|345:282,1,70,0|0,1:2|0:2,0:0:0:0:
293,215,52775,1,2,1:2:0:0:
284,131,52945,1,0,0:2:0:0:
236,61,53116,1,0,1:2:0:0:
158,28,53286,1,0,0:2:0:0:
77,50,53456,2,0,P|45:64|16:86,1,70,2|0,1:2|0:2,0:0:0:0:
1,168,53797,2,0,P|15:199|37:228,1,70,2|0,1:2|0:2,0:0:0:0:
118,249,54138,1,2,1:2:0:0:
201,241,54309,1,2,0:2:0:0:
284,234,54479,1,2,1:2:0:0:
438,300,54820,5,2,1:2:0:0:
507,146,55161,1,2,1:2:0:0:
493,63,55331,1,2,0:2:0:0:
424,14,55502,2,0,L|355:1,1,70,2|0,1:2|0:2,0:0:0:0:
308,71,55843,2,0,L|239:83,1,70,2|0,1:2|0:2,0:0:0:0:
181,21,56184,2,0,L|112:8,1,70,2|0,1:2|0:2,0:0:0:0:
38,49,56525,2,0,L|25:117,1,70,2|0,1:2|0:2,0:0:0:0:
47,199,56866,1,2,1:2:0:0:
118,242,57036,1,2,0:2:0:0:
201,250,57206,1,2,1:2:0:0:
278,216,57377,1,2,0:2:0:0:
333,153,57547,6,0,P|365:140|400:135,1,70,2|0,1:2|0:2,0:0:0:0:
470,182,57888,2,0,P|482:214|487:249,1,70,0|0,1:2|0:2,0:0:0:0:
473,332,58229,1,2,1:2:0:0:
402,377,58400,1,0,0:2:0:0:
318,377,58570,1,0,1:2:0:0:
247,330,58741,1,0,0:2:0:0:
230,247,58911,2,0,P|230:212|237:177,1,70,2|0,1:2|0:2,0:0:0:0:
303,125,59252,2,0,P|302:90|295:55,1,70,2|0,1:2|0:2,0:0:0:0:
218,22,59593,1,2,1:2:0:0:
134,15,59763,1,2,0:2:0:0:
51,31,59934,1,2,1:2:0:0:
143,171,60275,5,2,1:2:0:0:
40,303,60616,1,2,1:2:0:0:
99,361,60786,1,2,0:2:0:0:
182,366,60956,2,0,L|258:353,1,70,2|0,1:2|0:2,0:0:0:0:
293,281,61297,2,0,L|369:294,1,70,2|0,1:2|0:2,0:0:0:0:
415,357,61638,2,0,L|491:344,1,70,2|0,1:2|0:2,0:0:0:0:
511,265,61979,2,0,L|499:196,1,70,2|0,1:2|0:2,0:0:0:0:
508,112,62320,1,2,1:2:0:0:
466,38,62491,1,2,0:2:0:0:
385,15,62661,1,2,1:2:0:0:
302,30,62831,1,2,0:2:0:0:
245,91,63002,6,0,P|241:126|241:161,1,70,2|0,1:2|0:2,0:0:0:0:
197,233,63343,2,0,P|162:236|127:236,1,70,0|0,1:2|0:2,0:0:0:0:
47,208,63684,1,2,1:2:0:0:
7,133,63854,1,0,0:2:0:0:
19,49,64025,1,0,1:2:0:0:
90,5,64195,1,0,0:2:0:0:
173,11,64366,2,0,P|206:19|239:32,1,70,2|0,1:2|0:2,0:0:0:0:
288,100,64706,2,0,P|321:91|354:78,1,70,2|0,1:2|0:2,0:0:0:0:
438,71,65047,1,2,1:2:0:0:
496,132,65218,1,2,0:2:0:0:
491,215,65388,1,2,1:2:0:0:
417,366,65729,5,2,1:2:0:0:
251,339,66070,1,2,1:2:0:0:
236,256,66241,1,2,0:2:0:0:
221,173,66411,2,0,L|237:104,1,70,2|0,1:2|0:2,0:0:0:0:
289,38,66752,2,0,L|220:21,1,70,2|0,1:2|0:2,0:0:0:0:
139,1,67093,2,0,L|70:17,1,70,2|0,1:2|0:2,0:0:0:0:
15,80,67434,2,0,L|-1:148,1,70,2|0,1:2|0:2,0:0:0:0:
12,231,67775,1,2,1:2:0:0:
79,281,67945,1,2,0:2:0:0:
161,296,68116,1,2,1:2:0:0:
238,263,68286,1,2,0:2:0:0:
301,208,68456,6,0,P|333:196|372:194,1,70,2|0,1:2|0:2,0:0:0:0:
433,247,68797,2,0,P|444:279|446:318,1,70,0|0,1:2|0:2,0:0:0:0:
387,374,69138,1,2,1:2:0:0:
303,382,69309,1,0,0:2:0:0:
222,358,69479,1,0,1:2:0:0:
171,290,69650,1,0,0:2:0:0:
176,206,69820,2,0,L|184:171,3,35,2|0|0|0,1:2|3:2|3:2|3:2,0:0:0:0:
224,159,70161,2,0,L|215:124,3,35,2|0|0|0,1:2|3:2|3:2|3:2,0:0:0:0:
175,110,70502,2,0,L|183:75,3,35,2|0|0|0,1:2|3:2|3:2|3:2,0:0:0:0:
222,61,70843,2,0,L|213:26,3,35,2|0|0|0,1:2|3:2|3:2|3:2,0:0:0:0:
178,3,71184,6,0,P|247:14|316:21,1,140,6|8,1:1|0:2,0:0:0:0:
399,7,71695,1,0,0:0:0:0:
455,69,71866,2,0,P|477:135|490:203,1,140,2|8,1:2|0:2,0:0:0:0:
467,284,72377,1,0,0:2:0:0:
404,340,72547,2,0,P|337:362|269:375,1,140,2|8,1:2|0:2,0:0:0:0:
185,357,73059,1,0,0:2:0:0:
106,328,73229,2,0,P|84:262|71:194,1,140,2|8,1:2|0:2,0:0:0:0:
124,33,73911,6,0,P|68:72|0:67,2,140,2|8|0,1:2|0:2|1:2,0:0:0:0:
206,13,74763,1,0,0:2:0:0:
272,64,74934,2,0,L|295:157,1,70,8|0,0:2|0:2,0:0:0:0:
226,189,75275,2,0,P|295:177|364:171,1,140,2|8,1:2|0:2,0:0:0:0:
488,285,75956,2,0,L|504:371,1,70,2|0,1:2|0:2,0:0:0:0:
421,382,76297,2,0,L|408:313,1,70,10|0,0:2|0:2,0:0:0:0:
343,259,76638,6,0,P|274:254|218:294,1,140,2|8,1:2|0:2,0:0:0:0:
175,367,77150,1,0,0:2:0:0:
91,369,77320,2,0,P|38:324|19:257,1,140,2|8,1:2|0:2,0:0:0:0:
41,176,77831,1,0,0:2:0:0:
116,138,78002,2,0,L|255:125,1,140,2|8,1:2|0:2,0:0:0:0:
325,171,78513,1,0,0:2:0:0:
371,101,78684,2,0,L|382:31,1,70,2|0,1:2|0:2,0:0:0:0:
466,30,79025,2,0,L|454:99,1,70,8|0,0:2|0:2,0:0:0:0:
487,176,79366,5,2,1:2:0:0:
303,303,79706,1,8,0:2:0:0:
459,331,80047,1,2,1:2:0:0:
332,147,80387,1,10,0:2:0:0:
147,275,80729,1,2,1:2:0:0:
36,114,81070,1,8,0:2:0:0:
240,211,81411,1,2,1:2:0:0:
55,339,81752,1,10,0:2:0:0:
166,103,82093,6,0,P|233:84|302:74,1,140,2|8,1:2|0:2,0:0:0:0:
376,239,82775,2,0,P|309:221|240:211,1,140,2|10,1:2|0:2,0:0:0:0:
256,192,83456,12,2,84820,1:2:0:0:
256,192,84905,12,4,86184,1:1:0:0:
32,256,97093,6,0,P|100:268|169:283,1,140,6|10,1:2|0:2,0:0:0:0:
218,352,97604,2,0,P|286:339|355:324,1,140,2|2,0:2|0:2,0:0:0:0:
436,348,98116,1,10,0:2:0:0:
490,285,98286,2,0,P|500:251|506:216,1,70,2|0,0:2|1:2,0:0:0:0:
476,137,98627,2,0,P|442:127|407:121,1,70,2|8,0:2|0:2,0:0:0:0:
340,172,98968,2,0,P|330:205|324:240,1,70,2|0,0:2|1:2,0:0:0:0:
274,307,99309,1,2,0:2:0:0:
191,319,99479,2,0,P|156:313|122:303,1,70,10|0,0:2|0:2,0:0:0:0:
59,248,99820,6,0,L|40:109,1,140,2|10,1:2|0:2,0:0:0:0:
84,38,100331,2,0,P|153:24|223:20,1,140,2|2,0:2|0:2,0:0:0:0:
287,76,100843,1,10,0:2:0:0:
354,27,101013,2,0,P|389:27|424:32,1,70,2|0,0:2|1:2,0:0:0:0:
475,99,101354,2,0,P|474:133|469:168,1,70,2|8,0:2|0:2,0:0:0:0:
407,225,101695,2,0,P|402:259|401:294,1,70,2|0,0:2|1:2,0:0:0:0:
352,362,102036,1,2,0:2:0:0:
285,314,102206,2,0,P|285:279|290:244,1,70,10|2,0:2|0:2,0:0:0:0:
340,176,102547,6,0,P|357:110|321:52,1,140,2|10,1:2|0:2,0:0:0:0:
239,29,103059,2,0,L|99:42,1,140,2|2,0:2|0:2,0:0:0:0:
17,25,103570,1,10,0:2:0:0:
0,107,103741,2,0,L|7:176,1,70,2|0,0:2|1:2,0:0:0:0:
75,225,104081,2,0,L|144:217,1,70,2|8,0:2|0:2,0:0:0:0:
217,259,104422,2,0,L|224:328,1,70,2|0,0:2|1:2,0:0:0:0:
294,376,104763,1,2,0:2:0:0:
378,375,104934,2,0,L|447:367,1,70,10|0,0:2|0:2,0:0:0:0:
496,298,105275,6,0,L|511:158,1,140,2|10,1:2|0:2,0:0:0:0:
472,84,105786,2,0,P|438:75|402:72,1,70,2|0,0:2|1:0,0:0:0:0:
344,132,106127,2,0,P|335:165|332:202,1,70,2|8,0:2|0:0,0:0:0:0:
356,281,106468,1,2,0:2:0:0:
311,350,106638,2,0,P|241:360|171:360,1,140,2|8,1:2|3:2,0:0:0:0:
109,303,107150,1,0,3:2:0:0:
125,220,107320,1,2,1:2:0:0:
121,199,107405,1,0,1:2:0:0:
116,178,107491,1,0,1:2:0:0:
112,158,107576,1,0,1:2:0:0:
107,137,107661,2,0,L|72:128,4,35,8|0|0|0|4,1:2|1:2|1:2|1:2|1:1,0:0:0:0:
323,79,108343,6,0,P|339:47|348:14,1,70,10|0,0:2|0:2,0:0:0:0:
390,133,108684,2,0,P|421:148|454:157,1,70,2|0,1:2|0:2,0:0:0:0:
336,199,109025,2,0,P|320:230|311:263,1,70,10|0,0:2|0:2,0:0:0:0:
270,145,109366,2,0,P|238:129|205:120,1,70,2|0,1:2|0:2,0:0:0:0:
131,159,109706,2,0,P|115:190|106:223,1,70,10|0,0:2|0:2,0:0:0:0:
144,298,110047,2,0,P|175:313|208:322,1,70,2|0,1:2|0:2,0:0:0:0:
276,373,110388,2,0,P|309:363|340:348,1,70,10|0,0:2|0:2,0:0:0:0:
372,270,110729,5,2,1:2:0:0:
512,384,111070,1,10,0:2:0:0:
480,191,111411,2,0,P|482:122|499:54,1,140,2|8,1:2|0:2,0:0:0:0:
320,0,112093,1,2,1:2:0:0:
256,192,112434,1,10,0:2:0:0:
64,127,112775,2,0,P|21:182|21:250,1,140,2|8,1:2|0:2,0:0:0:0:
35,266,113201,1,8,0:2:0:0:
50,280,113286,1,8,0:2:0:0:
65,294,113371,1,8,0:2:0:0:
80,308,113456,6,0,L|237:292,1,140,6|2,1:1|1:2,0:0:0:0:
275,231,113968,2,0,P|292:164|267:99,1,140,2|0,0:2|0:2,0:0:0:0:
192,60,114479,1,2,1:2:0:0:
352,0,114820,2,0,P|420:12|488:30,1,140,2|2,1:2|1:2,0:0:0:0:
512,112,115331,2,0,L|486:262,1,140,2|0,0:2|0:2,0:0:0:0:
509,331,115843,1,2,1:2:0:0:
348,379,116184,6,0,P|279:366|211:348,1,140,2|0,1:2|1:2,0:0:0:0:
130,372,116695,1,2,0:2:0:0:
55,331,116866,2,0,L|33:192,1,140,2|0,1:2|1:2,0:0:0:0:
128,52,117547,2,0,P|67:85|1:68,2,140,0|0|0,1:2|1:2|1:2,0:0:0:0:
288,1,118570,1,2,1:2:0:0:
370,18,118741,1,2,0:2:0:0:
451,35,118911,6,0,P|470:102|483:170,1,140,2|0,1:2|1:2,0:0:0:0:
459,251,119422,2,0,P|390:264|323:283,1,140,2|0,0:2|0:2,0:0:0:0:
280,356,119934,1,2,1:2:0:0:
112,360,120275,2,0,P|92:292|79:224,1,140,2|2,1:2|1:2,0:0:0:0:
128,155,120786,2,0,P|195:135|263:122,1,140,2|0,0:2|0:2,0:0:0:0:
342,153,121297,1,2,1:2:0:0:
424,135,121468,1,2,0:2:0:0:
443,53,121638,6,0,P|375:33|307:20,1,140,2|2,1:2|1:2,0:0:0:0:
222,11,122150,2,0,P|153:24|86:43,1,140,2|0,0:2|0:2,0:0:0:0:
28,105,122661,1,2,1:2:0:0:
143,245,123002,2,0,L|161:383,2,140,2|0|0,1:2|1:2|1:2,0:0:0:0:
28,105,124025,2,0,L|37:35,1,70,2|2,1:2|0:2,0:0:0:0:
122,2,124366,6,0,L|260:20,1,140,2|0,1:2|1:2,0:0:0:0:
304,100,124877,2,0,L|285:238,1,140,2|0,0:2|0:2,0:0:0:0:
227,308,125388,1,2,1:2:0:0:
393,382,125729,2,0,P|456:357|483:294,1,140,2|0,1:2|1:2,0:0:0:0:
439,213,126241,2,0,P|370:201|300:192,1,140,2|0,0:2|0:2,0:0:0:0:
221,238,126752,1,2,1:2:0:0:
100,101,127093,6,0,P|36:125|13:189,1,140,2|0,1:2|1:2,0:0:0:0:
34,275,127604,1,2,0:2:0:0:
34,275,127775,2,0,P|103:283|172:295,1,140,2|0,1:2|1:2,0:0:0:0:
315,383,128456,2,0,P|384:374|453:362,1,140,0|0,1:2|1:2,0:0:0:0:
505,202,129138,1,2,1:2:0:0:
351,270,129479,1,2,1:2:0:0:
283,116,129820,6,0,P|215:97|147:82,1,140,2|0,1:2|1:2,0:0:0:0:
188,8,130331,2,0,P|255:26|323:41,1,140,2|0,0:2|0:2,0:0:0:0:
402,9,130843,1,2,1:2:0:0:
507,140,131184,2,0,P|497:209|479:276,1,140,2|0,1:2|1:2,0:0:0:0:
344,377,131866,1,2,1:2:0:0:
207,279,132206,1,0,1:2:0:0:
61,363,132547,6,0,L|200:373,1,140,2|0,1:2|1:2,0:0:0:0:
346,289,133229,2,0,L|207:279,1,140,0|0,1:2|1:2,0:0:0:0:
138,228,133741,1,2,0:2:0:0:
132,144,133911,1,2,1:2:0:0:
132,144,134081,1,2,0:2:0:0:
186,82,134252,1,2,1:2:0:0:
186,82,134422,1,2,0:2:0:0:
265,62,134593,5,2,1:2:0:0:
265,62,134763,2,0,L|334:70,1,70,2|0,0:2|1:2,0:0:0:0:
410,34,135104,1,2,0:2:0:0:
474,87,135275,2,0,L|494:226,3,140,0|0|0|0,1:0|1:2|1:2|1:2,0:0:0:0:
200,337,137661,6,0,P|166:348|132:355,1,70,0|0,0:2|0:2,0:0:0:0:
49,317,138002,6,0,P|28:250|17:179,1,140,6|8,1:1|3:2,0:0:0:0:
70,106,138513,2,0,P|103:95|139:90,1,70,2|0,3:2|1:2,0:0:0:0:
209,146,138854,2,0,P|242:156|278:162,1,70,0|8,3:2|3:2,0:0:0:0:
358,121,139195,1,2,3:2:0:0:
447,139,139366,1,2,1:2:0:0:
495,215,139536,1,2,3:2:0:0:
488,305,139706,1,10,3:2:0:0:
422,369,139877,2,0,L|261:379,1,140,2|0,3:2|3:2,0:0:0:0:
208,323,140388,2,0,P|200:288|201:253,1,70,10|0,3:2|3:2,0:0:0:0:
271,195,140729,6,0,L|340:190,1,70,2|0,1:2|3:2,0:0:0:0:
422,149,141070,2,0,L|417:79,1,70,8|0,3:2|3:2,0:0:0:0:
359,22,141411,1,0,1:2:0:0:
359,22,141496,1,0,3:2:0:0:
359,22,141581,2,0,L|289:26,1,70,0|8,3:2|3:2,0:0:0:0:
225,92,141922,1,2,3:2:0:0:
279,171,142093,5,2,1:2:0:0:
279,171,142263,2,0,P|286:205|290:239,1,70,2|8,3:2|3:2,0:0:0:0:
250,321,142604,2,0,P|215:328|181:332,1,70,2|0,3:2|1:2,0:0:0:0:
105,383,142945,2,0,P|85:315|62:249,1,140,2|0,3:2|3:2,0:0:0:0:
0,183,143456,5,6,1:1:0:0:
14,92,143627,1,2,3:2:0:0:
90,42,143797,1,10,3:2:0:0:
179,56,143968,2,0,P|214:63|249:65,1,70,2|0,3:2|1:2,0:0:0:0:
269,58,144223,1,0,3:2:0:0:
289,51,144309,2,0,P|323:52|358:59,1,70,0|8,3:2|3:2,0:0:0:0:
446,33,144650,1,2,3:2:0:0:
494,115,144820,5,6,1:1:0:0:
494,115,144991,1,2,3:2:0:0:
464,203,145161,1,10,3:2:0:0:
463,202,145331,2,0,P|473:236|480:270,1,70,2|0,3:2|1:2,0:0:0:0:
447,355,145672,1,0,3:2:0:0:
360,324,145843,2,0,P|325:330|292:340,1,70,8|0,3:2|3:2,0:0:0:0:
210,382,146184,6,0,P|255:331|253:263,1,140,6|10,1:1|3:2,0:0:0:0:
310,192,146695,2,0,P|344:185|377:175,1,70,2|0,3:2|1:2,0:0:0:0:
441,110,147036,1,2,3:2:0:0:
415,22,147206,1,10,3:2:0:0:
325,4,147377,2,0,P|290:10|257:20,1,70,6|0,3:2|1:2,0:0:0:0:
207,97,147718,2,0,P|213:131|223:164,1,70,2|8,3:2|3:2,0:0:0:0:
203,253,148059,2,0,P|169:262|135:269,1,70,6|0,3:2|1:2,0:0:0:0:
61,323,148400,1,2,3:2:0:0:
43,233,148570,1,10,3:2:0:0:
25,143,148741,1,2,3:2:0:0:
7,53,148911,6,0,P|67:19|132:39,1,140,6|8,1:1|3:2,0:0:0:0:
180,117,149422,2,0,L|187:186,1,70,2|0,3:2|1:2,0:0:0:0:
128,256,149763,2,0,L|135:325,1,70,0|8,3:2|3:2,0:0:0:0:
210,377,150104,1,2,3:2:0:0:
301,379,150275,1,6,1:1:0:0:
380,335,150445,1,2,3:2:0:0:
418,252,150616,1,10,3:2:0:0:
421,161,150786,2,0,P|351:172|278:188,1,140,2|0,3:2|3:2,0:0:0:0:
195,162,151297,2,0,P|187:127|181:93,1,70,10|0,3:2|3:2,0:0:0:0:
237,21,151638,6,0,P|271:13|305:7,1,70,2|0,1:2|3:2,0:0:0:0:
384,53,151979,2,0,P|391:87|397:121,1,70,8|0,3:2|3:2,0:0:0:0:
458,202,152320,1,0,1:2:0:0:
458,202,152405,1,0,3:2:0:0:
458,202,152491,2,0,P|465:236|471:270,1,70,0|8,3:2|3:2,0:0:0:0:
512,352,152831,1,2,3:2:0:0:
429,384,153002,5,2,1:2:0:0:
429,384,153172,2,0,P|394:377|360:370,1,70,2|8,3:2|3:2,0:0:0:0:
269,383,153513,2,0,P|234:376|200:369,1,70,2|0,3:2|1:2,0:0:0:0:
153,291,153854,2,0,P|159:224|219:192,1,140,2|0,3:2|3:2,0:0:0:0:
303,228,154366,5,6,1:1:0:0:
391,207,154536,1,2,3:2:0:0:
440,130,154706,1,10,3:2:0:0:
414,42,154877,2,0,L|275:22,1,140,2|0,3:2|3:2,0:0:0:0:
203,79,155388,2,0,L|133:69,1,70,8|0,3:2|3:2,0:0:0:0:
36,36,155729,5,6,1:1:0:0:
36,36,155900,2,0,P|44:70|48:104,1,70,2|8,3:2|3:2,0:0:0:0:
12,188,156241,2,0,P|16:222|24:256,1,70,2|0,3:2|1:2,0:0:0:0:
67,336,156581,2,0,P|32:340|-1:348,2,70,0|8|0,3:2|3:2|3:2,0:0:0:0:
151,371,157093,6,0,P|219:372|270:326,1,140,6|10,1:1|3:2,0:0:0:0:
279,235,157604,2,0,L|250:97,1,140,2|2,3:2|3:2,0:0:0:0:
292,16,158116,1,10,3:2:0:0:
382,4,158286,2,0,L|450:18,1,70,6|0,3:2|1:2,0:0:0:0:
498,95,158627,2,0,L|483:163,1,70,2|8,3:2|3:2,0:0:0:0:
405,210,158968,2,0,L|336:195,1,70,6|0,3:2|1:2,0:0:0:0:
285,120,159309,1,2,3:2:0:0:
205,75,159479,1,10,3:2:0:0:
113,80,159650,1,2,3:2:0:0:
34,124,159820,6,0,P|18:156|5:189,1,70,6|0,1:1|3:2,0:0:0:0:
36,274,160161,2,0,P|68:287|100:302,1,70,8|0,3:2|3:2,0:0:0:0:
187,276,160502,2,0,P|202:244|215:211,1,70,0|0,1:2|3:2,0:0:0:0:
296,171,160843,2,0,P|327:186|360:199,1,70,8|0,3:2|3:2,0:0:0:0:
419,268,161184,2,0,L|401:129,1,140,6|8,1:1|3:2,0:0:0:0:
453,53,161695,1,2,3:2:0:0:
379,8,161866,5,2,1:2:0:0:
379,8,162036,2,0,L|309:16,1,70,2|8,3:2|3:2,0:0:0:0:
243,79,162377,2,0,L|251:148,1,70,2|0,3:2|1:2,0:0:0:0:
317,211,162718,1,2,3:2:0:0:
399,173,162888,2,0,P|433:180|466:191,1,70,10|0,3:2|3:2,0:0:0:0:
511,271,163229,2,0,P|503:305|492:338,1,70,0|0,1:2|3:2,0:0:0:0:
413,383,163570,2,0,P|378:375|345:364,1,70,8|0,3:2|3:2,0:0:0:0:
283,297,163911,5,2,1:2:0:0:
281,279,164081,1,2,3:2:0:0:
214,216,164252,1,10,3:2:0:0:
216,198,164422,1,2,3:2:0:0:
291,146,164593,1,2,1:2:0:0:
289,128,164763,1,2,1:2:0:0:
222,65,164934,1,10,1:2:0:0:
224,47,165104,1,2,1:2:0:0:
24,333,166638,5,6,1:2:0:0:
24,333,166808,2,0,L|11:265,1,70,2|8,0:2|0:2,0:0:0:0:
78,214,167149,2,0,L|92:146,1,70,2|0,0:2|1:2,0:0:0:0:
68,64,167490,2,0,L|0:78,2,70,2|8|2,0:2|0:2|0:2,0:0:0:0:
135,12,168001,5,2,1:2:0:0:
135,12,168172,2,0,L|204:26,1,70,2|8,0:2|0:2,0:0:0:0:
240,101,168513,2,0,L|309:115,1,70,2|0,0:2|1:2,0:0:0:0:
379,69,168854,2,0,L|366:1,2,70,2|8|2,0:2|0:2|0:2,0:0:0:0:
461,103,169365,5,2,1:2:0:0:
461,103,169535,2,0,L|475:172,1,70,2|8,0:2|0:2,0:0:0:0:
418,234,169876,2,0,L|405:303,1,70,2|0,0:2|1:2,0:0:0:0:
443,377,170218,2,0,L|512:364,2,70,2|8|2,0:2|0:2|0:2,0:0:0:0:
362,374,170729,5,2,0:2:0:0:
362,374,170900,1,0,0:2:0:0:
216,289,171241,1,0,0:2:0:0:
360,203,171581,2,0,P|376:136|359:69,1,140,0|0,0:2|0:2,0:0:0:0:
291,20,172092,5,6,1:2:0:0:
229,77,172263,2,0,P|196:86|161:87,1,70,2|8,0:2|0:2,0:0:0:0:
87,44,172604,2,0,L|73:113,1,70,2|0,0:2|1:2,0:0:0:0:
13,171,172945,2,0,L|-1:240,1,70,2|8,0:2|0:2,0:0:0:0:
11,322,173285,1,2,0:2:0:0:
97,312,173456,5,2,1:2:0:0:
97,312,173626,2,0,P|132:313|166:322,1,70,2|8,0:2|0:2,0:0:0:0:
235,369,173967,2,0,P|270:367|304:358,1,70,2|0,0:2|1:2,0:0:0:0:
347,286,174308,2,0,P|346:251|337:217,1,70,2|8,0:2|0:2,0:0:0:0:
261,179,174649,1,2,0:2:0:0:
228,106,174820,5,2,1:2:0:0:
228,106,174990,2,0,L|182:99,2,35,0|0|8,3:2|3:2|0:2,0:0:0:0:
294,54,175331,2,0,L|287:8,2,35,0|0|0,3:2|3:2|1:2,0:0:0:0:
375,101,175672,1,0,3:2:0:0:
375,101,175757,1,0,3:2:0:0:
375,101,175842,1,8,0:2:0:0:
356,183,176013,2,0,L|402:190,2,35,0|0|0,3:2|3:2|1:2,0:0:0:0:
271,189,176354,1,0,3:2:0:0:
271,189,176439,1,0,3:2:0:0:
271,189,176525,2,0,L|236:194,3,35,8|0|0|0,3:2|3:2|3:2|3:2,0:0:0:0:
215,231,176866,2,0,L|180:225,3,35,0|0|0|0,1:2|3:0|3:2|3:0,0:0:0:0:
147,199,177206,2,0,L|112:204,3,35,8|0|0|0,3:2|3:2|3:2|3:2,0:0:0:0:
80,231,177547,1,4,1:1:0:0:
34,223,185729,5,0,3:2:0:0:
34,223,185900,2,0,L|0:229,2,35,0|0|0,3:2|3:2|3:2,0:0:0:0:
110,278,186241,1,0,3:2:0:0:
110,278,186326,1,0,3:2:0:0:
110,278,186411,1,0,3:2:0:0:
167,217,186581,2,0,L|173:182,2,35,0|0|0,3:2|3:2|3:2,0:0:0:0:
209,289,186922,2,0,L|215:323,2,35,0|0|0,3:2|3:2|3:2,0:0:0:0:
291,257,187263,1,0,3:2:0:0:
291,257,187348,1,0,3:2:0:0:
291,257,187434,2,0,L|325:262,3,35,0|0|0|0,3:2|3:2|3:2|3:2,0:0:0:0:
358,289,187775,2,0,L|392:283,3,35,0|0|0|0,3:2|3:2|3:2|3:2,0:0:0:0:
417,249,188116,2,0,L|451:254,3,35,0|0|0|0,3:2|3:2|3:2|3:2,0:0:0:0:
476,286,188456,6,0,P|488:218|504:150,1,140,6|8,1:1|0:2,0:0:0:0:
496,65,188968,1,0,0:0:0:0:
415,86,189138,2,0,P|346:73|278:57,1,140,2|8,1:2|0:2,0:0:0:0:
209,7,189650,1,0,0:2:0:0:
154,70,189820,2,0,P|137:138|125:206,1,140,2|8,1:2|0:2,0:0:0:0:
161,283,190331,1,0,0:2:0:0:
238,250,190502,2,0,P|306:262|374:278,1,140,2|8,1:2|0:2,0:0:0:0:
241,381,191184,6,0,P|172:364|104:352,1,140,2|8,1:2|0:2,0:0:0:0:
30,310,191695,1,0,0:2:0:0:
64,233,191866,1,2,1:2:0:0:
28,157,192036,1,0,0:2:0:0:
45,75,192206,1,8,0:2:0:0:
199,9,192547,2,0,P|259:45|336:25,1,140,2|8,1:2|0:2,0:0:0:0:
478,103,193229,2,0,L|408:95,1,70,2|0,1:2|0:2,0:0:0:0:
374,172,193570,2,0,L|443:179,1,70,10|0,0:2|0:2,0:0:0:0:
499,242,193911,6,0,P|487:308|427:339,1,140,6|8,1:1|0:2,0:0:0:0:
349,297,194422,1,0,0:2:0:0:
379,218,194593,2,0,L|368:148,1,70,2|0,1:2|0:2,0:0:0:0:
432,93,194934,2,0,L|421:23,1,70,8|0,0:2|0:2,0:0:0:0:
339,5,195275,2,0,P|269:12|201:29,1,140,2|8,1:2|0:2,0:0:0:0:
118,18,195786,1,0,0:2:0:0:
34,23,195956,2,0,P|19:91|6:160,1,140,2|8,1:2|0:2,0:0:0:0:
61,321,196638,5,2,1:2:0:0:
245,194,196978,1,8,0:2:0:0:
89,166,197319,1,2,1:2:0:0:
216,350,197661,1,10,0:2:0:0:
401,222,198001,1,2,1:2:0:0:
512,383,198342,1,8,0:2:0:0:
308,286,198683,1,2,1:2:0:0:
493,158,199024,1,10,0:2:0:0:
352,0,199366,6,0,P|282:9|215:29,1,140,2|8,1:2|0:2,0:0:0:0:
93,144,200047,2,0,P|162:153|229:173,1,140,2|8,1:2|0:2,0:0:0:0:
259,338,200729,2,0,P|293:347|327:353,1,70,2|0,1:2|3:2,0:0:0:0:
411,384,201070,1,8,3:2:0:0:
411,384,201241,1,0,3:2:0:0:
479,336,201411,2,0,P|487:302|492:267,1,70,0|0,1:2|3:2,0:0:0:0:
477,189,201752,1,8,3:2:0:0:
477,189,201923,1,0,3:2:0:0:
408,237,202093,6,0,L|339:250,1,70,2|0,1:2|0:2,0:0:0:0:
314,170,202434,2,0,L|245:156,1,70,10|0,0:2|0:2,0:0:0:0:
207,231,202775,2,0,L|138:244,1,70,2|0,1:2|0:2,0:0:0:0:
113,164,203116,2,0,L|44:150,1,70,10|0,0:2|0:2,0:0:0:0:
0,224,203456,1,4,1:1:0:0:
32,352,214366,6,0,P|44:284|59:215,1,140,6|10,1:1|0:2,0:0:0:0:
129,168,214877,2,0,P|197:181|266:196,1,140,2|2,0:2|0:2,0:0:0:0:
340,154,215389,1,10,0:2:0:0:
418,184,215559,2,0,P|428:218|434:253,1,70,2|0,0:2|1:2,0:0:0:0:
420,335,215900,1,2,0:2:0:0:
342,367,216070,1,10,0:2:0:0:
269,323,216241,2,0,P|259:290|253:255,1,70,2|0,0:2|1:2,0:0:0:0:
281,175,216582,1,2,0:2:0:0:
221,116,216752,2,0,P|186:122|152:132,1,70,10|0,0:2|0:2,0:0:0:0:
83,178,217093,6,0,L|64:317,1,140,2|10,1:2|0:2,0:0:0:0:
114,383,217604,2,0,P|183:378|252:364,1,140,2|2,0:2|0:2,0:0:0:0:
304,298,218116,1,10,0:2:0:0:
371,347,218286,2,0,P|406:347|441:342,1,70,2|0,0:2|1:2,0:0:0:0:
497,280,218627,2,0,P|496:246|491:211,1,70,2|8,0:2|0:2,0:0:0:0:
413,176,218968,2,0,P|408:142|407:107,1,70,2|0,0:2|1:2,0:0:0:0:
468,48,219309,1,2,0:2:0:0:
398,1,219479,2,0,P|363:1|328:6,1,70,10|2,0:2|0:2,0:0:0:0:
288,80,219820,6,0,P|289:149|299:219,1,140,2|10,1:2|0:2,0:0:0:0:
261,294,220331,2,0,P|191:304|121:305,1,140,2|2,0:2|0:2,0:0:0:0:
47,346,220843,1,10,0:2:0:0:
12,269,221014,2,0,L|5:200,1,70,2|0,0:2|1:2,0:0:0:0:
71,148,221354,2,0,L|78:79,1,70,2|8,0:2|0:2,0:0:0:0:
145,27,221695,2,0,L|214:19,1,70,2|0,0:2|1:2,0:0:0:0:
284,67,222036,1,2,0:2:0:0:
229,130,222206,2,0,L|222:199,1,70,10|2,0:2|0:2,0:0:0:0:
255,277,222548,6,0,L|395:292,1,140,2|10,1:2|0:2,0:0:0:0:
459,238,223059,2,0,L|466:169,1,70,2|0,0:2|1:0,0:0:0:0:
431,91,223400,2,0,L|362:83,1,70,2|8,0:2|0:0,0:0:0:0:
292,35,223741,1,2,0:2:0:0:
234,95,223911,2,0,P|224:165|224:235,1,140,2|8,1:2|3:2,0:0:0:0:
244,316,224423,1,0,3:2:0:0:
173,360,224593,1,0,1:2:0:0:
152,356,224678,1,0,1:2:0:0:
131,351,224764,1,0,1:2:0:0:
111,347,224849,1,0,1:2:0:0:
90,342,224934,2,0,L|81:307,4,35,8|0|0|0|4,1:2|1:2|1:2|1:2|1:1,0:0:0:0:
146,128,225616,6,0,P|130:96|121:63,1,70,10|0,0:2|0:2,0:0:0:0:
79,182,225957,2,0,P|48:197|15:206,1,70,2|0,1:2|0:2,0:0:0:0:
133,248,226298,2,0,P|149:279|158:312,1,70,10|0,0:2|0:2,0:0:0:0:
199,194,226639,2,0,P|231:178|264:169,1,70,2|0,1:2|0:2,0:0:0:0:
344,190,226979,2,0,P|360:221|369:254,1,70,10|0,0:2|0:2,0:0:0:0:
442,296,227320,2,0,P|475:286|507:271,1,70,2|0,1:2|0:2,0:0:0:0:
507,187,227661,2,0,P|497:154|482:123,1,70,10|0,0:2|0:2,0:0:0:0:
402,92,228002,5,2,1:2:0:0:
369,254,228343,1,10,0:2:0:0:
207,302,228684,2,0,P|139:314|69:323,1,140,2|8,1:2|0:2,0:0:0:0:
0,160,229366,1,2,1:2:0:0:
224,192,229707,1,10,0:2:0:0:
448,224,230048,2,0,P|491:169|491:101,1,140,2|8,1:2|0:2,0:0:0:0:
477,85,230474,1,8,0:2:0:0:
462,71,230559,1,8,0:2:0:0:
447,57,230644,1,8,0:2:0:0:
432,43,230729,6,0,L|275:59,1,140,6|2,1:1|1:2,0:0:0:0:
246,128,231241,2,0,L|260:267,1,140,2|0,0:2|0:2,0:0:0:0:
326,318,231752,1,2,1:2:0:0:
172,384,232093,2,0,P|104:372|36:354,1,140,2|2,1:2|1:2,0:0:0:0:
13,269,232604,2,0,L|-1:129,1,140,2|0,0:2|0:2,0:0:0:0:
35,53,233116,1,2,1:2:0:0:
182,133,233457,6,0,P|251:126|321:114,1,140,2|0,1:2|1:2,0:0:0:0:
384,59,233968,1,2,0:2:0:0:
451,110,234139,2,0,L|473:249,1,140,2|0,1:2|1:2,0:0:0:0:
371,382,234820,2,0,P|432:349|498:366,2,140,0|0|0,1:2|1:2|1:2,0:0:0:0:
202,382,235843,1,2,1:2:0:0:
120,365,236014,1,2,0:2:0:0:
39,348,236184,6,0,P|20:281|7:213,1,140,2|0,1:2|1:2,0:0:0:0:
59,146,236695,2,0,P|126:126|195:113,1,140,2|0,0:2|0:2,0:0:0:0:
267,158,237207,1,2,1:2:0:0:
340,7,237547,2,0,P|408:19|476:39,1,140,2|2,1:2|1:2,0:0:0:0:
511,115,238059,2,0,P|498:183|478:251,1,140,2|0,0:2|0:2,0:0:0:0:
486,335,238570,1,2,1:2:0:0:
405,360,238741,1,2,0:2:0:0:
336,312,238911,6,0,P|268:292|200:279,1,140,2|2,1:2|1:2,0:0:0:0:
131,327,239422,2,0,P|63:331|21:279,1,140,2|0,0:2|0:2,0:0:0:0:
15,194,239934,1,2,1:2:0:0:
173,139,240275,2,0,L|191:1,2,140,2|0|0,1:2|1:2|1:2,0:0:0:0:
38,240,241298,2,0,L|29:310,1,70,2|2,1:2|0:2,0:0:0:0:
91,366,241639,6,0,L|229:384,1,140,2|0,1:2|1:2,0:0:0:0:
294,330,242150,2,0,L|313:192,1,140,2|0,0:2|0:2,0:0:0:0:
257,128,242661,1,2,1:2:0:0:
387,22,243002,2,0,P|450:47|477:110,1,140,2|0,1:2|1:2,0:0:0:0:
466,193,243513,2,0,L|447:331,1,140,2|0,0:2|0:2,0:0:0:0:
378,381,244025,1,2,1:2:0:0:
241,283,244366,6,0,L|260:145,1,140,2|0,1:2|1:2,0:0:0:0:
235,68,244877,1,2,0:2:0:0:
235,68,245047,2,0,P|170:44|104:65,1,140,2|0,1:2|1:2,0:0:0:0:
11,206,245729,2,0,L|30:344,1,140,0|0,1:2|1:2,0:0:0:0:
195,376,246411,1,2,1:2:0:0:
310,254,246752,1,2,1:2:0:0:
449,347,247093,6,0,P|468:279|483:211,1,140,2|0,1:2|1:2,0:0:0:0:
435,141,247604,2,0,P|366:125|299:107,1,140,2|0,0:2|0:2,0:0:0:0:
254,35,248116,1,2,1:2:0:0:
139,157,248456,2,0,P|71:175|3:190,2,140,2|0|2,1:2|1:2|1:2,0:0:0:0:
254,35,249479,1,2,1:2:0:0:
347,174,249820,6,0,P|414:192|482:207,1,140,2|0,1:2|1:2,0:0:0:0:
503,374,250502,2,0,P|435:355|367:340,1,140,0|0,1:2|1:2,0:0:0:0:
284,360,251014,1,2,0:2:0:0:
215,320,251184,1,2,1:2:0:0:
215,320,251354,1,0,0:2:0:0:
140,354,251525,1,2,1:2:0:0:
140,354,251695,1,0,0:2:0:0:
67,321,251866,5,2,1:2:0:0:
67,321,252036,2,0,L|59:252,1,70,2|0,0:2|1:2,0:0:0:0:
117,191,252377,1,2,0:2:0:0:
138,109,252548,2,0,L|-1:89,3,140,0|0|0|0,0:0|1:2|1:2|1:2,0:0:0:0:
468,21,254934,6,0,P|479:54|486:88,1,70,0|0,0:2|0:2,0:0:0:0:
457,167,255275,6,0,P|390:188|319:199,1,140,6|8,1:1|3:2,0:0:0:0:
245,147,255786,2,0,P|234:114|229:78,1,70,2|0,3:2|1:2,0:0:0:0:
157,22,256127,2,0,P|122:27|89:37,1,70,0|8,3:2|3:2,0:0:0:0:
24,101,256468,1,2,3:2:0:0:
8,191,256639,1,2,1:2:0:0:
42,274,256809,1,2,3:2:0:0:
117,324,256979,1,10,3:2:0:0:
208,327,257150,2,0,L|371:314,1,140,2|0,3:2|3:2,0:0:0:0:
359,225,257661,2,0,L|364:155,1,70,10|0,3:2|3:2,0:0:0:0:
411,76,258002,6,0,L|480:70,1,70,2|0,1:2|3:2,0:0:0:0:
509,157,258343,2,0,L|503:226,1,70,8|0,3:2|3:2,0:0:0:0:
486,322,258684,1,0,1:2:0:0:
486,322,258769,1,0,3:2:0:0:
486,322,258854,2,0,L|416:318,1,70,0|8,3:2|3:2,0:0:0:0:
365,242,259195,1,2,3:2:0:0:
295,299,259366,5,2,1:2:0:0:
295,299,259536,2,0,P|261:306|227:310,1,70,2|8,3:2|3:2,0:0:0:0:
160,374,259877,2,0,P|125:369|90:362,1,70,2|0,3:2|1:2,0:0:0:0:
24,300,260218,2,0,L|3:155,1,140,2|0,3:2|3:2,0:0:0:0:
45,80,260729,5,6,1:1:0:0:
129,44,260900,1,2,3:2:0:0:
212,79,261070,1,10,3:2:0:0:
269,149,261241,2,0,P|304:156|339:158,1,70,2|0,3:2|1:2,0:0:0:0:
358,152,261496,1,0,3:2:0:0:
378,146,261582,2,0,P|412:147|447:154,1,70,0|8,3:2|3:2,0:0:0:0:
497,229,261923,1,2,3:2:0:0:
490,322,262093,5,6,1:1:0:0:
490,322,262264,1,2,3:2:0:0:
412,366,262434,1,10,3:2:0:0:
412,366,262604,2,0,P|377:358|344:349,1,70,2|0,3:2|1:2,0:0:0:0:
294,272,262945,1,0,3:2:0:0:
232,339,263116,2,0,P|197:345|164:355,1,70,8|0,3:2|3:2,0:0:0:0:
76,379,263456,6,0,P|17:344|8:277,1,140,6|10,1:1|3:2,0:0:0:0:
61,201,263968,2,0,P|94:190|128:185,1,70,2|0,3:2|1:2,0:0:0:0:
200,241,264309,1,2,3:2:0:0:
290,241,264479,1,10,3:2:0:0:
353,175,264650,2,0,P|347:140|337:107,1,70,6|0,3:2|1:2,0:0:0:0:
366,20,264991,2,0,P|399:9|433:4,1,70,2|8,3:2|3:2,0:0:0:0:
496,69,265331,2,0,P|506:102|511:136,1,70,6|0,3:2|1:2,0:0:0:0:
476,221,265673,1,2,3:2:0:0:
386,239,265843,1,10,3:2:0:0:
296,257,266014,1,2,3:2:0:0:
206,275,266184,6,0,L|49:254,1,140,6|8,1:1|3:2,0:0:0:0:
0,327,266695,2,0,L|69:336,1,70,2|0,3:2|1:2,0:0:0:0:
149,380,267036,2,0,L|218:370,1,70,0|8,3:2|3:2,0:0:0:0:
294,320,267377,1,2,3:2:0:0:
334,238,267548,1,6,1:1:0:0:
328,147,267718,1,2,3:2:0:0:
292,63,267889,1,10,3:2:0:0:
206,31,268059,2,0,P|135:38|61:50,1,140,2|0,3:2|3:2,0:0:0:0:
11,121,268570,2,0,P|14:155|18:190,1,70,10|0,3:2|3:2,0:0:0:0:
96,238,268911,6,0,P|130:234|165:230,1,70,2|0,1:2|3:2,0:0:0:0:
251,261,269252,2,0,P|255:295|258:330,1,70,8|0,3:2|3:2,0:0:0:0:
342,384,269593,1,0,1:2:0:0:
342,384,269678,1,0,3:2:0:0:
342,384,269763,2,0,P|376:380|411:376,1,70,0|8,3:2|3:2,0:0:0:0:
485,322,270104,1,2,3:2:0:0:
433,252,270275,5,2,1:2:0:0:
433,252,270445,2,0,P|428:217|425:182,1,70,2|8,3:2|3:2,0:0:0:0:
485,113,270786,2,0,P|481:78|477:43,1,70,2|0,3:2|1:2,0:0:0:0:
394,5,271127,2,0,P|325:4|273:49,1,140,2|0,3:2|3:2,0:0:0:0:
253,138,271639,5,6,1:1:0:0:
297,216,271809,1,2,3:2:0:0:
292,306,271979,1,10,3:2:0:0:
230,373,272150,2,0,L|91:353,1,140,2|0,3:2|3:2,0:0:0:0:
17,380,272661,2,0,L|7:310,1,70,8|0,3:2|3:2,0:0:0:0:
76,251,273002,5,6,1:1:0:0:
76,251,273172,2,0,L|85:181,1,70,2|8,3:2|3:2,0:0:0:0:
175,162,273513,2,0,L|165:92,1,70,2|0,3:2|1:2,0:0:0:0:
85,47,273854,2,0,P|50:43|17:35,2,70,0|8|0,3:2|3:2|3:2,0:0:0:0:
167,5,274366,6,0,P|236:0|306:-1,1,140,6|10,1:1|3:2,0:0:0:0:
372,62,274877,2,0,P|377:131|378:201,1,140,2|2,3:2|3:2,0:0:0:0:
306,258,275389,1,10,3:2:0:0:
237,198,275559,2,0,L|169:212,1,70,6|0,3:2|1:2,0:0:0:0:
106,279,275900,2,0,L|121:347,1,70,2|8,3:2|3:2,0:0:0:0:
205,380,276241,2,0,L|274:365,1,70,6|0,3:2|1:2,0:0:0:0:
364,372,276582,1,2,3:2:0:0:
444,330,276752,1,10,3:2:0:0:
474,243,276923,1,2,3:2:0:0:
478,152,277093,6,0,P|465:119|449:88,1,70,6|0,1:1|3:2,0:0:0:0:
361,64,277434,2,0,P|328:76|297:92,1,70,8|0,3:2|3:2,0:0:0:0:
295,183,277775,2,0,P|310:214|323:246,1,70,0|0,1:2|3:2,0:0:0:0:
287,330,278116,2,0,P|255:345|223:358,1,70,8|0,3:2|3:2,0:0:0:0:
132,350,278456,2,0,L|81:219,1,140,6|8,1:1|3:2,0:0:0:0:
5,167,278968,1,2,3:2:0:0:
51,90,279139,5,2,1:2:0:0:
51,90,279309,2,0,L|121:98,1,70,2|8,3:2|3:2,0:0:0:0:
198,145,279650,2,0,L|268:137,1,70,2|0,3:2|1:2,0:0:0:0:
344,185,279991,1,2,3:2:0:0:
303,266,280161,2,0,P|310:300|320:333,1,70,10|0,3:2|3:2,0:0:0:0:
396,383,280502,2,0,P|430:375|463:365,1,70,0|0,1:2|3:2,0:0:0:0:
509,287,280843,2,0,P|501:252|491:219,1,70,8|0,3:2|3:2,0:0:0:0:
416,166,281184,6,0,L|276:152,1,140,2|10,1:2|3:2,0:0:0:0:
204,208,281695,2,0,L|134:201,1,70,0|2,3:2|1:2,0:0:0:0:
52,110,282036,2,0,L|121:116,1,70,0|10,3:2|0:2,0:0:0:0:
190,56,282377,1,2,3:2:0:0:
448,32,283229,5,6,1:1:0:0:
508,109,283399,1,2,3:2:0:0:
451,188,283569,1,10,3:2:0:0:
356,159,283740,2,0,P|321:163|287:171,1,70,2|0,3:2|1:2,0:0:0:0:
276,190,283996,1,0,3:0:0:0:
263,207,284081,2,0,P|228:202|194:194,1,70,0|8,3:2|3:2,0:0:0:0:
164,100,284422,1,2,3:2:0:0:
76,68,284592,5,2,1:2:0:0:
76,68,284763,1,2,3:2:0:0:
8,138,284933,1,10,3:2:0:0:
8,137,285104,2,0,P|13:206|23:276,1,140,2|0,3:2|3:2,0:0:0:0:
86,350,285615,2,0,P|119:358|154:362,1,70,10|0,3:2|3:2,0:0:0:0:
231,301,285956,6,0,P|239:267|243:232,1,70,2|0,1:2|3:2,0:0:0:0:
179,158,286297,2,0,P|183:123|191:89,1,70,8|0,3:2|3:2,0:0:0:0:
272,31,286638,1,0,1:2:0:0:
272,31,286723,1,0,3:2:0:0:
272,31,286808,1,0,3:2:0:0:
332,108,286979,2,0,P|365:116|400:120,1,70,8|0,3:2|3:2,0:0:0:0:
481,176,287319,6,0,L|499:314,1,140,2|10,1:2|3:2,0:0:0:0:
411,375,287831,2,0,L|392:236,1,140,2|2,3:2|3:2,0:0:0:0:
322,174,288342,1,10,3:2:0:0:
322,174,288513,1,2,3:2:0:0:
258,248,288683,6,0,P|223:264|99:252,1,140,2|8,1:2|3:2,0:0:0:0:
30,295,289194,1,0,3:2:0:0:
10,207,289365,1,0,1:2:0:0:
10,207,289450,1,0,3:2:0:0:
10,207,289535,1,0,3:2:0:0:
103,177,289706,2,0,P|110:142|117:108,1,70,8|0,3:2|3:2,0:0:0:0:
69,21,290047,6,0,P|126:60|192:45,1,140,2|8,1:2|3:2,0:0:0:0:
282,4,290558,1,0,3:2:0:0:
372,64,290729,1,0,1:2:0:0:
372,64,290814,1,0,3:2:0:0:
372,64,290899,1,0,3:2:0:0:
283,103,291069,2,0,P|271:137|262:170,1,70,8|0,3:2|3:2,0:0:0:0:
173,213,291410,6,0,L|201:365,1,140,2|8,1:2|3:2,0:0:0:0:
291,382,291922,1,0,3:2:0:0:
382,347,292092,1,2,1:2:0:0:
382,347,292177,1,0,3:2:0:0:
382,347,292263,1,0,3:2:0:0:
476,372,292433,1,8,3:2:0:0:
504,277,292604,1,0,3:2:0:0:
412,243,292774,6,0,P|377:247|252:272,1,140,2|8,1:2|3:2,0:0:0:0:
204,336,293285,1,0,3:2:0:0:
106,347,293456,1,2,1:2:0:0:
24,292,293626,1,2,3:3:0:0:
3,195,293797,1,8,3:2:0:0:
52,113,293967,1,2,3:3:0:0:
52,113,294052,1,0,3:0:0:0:
52,113,294138,6,0,L|39:44,2,70,6|2|10,1:1|3:2|3:2,0:0:0:0:
117,186,294649,2,0,P|151:181|185:173,1,70,2|0,3:2|1:2,0:0:0:0:
197,155,294905,1,0,3:0:0:0:
210,138,294990,2,0,P|244:142|278:150,1,70,0|8,3:2|3:2,0:0:0:0:
334,231,295331,1,2,3:2:0:0:
431,242,295501,5,2,1:2:0:0:
502,174,295672,1,2,3:2:0:0:
498,76,295842,1,10,3:2:0:0:
424,10,296013,2,0,P|355:23|286:33,1,140,2|0,3:2|3:2,0:0:0:0:
238,119,296524,2,0,P|242:153|249:187,1,70,10|0,3:2|3:2,0:0:0:0:
312,263,296865,6,0,P|308:297|301:331,1,70,2|0,1:2|3:2,0:0:0:0:
213,378,297206,2,0,P|179:374|145:367,1,70,8|0,3:2|3:2,0:0:0:0:
54,384,297547,1,0,1:2:0:0:
54,384,297632,1,0,3:2:0:0:
54,384,297717,1,0,3:2:0:0:
5,298,297888,2,0,P|9:263|16:228,1,70,8|0,3:2|3:2,0:0:0:0:
92,167,298229,6,0,L|161:157,1,70,2|0,1:2|3:2,0:0:0:0:
236,220,298569,1,10,3:2:0:0:
323,174,298740,2,0,L|392:183,1,70,2|0,3:2|1:2,0:0:0:0:
487,159,299081,1,2,3:2:0:0:
506,66,299251,1,10,3:2:0:0:
506,66,299422,1,2,3:2:0:0:
422,14,299592,6,0,L|283:33,2,140,2|8|0,1:2|3:2|1:2,0:0:0:0:
506,66,300444,1,0,3:2:0:0:
487,159,300615,1,8,3:2:0:0:
508,254,300785,1,0,3:2:0:0:
481,348,300956,2,0,P|414:365|344:372,1,140,6|8,1:2|3:2,0:0:0:0:
267,311,301467,1,0,3:2:0:0:
309,222,301638,1,0,1:2:0:0:
309,222,301808,1,0,3:2:0:0:
262,135,301979,1,8,3:2:0:0:
262,135,302149,1,0,3:2:0:0:
170,169,302319,6,0,L|102:155,1,70,6|0,1:2|3:2,0:0:0:0:
4,170,302660,2,0,L|18:102,1,70,8|0,3:2|3:2,0:0:0:0:
91,35,303001,1,2,1:2:0:0:
91,35,303172,1,0,3:2:0:0:
188,67,303342,1,8,3:2:0:0:
188,67,303513,1,0,3:2:0:0:
273,20,303683,6,0,L|341:11,1,70,2|0,1:2|3:2,0:0:0:0:
416,76,304024,2,0,L|424:144,1,70,8|0,3:2|3:2,0:0:0:0:
409,242,304365,1,2,1:2:0:0:
344,315,304535,1,2,3:3:0:0:
249,342,304706,1,8,3:2:0:0:
151,342,304876,1,2,3:3:0:0:
151,342,304961,1,0,3:0:0:0:
151,342,305047,6,0,L|82:327,1,70,6|0,1:1|3:2,0:0:0:0:
18,252,305388,1,8,3:2:0:0:
96,194,305558,2,0,L|110:125,1,70,0|0,3:2|1:2,0:0:0:0:
180,57,305899,1,0,3:2:0:0:
275,92,306069,1,8,3:2:0:0:
275,92,306240,1,0,3:2:0:0:
289,188,306410,6,0,L|274:256,1,70,6|0,1:1|3:2,0:0:0:0:
308,348,306751,1,8,3:2:0:0:
402,376,306922,2,0,L|470:361,1,70,0|0,3:2|1:2,0:0:0:0:
500,268,307263,1,0,3:2:0:0:
498,170,307433,1,8,3:2:0:0:
469,75,307604,1,0,3:2:0:0:
381,32,307774,6,0,L|346:24,3,35,6|0|0|0,1:1|3:2|3:2|3:2,0:0:0:0:
315,63,308115,2,0,L|280:70,3,35,8|0|0|0,3:2|3:2|3:2|3:2,0:0:0:0:
238,43,308456,2,0,L|203:35,3,35,0|0|0|0,1:2|3:2|3:2|3:2,0:0:0:0:
172,74,308797,2,0,L|137:81,3,35,8|0|0|0,3:2|3:2|3:2|3:2,0:0:0:0:
115,125,309138,2,0,L|122:159,3,35,2|0|0|0,1:2|3:2|3:2|3:2,0:0:0:0:
95,202,309479,2,0,L|87:236,3,35,8|0|0|0,3:2|3:2|3:2|3:2,0:0:0:0:
126,268,309819,2,0,L|133:302,3,35,0|0|0|0,1:2|3:0|3:2|3:2,0:0:0:0:
171,332,310160,1,8,3:2:0:0:
191,336,310246,1,0,3:2:0:0:
211,340,310331,1,0,3:2:0:0:
231,344,310416,1,0,3:2:0:0:
251,348,310501,1,4,1:1:0:0:
