osu file format v14

[General]
AudioFilename: audio.mp3
AudioLeadIn: 0
PreviewTime: 137576
Countdown: 0
SampleSet: Soft
StackLeniency: 0.7
Mode: 0
LetterboxInBreaks: 0
WidescreenStoryboard: 0

[Editor]
Bookmarks: 26184,38456,54820,71184,86184,97093,113456,138002,166638,177547,188456,203456,214366,230729,255275,283229,310501,332319
DistanceSpacing: 0.6
BeatDivisor: 4
GridSize: 32
TimelineZoom: 2.600001

[Metadata]
Title:Lunatic Tears... (Tatsh Remix)
TitleUnicode:Lunatic Tears... (Tatsh Remix)
Artist:Tatsh
ArtistUnicode:Tatsh
Creator:Mordred
Version:Collab Expert
Source:11eyes -罪と罰と贖いの少女-
Tags:niii_san tsumi to batsu to aganai no shoujo visual novel vn instrumental electronic original soundtrack ost arrange
BeatmapID:3001356
BeatmapSetID:1460718

[Difficulty]
HPDrainRate:7
CircleSize:4
OverallDifficulty:9
ApproachRate:9
SliderMultiplier:1.8
SliderTickRate:1

[Events]
//Background and Video events
0,0,"fd_shi14_22.jpg",0,0
//Break Periods
2,177747,185129
//Storyboard Layer 0 (Background)
//Storyboard Layer 1 (Fail)
//Storyboard Layer 2 (Pass)
//Storyboard Layer 3 (Foreground)
//Storyboard Layer 4 (Overlay)
//Storyboard Sound Samples

[TimingPoints]
4366,340.909090909091,4,2,1,70,1,0
283229,340.909090909091,4,2,1,80,1,0

[Colours]
Combo1 : 250,180,240
Combo2 : 110,190,225
Combo3 : 255,230,130
Combo4 : 150,230,140

[HitObjects]
191,146,4366,6,0,L|176:57,1,90,4|0,1:2|0:2,0:2:0:0:
176,57,4621,1,0,0:2:0:0:
176,57,4706,1,8,0:2:0:0:
176,57,4792,1,0,0:2:0:0:
176,57,4877,1,0,0:2:0:0:
302,127,5047,2,0,L|390:112,1,90,0|0,1:2|0:2,0:2:0:0:
390,111,5302,1,0,0:2:0:0:
390,111,5387,1,8,0:2:0:0:
390,111,5473,1,0,0:2:0:0:
390,111,5558,1,0,0:2:0:0:
321,238,5729,2,0,L|335:326,1,90,0|0,1:2|0:2,0:2:0:0:
335,326,5984,1,0,0:2:0:0:
335,326,6070,1,8,0:2:0:0:
335,326,6155,1,0,0:2:0:0:
335,326,6240,1,0,0:2:0:0:
210,257,6411,2,0,L|121:271,1,90,0|0,1:2|0:2,0:2:0:0:
121,270,6666,1,0,0:2:0:0:
121,270,6751,1,8,0:2:0:0:
121,270,6837,1,0,0:2:0:0:
121,270,6922,1,0,0:2:0:0:
0,128,7093,6,0,P|41:144|86:144,1,90,0|0,1:2|0:2,0:2:0:0:
86,144,7348,1,0,0:2:0:0:
86,144,7434,1,8,0:2:0:0:
86,144,7519,1,0,0:2:0:0:
86,144,7604,1,0,0:2:0:0:
136,48,7775,2,0,P|177:31|222:31,1,90,0|0,1:2|0:2,0:2:0:0:
222,31,8030,1,0,0:2:0:0:
222,31,8116,1,8,0:2:0:0:
222,31,8201,1,0,0:2:0:0:
222,31,8286,1,0,0:2:0:0:
267,133,8456,2,0,P|308:149|353:149,1,90,0|0,1:2|0:2,0:2:0:0:
353,148,8711,1,0,0:2:0:0:
353,148,8797,1,8,0:2:0:0:
353,148,8882,1,0,0:2:0:0:
353,148,8967,1,0,0:2:0:0:
402,53,9138,2,0,P|443:36|488:36,1,90,0|0,1:2|0:2,0:2:0:0:
488,36,9393,1,0,0:2:0:0:
488,36,9479,1,8,0:2:0:0:
488,36,9564,1,0,0:2:0:0:
488,36,9649,1,0,0:2:0:0:
512,192,9820,6,0,L|423:173,1,90,2|0,1:2|0:2,0:2:0:0:
423,173,10076,1,0,0:2:0:0:
423,173,10161,1,8,0:2:0:0:
423,173,10246,1,0,0:2:0:0:
423,173,10331,1,0,0:2:0:0:
445,366,10502,2,0,L|463:277,1,90,2|0,1:2|0:2,0:2:0:0:
463,277,10758,1,0,0:2:0:0:
463,277,10843,1,8,0:2:0:0:
463,277,10928,1,0,0:2:0:0:
463,277,11013,1,0,0:2:0:0:
271,299,11184,2,0,L|359:317,1,90,2|0,1:2|0:2,0:2:0:0:
359,317,11440,1,0,0:2:0:0:
359,317,11525,1,8,0:2:0:0:
359,317,11610,1,0,0:2:0:0:
359,317,11695,1,0,0:2:0:0:
338,124,11866,2,0,L|319:212,1,90,2|0,1:2|0:2,0:2:0:0:
319,212,12121,1,0,0:2:0:0:
319,212,12206,1,8,0:2:0:0:
319,212,12292,1,0,0:2:0:0:
319,212,12377,1,0,0:2:0:0:
129,219,12547,6,0,L|110:130,1,90,2|0,1:2|0:2,0:2:0:0:
110,130,12803,1,0,0:2:0:0:
110,130,12888,1,8,0:2:0:0:
110,130,12973,1,0,0:2:0:0:
110,130,13059,1,0,0:2:0:0:
96,309,13229,2,0,L|28:368,1,90,2|0,1:2|0:2,0:2:0:0:
28,368,13485,1,0,0:2:0:0:
28,368,13570,1,8,0:2:0:0:
28,368,13655,1,0,0:2:0:0:
28,368,13741,1,0,0:2:0:0:
191,293,13911,2,0,L|276:321,1,90,2|0,1:2|0:2,0:2:0:0:
276,321,14167,1,0,0:2:0:0:
276,321,14252,1,8,0:2:0:0:
276,321,14337,1,0,0:2:0:0:
276,321,14422,1,0,0:2:0:0:
434,303,14593,5,2,1:2:0:0:
442,223,14764,1,2,1:2:0:0:
450,143,14934,1,10,0:2:0:0:
426,383,15104,1,2,1:2:0:0:
458,63,15275,5,6,1:2:0:0:
385,97,15445,2,0,P|336:112|220:45,1,180,2|0,0:2|0:2,0:2:0:0:
226,57,15956,1,2,1:2:0:0:
33,151,16127,2,0,P|95:114|194:147,1,180,2|0,0:2|0:2,0:2:0:0:
192,145,16638,1,2,1:2:0:0:
80,376,16809,2,0,L|115:193,1,180,2|0,0:2|0:2,0:2:0:0:
184,246,17320,2,0,L|272:229,1,90,2|0,1:2|0:2,0:2:0:0:
474,132,17661,2,0,L|385:148,1,90,10|0,0:2|0:2,0:2:0:0:
316,334,18002,5,2,1:2:0:0:
375,384,18172,2,0,L|343:206,1,180,2|0,0:2|0:2,0:2:0:0:
343,206,18684,1,2,1:2:0:0:
471,300,18854,2,0,L|503:122,1,180,2|0,0:2|0:2,0:2:0:0:
502,122,19366,1,2,1:2:0:0:
336,0,19536,2,0,P|407:44|386:126,1,180,2|0,0:2|0:2,0:2:0:0:
304,176,20047,2,0,L|207:161,1,90,2|0,1:2|0:2,0:2:0:0:
0,288,20388,2,0,L|88:274,1,90,10|0,0:2|0:2,0:2:0:0:
284,350,20729,5,2,1:2:0:0:
211,383,20900,2,0,P|162:314|199:236,1,180,2|0,0:2|0:2,0:2:0:0:
199,236,21411,1,2,1:2:0:0:
40,134,21581,2,0,L|223:163,1,180,2|0,0:2|0:2,0:2:0:0:
217,162,22093,1,2,1:2:0:0:
353,43,22263,2,0,L|175:71,1,180,2|0,0:2|0:2,0:2:0:0:
100,124,22775,2,0,L|85:35,1,90,2|0,1:2|0:2,0:2:0:0:
416,98,23116,2,0,L|430:186,1,90,10|0,0:2|0:2,0:2:0:0:
292,356,23456,5,2,1:2:0:0:
235,300,23627,2,0,P|317:323|375:260,1,180,2|0,0:2|0:2,0:2:0:0:
375,260,24138,1,2,1:2:0:0:
204,384,24309,2,0,P|179:297|146:213,1,180,2|0,0:2|0:2,0:2:0:0:
52,199,24820,5,2,1:2:0:0:
52,26,24991,1,0,0:2:0:0:
200,112,25161,1,10,0:2:0:0:
102,112,25331,1,0,0:2:0:0:
151,26,25502,5,6,1:2:0:0:
1,112,25673,1,2,1:2:0:0:
151,198,25843,1,14,0:2:0:0:
0,284,26013,1,2,1:2:0:0:
42,357,26184,5,6,1:1:0:0:
42,357,26354,2,0,P|85:366|130:369,1,90,2|8,0:2|0:2,0:2:0:0:
267,271,26695,2,0,P|250:230|239:186,1,90,2|0,0:2|1:2,0:2:0:0:
239,185,26951,1,0,3:2:0:0:
239,185,27036,2,0,P|196:194|151:197,1,90,2|8,0:2|0:2,0:2:0:0:
287,7,27377,1,2,0:2:0:0:
362,32,27547,5,2,1:2:0:0:
362,32,27718,2,0,P|357:79|346:128,1,90,2|8,0:2|0:2,0:2:0:0:
401,293,28059,2,0,P|406:246|417:197,1,90,2|0,0:2|1:2,0:2:0:0:
415,205,28314,1,0,3:2:0:0:
415,205,28400,2,0,P|459:202|503:193,1,90,2|8,0:2|0:2,0:2:0:0:
348,378,28741,1,2,0:2:0:0:
284,341,28911,5,2,1:2:0:0:
284,341,29081,2,0,P|239:343|194:352,1,90,2|8,0:2|0:2,0:2:0:0:
64,224,29422,2,0,P|108:232|153:235,1,90,2|0,0:2|1:2,0:2:0:0:
153,235,29678,1,0,3:2:0:0:
153,235,29763,2,0,P|152:187|145:137,1,90,2|8,0:2|0:2,0:2:0:0:
383,235,30104,1,2,0:2:0:0:
450,192,30275,5,2,1:2:0:0:
450,192,30445,2,0,P|451:144|458:94,1,90,2|8,0:2|0:2,0:2:0:0:
299,7,30786,2,0,P|304:51|305:96,1,90,2|0,0:2|1:2,0:2:0:0:
305,96,31042,1,0,3:2:0:0:
305,96,31127,2,0,P|261:105|215:108,1,90,2|8,0:2|0:2,0:2:0:0:
45,263,31468,1,2,0:2:0:0:
117,295,31638,5,6,1:2:0:0:
117,295,31809,2,0,P|110:338|99:382,1,90,2|8,0:2|0:2,0:2:0:0:
322,184,32150,2,0,P|311:140|304:95,1,90,2|0,0:2|1:2,0:2:0:0:
339,28,32405,1,0,3:2:0:0:
339,28,32491,2,0,P|384:23|428:14,1,90,2|8,0:2|0:2,0:2:0:0:
190,184,32831,1,2,0:2:0:0:
122,143,33002,5,2,1:2:0:0:
122,143,33172,2,0,P|133:99|140:54,1,90,2|8,0:2|0:2,0:2:0:0:
327,254,33513,2,0,P|334:297|345:341,1,90,2|0,0:2|1:2,0:2:0:0:
280,382,33769,1,0,3:2:0:0:
280,382,33854,2,0,P|235:377|191:368,1,90,2|8,0:2|0:2,0:2:0:0:
470,229,34195,1,2,0:2:0:0:
415,172,34366,5,0,1:2:0:0:
245,248,34536,1,0,3:2:0:0:
283,224,34621,1,0,3:2:0:0:
321,200,34706,1,8,0:2:0:0:
340,2,34877,5,0,3:2:0:0:
302,26,34962,1,0,3:2:0:0:
264,50,35047,1,0,1:2:0:0:
415,172,35218,5,0,3:2:0:0:
391,134,35303,1,0,3:2:0:0:
367,96,35388,1,8,0:2:0:0:
168,76,35559,5,0,3:2:0:0:
192,114,35644,1,0,3:2:0:0:
216,152,35729,1,0,1:2:0:0:
57,297,35900,5,0,3:2:0:0:
40,276,35985,1,0,3:2:0:0:
28,251,36070,1,8,3:2:0:0:
22,225,36155,1,0,3:2:0:0:
24,198,36241,1,0,3:2:0:0:
33,176,36326,1,0,3:2:0:0:
54,153,36411,1,0,1:2:0:0:
83,143,36496,1,0,3:2:0:0:
109,125,36582,1,0,3:2:0:0:
126,99,36667,1,0,3:2:0:0:
126,67,36752,1,8,3:2:0:0:
114,37,36837,1,0,3:2:0:0:
91,14,36922,1,0,3:2:0:0:
256,192,37093,12,6,38456,1:1:0:0:
240,134,38797,5,2,1:2:0:0:
213,234,38968,1,2,0:2:0:0:
313,207,39138,2,0,P|357:216|399:233,1,90,2|0,1:2|0:2,0:2:0:0:
140,160,39479,2,0,P|96:150|54:134,1,90,2|0,1:2|0:2,0:2:0:0:
39,123,39735,1,0,0:2:0:0:
25,112,39820,2,0,L|18:18,1,90,2|0,1:2|0:2,0:2:0:0:
240,134,40161,2,0,L|246:223,1,90,2|0,1:2|0:2,0:2:0:0:
480,384,40502,5,2,1:2:0:0:
512,192,40672,1,2,0:2:0:0:
320,160,40843,1,2,1:2:0:0:
288,352,41013,1,2,0:2:0:0:
467,283,41184,5,2,1:2:0:0:
388,339,41354,1,0,0:2:0:0:
332,260,41524,1,0,1:2:0:0:
411,204,41695,1,0,0:2:0:0:
388,339,41866,5,2,1:2:0:0:
256,384,42036,1,0,0:2:0:0:
117,355,42206,1,0,1:2:0:0:
11,260,42377,1,0,0:2:0:0:
109,190,42547,6,0,P|101:234|88:277,1,90,2|0,1:2|0:2,0:2:0:0:
256,384,42888,2,0,P|248:339|235:296,1,90,2|0,1:2|0:2,0:2:0:0:
109,190,43229,5,2,1:2:0:0:
288,224,43400,1,2,0:2:0:0:
467,258,43570,1,2,1:2:0:0:
0,98,43911,5,2,1:2:0:0:
448,32,44252,1,2,1:2:0:0:
352,71,44422,1,2,0:2:0:0:
433,135,44593,2,0,P|444:178|451:223,1,90,2|0,1:2|0:2,0:2:0:0:
273,198,44934,2,0,P|262:154|256:110,1,90,2|0,1:2|0:2,0:2:0:0:
238,96,45189,1,0,0:2:0:0:
220,82,45275,2,0,L|130:69,1,90,2|0,1:2|0:2,0:2:0:0:
229,278,45616,2,0,L|318:290,1,90,2|0,1:2|0:2,0:2:0:0:
512,160,45956,5,2,1:2:0:0:
438,321,46127,1,2,0:2:0:0:
336,177,46297,1,2,1:2:0:0:
409,15,46468,1,2,0:2:0:0:
373,97,46638,5,2,1:2:0:0:
284,107,46809,1,0,0:2:0:0:
195,117,46979,1,0,1:2:0:0:
106,127,47150,1,0,0:2:0:0:
336,177,47320,5,2,1:2:0:0:
231,35,47491,1,0,0:2:0:0:
53,55,47661,1,0,1:2:0:0:
160,200,47831,1,0,0:2:0:0:
111,275,48002,6,0,P|68:289|23:293,1,90,2|0,1:2|0:2,0:2:0:0:
248,195,48343,2,0,P|291:181|336:177,1,90,2|0,1:2|0:2,0:2:0:0:
267,345,48684,5,2,1:2:0:0:
160,200,48854,1,2,0:2:0:0:
53,55,49025,2,0,L|230:83,1,180,2|2,1:2|1:2,0:2:0:0:
230,83,49706,5,2,1:2:0:0:
320,32,49877,1,2,0:2:0:0:
416,64,50047,2,0,L|430:152,1,90,2|0,1:2|0:2,0:2:0:0:
512,352,50388,2,0,L|498:264,1,90,2|0,1:2|0:2,0:2:0:0:
479,249,50644,1,0,0:2:0:0:
461,235,50729,2,0,L|373:249,1,90,2|0,1:2|0:2,0:2:0:0:
256,352,51070,2,0,L|168:338,1,90,2|0,1:2|0:2,0:2:0:0:
18,208,51411,5,2,1:2:0:0:
210,144,51581,1,2,0:2:0:0:
92,308,51752,1,2,1:2:0:0:
211,270,51922,1,2,0:2:0:0:
92,106,52093,5,2,1:2:0:0:
210,144,52263,1,0,0:2:0:0:
92,106,52434,1,0,1:2:0:0:
210,144,52604,1,0,0:2:0:0:
184,23,52775,5,2,1:2:0:0:
118,227,52945,1,0,0:2:0:0:
184,23,53116,1,0,1:2:0:0:
118,227,53286,1,0,0:2:0:0:
64,161,53456,6,0,L|-24:145,1,90,2|0,1:2|0:2,0:2:0:0:
172,293,53797,2,0,L|260:308,1,90,2|0,1:2|0:2,0:2:0:0:
0,352,54138,5,2,1:2:0:0:
118,227,54309,1,2,0:2:0:0:
236,102,54479,1,2,1:2:0:0:
512,352,54820,5,2,1:2:0:0:
159,36,55161,1,2,1:2:0:0:
236,102,55331,1,2,0:2:0:0:
304,26,55502,2,0,P|347:18|391:6,1,90,2|0,1:2|0:2,0:2:0:0:
510,151,55843,2,0,P|499:193|491:238,1,90,2|0,1:2|0:2,0:2:0:0:
476,255,56098,1,0,0:2:0:0:
460,271,56184,2,0,L|371:259,1,90,2|0,1:2|0:2,0:2:0:0:
202,384,56525,2,0,L|214:295,1,90,2|0,1:2|0:2,0:2:0:0:
292,112,56866,5,2,1:2:0:0:
110,34,57036,1,2,0:2:0:0:
32,216,57207,1,2,1:2:0:0:
214,294,57377,1,2,0:2:0:0:
233,193,57547,5,2,1:2:0:0:
103,138,57717,1,0,0:2:0:0:
196,100,57888,1,0,1:2:0:0:
140,231,58058,1,0,0:2:0:0:
196,100,58229,5,2,1:2:0:0:
310,187,58400,1,0,0:2:0:0:
450,159,58570,1,0,1:2:0:0:
483,18,58741,1,0,0:2:0:0:
306,59,58911,6,0,L|394:69,1,90,2|0,1:2|0:2,0:2:0:0:
479,302,59252,2,0,L|390:288,1,90,2|0,1:2|0:2,0:2:0:0:
306,59,59593,5,2,1:2:0:0:
233,215,59763,1,2,0:2:0:0:
160,372,59934,1,2,1:2:0:0:
466,88,60275,5,2,1:2:0:0:
78,142,60616,1,2,1:2:0:0:
111,236,60786,1,2,0:2:0:0:
174,100,60956,2,0,P|165:56|153:13,1,90,2|0,1:2|0:2,0:2:0:0:
204,203,61297,2,0,P|249:194|292:182,1,90,2|0,1:2|0:2,0:2:0:0:
314,187,61553,1,0,0:2:0:0:
336,191,61638,2,0,L|323:290,1,90,2|0,1:2|0:2,0:2:0:0:
468,383,61979,2,0,L|380:363,1,90,2|0,1:2|0:2,0:2:0:0:
182,379,62320,5,2,1:2:0:0:
33,293,62491,1,2,0:2:0:0:
182,207,62661,1,2,1:2:0:0:
33,121,62832,1,2,0:2:0:0:
182,37,63002,5,2,1:2:0:0:
231,122,63172,1,0,0:2:0:0:
182,207,63343,1,0,1:2:0:0:
84,207,63513,1,0,0:2:0:0:
133,122,63684,5,2,1:2:0:0:
280,207,63854,1,0,0:2:0:0:
444,163,64025,1,0,1:2:0:0:
297,78,64195,1,0,0:2:0:0:
373,15,64366,6,0,P|417:19|460:33,1,90,2|0,1:2|0:2,0:2:0:0:
220,140,64706,2,0,P|175:135|133:121,1,90,2|0,1:2|0:2,0:2:0:0:
263,336,65047,5,2,1:2:0:0:
386,220,65218,1,2,0:2:0:0:
509,105,65388,2,0,P|460:33|370:16,1,180,2|2,1:2|1:2,0:2:0:0:
373,15,66070,5,2,1:2:0:0:
303,72,66241,1,2,0:2:0:0:
224,28,66411,2,0,P|181:20|137:8,1,90,2|0,1:2|0:2,0:2:0:0:
5,153,66752,2,0,P|16:195|24:240,1,90,2|0,1:2|0:2,0:2:0:0:
44,251,67008,1,0,0:2:0:0:
64,260,67093,2,0,L|156:243,1,90,2|0,1:2|0:2,0:2:0:0:
324,384,67434,2,0,L|307:292,1,90,2|0,1:2|0:2,0:2:0:0:
204,88,67775,5,2,1:2:0:0:
359,140,67945,1,2,0:2:0:0:
502,62,68116,1,2,1:2:0:0:
347,10,68286,1,2,0:2:0:0:
282,115,68456,5,2,1:2:0:0:
445,248,68627,1,0,0:2:0:0:
297,263,68797,1,0,1:2:0:0:
430,100,68968,1,0,0:2:0:0:
297,263,69138,5,2,1:2:0:0:
161,256,69309,1,0,0:2:0:0:
52,174,69479,1,0,1:2:0:0:
7,45,69650,1,0,0:2:0:0:
165,4,69820,5,2,1:2:0:0:
191,0,69905,1,0,3:2:0:0:
218,4,69990,1,0,3:2:0:0:
241,16,70075,1,0,3:2:0:0:
260,36,70160,1,2,1:2:0:0:
271,60,70246,1,0,3:2:0:0:
274,87,70331,1,0,3:2:0:0:
268,113,70416,1,0,3:2:0:0:
253,136,70502,1,2,1:2:0:0:
238,158,70587,1,0,3:2:0:0:
232,185,70672,1,0,3:2:0:0:
235,211,70757,1,0,3:2:0:0:
246,236,70843,1,2,1:2:0:0:
265,255,70928,1,0,3:2:0:0:
288,268,71013,1,0,3:2:0:0:
315,272,71098,1,0,3:2:0:0:
338,265,71184,6,0,L|154:249,2,180,6|8|2,1:1|0:2|1:2,0:2:0:0:
502,165,72036,1,0,0:2:0:0:
477,337,72206,1,8,0:2:0:0:
419,215,72377,1,0,0:2:0:0:
359,86,72548,2,0,L|224:75,1,135,2|0,1:2|0:2,0:2:0:0:
164,32,72888,2,0,L|74:39,1,90,8|0,0:2|0:2,0:2:0:0:
0,224,73229,1,2,1:2:0:0:
74,38,73400,1,0,0:2:0:0:
190,206,73570,1,8,0:2:0:0:
0,114,73741,1,0,0:2:0:0:
190,206,73911,6,0,P|230:257|181:349,1,180,2|8,1:2|0:2,0:2:0:0:
107,355,74422,1,0,0:2:0:0:
256,272,74593,1,0,1:2:0:0:
352,352,74763,1,0,0:2:0:0:
480,320,74934,1,8,0:2:0:0:
512,192,75104,1,0,0:2:0:0:
359,53,75275,6,0,L|385:232,1,180,2|8,1:2|0:2,0:2:0:0:
385,231,75956,2,0,L|474:243,1,90,2|0,1:2|0:2,0:2:0:0:
141,113,76297,2,0,L|28:97,1,90,10|0,0:2|0:2,0:2:0:0:
192,384,76638,6,0,L|215:205,1,180,2|8,1:2|0:2,0:2:0:0:
266,140,77150,1,0,0:2:0:0:
298,216,77320,1,2,1:2:0:0:
107,289,77491,1,0,0:2:0:0:
330,292,77661,1,8,0:2:0:0:
215,205,77831,1,0,0:2:0:0:
482,134,78002,6,0,P|474:178|461:221,1,90,2|0,1:2|0:2,0:2:0:0:
350,379,78343,2,0,P|343:334|330:292,1,90,8|0,0:2|0:2,0:2:0:0:
132,206,78684,2,0,P|88:195|47:178,1,90,2|0,1:2|0:2,0:2:0:0:
396,162,79025,2,0,P|440:151|482:133,1,90,8|0,0:2|0:2,0:2:0:0:
256,0,79366,5,2,1:2:0:0:
192,96,79536,1,0,0:2:0:0:
288,192,79706,1,8,0:2:0:0:
256,352,79877,1,0,0:2:0:0:
95,216,80047,5,2,1:2:0:0:
385,72,80218,1,0,0:2:0:0:
192,96,80388,1,10,0:2:0:0:
288,192,80559,1,0,0:2:0:0:
149,335,80729,5,2,1:2:0:0:
198,262,80900,1,0,0:2:0:0:
271,311,81070,1,8,0:2:0:0:
222,384,81241,1,0,0:2:0:0:
32,160,81411,5,2,1:2:0:0:
32,160,81581,1,0,0:2:0:0:
480,224,81752,1,10,0:2:0:0:
480,224,81922,1,0,0:2:0:0:
243,0,82093,6,0,B|214:48|214:48|247:138,1,135,2|0,1:2|0:2,0:2:0:0:
307,151,82434,2,0,L|396:162,1,90,8|0,0:2|0:2,0:2:0:0:
466,122,82775,1,2,1:2:0:0:
247,205,82945,1,0,0:2:0:0:
384,352,83116,2,0,L|373:263,1,90,10|0,0:2|0:2,0:2:0:0:
447,10,83456,5,2,1:2:0:0:
431,26,83541,1,0,3:2:0:0:
414,41,83626,1,0,3:2:0:0:
396,54,83711,1,0,3:2:0:0:
376,65,83796,1,8,3:2:0:0:
356,75,83882,1,0,3:2:0:0:
335,82,83967,1,0,3:2:0:0:
313,88,84052,1,0,3:2:0:0:
291,92,84137,1,0,1:2:0:0:
268,93,84223,1,0,3:2:0:0:
246,93,84308,1,0,3:2:0:0:
224,90,84393,1,0,3:2:0:0:
202,86,84478,1,8,3:2:0:0:
180,79,84563,1,0,3:2:0:0:
159,71,84649,1,0,3:2:0:0:
139,60,84734,1,0,3:2:0:0:
121,49,84820,5,0,1:2:0:0:
152,37,84905,1,0,3:2:0:0:
185,31,84990,1,0,3:2:0:0:
219,32,85075,1,0,3:2:0:0:
252,38,85160,1,8,3:2:0:0:
283,51,85246,1,0,3:2:0:0:
312,69,85331,1,0,3:2:0:0:
336,92,85416,1,0,3:2:0:0:
356,119,85501,1,0,1:2:0:0:
371,150,85587,1,0,3:2:0:0:
379,182,85672,1,0,3:2:0:0:
382,216,85757,1,0,3:2:0:0:
378,250,85842,1,8,3:2:0:0:
368,282,85927,1,0,3:2:0:0:
353,312,86013,1,0,3:2:0:0:
332,338,86098,1,0,3:2:0:0:
306,360,86183,1,4,1:1:0:0:
184,383,86354,6,0,L|177:198,1,180,0|0,0:2|0:2,0:2:0:0:
177,203,86866,1,0,1:2:0:0:
328,1,87036,2,0,L|335:186,1,180,0|0,0:2|0:2,0:2:0:0:
334,180,87547,1,0,1:2:0:0:
171,24,87718,2,0,P|98:65|3:86,1,180,0|0,0:2|0:2,0:2:0:0:
4,85,88229,1,0,1:2:0:0:
4,85,88314,1,0,0:2:0:0:
4,85,88400,1,0,0:2:0:0:
177,203,88570,2,0,P|213:176|254:158,1,90,8|0,0:2|0:2,0:2:0:0:
420,335,88911,5,0,1:2:0:0:
481,287,89081,2,0,P|391:273|292:263,1,180,0|0,0:2|0:2,0:2:0:0:
302,263,89593,1,0,1:2:0:0:
119,142,89763,2,0,P|208:132|297:118,1,180,0|0,0:2|0:2,0:2:0:0:
297,117,90275,1,0,1:2:0:0:
261,384,90445,2,0,P|170:337|157:258,1,180,0|0,0:2|0:2,0:2:0:0:
155,267,90956,1,0,1:2:0:0:
155,267,91042,1,0,0:2:0:0:
155,267,91127,1,0,0:2:0:0:
470,200,91297,2,0,P|485:258|473:303,1,90,8|0,0:2|0:2,0:2:0:0:
297,117,91638,5,0,1:2:0:0:
363,69,91809,2,0,L|182:49,1,180,0|0,0:2|0:2,0:2:0:0:
184,49,92320,1,0,1:2:0:0:
0,209,92491,2,0,L|178:189,1,180,0|0,0:2|0:2,0:2:0:0:
178,189,93002,1,0,1:2:0:0:
261,384,93172,2,0,P|361:352|397:283,1,180,0|0,0:2|0:2,0:2:0:0:
395,290,93684,1,0,1:2:0:0:
395,290,93769,1,0,0:2:0:0:
395,290,93854,1,0,0:2:0:0:
178,188,94025,2,0,L|191:93,1,90,8|0,0:2|0:2,0:2:0:0:
415,10,94366,5,0,1:2:0:0:
483,53,94536,2,0,P|449:127|431:229,1,180,0|0,0:2|0:2,0:2:0:0:
431,223,95047,1,0,1:2:0:0:
307,381,95218,2,0,P|299:299|264:202,1,180,0|0,0:2|0:2,0:2:0:0:
91,153,95729,5,0,0:2:0:0:
348,176,96070,1,0,0:2:0:0:
209,293,96411,1,0,0:2:0:0:
231,37,96752,1,0,0:2:0:0:
31,321,97093,6,0,P|119:301|209:293,1,180,6|10,1:2|0:2,0:2:0:0:
480,384,97604,2,0,P|392:363|302:355,1,180,2|2,0:2|0:2,0:2:0:0:
209,293,98116,1,10,0:2:0:0:
383,192,98286,2,0,P|394:235|398:280,1,90,2|0,0:2|1:2,0:2:0:0:
229,184,98627,2,0,P|233:139|244:96,1,90,2|8,0:2|0:2,0:2:0:0:
128,384,98968,2,0,P|123:339|113:295,1,90,2|0,0:2|1:2,0:2:0:0:
48,223,99309,1,2,0:2:0:0:
209,293,99479,2,0,P|252:303|297:307,1,90,10|0,0:2|0:2,0:2:0:0:
512,107,99820,6,0,P|425:116|380:191,1,180,2|10,1:2|0:2,0:2:0:0:
152,43,100331,2,0,P|238:52|283:127,1,180,2|2,0:2|0:2,0:2:0:0:
277,244,100843,1,10,0:2:0:0:
82,104,101013,2,0,P|64:62|57:18,1,90,2|0,0:2|1:2,0:2:0:0:
185,261,101354,2,0,P|192:216|209:175,1,90,2|8,0:2|0:2,0:2:0:0:
512,192,101695,2,0,P|504:236|487:277,1,90,2|0,0:2|1:2,0:2:0:0:
319,384,102036,1,2,0:2:0:0:
417,333,102206,1,10,0:2:0:0:
235,315,102377,1,2,0:2:0:0:
51,298,102547,6,0,L|12:122,1,180,2|10,1:2|0:2,0:2:0:0:
256,384,103059,2,0,L|294:208,1,180,2|2,0:2|0:2,0:2:0:0:
154,341,103570,1,10,0:2:0:0:
384,256,103741,2,0,L|472:275,1,90,2|0,0:2|1:2,0:2:0:0:
154,341,104081,2,0,L|66:321,1,90,2|8,0:2|0:2,0:2:0:0:
312,120,104422,2,0,L|294:208,1,90,2|0,0:2|1:2,0:2:0:0:
224,274,104763,1,2,0:2:0:0:
382,54,104934,2,0,L|470:34,1,90,10|0,0:2|0:2,0:2:0:0:
499,360,105275,6,0,P|416:336|384:256,1,180,2|10,1:2|0:2,0:2:0:0:
32,288,105786,2,0,P|115:264|147:183,2,180,2|2|2,0:2|0:2|0:2,0:2:0:0:
0,64,106638,5,2,1:2:0:0:
22,67,106723,1,0,3:2:0:0:
44,70,106809,1,0,3:2:0:0:
66,73,106894,1,0,3:2:0:0:
88,76,106979,1,8,3:2:0:0:
110,79,107064,1,0,3:2:0:0:
132,82,107150,1,0,3:2:0:0:
154,85,107235,1,0,3:2:0:0:
160,117,107320,5,2,1:2:0:0:
204,111,107405,1,0,1:2:0:0:
248,105,107491,1,0,1:2:0:0:
292,99,107576,1,0,1:2:0:0:
336,93,107662,1,8,1:2:0:0:
380,87,107746,1,0,1:2:0:0:
424,81,107831,1,0,1:2:0:0:
468,75,107917,1,0,1:2:0:0:
512,69,108002,1,4,1:1:0:0:
494,236,108343,6,0,P|453:251|408:257,1,90,10|0,0:2|0:2,0:2:0:0:
256,384,108684,1,2,1:2:0:0:
211,378,108769,1,0,0:2:0:0:
169,362,108854,1,0,0:2:0:0:
64,256,109025,2,0,P|48:214|42:169,1,90,10|0,0:2|0:2,0:2:0:0:
342,333,109366,6,0,L|429:352,1,90,2|0,1:2|0:2,0:2:0:0:
87,340,109706,2,0,L|0:321,1,90,10|0,0:2|0:2,0:2:0:0:
240,240,110047,1,2,1:2:0:0:
249,196,110132,1,0,0:2:0:0:
259,152,110217,1,0,0:2:0:0:
429,352,110388,2,0,L|410:265,1,90,10|0,0:2|0:2,0:2:0:0:
512,64,110729,6,0,P|475:90|435:110,1,90,2|0,1:2|0:2,0:2:0:0:
178,111,111070,2,0,P|214:84|254:64,1,90,10|0,0:2|0:2,0:2:0:0:
512,252,111411,2,0,L|338:207,1,180,2|8,1:2|0:2,0:2:0:0:
0,64,112093,6,0,P|36:90|76:110,1,90,2|0,1:2|0:2,0:2:0:0:
435,110,112434,2,0,P|398:83|358:63,1,90,10|0,0:2|0:2,0:2:0:0:
64,352,112775,2,0,L|238:307,1,180,2|8,1:2|0:2,0:2:0:0:
303,338,113201,1,8,0:2:0:0:
373,352,113286,1,8,0:2:0:0:
440,328,113371,1,8,0:2:0:0:
479,268,113456,6,0,P|467:217|461:170,1,90,6|0,1:1|0:2,0:2:0:0:
490,107,113797,1,2,1:2:0:0:
490,107,113968,2,0,P|400:90|310:70,1,180,2|0,0:2|0:2,0:2:0:0:
154,50,114479,2,0,P|196:36|239:21,1,90,2|0,1:2|0:2,0:2:0:0:
380,269,114820,6,0,P|345:240|301:233,1,90,2|0,1:2|0:2,0:2:0:0:
70,183,115161,1,2,1:2:0:0:
70,183,115331,2,0,P|157:168|225:110,1,180,2|0,0:2|0:2,0:2:0:0:
302,232,115843,2,0,P|296:283|287:332,1,90,2|0,1:2|0:2,0:2:0:0:
422,196,116184,2,0,P|433:100|450:8,1,180,2|0,1:2|1:2,0:2:0:0:
162,68,116695,1,2,0:2:0:0:
225,109,116866,2,0,P|203:196|188:285,1,180,2|0,1:2|1:2,0:2:0:0:
388,384,117377,1,0,0:2:0:0:
388,384,117547,2,0,P|487:345|513:281,2,180,0|0|0,1:2|1:2|1:2,0:2:0:0:
1,235,118570,5,2,1:2:0:0:
70,183,118741,1,2,0:2:0:0:
139,131,118911,2,0,L|332:163,1,180,2|0,1:2|1:2,0:2:0:0:
497,43,119422,2,0,L|304:75,1,180,2|0,0:2|0:2,0:2:0:0:
441,201,119934,2,0,L|430:298,1,90,2|0,1:2|0:2,0:2:0:0:
219,157,120275,6,0,L|229:67,1,90,2|0,1:2|0:2,0:2:0:0:
195,0,120616,1,2,1:2:0:0:
195,0,120786,2,0,P|88:6|44:59,1,180,2|0,0:2|0:2,0:2:0:0:
209,246,121297,5,2,1:2:0:0:
219,157,121468,1,2,0:2:0:0:
138,192,121638,2,0,L|45:183,1,90,2|0,1:2|0:2,0:2:0:0:
290,210,121979,1,2,1:2:0:0:
290,210,122150,2,0,L|482:228,1,180,2|0,0:2|0:2,0:2:0:0:
512,161,122661,2,0,P|487:114|469:70,1,90,2|0,1:2|0:2,0:2:0:0:
290,210,123002,2,0,L|241:399,2,180,2|0|0,1:2|1:2|1:2,0:2:0:0:
171,24,124025,5,2,1:2:0:0:
171,24,124195,1,2,0:2:0:0:
171,24,124366,2,0,P|98:65|3:86,1,180,2|0,1:2|1:2,0:2:0:0:
4,85,124877,1,2,0:2:0:0:
170,190,125047,2,0,P|206:163|247:145,1,90,0|0,1:2|0:2,0:2:0:0:
434,208,125388,5,2,1:2:0:0:
434,208,125559,1,2,0:2:0:0:
434,208,125729,2,0,P|457:103|503:22,1,180,2|0,1:2|1:2,0:2:0:0:
490,39,126241,1,2,0:2:0:0:
286,13,126411,2,0,P|305:53|314:97,1,90,0|0,1:2|0:2,0:2:0:0:
201,296,126752,6,0,L|215:197,1,90,2|0,1:2|0:2,0:2:0:0:
324,328,127093,2,0,P|425:336|508:356,1,180,2|0,1:2|1:2,0:2:0:0:
501,353,127604,1,2,0:2:0:0:
369,146,127775,2,0,P|301:201|212:206,3,180,2|0|0|0,1:2|1:2|1:2|1:2,0:2:0:0:
447,340,129138,6,0,P|463:251|483:163,1,180,2|2,1:2|1:2,0:2:0:0:
65,44,129820,2,0,P|48:132|28:220,1,180,2|0,1:2|1:2,0:2:0:0:
250,322,130331,2,0,L|73:285,1,180,2|0,0:2|0:2,0:2:0:0:
350,100,130843,2,0,P|339:143|331:188,1,90,2|0,1:2|0:2,0:2:0:0:
128,0,131184,2,0,L|304:36,1,180,2|0,1:2|1:2,0:2:0:0:
311,290,131866,6,0,P|353:301|400:309,1,90,2|0,1:2|0:2,0:2:0:0:
160,318,132206,2,0,P|130:348|99:384,1,90,0|0,1:2|0:2,0:2:0:0:
211,171,132547,2,0,P|187:85|156:1,3,180,2|0|0|0,1:2|1:2|1:2|1:2,0:2:0:0:
409,53,133741,5,2,0:2:0:0:
409,53,133911,1,2,1:2:0:0:
212,156,134081,1,2,0:2:0:0:
212,156,134252,1,2,1:2:0:0:
315,353,134422,1,2,0:2:0:0:
315,353,134593,1,2,1:2:0:0:
512,250,134763,2,0,P|460:237|408:213,1,90,2|0,0:2|1:2,0:2:0:0:
128,143,135104,6,0,P|213:121|298:82,1,180,2|0,0:2|0:2,0:2:0:0:
296,82,135616,1,0,1:2:0:0:
426,222,135786,1,0,0:2:0:0:
300,218,135956,1,0,1:2:0:0:
300,218,136042,1,0,0:2:0:0:
300,218,136127,1,0,0:2:0:0:
430,78,136297,2,0,P|414:33|387:2,1,90,0|0,1:2|0:2,0:0:0:0:
386,1,136638,1,0,0:2:0:0:
0,160,137661,5,0,0:2:0:0:
96,192,137831,1,0,0:2:0:0:
176,133,138002,2,0,P|262:107|349:86,1,180,6|8,1:1|3:2,0:2:0:0:
512,128,138513,1,2,3:2:0:0:
426,0,138684,1,0,1:2:0:0:
426,0,138769,1,0,3:2:0:0:
426,0,138854,2,0,P|429:44|436:89,1,90,0|8,3:2|3:2,0:2:0:0:
400,176,139195,1,2,3:2:0:0:
512,288,139366,5,2,1:2:0:0:
326,350,139536,1,2,3:2:0:0:
512,288,139706,1,10,3:2:0:0:
326,350,139877,2,0,P|281:341|238:328,1,90,2|0,3:2|1:2,0:2:0:0:
216,306,140133,1,0,3:2:0:0:
193,283,140218,1,0,3:2:0:0:
320,256,140388,2,0,P|365:247|408:234,1,90,10|0,3:2|3:2,0:2:0:0:
480,64,140729,5,2,1:2:0:0:
317,0,140900,1,0,3:2:0:0:
180,109,141070,1,8,3:2:0:0:
343,173,141241,1,0,3:2:0:0:
249,55,141411,5,0,1:2:0:0:
249,55,141496,1,0,3:2:0:0:
249,55,141581,1,0,3:2:0:0:
330,87,141752,1,8,3:2:0:0:
261,141,141922,1,2,3:2:0:0:
507,237,142093,5,2,1:2:0:0:
507,237,142263,2,0,L|492:325,1,90,2|8,3:2|3:2,0:2:0:0:
343,173,142604,2,0,L|358:261,1,90,2|0,3:2|1:2,0:2:0:0:
346,291,142860,1,0,3:2:0:0:
334,320,142945,1,2,3:2:0:0:
235,334,143116,1,8,3:2:0:0:
137,348,143286,1,0,3:2:0:0:
39,363,143456,5,6,1:1:0:0:
173,256,143627,1,2,3:2:0:0:
334,320,143797,1,10,3:2:0:0:
468,213,143968,2,0,L|483:125,1,90,2|0,3:2|1:2,0:2:0:0:
465,98,144223,1,0,3:2:0:0:
443,74,144309,1,0,3:2:0:0:
422,50,144394,1,0,3:2:0:0:
401,26,144479,1,8,3:2:0:0:
512,32,144650,1,2,3:2:0:0:
352,128,144820,5,6,1:1:0:0:
160,64,144991,1,2,3:2:0:0:
352,128,145161,1,10,3:2:0:0:
159,64,145331,2,0,P|115:68|70:75,1,90,2|0,3:2|1:2,0:2:0:0:
39,107,145587,1,0,3:2:0:0:
19,147,145672,1,0,3:2:0:0:
12,192,145758,1,0,3:2:0:0:
21,236,145843,2,0,P|36:278|55:319,1,90,8|0,3:2|3:2,0:2:0:0:
106,167,146184,6,0,P|137:251|174:333,1,180,6|10,1:1|3:2,0:2:0:0:
384,320,146695,2,0,P|368:277|349:236,1,90,2|0,3:2|1:2,0:2:0:0:
265,185,147036,1,2,3:2:0:0:
262,285,147206,1,10,3:2:0:0:
352,64,147377,6,0,P|395:74|439:80,1,90,6|0,3:2|1:2,0:2:0:0:
128,96,147718,2,0,P|138:53|144:9,1,90,2|8,3:2|3:2,0:2:0:0:
160,320,148059,2,0,P|117:310|73:304,1,90,6|0,3:2|1:2,0:2:0:0:
384,288,148400,1,2,3:2:0:0:
367,376,148570,1,10,3:2:0:0:
401,200,148741,1,2,3:2:0:0:
434,24,148911,6,0,P|367:79|282:60,1,180,6|8,1:1|3:2,0:2:0:0:
62,101,149422,1,2,3:2:0:0:
167,35,149593,1,0,1:2:0:0:
167,35,149678,1,0,3:2:0:0:
167,35,149763,2,0,L|183:123,1,90,0|8,3:2|3:2,0:2:0:0:
256,192,150104,1,2,3:2:0:0:
64,256,150275,5,6,1:1:0:0:
257,317,150445,1,2,3:2:0:0:
138,356,150616,1,10,3:2:0:0:
256,192,150786,2,0,L|344:176,1,90,2|0,3:2|1:2,0:2:0:0:
375,184,151042,1,0,3:2:0:0:
405,192,151127,1,0,3:2:0:0:
512,160,151297,2,0,L|496:72,1,90,10|0,3:2|3:2,0:2:0:0:
416,0,151638,5,2,1:2:0:0:
344,175,151809,1,0,3:2:0:0:
512,160,151979,1,8,3:2:0:0:
440,335,152150,1,0,3:2:0:0:
392,255,152320,5,0,1:2:0:0:
392,255,152405,1,0,3:2:0:0:
392,255,152491,1,0,3:2:0:0:
428,168,152661,1,8,3:2:0:0:
380,88,152831,1,2,3:2:0:0:
256,352,153002,5,2,1:2:0:0:
198,295,153172,2,0,P|154:288|109:283,1,90,2|8,3:2|3:2,0:2:0:0:
331,382,153513,2,0,P|375:377|420:370,1,90,2|0,3:2|1:2,0:2:0:0:
210,210,153854,2,0,P|274:268|256:352,1,180,2|0,3:2|3:2,0:2:0:0:
181,373,154366,5,6,1:1:0:0:
96,234,154536,1,2,3:2:0:0:
235,149,154707,1,10,3:2:0:0:
320,288,154877,2,0,P|364:293|409:296,1,90,2|0,3:2|1:2,0:2:0:0:
438,282,155133,1,0,3:2:0:0:
466,268,155218,1,0,3:2:0:0:
448,160,155388,2,0,P|403:154|358:151,1,90,8|0,3:2|3:2,0:2:0:0:
0,160,155729,5,6,1:1:0:0:
87,128,155900,2,0,P|81:172|70:216,1,90,2|8,3:2|3:2,0:2:0:0:
128,384,156241,2,0,P|133:339|145:295,1,90,2|0,3:2|1:2,0:2:0:0:
173,282,156496,1,0,3:2:0:0:
201,268,156581,1,0,3:2:0:0:
288,320,156752,1,8,3:2:0:0:
377,271,156922,1,0,3:2:0:0:
502,93,157093,6,0,P|416:92|378:168,1,180,6|10,1:1|3:2,0:2:0:0:
399,357,157604,2,0,P|391:313|377:271,1,90,2|0,3:2|1:2,0:2:0:0:
289,219,157945,1,2,3:2:0:0:
467,220,158116,1,10,3:2:0:0:
111,218,158286,6,0,L|23:197,1,90,6|0,3:2|1:2,0:2:0:0:
351,303,158627,2,0,L|376:389,1,90,2|8,3:2|3:2,0:2:0:0:
305,53,158968,2,0,L|367:-12,1,90,6|0,3:2|1:2,0:2:0:0:
256,192,159309,5,2,3:2:0:0:
256,192,159479,1,10,3:2:0:0:
256,192,159650,1,2,3:2:0:0:
489,187,159820,6,0,L|401:166,1,90,6|0,1:1|3:2,0:2:0:0:
315,106,160161,1,8,3:2:0:0:
256,192,160331,1,0,3:2:0:0:
341,251,160502,1,0,1:2:0:0:
341,251,160587,1,0,3:2:0:0:
341,251,160672,1,0,3:2:0:0:
256,192,160843,1,8,3:2:0:0:
315,106,161013,1,0,3:2:0:0:
7,102,161184,6,0,P|95:88|171:133,1,180,6|8,1:1|3:2,0:2:0:0:
170,132,161695,1,2,3:2:0:0:
240,368,161865,1,2,1:2:0:0:
324,339,162036,2,0,L|341:251,1,90,2|8,3:2|3:2,0:2:0:0:
512,96,162377,6,0,L|423:112,1,90,2|0,3:2|1:2,0:2:0:0:
192,32,162718,1,2,3:2:0:0:
288,0,162888,2,0,L|271:88,1,90,10|0,3:2|3:2,0:2:0:0:
369,187,163229,1,0,1:2:0:0:
369,187,163314,1,0,3:2:0:0:
369,187,163400,1,0,3:2:0:0:
288,288,163570,2,0,L|200:271,1,90,8|0,3:2|3:2,0:2:0:0:
128,128,163911,5,2,1:2:0:0:
128,128,164081,1,2,3:2:0:0:
384,256,164252,1,10,3:2:0:0:
384,256,164422,1,2,3:2:0:0:
64,288,164593,1,2,1:2:0:0:
64,288,164763,1,2,1:2:0:0:
448,96,164934,1,10,1:2:0:0:
448,96,165104,1,2,1:2:0:0:
312,138,166638,5,6,1:2:0:0:
312,138,166809,2,0,P|318:94|330:51,1,90,2|8,0:2|0:2,0:2:0:0:
463,200,167150,2,0,P|456:243|444:286,1,90,2|0,0:2|1:2,0:2:0:0:
443,287,167405,1,0,3:2:0:0:
443,287,167491,2,0,P|399:280|356:268,1,90,2|8,0:2|0:2,0:2:0:0:
136,383,167831,1,2,0:2:0:0:
71,343,168002,5,2,1:2:0:0:
71,343,168172,2,0,P|75:298|77:253,1,90,2|8,0:2|0:2,0:2:0:0:
203,126,168513,2,0,P|198:170|196:215,1,90,2|0,0:2|1:2,0:2:0:0:
195,215,168769,1,0,3:2:0:0:
195,215,168854,2,0,P|239:215|283:209,1,90,2|8,0:2|0:2,0:2:0:0:
506,59,169195,1,2,0:2:0:0:
440,19,169366,5,2,1:2:0:0:
440,19,169536,2,0,P|396:12|353:0,1,90,2|8,0:2|0:2,0:2:0:0:
203,126,169877,2,0,P|247:119|290:107,1,90,2|0,0:2|1:2,0:2:0:0:
290,106,170133,1,0,3:2:0:0:
290,106,170218,2,0,P|297:149|309:192,1,90,2|8,0:2|0:2,0:2:0:0:
188,384,170559,1,2,0:2:0:0:
129,336,170729,5,2,0:2:0:0:
129,336,170900,1,0,0:2:0:0:
70,288,171241,1,0,0:2:0:0:
11,240,171581,1,0,0:2:0:0:
282,2,171922,1,0,0:2:0:0:
338,56,172093,5,6,1:2:0:0:
338,56,172263,2,0,P|329:98|325:147,1,90,2|8,0:2|0:2,0:2:0:0:
129,336,172604,2,0,P|137:293|141:244,1,90,2|0,0:2|1:2,0:2:0:0:
118,177,172860,1,0,3:2:0:0:
118,177,172945,2,0,P|72:171|28:163,1,90,2|8,0:2|0:2,0:2:0:0:
256,384,173286,1,2,0:2:0:0:
307,326,173456,5,2,1:2:0:0:
307,326,173627,2,0,P|352:316|395:305,1,90,2|8,0:2|0:2,0:2:0:0:
512,71,173968,2,0,P|467:61|424:50,1,90,2|0,0:2|1:2,0:2:0:0:
362,89,174223,1,0,3:2:0:0:
362,89,174309,2,0,P|354:133|350:178,1,90,2|8,0:2|0:2,0:2:0:0:
110,338,174650,1,2,0:2:0:0:
38,306,174820,1,2,1:2:0:0:
193,93,174991,5,0,3:2:0:0:
150,106,175076,1,0,3:2:0:0:
107,120,175161,1,8,0:2:0:0:
222,276,175331,5,0,3:2:0:0:
208,233,175416,1,0,3:2:0:0:
194,191,175501,1,0,1:2:0:0:
38,306,175672,5,0,3:2:0:0:
80,293,175757,1,0,3:2:0:0:
123,279,175842,1,8,0:2:0:0:
8,119,176014,5,0,3:2:0:0:
21,162,176099,1,0,3:2:0:0:
34,206,176184,1,0,1:2:0:0:
222,276,176354,5,0,3:2:0:0:
246,273,176439,1,0,3:2:0:0:
273,280,176524,1,8,3:2:0:0:
296,294,176609,1,0,3:2:0:0:
319,309,176694,1,0,3:2:0:0:
343,320,176780,1,0,3:2:0:0:
370,323,176866,2,0,L|375:282,5,30,0|0|0|0|0|0,1:2|3:2|3:2|3:2|3:2|3:2,0:2:0:0:
420,257,177206,2,0,L|415:216,6,22.5,8|0|0|0|0|0|0,3:2|3:2|3:2|3:2|3:2|3:2|3:2,0:2:0:0:
362,189,177547,1,4,1:1:0:0:
398,199,185729,5,0,3:2:0:0:
319,93,185900,5,0,3:2:0:0:
362,106,185985,1,0,3:2:0:0:
405,120,186070,1,0,3:2:0:0:
290,276,186240,5,0,3:2:0:0:
304,233,186325,1,0,3:2:0:0:
318,191,186410,1,0,3:2:0:0:
474,306,186581,5,0,3:2:0:0:
432,293,186666,1,0,3:2:0:0:
389,279,186751,1,0,3:2:0:0:
504,119,186923,5,0,3:2:0:0:
491,162,187008,1,0,3:2:0:0:
478,206,187093,1,0,3:2:0:0:
290,276,187263,5,0,3:2:0:0:
304,233,187348,1,0,3:2:0:0:
318,191,187433,1,0,3:2:0:0:
332,148,187519,1,0,3:2:0:0:
346,106,187604,1,0,3:2:0:0:
360,63,187690,1,0,3:2:0:0:
374,21,187775,2,0,L|408:15,4,22.5,0|0|0|0|0,3:2|3:2|3:2|3:2|3:2,0:2:0:0:
448,96,188030,1,0,3:2:0:0:
448,96,188116,2,0,L|482:90,6,22.5,0|0|0|0|0|0|0,3:2|3:2|3:2|3:2|3:2|3:2|3:2,0:2:0:0:
398,198,188456,6,0,L|437:381,2,180,6|8|2,1:1|0:2|1:2,0:2:0:0:
263,277,189309,1,0,0:2:0:0:
128,355,189479,1,8,0:2:0:0:
128,199,189650,1,0,0:2:0:0:
173,277,189820,2,0,P|103:271|0:263,1,135,2|0,1:2|0:2,0:2:0:0:
8,196,190161,2,0,P|7:162|-1:103,1,90,8|0,0:2|0:2,0:2:0:0:
112,12,190502,1,2,1:2:0:0:
128,199,190672,1,0,0:2:0:0:
240,105,190843,1,8,0:2:0:0:
0,106,191013,1,0,0:2:0:0:
240,105,191184,6,0,P|331:114|437:126,1,180,2|8,1:2|0:2,0:2:0:0:
511,180,191695,1,0,0:2:0:0:
494,313,191866,1,2,1:2:0:0:
374,384,192036,1,0,0:2:0:0:
231,384,192206,1,8,0:2:0:0:
109,314,192377,1,0,0:2:0:0:
240,105,192547,6,0,P|230:194|221:284,1,180,2|8,1:2|0:2,0:2:0:0:
221,284,193229,2,0,P|265:279|310:274,1,90,2|0,1:2|0:2,0:2:0:0:
89,53,193570,2,0,P|44:57|0:62,1,90,10|0,0:2|0:2,0:2:0:0:
375,222,193911,6,0,P|367:125|381:41,1,180,6|8,1:1|0:2,0:2:0:0:
287,14,194422,1,0,0:2:0:0:
223,158,194592,1,2,1:2:0:0:
375,222,194763,1,0,0:2:0:0:
455,78,194933,1,8,0:2:0:0:
340,119,195104,1,0,0:2:0:0:
108,199,195275,6,0,P|119:246|126:289,1,90,2|0,1:2|0:2,0:2:0:0:
263,340,195616,2,0,P|310:329|353:322,1,90,8|0,0:2|0:2,0:2:0:0:
249,44,195956,2,0,P|202:55|159:62,1,90,2|0,1:2|0:2,0:2:0:0:
404,185,196297,2,0,P|393:138|386:95,1,90,8|0,0:2|0:2,0:2:0:0:
128,286,196638,5,2,1:2:0:0:
253,384,196809,1,0,0:2:0:0:
329,242,196979,1,8,0:2:0:0:
203,143,197150,1,0,0:2:0:0:
228,263,197320,5,2,1:2:0:0:
36,206,197491,1,0,0:2:0:0:
93,14,197661,1,10,0:2:0:0:
286,72,197831,1,0,0:2:0:0:
119,135,198002,5,2,1:2:0:0:
123,210,198172,1,0,0:2:0:0:
128,286,198343,1,8,0:2:0:0:
133,362,198513,1,0,0:2:0:0:
478,253,198684,5,2,1:2:0:0:
478,253,198854,1,0,0:2:0:0:
34,131,199025,1,10,0:2:0:0:
34,131,199195,1,0,0:2:0:0:
246,384,199366,6,0,L|267:240,1,135,2|0,1:2|0:2,0:2:0:0:
265,250,199706,2,0,P|219:257|176:260,1,90,8|0,0:2|0:2,0:2:0:0:
335,346,200047,1,2,1:2:0:0:
208,171,200218,1,0,0:2:0:0:
422,94,200388,2,0,L|322:75,1,90,8|0,0:2|0:2,0:2:0:0:
159,0,200730,5,2,1:2:0:0:
152,21,200815,1,0,3:2:0:0:
146,43,200900,1,0,3:2:0:0:
140,65,200985,1,0,3:2:0:0:
135,87,201070,1,8,3:2:0:0:
131,109,201156,1,0,3:2:0:0:
128,131,201241,1,0,3:2:0:0:
125,153,201326,1,0,3:2:0:0:
123,176,201411,1,0,1:2:0:0:
122,198,201497,1,0,3:2:0:0:
122,221,201582,1,0,3:2:0:0:
122,243,201667,1,0,3:2:0:0:
124,266,201752,1,8,3:2:0:0:
126,288,201837,1,0,3:2:0:0:
128,310,201923,1,0,3:2:0:0:
132,333,202008,1,0,3:2:0:0:
137,357,202093,5,2,1:2:0:0:
281,243,202263,1,0,0:2:0:0:
165,99,202434,1,10,0:2:0:0:
21,213,202604,1,0,0:2:0:0:
150,228,202775,5,2,1:2:0:0:
150,228,202945,1,0,0:2:0:0:
491,171,203116,1,10,0:2:0:0:
491,171,203286,1,0,0:2:0:0:
448,320,203456,5,4,1:1:0:0:
384,256,203627,2,0,L|354:78,1,180,0|0,0:2|0:2,0:2:0:0:
64,64,204138,1,0,1:2:0:0:
128,128,204309,2,0,L|158:306,1,180,0|0,0:2|0:2,0:2:0:0:
345,384,204820,1,0,1:2:0:0:
281,320,204991,2,0,L|251:142,1,180,0|0,0:2|0:2,0:2:0:0:
251,142,205502,1,0,1:2:0:0:
251,142,205587,1,0,0:2:0:0:
251,142,205672,1,0,0:2:0:0:
384,288,205843,2,0,L|473:302,1,90,8|0,0:2|0:2,0:2:0:0:
384,32,206184,5,0,1:2:0:0:
300,67,206354,2,0,P|208:56|122:37,1,180,0|0,0:2|0:2,0:2:0:0:
0,256,206866,1,0,1:2:0:0:
64,192,207036,2,0,P|148:173|242:162,1,180,0|0,0:2|0:2,0:2:0:0:
448,352,207547,1,0,1:2:0:0:
368,384,207718,2,0,P|294:339|296:244,1,180,0|0,0:2|0:2,0:2:0:0:
291,252,208229,1,0,1:2:0:0:
291,252,208314,1,0,0:2:0:0:
291,252,208400,1,0,0:2:0:0:
512,192,208570,2,0,L|497:281,1,90,8|0,0:2|0:2,0:2:0:0:
160,384,208911,5,0,1:2:0:0:
160,384,209081,2,0,L|189:206,1,180,0|0,0:2|0:2,0:2:0:0:
470,179,209593,1,0,1:2:0:0:
470,179,209763,2,0,L|301:242,1,180,0|0,0:2|0:2,0:2:0:0:
137,12,210275,1,0,1:2:0:0:
137,12,210445,2,0,L|276:127,1,180,0|0,0:2|0:2,0:2:0:0:
276,127,210956,1,0,1:2:0:0:
276,127,211042,1,0,0:2:0:0:
276,127,211127,1,0,0:2:0:0:
0,64,211297,2,0,L|69:121,1,90,8|0,0:2|0:2,0:2:0:0:
512,64,211638,5,0,1:2:0:0:
512,64,211809,2,0,P|457:49|371:146,1,180,0|0,0:2|0:2,0:2:0:0:
372,123,212320,1,0,1:2:0:0:
333,298,212491,2,0,P|279:366|193:359,1,180,0|0,0:2|0:2,0:2:0:0:
256,192,213002,12,0,214195,0:0:0:0:
206,212,214366,6,0,P|137:181|28:173,1,180,6|10,1:1|0:2,0:2:0:0:
306,295,214877,2,0,P|389:248|473:234,1,180,2|2,0:2|0:2,0:2:0:0:
471,234,215388,1,10,0:2:0:0:
318,90,215559,2,0,L|337:-9,1,90,2|0,0:2|1:2,0:2:0:0:
188,155,215900,1,2,0:2:0:0:
285,185,216070,1,10,0:2:0:0:
383,217,216241,2,0,L|482:236,1,90,2|0,0:2|1:2,0:2:0:0:
471,233,216581,1,2,0:2:0:0:
255,282,216752,2,0,L|235:381,1,90,10|0,0:2|0:2,0:2:0:0:
471,233,217093,6,0,L|429:28,1,180,2|10,1:2|0:2,0:2:0:0:
156,193,217604,2,0,L|120:369,1,180,2|2,0:2|0:2,0:2:0:0:
119,369,218116,1,10,0:2:0:0:
354,233,218286,2,0,L|336:145,1,90,2|0,0:2|1:2,0:2:0:0:
127,84,218627,2,0,L|195:25,1,90,2|8,0:2|0:2,0:2:0:0:
180,295,218968,2,0,L|95:267,1,90,2|0,0:2|1:2,0:2:0:0:
213,176,219309,1,2,0:2:0:0:
321,352,219479,2,0,L|408:332,1,90,10|2,0:2|0:2,0:2:0:0:
492,104,219820,6,0,L|314:72,1,180,2|10,1:2|0:2,0:2:0:0:
94,266,220331,2,0,L|272:234,1,180,2|2,0:2|0:2,0:2:0:0:
370,217,220843,1,10,0:2:0:0:
216,55,221013,2,0,L|289:-2,1,90,2|0,0:2|1:2,0:2:0:0:
119,232,221354,2,0,L|62:159,1,90,2|8,0:2|0:2,0:2:0:0:
296,329,221695,2,0,L|223:386,1,90,2|0,0:2|1:2,0:2:0:0:
225,384,222036,1,2,0:2:0:0:
393,152,222206,2,0,L|448:222,1,90,10|2,0:2|0:2,0:2:0:0:
75,340,222547,6,0,P|69:239|62:145,1,180,2|10,1:2|0:2,0:2:0:0:
346,20,223059,2,0,P|340:121|333:215,2,180,2|2|2,0:2|0:2|0:2,0:2:0:0:
205,91,223911,5,2,1:2:0:0:
206,113,223996,1,0,3:2:0:0:
208,135,224081,1,0,3:2:0:0:
209,158,224166,1,0,3:2:0:0:
211,180,224251,1,8,3:2:0:0:
212,203,224337,1,0,3:2:0:0:
214,225,224422,1,0,3:2:0:0:
215,248,224507,1,0,3:2:0:0:
217,271,224593,5,0,1:2:0:0:
260,283,224678,1,0,1:2:0:0:
305,283,224763,1,0,1:2:0:0:
348,272,224848,1,0,1:2:0:0:
387,250,224933,1,8,1:2:0:0:
423,223,225019,1,0,1:2:0:0:
444,183,225104,1,0,1:2:0:0:
459,140,225189,1,0,1:2:0:0:
466,95,225274,1,4,1:1:0:0:
217,271,225616,6,0,L|229:364,1,90,10|0,0:2|0:2,0:2:0:0:
337,173,225956,1,2,1:2:0:0:
319,131,226041,1,0,0:2:0:0:
302,89,226126,1,0,0:2:0:0:
89,200,226297,2,0,L|-5:186,1,90,10|0,0:2|0:2,0:2:0:0:
306,318,226638,6,0,L|400:304,1,90,2|0,1:2|0:2,0:2:0:0:
196,173,226979,2,0,L|208:80,1,90,10|0,0:2|0:2,0:2:0:0:
466,95,227320,1,2,1:2:0:0:
460,50,227405,1,0,0:2:0:0:
454,5,227490,1,0,0:2:0:0:
294,228,227661,2,0,L|305:317,1,90,10|0,0:2|0:2,0:2:0:0:
114,105,228002,6,0,L|158:12,1,90,2|0,1:2|0:2,0:2:0:0:
421,206,228343,2,0,L|377:113,1,90,10|0,0:2|0:2,0:2:0:0:
179,272,228684,2,0,P|84:265|-22:260,1,180,2|8,1:2|0:2,0:2:0:0:
382,124,229366,6,0,L|421:43,1,90,2|0,1:2|0:2,0:2:0:0:
152,186,229707,2,0,L|113:104,1,90,10|0,0:2|0:2,0:2:0:0:
319,340,230047,2,0,P|404:342|502:346,1,180,2|8,1:2|0:2,0:2:0:0:
512,274,230473,1,8,0:2:0:0:
496,204,230558,1,8,0:2:0:0:
448,150,230643,1,8,0:2:0:0:
382,124,230729,6,0,P|337:122|292:121,1,90,6|0,1:1|0:2,0:2:0:0:
128,288,231070,1,2,1:2:0:0:
128,288,231241,2,0,P|213:287|252:210,1,180,2|0,0:2|0:2,0:2:0:0:
182,40,231752,2,0,P|187:85|194:130,1,90,2|0,1:2|0:2,0:2:0:0:
40,296,232093,6,0,P|48:251|59:208,1,90,2|0,1:2|0:2,0:2:0:0:
0,64,232434,1,2,1:2:0:0:
0,64,232604,2,0,P|87:85|175:102,1,180,2|0,0:2|0:2,0:2:0:0:
316,213,233116,2,0,P|272:204|229:194,1,90,2|0,1:2|0:2,0:2:0:0:
247,21,233456,6,0,P|335:37|422:59,1,180,2|0,1:2|1:2,0:2:0:0:
512,32,233968,1,2,0:2:0:0:
474,208,234138,2,0,P|484:164|493:120,1,90,2|0,1:2|0:2,0:2:0:0:
352,208,234479,2,0,P|360:252|371:295,1,90,0|0,1:2|0:2,0:2:0:0:
507,342,234820,2,0,P|434:320|363:384,2,180,0|0|0,1:2|1:2|1:2,0:2:0:0:
404,58,235843,5,2,1:2:0:0:
298,77,236013,1,2,0:2:0:0:
192,96,236184,2,0,L|14:64,1,180,2|0,1:2|1:2,0:2:0:0:
270,181,236695,2,0,L|447:149,1,180,2|0,0:2|0:2,0:2:0:0:
157,205,237206,2,0,L|141:293,1,90,2|0,1:2|0:2,0:2:0:0:
464,241,237547,6,0,L|496:64,1,180,2|2,1:2|1:2,0:2:0:0:
340,384,238059,2,0,L|308:207,1,180,2|0,0:2|0:2,0:2:0:0:
244,41,238570,5,2,1:2:0:0:
276,124,238741,1,2,0:2:0:0:
331,53,238911,2,0,P|375:58|420:65,1,90,2|0,1:2|0:2,0:2:0:0:
188,110,239252,1,2,1:2:0:0:
188,110,239422,2,0,P|98:99|9:84,1,180,2|0,0:2|0:2,0:2:0:0:
256,288,239934,2,0,P|261:243|268:198,1,90,2|0,1:2|0:2,0:2:0:0:
25,205,240275,2,0,P|15:295|0:384,2,180,2|0|0,1:2|1:2|1:2,0:2:0:0:
192,32,241297,5,2,1:2:0:0:
192,32,241468,1,2,0:2:0:0:
191,32,241638,2,0,P|116:76|31:54,1,180,2|0,1:2|1:2,0:2:0:0:
256,176,242150,2,0,P|278:89|311:5,1,180,2|0,0:2|0:2,0:2:0:0:
320,352,242661,1,2,1:2:0:0:
320,352,242832,1,2,0:2:0:0:
320,351,243002,2,0,P|395:307|480:329,1,180,2|0,1:2|1:2,0:2:0:0:
256,208,243514,2,0,P|233:294|200:378,1,180,2|0,0:2|0:2,0:2:0:0:
32,288,244025,2,0,P|80:285|121:276,1,90,2|0,1:2|0:2,0:2:0:0:
338,112,244366,6,0,P|248:120|159:136,1,180,2|0,1:2|1:2,0:2:0:0:
37,27,244877,1,2,0:2:0:0:
37,27,245047,2,0,L|67:215,3,180,2|0|0|0,1:2|1:2|1:2|1:2,0:2:0:0:
66,205,246411,6,0,L|170:224,1,90,2|0,1:2|0:2,0:2:0:0:
405,188,246752,2,0,L|316:171,1,90,2|0,1:2|0:2,0:2:0:0:
201,384,247093,2,0,L|244:195,1,180,2|0,1:2|1:2,0:2:0:0:
512,128,247604,2,0,L|472:303,1,180,2|0,0:2|0:2,0:2:0:0:
393,349,248116,2,0,L|304:332,1,90,2|0,1:2|0:2,0:2:0:0:
0,128,248456,6,0,L|177:160,1,180,2|0,1:2|1:2,0:2:0:0:
451,13,249138,2,0,P|429:53|416:96,1,90,2|0,1:2|0:2,0:2:0:0:
476,306,249479,2,0,P|498:266|512:224,1,90,2|0,1:2|0:2,0:2:0:0:
248,222,249820,2,0,L|425:189,3,180,2|0|0|0,1:2|1:2|1:2|1:2,0:2:0:0:
480,128,251013,1,2,0:2:0:0:
484,110,251184,1,2,1:2:0:0:
488,92,251354,1,0,0:2:0:0:
492,74,251525,1,2,1:2:0:0:
496,56,251695,1,0,0:2:0:0:
500,38,251866,1,2,1:2:0:0:
416,0,252036,2,0,L|327:16,1,90,2|0,0:2|1:2,0:2:0:0:
95,96,252377,6,0,P|162:39|248:54,1,180,2|0,0:2|0:2,0:2:0:0:
288,144,252888,1,0,1:2:0:0:
288,144,253059,1,0,0:2:0:0:
389,159,253229,1,0,1:2:0:0:
389,159,253314,1,0,0:2:0:0:
389,159,253400,1,0,0:2:0:0:
229,223,253570,2,0,P|211:289|205:333,1,90,0|0,1:0|0:0,0:0:0:0:
288,144,253911,1,0,0:0:0:0:
468,207,254934,5,0,0:2:0:0:
370,196,255104,1,0,0:2:0:0:
272,185,255275,2,0,L|299:8,1,180,6|8,1:1|3:2,0:2:0:0:
186,83,255786,1,2,3:2:0:0:
370,196,255956,1,0,1:2:0:0:
370,196,256042,1,0,3:2:0:0:
370,196,256127,2,0,L|360:288,1,90,0|8,3:2|3:2,0:2:0:0:
283,333,256468,1,2,3:2:0:0:
199,156,256638,5,2,1:2:0:0:
0,233,256809,1,2,3:2:0:0:
199,156,256979,1,10,3:2:0:0:
0,233,257150,2,0,L|15:126,1,90,2|0,3:2|1:2,0:2:0:0:
22,114,257405,1,0,3:2:0:0:
33,84,257491,1,0,3:2:0:0:
285,144,257661,2,0,L|260:38,1,90,10|0,3:2|3:2,0:2:0:0:
62,256,258002,5,2,1:2:0:0:
149,384,258172,1,0,3:2:0:0:
277,297,258343,1,8,3:2:0:0:
190,169,258513,1,0,3:2:0:0:
231,367,258684,5,0,1:2:0:0:
231,367,258769,1,0,3:2:0:0:
231,367,258854,1,0,3:2:0:0:
169,276,259025,1,8,3:2:0:0:
78,338,259195,1,2,3:2:0:0:
377,277,259366,5,2,1:2:0:0:
377,277,259536,2,0,L|392:170,1,90,2|8,3:2|3:2,0:2:0:0:
116,196,259877,2,0,L|103:106,1,90,2|0,3:2|1:2,0:2:0:0:
120,80,260133,1,0,3:2:0:0:
136,53,260218,1,2,3:2:0:0:
2,107,260388,1,8,3:2:0:0:
116,196,260559,1,0,3:2:0:0:
66,282,260729,5,6,1:1:0:0:
238,383,260900,1,2,3:2:0:0:
259,239,261070,1,10,3:2:0:0:
432,340,261241,2,0,P|449:296|464:257,1,90,2|0,3:2|1:2,0:2:0:0:
450,228,261496,1,0,3:2:0:0:
435,200,261581,1,0,3:2:0:0:
420,172,261667,1,0,3:2:0:0:
405,144,261752,1,8,3:2:0:0:
259,239,261922,1,2,3:2:0:0:
59,151,262093,5,6,1:1:0:0:
235,21,262263,1,2,3:2:0:0:
59,151,262434,1,10,3:2:0:0:
235,21,262604,2,0,L|325:16,1,90,2|0,3:2|1:2,0:2:0:0:
364,38,262860,1,0,3:2:0:0:
394,71,262945,1,0,3:2:0:0:
410,113,263031,1,0,3:2:0:0:
414,158,263116,2,0,L|402:246,1,90,8|0,3:2|3:2,0:2:0:0:
111,205,263456,6,0,L|136:393,1,180,6|10,1:1|3:2,0:2:0:0:
270,240,263968,2,0,L|257:145,1,90,2|0,3:2|1:2,0:2:0:0:
330,122,264309,1,2,3:2:0:0:
111,205,264479,1,10,3:2:0:0:
293,354,264650,6,0,L|389:338,1,90,6|0,3:2|1:2,0:2:0:0:
219,30,264991,2,0,L|123:46,1,90,2|8,3:2|3:2,0:2:0:0:
418,155,265331,2,0,L|402:59,1,90,6|0,3:2|1:2,0:2:0:0:
94,229,265672,1,2,3:2:0:0:
113,310,265843,1,10,3:2:0:0:
75,148,266013,1,2,3:2:0:0:
328,267,266184,6,0,L|512:236,1,180,6|8,1:1|3:2,0:2:0:0:
337,123,266695,1,2,3:2:0:0:
207,187,266866,1,0,1:2:0:0:
207,187,266951,1,0,3:2:0:0:
207,187,267036,2,0,L|191:95,1,90,0|8,3:2|3:2,0:2:0:0:
251,29,267377,1,2,3:2:0:0:
430,125,267547,5,6,1:1:0:0:
345,315,267718,1,2,3:2:0:0:
479,261,267888,1,10,3:2:0:0:
296,179,268059,2,0,L|206:186,1,90,2|0,3:2|1:2,0:2:0:0:
182,207,268314,1,0,3:2:0:0:
157,226,268400,1,0,3:2:0:0:
41,168,268570,2,0,L|48:78,1,90,10|0,3:2|3:2,0:2:0:0:
120,15,268911,5,2,1:2:0:0:
206,186,269081,1,0,3:2:0:0:
41,168,269252,1,8,3:2:0:0:
285,33,269422,1,0,3:2:0:0:
245,109,269593,5,0,1:2:0:0:
245,109,269678,1,0,3:2:0:0:
245,109,269763,1,0,3:2:0:0:
164,102,269934,1,8,3:2:0:0:
203,24,270104,1,2,3:2:0:0:
357,272,270275,5,2,1:2:0:0:
411,212,270445,2,0,L|503:202,1,90,2|8,3:2|3:2,0:2:0:0:
304,333,270786,2,0,L|212:323,1,90,2|0,3:2|1:2,0:2:0:0:
351,158,271127,2,0,P|368:73|304:16,1,180,2|0,3:2|3:2,0:2:0:0:
304,16,271638,5,6,1:1:0:0:
464,59,271808,1,2,3:2:0:0:
411,212,271979,1,10,3:2:0:0:
251,169,272150,2,0,P|206:174|144:178,1,90,2|0,3:2|1:2,0:2:0:0:
133,162,272405,1,0,3:2:0:0:
105,146,272491,1,0,3:2:0:0:
214,24,272661,2,0,P|259:19|321:15,1,90,8|0,3:2|3:2,0:2:0:0:
485,257,273002,5,6,1:1:0:0:
411,212,273172,2,0,L|425:116,1,90,2|8,3:2|3:2,0:2:0:0:
199,284,273513,2,0,L|211:373,1,90,2|0,3:2|1:2,0:2:0:0:
243,378,273769,1,0,3:2:0:0:
274,381,273854,1,0,3:2:0:0:
343,297,274025,1,8,3:2:0:0:
259,228,274195,1,0,3:2:0:0:
12,281,274366,6,0,P|-5:196|59:139,1,180,6|10,1:1|3:2,0:2:0:0:
254,96,274877,2,0,P|246:49|218:14,1,90,2|0,3:2|1:2,0:2:0:0:
134,20,275218,1,2,3:2:0:0:
178,216,275388,1,10,3:2:0:0:
428,97,275559,6,0,L|516:84,1,90,6|0,3:2|1:2,0:2:0:0:
304,301,275900,2,0,L|270:384,1,90,2|8,3:2|3:2,0:2:0:0:
188,92,276241,2,0,L|132:21,1,90,6|0,3:2|1:2,0:2:0:0:
366,198,276581,5,2,3:2:0:0:
366,198,276752,1,10,3:2:0:0:
366,198,276922,1,2,3:2:0:0:
97,229,277093,6,0,L|211:254,1,90,6|0,1:1|3:2,0:2:0:0:
278,146,277434,1,8,3:2:0:0:
186,92,277604,1,0,3:2:0:0:
332,54,277775,1,0,1:2:0:0:
332,54,277860,1,0,3:2:0:0:
332,54,277945,1,0,3:2:0:0:
278,146,278116,1,8,3:2:0:0:
240,0,278286,1,0,3:2:0:0:
509,195,278456,6,0,P|445:252|462:336,1,180,6|8,1:1|3:2,0:2:0:0:
462,336,278968,1,2,3:2:0:0:
197,382,279138,1,2,1:2:0:0:
197,382,279309,2,0,L|215:287,1,90,2|8,3:2|3:2,0:2:0:0:
436,113,279650,6,0,L|341:95,1,90,2|0,3:2|1:2,0:2:0:0:
148,241,279991,1,2,3:2:0:0:
83,189,280161,2,0,P|79:148|101:94,1,90,10|0,3:2|3:2,0:2:0:0:
181,45,280502,1,0,1:2:0:0:
181,45,280587,1,0,3:2:0:0:
181,45,280672,1,0,3:2:0:0:
355,179,280843,2,0,L|338:267,1,90,8|0,3:2|3:2,0:2:0:0:
405,328,281184,5,2,1:2:0:0:
405,328,281354,1,0,3:2:0:0:
148,241,281525,1,10,3:2:0:0:
148,241,281695,1,0,3:2:0:0:
508,87,281866,1,2,1:2:0:0:
508,87,281951,1,0,3:2:0:0:
508,87,282036,1,0,3:2:0:0:
251,0,282206,1,10,0:2:0:0:
251,0,282377,1,2,3:2:0:0:
405,328,283228,5,6,1:1:0:0:
148,241,283399,1,2,3:2:0:0:
453,251,283569,1,10,3:2:0:0:
100,318,283740,2,0,P|55:309|12:298,1,90,2|0,3:2|1:2,0:2:0:0:
196,164,284081,2,0,P|240:172|283:183,1,90,0|8,3:2|3:2,0:2:0:0:
363,248,284422,1,2,3:2:0:0:
268,284,284592,5,2,1:2:0:0:
387,22,284763,1,2,3:2:0:0:
197,94,284933,1,10,3:2:0:0:
458,212,285104,2,0,L|496:397,1,180,2|0,3:2|3:2,0:2:0:0:
286,372,285615,2,0,L|268:284,1,90,10|0,3:2|3:2,0:2:0:0:
19,149,285956,5,2,1:2:0:0:
165,206,286126,1,0,3:2:0:0:
287,108,286297,1,8,3:2:0:0:
432,164,286467,1,0,3:2:0:0:
318,270,286638,5,0,1:2:0:0:
318,270,286723,1,0,3:2:0:0:
318,270,286808,1,0,3:2:0:0:
409,10,286978,1,8,3:2:0:0:
141,51,287149,1,0,3:2:0:0:
432,164,287319,6,0,L|450:251,1,90,2|0,1:2|3:2,0:2:0:0:
287,108,287660,1,10,3:2:0:0:
165,206,287831,2,0,L|147:293,1,90,2|0,3:2|1:2,0:2:0:0:
287,108,288172,1,2,3:2:0:0:
317,208,288342,1,10,3:2:0:0:
257,8,288513,1,2,3:2:0:0:
347,308,288683,5,2,1:2:0:0:
330,329,288768,1,0,3:2:0:0:
311,348,288853,1,0,3:2:0:0:
289,363,288938,1,0,3:2:0:0:
264,374,289023,1,8,3:2:0:0:
238,382,289109,1,0,3:2:0:0:
211,384,289194,1,0,3:2:0:0:
185,382,289279,1,0,3:2:0:0:
158,376,289364,1,0,1:2:0:0:
133,366,289450,1,0,3:2:0:0:
111,351,289535,1,0,3:2:0:0:
91,333,289620,1,0,3:2:0:0:
74,312,289705,1,8,3:2:0:0:
61,288,289790,1,0,3:2:0:0:
52,263,289876,1,0,3:2:0:0:
48,236,289961,1,0,3:2:0:0:
50,208,290047,5,2,1:2:0:0:
74,230,290132,1,0,3:2:0:0:
102,250,290217,1,0,3:2:0:0:
132,265,290302,1,0,3:2:0:0:
164,276,290387,1,8,3:2:0:0:
197,283,290473,1,0,3:2:0:0:
231,285,290558,1,0,3:2:0:0:
264,282,290643,1,0,3:2:0:0:
297,275,290728,1,0,1:2:0:0:
329,264,290814,1,0,3:2:0:0:
359,248,290899,1,0,3:2:0:0:
386,228,290984,1,0,3:2:0:0:
411,205,291069,2,0,L|427:99,1,90,8|0,3:2|3:2,0:2:0:0:
16,32,291410,5,2,1:2:0:0:
60,22,291495,1,0,3:2:0:0:
105,14,291580,1,0,3:2:0:0:
149,8,291665,1,0,3:2:0:0:
194,4,291750,1,8,3:2:0:0:
239,2,291836,1,0,3:2:0:0:
284,2,291921,1,0,3:2:0:0:
503,160,292092,5,2,1:2:0:0:
460,150,292177,1,0,3:2:0:0:
415,142,292262,1,0,3:2:0:0:
371,136,292347,1,0,3:2:0:0:
326,132,292432,1,8,3:2:0:0:
281,130,292518,1,0,3:2:0:0:
236,130,292603,1,0,3:2:0:0:
0,358,292774,5,2,1:2:0:0:
43,366,292859,1,0,3:2:0:0:
88,358,292944,1,0,3:2:0:0:
126,336,293029,1,0,3:2:0:0:
154,301,293114,1,8,3:2:0:0:
168,258,293200,1,0,3:2:0:0:
166,213,293285,1,0,3:2:0:0:
149,172,293370,1,0,3:2:0:0:
117,140,293456,1,2,1:2:0:0:
384,224,293626,1,2,3:3:0:0:
55,246,293797,1,8,3:2:0:0:
447,119,293967,1,2,3:3:0:0:
321,329,294138,5,6,1:1:0:0:
180,35,294308,1,2,3:2:0:0:
321,329,294479,1,10,3:2:0:0:
180,35,294649,2,0,L|90:23,1,90,2|0,3:2|1:2,0:2:0:0:
321,329,294990,2,0,L|410:340,1,90,0|8,3:2|3:2,0:2:0:0:
512,320,295331,1,2,3:2:0:0:
444,242,295501,5,2,1:2:0:0:
240,384,295672,1,2,3:2:0:0:
98,180,295842,1,10,3:2:0:0:
302,38,296013,2,0,L|280:216,1,180,2|0,3:2|3:2,0:2:0:0:
164,291,296524,2,0,L|75:280,1,90,10|0,3:2|3:2,0:2:0:0:
0,128,296865,5,2,1:2:0:0:
169,139,297035,1,0,3:2:0:0:
90,45,297206,1,8,3:2:0:0:
75,280,297376,1,0,3:2:0:0:
317,302,297547,1,0,1:2:0:0:
317,302,297632,1,0,3:2:0:0:
317,302,297717,1,0,3:2:0:0:
75,280,297888,1,8,3:2:0:0:
90,45,298058,1,0,3:2:0:0:
184,342,298229,6,0,L|189:252,1,90,2|0,1:2|3:2,0:2:0:0:
83,163,298569,1,10,3:2:0:0:
328,342,298740,2,0,L|322:252,1,90,2|0,3:2|1:2,0:2:0:0:
429,163,299080,1,2,3:2:0:0:
184,342,299251,1,10,3:2:0:0:
256,96,299422,1,2,3:2:0:0:
448,384,299592,5,2,1:2:0:0:
450,361,299677,1,0,3:2:0:0:
453,339,299762,1,0,3:2:0:0:
455,316,299847,1,0,3:2:0:0:
458,294,299932,1,8,3:2:0:0:
460,272,300018,1,0,3:2:0:0:
463,249,300103,1,0,3:2:0:0:
465,227,300188,1,0,3:2:0:0:
468,205,300273,1,0,1:2:0:0:
470,182,300359,1,0,3:2:0:0:
473,160,300444,1,0,3:2:0:0:
475,138,300529,1,0,3:2:0:0:
478,115,300614,1,8,3:2:0:0:
480,93,300699,1,0,3:2:0:0:
483,71,300785,1,0,3:2:0:0:
485,48,300870,1,0,3:2:0:0:
488,26,300956,5,6,1:2:0:0:
487,70,301041,1,0,3:2:0:0:
477,114,301126,1,0,3:2:0:0:
456,154,301211,1,0,3:2:0:0:
427,188,301296,1,8,3:2:0:0:
391,215,301382,1,0,3:2:0:0:
350,232,301467,1,0,3:2:0:0:
305,240,301552,1,0,3:2:0:0:
261,237,301637,1,0,1:2:0:0:
218,224,301723,1,0,3:2:0:0:
179,202,301808,1,0,3:2:0:0:
146,171,301893,1,0,3:2:0:0:
122,133,301979,2,0,L|115:43,1,90,8|0,3:2|3:2,0:2:0:0:
410,0,302319,5,6,1:2:0:0:
416,44,302405,1,0,3:2:0:0:
406,88,302489,1,0,3:2:0:0:
382,125,302574,1,0,3:2:0:0:
346,152,302659,1,8,3:2:0:0:
303,165,302745,1,0,3:2:0:0:
259,162,302830,1,0,3:2:0:0:
28,364,303001,5,2,1:2:0:0:
22,320,303086,1,0,3:2:0:0:
32,276,303171,1,0,3:2:0:0:
56,239,303256,1,0,3:2:0:0:
92,212,303341,1,8,3:2:0:0:
135,199,303427,1,0,3:2:0:0:
179,202,303512,1,0,3:2:0:0:
512,314,303683,5,2,1:2:0:0:
485,271,303768,1,0,3:2:0:0:
449,238,303853,1,0,3:2:0:0:
404,218,303938,1,0,3:2:0:0:
354,212,304023,1,8,3:2:0:0:
306,221,304109,1,0,3:2:0:0:
263,244,304194,1,0,3:2:0:0:
228,278,304279,1,0,3:2:0:0:
205,322,304364,1,2,1:2:0:0:
256,64,304535,1,2,3:3:0:0:
416,288,304706,1,8,3:2:0:0:
467,30,304877,1,2,3:3:0:0:
231,193,305047,5,6,1:1:0:0:
219,194,305132,1,0,3:2:0:0:
208,195,305217,1,0,3:2:0:0:
197,197,305302,1,0,3:2:0:0:
186,198,305387,1,8,3:2:0:0:
175,200,305473,1,0,3:2:0:0:
164,201,305558,1,0,3:2:0:0:
152,203,305643,1,0,3:2:0:0:
141,204,305728,1,0,1:2:0:0:
130,205,305814,1,0,3:2:0:0:
119,207,305899,1,0,3:2:0:0:
108,208,305984,1,0,3:2:0:0:
97,210,306069,1,8,3:2:0:0:
85,211,306154,1,0,3:2:0:0:
74,213,306240,1,0,3:2:0:0:
63,214,306325,1,0,3:2:0:0:
52,216,306410,5,6,1:1:0:0:
74,219,306495,1,0,3:2:0:0:
96,223,306580,1,0,3:2:0:0:
118,227,306665,1,0,3:2:0:0:
140,231,306750,1,8,3:2:0:0:
162,235,306836,1,0,3:2:0:0:
184,239,306921,1,0,3:2:0:0:
207,243,307006,1,0,3:2:0:0:
229,247,307091,1,0,1:2:0:0:
251,251,307177,1,0,3:2:0:0:
273,254,307262,1,0,3:2:0:0:
295,258,307347,1,0,3:2:0:0:
317,262,307432,1,8,3:2:0:0:
340,266,307517,1,0,3:2:0:0:
362,270,307603,1,0,3:2:0:0:
384,274,307688,1,0,3:2:0:0:
406,278,307774,5,6,1:1:0:0:
381,300,307859,1,0,3:2:0:0:
351,315,307944,1,0,3:2:0:0:
318,323,308029,1,0,3:2:0:0:
284,321,308114,1,8,3:2:0:0:
252,311,308200,1,0,3:2:0:0:
224,293,308285,1,0,3:2:0:0:
201,268,308370,1,0,3:2:0:0:
185,238,308455,1,0,1:2:0:0:
178,206,308541,1,0,3:2:0:0:
179,172,308626,1,0,3:2:0:0:
189,140,308711,1,0,3:2:0:0:
206,111,308796,1,8,3:2:0:0:
231,88,308881,1,0,3:2:0:0:
260,72,308967,1,0,3:2:0:0:
293,64,309052,1,0,3:2:0:0:
327,65,309138,5,2,1:2:0:0:
330,110,309223,1,0,3:2:0:0:
317,153,309308,1,0,3:2:0:0:
290,188,309393,1,0,3:2:0:0:
252,212,309478,1,8,3:2:0:0:
208,220,309564,1,0,3:2:0:0:
164,213,309649,1,0,3:2:0:0:
126,190,309734,1,0,3:2:0:0:
98,155,309819,2,0,L|95:120,3,30,0|0|0|0,1:2|3:2|3:2|3:2,0:2:0:0:
172,77,310075,1,0,3:2:0:0:
172,77,310160,2,0,L|175:41,6,22.5,8|0|0|0|0|0|0,3:2|3:2|3:2|3:2|3:2|3:2|3:2,0:2:0:0:
111,0,310501,1,4,1:1:0:0:
