osu file format v14

[General]
AudioFilename: audio.mp3
AudioLeadIn: 0
PreviewTime: -1
Countdown: 1
SampleSet: None
StackLeniency: 0.4
Mode: 0
LetterboxInBreaks: 0
WidescreenStoryboard: 0

[Editor]
Bookmarks: 15477,26386,37295,38658,60477,75477,85022,86386,97295,102749,127295,154568
DistanceSpacing: 2.5
BeatDivisor: 4
GridSize: 4
TimelineZoom: 1

[Metadata]
Title:Lunatic Tears... (Tatsh Remix)
TitleUnicode:Lunatic Tears... (Tatsh Remix)
Artist:Tatsh
ArtistUnicode:Tatsh
Creator:Dada
Version:Vintage
Source:11eyes
Tags:original had no tags for this so Ill just make some up it isnt the ayane one even though i appreciate that on a more fundamental level
BeatmapID:1844892
BeatmapSetID:882485

[Difficulty]
HPDrainRate:6
CircleSize:5
OverallDifficulty:8
ApproachRate:8
SliderMultiplier:1
SliderTickRate:1

[Events]
//Background and Video events
0,0,"11eyes.full.184559.jpg",0,0
//Break Periods
//Storyboard Layer 0 (Background)
//Storyboard Layer 1 (Fail)
//Storyboard Layer 2 (Pass)
//Storyboard Layer 3 (Foreground)
//Storyboard Sound Samples

[TimingPoints]
4568,340.909090909091,4,2,1,70,1,0
31840,-80,4,2,1,70,0,0
38658,-100,4,2,1,70,0,0
127295,-71.4285714285714,4,2,1,70,0,1
155249,340.909090909091,4,2,1,70,1,1
155249,-66.6666666666667,4,2,1,70,0,1

[HitObjects]
256,192,477,12,0,4397,0:0:0:0:
320,128,4568,5,2,0:0:0:0:
392,192,4738,1,0,0:0:0:0:
392,192,4823,1,0,0:0:0:0:
392,192,4908,2,0,B|408:208|416:228|416:252,1,50,2|0,0:0|0:0,0:0:0:0:
192,128,5249,5,2,0:0:0:0:
120,192,5419,1,0,0:0:0:0:
120,192,5504,1,0,0:0:0:0:
120,192,5590,2,0,B|104:208|96:228|96:252,1,50,2|0,0:0|0:0,0:0:0:0:
256,320,5931,5,2,0:0:0:0:
256,220,6102,1,0,0:0:0:0:
256,220,6187,1,0,0:0:0:0:
256,220,6272,2,0,L|256:164,1,50,2|0,0:0|0:0,0:0:0:0:
256,56,6613,6,0,L|256:106,1,50,2|0,0:0|0:0,0:0:0:0:
256,220,6954,2,0,L|256:164,1,50,2|0,0:0|0:0,0:0:0:0:
356,56,7295,5,2,0:0:0:0:
256,56,7465,1,0,0:0:0:0:
256,56,7550,1,0,0:0:0:0:
256,56,7636,2,0,B|235:50|213:53|193:65,1,50,2|0,0:0|0:0,0:0:0:0:
156,220,7977,5,2,0:0:0:0:
256,220,8147,1,0,0:0:0:0:
256,220,8232,1,0,0:0:0:0:
256,220,8318,2,0,B|278:225|300:222|320:210,1,50,2|0,0:0|0:0,0:0:0:0:
356,364,8658,5,2,0:0:0:0:
256,364,8828,1,0,0:0:0:0:
256,364,8913,1,0,0:0:0:0:
256,364,8999,2,0,B|235:358|213:361|193:373,1,50,2|0,0:0|0:0,0:0:0:0:
496,364,9340,5,2,0:0:0:0:
424,272,9511,1,0,0:0:0:0:
296,128,9681,5,2,0:0:0:0:
296,272,9852,1,0,0:0:0:0:
424,128,10022,5,10,0:0:0:0:
360,200,10193,1,0,0:0:0:0:
360,200,10278,1,0,0:0:0:0:
360,200,10363,2,0,L|308:200,1,50,2|0,0:0|0:0,0:0:0:0:
88,128,10704,5,10,0:0:0:0:
152,200,10875,1,0,0:0:0:0:
152,200,10960,1,0,0:0:0:0:
152,200,11045,2,0,L|204:200,1,50,2|0,0:0|0:0,0:0:0:0:
256,28,11386,5,10,0:0:0:0:
256,128,11556,1,0,0:0:0:0:
256,128,11641,1,0,0:0:0:0:
256,128,11727,2,0,L|256:188,1,50,2|0,0:0|0:0,0:0:0:0:
320,304,12068,5,10,0:0:0:0:
192,304,12238,1,0,0:0:0:0:
256,384,12408,2,0,L|256:324,1,50,2|0,0:0|0:0,0:0:0:0:
256,232,12749,5,10,0:0:0:0:
324,160,12920,1,0,0:0:0:0:
324,160,13005,1,0,0:0:0:0:
324,160,13090,2,0,B|336:140|353:127|376:121,1,50,2|0,0:0|0:0,0:0:0:0:
256,256,13431,5,10,0:0:0:0:
188,184,13602,1,0,0:0:0:0:
188,184,13687,1,0,0:0:0:0:
188,184,13772,2,0,B|175:164|158:151|135:145,1,50,2|0,0:0|0:0,0:0:0:0:
256,280,14113,5,10,0:0:0:0:
156,292,14283,1,0,0:0:0:0:
156,292,14369,1,0,0:0:0:0:
156,292,14454,2,0,B|145:311|142:333|149:356,1,50,2|0,0:0|0:0,0:0:0:0:
256,304,14795,5,6,0:0:0:0:
421,214,14965,1,4,0:0:0:0:
386,344,15136,1,6,0:0:0:0:
296,179,15306,1,4,0:0:0:0:
336,64,15477,5,2,0:0:0:0:
369,174,15647,1,0,0:0:0:0:
369,174,15732,1,0,0:0:0:0:
369,174,15818,1,2,0:0:0:0:
274,240,15988,1,0,0:0:0:0:
241,130,16158,5,2,0:0:0:0:
162,46,16328,1,0,0:0:0:0:
162,46,16413,1,0,0:0:0:0:
162,46,16499,1,2,0:0:0:0:
57,95,16670,1,0,0:0:0:0:
73,210,16840,5,2,0:0:0:0:
185,231,17010,1,0,0:0:0:0:
185,231,17095,1,0,0:0:0:0:
185,231,17181,1,2,0:0:0:0:
241,130,17351,1,0,0:0:0:0:
143,142,17522,5,2,0:0:0:0:
408,312,17863,1,2,0:0:0:0:
208,304,18204,5,2,0:0:0:0:
92,300,18374,1,0,0:0:0:0:
92,300,18460,1,0,0:0:0:0:
92,300,18545,1,2,0:0:0:0:
208,304,18715,1,0,0:0:0:0:
304,236,18886,5,2,0:0:0:0:
420,232,19056,1,0,0:0:0:0:
420,232,19142,1,0,0:0:0:0:
420,232,19227,1,2,0:0:0:0:
304,236,19397,1,0,0:0:0:0:
208,168,19568,5,2,0:0:0:0:
92,164,19738,1,0,0:0:0:0:
92,164,19824,1,0,0:0:0:0:
92,164,19909,1,2,0:0:0:0:
208,168,20079,1,0,0:0:0:0:
156,64,20249,5,2,0:0:0:0:
52,352,20590,1,2,0:0:0:0:
108,128,20931,5,2,0:0:0:0:
224,116,21102,1,0,0:0:0:0:
224,116,21187,1,0,0:0:0:0:
224,116,21272,2,0,L|292:104,1,50,2|0,0:0|0:0,0:0:0:0:
172,168,21613,5,2,0:0:0:0:
278,215,21784,1,0,0:0:0:0:
278,215,21869,1,0,0:0:0:0:
278,215,21954,2,0,L|342:238,1,50,2|0,0:0|0:0,0:0:0:0:
108,200,22295,5,2,0:0:0:0:
176,293,22466,1,0,0:0:0:0:
176,293,22551,1,0,0:0:0:0:
176,293,22636,2,0,L|220:345,1,50,2|0,0:0|0:0,0:0:0:0:
40,168,22977,5,2,0:0:0:0:
352,120,23318,1,2,0:0:0:0:
336,348,23658,5,2,0:0:0:0:
452,360,23829,1,0,0:0:0:0:
452,360,23914,1,0,0:0:0:0:
452,360,23999,1,2,0:0:0:0:
400,256,24170,1,0,0:0:0:0:
472,168,24340,5,2,0:0:0:0:
424,61,24511,1,0,0:0:0:0:
424,61,24596,1,0,0:0:0:0:
424,61,24681,1,2,0:0:0:0:
360,158,24852,1,0,0:0:0:0:
360,158,24937,1,0,0:0:0:0:
360,158,25022,5,2,0:0:0:0:
324,4,25193,2,0,B|304:4|284:12|260:28,1,50,0|2,0:0|0:0,0:0:0:0:
220,144,25533,5,0,0:0:0:0:
220,144,25619,1,0,0:0:0:0:
220,144,25704,1,6,0:0:0:0:
256,300,25874,1,4,0:0:0:0:
100,336,26045,1,6,0:0:0:0:
64,180,26215,1,4,0:0:0:0:
160,240,26386,6,0,L|176:304,2,50,6|0|2,0:0|0:0|0:0,0:0:0:0:
124,116,26897,1,0,0:0:0:0:
160,240,27238,1,0,0:0:0:0:
360,128,27579,5,0,0:0:0:0:
436,216,27749,2,0,L|420:280,2,50,2|0|2,0:0|0:0|0:0,0:0:0:0:
472,92,28261,1,0,0:0:0:0:
436,216,28602,5,0,0:0:0:0:
360,128,28772,1,2,0:0:0:0:
328,240,28943,1,0,0:0:0:0:
404,328,29113,6,0,L|472:328,1,50,2|0,0:0|0:0,0:0:0:0:
340,328,29454,1,2,0:0:0:0:
224,328,29624,1,0,0:0:0:0:
340,328,29965,2,0,L|272:328,2,50,0|2|0,0:0|0:0|0:0,0:0:0:0:
108,260,30477,6,0,L|40:260,1,50,2|0,0:0|0:0,0:0:0:0:
172,260,30818,1,2,0:0:0:0:
288,260,30988,1,0,0:0:0:0:
172,260,31329,5,0,0:0:0:0:
288,260,31499,1,2,0:0:0:0:
404,260,31670,1,0,0:0:0:0:
348,148,31840,5,2,0:0:0:0:
348,305,32011,1,0,0:0:0:0:
348,368,32181,1,2,0:0:0:0:
348,210,32352,1,0,0:0:0:0:
348,368,32693,2,0,L|348:296,2,62.5,0|2|0,0:0|0:0|0:0,0:0:0:0:
192,372,33204,5,2,0:0:0:0:
192,152,33374,1,0,0:0:0:0:
192,310,33545,1,2,0:0:0:0:
192,214,33715,1,0,0:0:0:0:
192,152,34056,1,0,0:0:0:0:
192,214,34227,1,2,0:0:0:0:
192,152,34397,1,0,0:0:0:0:
76,48,34568,6,0,B|108:56|128:56|152:48,1,62.5,10|0,0:0|0:0,0:0:0:0:
164,36,34823,1,0,0:0:0:0:
192,20,34908,2,0,B|224:12|244:12|268:20,1,62.5,2|0,0:0|0:0,0:0:0:0:
280,33,35164,1,0,0:0:0:0:
304,57,35249,6,0,B|327:79|345:89|369:95,1,62.5,10|0,0:0|0:0,0:0:0:0:
386,99,35505,1,0,0:0:0:0:
416,104,35590,2,0,B|424:136|424:156|416:180,1,62.5,2|0,0:0|0:0,0:0:0:0:
408,196,35846,1,0,0:0:0:0:
408,196,35931,5,10,0:0:0:0:
332,296,36102,5,0,0:0:0:0:
318,323,36187,1,0,0:0:0:0:
294,343,36272,1,10,0:0:0:0:
265,352,36357,1,0,0:0:0:0:
234,348,36442,1,0,0:0:0:0:
207,332,36528,1,0,0:0:0:0:
190,307,36613,1,2,0:0:0:0:
184,276,36698,1,0,0:0:0:0:
190,246,36783,1,0,0:0:0:0:
209,221,36869,1,0,0:0:0:0:
236,206,36954,1,10,0:0:0:0:
266,208,37039,1,0,0:0:0:0:
285,231,37124,1,0,0:0:0:0:
282,261,37209,1,0,0:0:0:0:
257,280,37294,5,6,0:0:0:0:
256,192,37380,12,0,38488,0:0:0:0:
256,60,38658,6,0,L|256:120,1,50,2|0,0:0|0:0,0:0:0:0:
256,224,38999,1,2,0:0:0:0:
328,136,39170,1,0,0:0:0:0:
480,72,39340,1,2,0:0:0:0:
368,52,39511,1,0,0:0:0:0:
440,156,39681,2,0,B|460:188|456:216|456:216,1,50,2|0,0:0|0:0,0:0:0:0:
356,296,40022,2,0,B|336:264|340:236|340:236,1,50,2|0,0:0|0:0,0:0:0:0:
328,136,40363,1,2,0:0:0:0:
256,356,40704,5,10,0:0:0:0:
256,172,40874,1,0,0:0:0:0:
256,288,41045,1,10,0:0:0:0:
256,104,41215,1,0,0:0:0:0:
308,0,41386,6,0,B|340:20|368:16|368:16,1,50,2|0,0:0|0:0,0:0:0:0:
468,28,41727,2,0,B|448:60|452:88|452:88,1,50,2|0,0:0|0:0,0:0:0:0:
476,188,42068,2,0,B|496:220|492:248|492:248,1,50,2|0,0:0|0:0,0:0:0:0:
476,348,42408,2,0,B|444:368|416:364|416:364,1,50,2|0,0:0|0:0,0:0:0:0:
296,300,42749,5,2,0:0:0:0:
412,300,42920,1,0,0:0:0:0:
340,160,43090,1,2,0:0:0:0:
296,300,43261,1,0,0:0:0:0:
500,300,43431,5,2,0:0:0:0:
456,160,43602,1,0,0:0:0:0:
340,160,43772,1,2,0:0:0:0:
384,300,43943,1,0,0:0:0:0:
200,304,44113,6,0,L|144:304,1,50,2|0,0:0|0:0,0:0:0:0:
36,304,44454,1,2,0:0:0:0:
132,240,44624,1,0,0:0:0:0:
8,152,44795,1,2,0:0:0:0:
1,37,44965,1,0,0:0:0:0:
104,88,45136,2,0,B|124:120|120:148|120:148,1,50,2|0,0:0|0:0,0:0:0:0:
184,36,45477,2,0,B|204:68|200:96|200:96,1,50,2|0,0:0|0:0,0:0:0:0:
192,196,45818,1,2,0:0:0:0:
256,28,46158,5,10,0:0:0:0:
256,212,46328,1,0,0:0:0:0:
256,96,46499,1,10,0:0:0:0:
256,280,46669,1,0,0:0:0:0:
140,332,46840,6,0,L|72:332,1,50,2|0,0:0|0:0,0:0:0:0:
88,161,47181,2,0,L|138:161,1,50,2|0,0:0|0:0,0:0:0:0:
66,243,47522,2,0,L|16:243,1,50,2|0,0:0|0:0,0:0:0:0:
12,72,47863,2,0,L|62:72,1,50,2|0,0:0|0:0,0:0:0:0:
168,72,48204,5,2,0:0:0:0:
231,190,48374,1,0,0:0:0:0:
111,254,48545,1,2,0:0:0:0:
47,134,48715,1,0,0:0:0:0:
138,161,48886,5,2,0:0:0:0:
1,202,49056,1,0,0:0:0:0:
44,338,49227,1,2,0:0:0:0:
179,294,49397,1,0,0:0:0:0:
256,136,49568,6,0,L|316:136,1,50,2|0,0:0|0:0,0:0:0:0:
420,136,49908,1,2,0:0:0:0:
420,136,50079,1,0,0:0:0:0:
256,136,50249,2,0,L|196:136,1,50,2|0,0:0|0:0,0:0:0:0:
256,240,50590,1,2,0:0:0:0:
28,296,50931,1,2,0:0:0:0:
92,76,51272,1,2,0:0:0:0:
420,76,51613,5,10,0:0:0:0:
304,192,51783,1,0,0:0:0:0:
420,192,51954,1,10,0:0:0:0:
304,76,52124,1,0,0:0:0:0:
204,136,52295,6,0,B|180:160|176:176|176:200,1,50,2|0,0:0|0:0,0:0:0:0:
228,280,52636,1,2,0:0:0:0:
304,192,52806,1,0,0:0:0:0:
304,76,52977,6,0,B|295:43|283:31|262:19,1,50,2|0,0:0|0:0,0:0:0:0:
166,26,53318,1,2,0:0:0:0:
204,136,53488,1,0,0:0:0:0:
304,192,53658,6,0,B|336:200|352:196|373:184,1,50,2|0,0:0|0:0,0:0:0:0:
417,99,53999,1,2,0:0:0:0:
303,77,54169,1,0,0:0:0:0:
204,136,54340,6,0,B|180:160|176:176|176:200,1,50,2|0,0:0|0:0,0:0:0:0:
229,278,54681,1,2,0:0:0:0:
304,192,54851,1,0,0:0:0:0:
305,309,55022,6,0,L|361:309,1,50,2|0,0:0|0:0,0:0:0:0:
469,309,55363,1,2,0:0:0:0:
469,193,55533,1,0,0:0:0:0:
354,192,55704,2,0,L|298:192,1,50,2|0,0:0|0:0,0:0:0:0:
188,192,56045,1,2,0:0:0:0:
28,360,56386,1,2,0:0:0:0:
260,360,56727,1,2,0:0:0:0:
188,192,57068,5,10,0:0:0:0:
260,360,57238,1,0,0:0:0:0:
260,208,57408,1,2,0:0:0:0:
188,376,57578,1,0,0:0:0:0:
112,288,57749,5,2,0:0:0:0:
188,192,57920,1,0,0:0:0:0:
302,147,58090,1,2,0:0:0:0:
424,165,58261,1,0,0:0:0:0:
406,287,58431,5,2,0:0:0:0:
284,269,58602,1,0,0:0:0:0:
188,192,58772,1,2,0:0:0:0:
143,78,58943,1,0,0:0:0:0:
256,20,59113,5,2,0:0:0:0:
256,136,59283,1,0,0:0:0:0:
256,144,59369,1,0,0:0:0:0:
256,152,59454,1,2,0:0:0:0:
256,268,59624,1,0,0:0:0:0:
256,276,59710,1,0,0:0:0:0:
256,284,59795,1,2,0:0:0:0:
188,192,59965,5,0,0:0:0:0:
188,200,60051,1,0,0:0:0:0:
188,208,60136,1,2,0:0:0:0:
188,336,60306,1,0,0:0:0:0:
48,272,60477,6,0,L|48:216,1,50,6|0,0:0|0:0,0:0:0:0:
48,80,60818,2,0,L|48:136,1,50,2|0,0:0|0:0,0:0:0:0:
152,272,61158,6,0,B|144:244|144:224|160:208,1,50,2|0,0:0|0:0,0:0:0:0:
152,80,61499,2,0,B|144:108|144:128|160:144,1,50,2|0,0:0|0:0,0:0:0:0:
256,272,61840,6,0,B|263:243|273:226|294:220,1,50,2|0,0:0|0:0,0:0:0:0:
256,80,62181,2,0,B|263:108|273:125|294:131,1,50,2|0,0:0|0:0,0:0:0:0:
360,272,62522,6,0,B|380:251|397:241|419:246,1,50,2|0,0:0|0:0,0:0:0:0:
360,80,62863,2,0,B|380:100|397:110|419:105,1,50,2|0,0:0|0:0,0:0:0:0:
492,184,63204,5,2,0:0:0:0:
383,184,63374,1,0,0:0:0:0:
383,292,63545,1,2,0:0:0:0:
492,292,63715,1,0,0:0:0:0:
492,184,63886,5,2,0:0:0:0:
437,89,64056,1,0,0:0:0:0:
343,35,64227,1,2,0:0:0:0:
233,35,64397,1,0,0:0:0:0:
138,89,64568,5,2,0:0:0:0:
277,102,64738,1,0,0:0:0:0:
182,156,64909,1,2,0:0:0:0:
321,169,65079,1,0,0:0:0:0:
233,35,65249,5,2,0:0:0:0:
182,156,65420,1,0,0:0:0:0:
321,169,65590,1,2,0:0:0:0:
271,291,65761,1,0,0:0:0:0:
132,278,65931,6,0,B|100:272|88:272|60:280,1,50,6|0,0:0|0:0,0:0:0:0:
182,156,66272,2,0,B|157:134|146:128|118:121,1,50,2|0,0:0|0:0,0:0:0:0:
416,57,66613,6,0,B|422:25|422:12|414:-15,1,50,2|0,0:0|0:0,0:0:0:0:
286,75,66954,2,0,B|275:44|269:33|248:13,1,50,2|0,0:0|0:0,0:0:0:0:
286,309,67295,6,0,B|275:339|269:350|248:370,1,50,2|0,0:0|0:0,0:0:0:0:
416,327,67636,2,0,B|422:359|422:371|414:399,1,50,2|0,0:0|0:0,0:0:0:0:
182,228,67977,6,0,B|157:249|146:255|118:262,1,50,2|0,0:0|0:0,0:0:0:0:
132,106,68318,2,0,B|100:112|88:112|60:104,1,50,2|0,0:0|0:0,0:0:0:0:
248,68,68658,5,2,0:0:0:0:
360,96,68829,1,0,0:0:0:0:
472,128,68999,1,2,0:0:0:0:
337,165,69170,1,0,0:0:0:0:
388,16,69340,5,2,0:0:0:0:
311,244,69511,1,0,0:0:0:0:
440,200,69681,1,2,0:0:0:0:
268,143,69852,1,0,0:0:0:0:
144,224,70022,5,2,0:0:0:0:
180,332,70193,1,0,0:0:0:0:
72,368,70363,1,2,0:0:0:0:
36,260,70533,1,0,0:0:0:0:
112,296,70704,5,2,0:0:0:0:
216,252,70874,1,0,0:0:0:0:
320,208,71045,1,2,0:0:0:0:
424,164,71215,1,0,0:0:0:0:
360,32,71386,6,0,B|356:60|356:60|360:84,1,50,2|0,0:0|0:0,0:0:0:0:
268,152,71727,2,0,B|257:125|257:125|242:106,1,50,2|0,0:0|0:0,0:0:0:0:
156,36,72068,1,2,0:0:0:0:
156,36,72153,1,0,0:0:0:0:
156,36,72238,1,0,0:0:0:0:
149,136,72408,2,0,B|128:140|128:140|100:136,1,50,2|0,0:0|0:0,0:0:0:0:
24,24,72749,5,2,0:0:0:0:
24,140,72920,1,0,0:0:0:0:
28,164,73005,1,0,0:0:0:0:
41,185,73090,1,2,0:0:0:0:
160,240,73261,1,0,0:0:0:0:
136,231,73346,1,0,0:0:0:0:
111,232,73431,1,2,0:0:0:0:
5,307,73602,1,0,0:0:0:0:
25,291,73687,1,0,0:0:0:0:
36,269,73772,5,2,0:0:0:0:
144,304,73943,1,0,0:0:0:0:
192,160,74113,5,2,0:0:0:0:
308,160,74283,1,0,0:0:0:0:
333,160,74368,1,0,0:0:0:0:
358,160,74453,1,2,0:0:0:0:
456,60,74624,1,0,0:0:0:0:
456,85,74709,1,0,0:0:0:0:
456,110,74794,1,2,0:0:0:0:
500,232,74965,1,0,0:0:0:0:
475,232,75050,1,0,0:0:0:0:
449,232,75136,5,2,0:0:0:0:
424,232,75221,1,0,0:0:0:0:
399,232,75306,1,0,0:0:0:0:
374,232,75391,1,0,0:0:0:0:
348,232,75477,5,6,0:0:0:0:
233,232,75647,1,0,0:0:0:0:
208,233,75732,1,0,0:0:0:0:
192,252,75818,2,0,B|176:264|176:284|184:304,1,50,2|0,0:0|0:0,0:0:0:0:
292,188,76158,5,2,0:0:0:0:
349,88,76328,1,0,0:0:0:0:
359,66,76413,1,0,0:0:0:0:
352,42,76499,2,0,B|349:22|332:12|310:9,1,50,2|0,0:0|0:0,0:0:0:0:
356,160,76840,5,2,0:0:0:0:
414,259,77010,1,0,0:0:0:0:
428,279,77095,1,0,0:0:0:0:
452,284,77181,2,0,B|470:291|487:281|501:264,1,50,2|0,0:0|0:0,0:0:0:0:
412,120,77522,5,2,0:0:0:0:
112,228,77863,1,2,0:0:0:0:
212,20,78204,5,2,0:0:0:0:
256,124,78374,1,0,0:0:0:0:
266,146,78459,1,0,0:0:0:0:
259,170,78545,2,0,B|256:189|239:199|217:202,1,50,2|0,0:0|0:0,0:0:0:0:
112,228,78886,5,2,0:0:0:0:
68,124,79056,1,0,0:0:0:0:
58,102,79141,1,0,0:0:0:0:
65,78,79227,2,0,B|67:58|84:48|106:45,1,50,2|0,0:0|0:0,0:0:0:0:
164,124,79568,5,2,0:0:0:0:
204,232,79738,1,0,0:0:0:0:
204,232,79823,1,0,0:0:0:0:
204,232,79908,2,0,B|208:264|208:264|224:288,1,50,2|0,0:0|0:0,0:0:0:0:
344,332,80249,5,2,0:0:0:0:
372,40,80590,1,2,0:0:0:0:
456,256,80931,6,0,B|432:264|432:264|396:260,1,50,2|0,0:0|0:0,0:0:0:0:
384,252,81187,1,0,0:0:0:0:
360,240,81272,2,0,B|335:237|335:237|311:245,1,50,2|0,0:0|0:0,0:0:0:0:
204,144,81613,6,0,B|228:152|228:152|264:148,1,50,2|0,0:0|0:0,0:0:0:0:
276,140,81869,1,0,0:0:0:0:
300,128,81954,2,0,B|324:125|324:125|348:133,1,50,2|0,0:0|0:0,0:0:0:0:
148,248,82295,6,0,B|124:256|124:256|88:252,1,50,2|0,0:0|0:0,0:0:0:0:
76,244,82551,1,0,0:0:0:0:
52,232,82636,2,0,B|27:229|27:229|3:237,1,50,2|0,0:0|0:0,0:0:0:0:
68,332,82977,5,2,0:0:0:0:
380,284,83318,1,2,0:0:0:0:
256,92,83658,6,0,B|272:110|272:110|305:125,1,50,2|0,0:0|0:0,0:0:0:0:
320,124,83914,1,0,0:0:0:0:
347,126,83999,2,0,B|369:135|369:135|386:154,1,50,2|0,0:0|0:0,0:0:0:0:
256,292,84340,6,0,B|239:273|239:273|206:258,1,50,2|0,0:0|0:0,0:0:0:0:
192,260,84596,1,0,0:0:0:0:
165,258,84681,2,0,B|142:248|142:248|125:229,1,50,2|0,0:0|0:0,0:0:0:0:
140,105,85022,5,10,0:0:0:0:
371,278,85363,1,10,0:0:0:0:
42,106,85704,1,10,0:0:0:0:
469,277,86045,1,10,0:0:0:0:
0,192,86386,6,0,B|24:204|40:204|60:196,1,50,6|0,0:0|0:0,0:0:0:0:
168,160,86727,1,2,0:0:0:0:
168,160,86897,2,0,B|192:148|208:148|228:156,1,50,0|2,0:0|0:0,0:0:0:0:
328,212,87238,1,0,0:0:0:0:
284,328,87408,1,2,0:0:0:0:
172,268,87579,2,0,B|145:266|131:258|118:241,1,50,0|2,0:0|0:0,0:0:0:0:
236,212,87920,1,0,0:0:0:0:
284,328,88090,1,2,0:0:0:0:
328,212,88261,2,0,B|339:188|340:172|332:152,1,50,0|2,0:0|0:0,0:0:0:0:
256,68,88602,1,0,0:0:0:0:
256,68,88772,1,2,0:0:0:0:
256,356,89113,6,0,B|232:368|216:368|196:360,1,50,2|0,0:0|0:0,0:0:0:0:
104,296,89454,1,2,0:0:0:0:
104,296,89624,2,0,B|105:269|113:255|130:242,1,50,0|2,0:0|0:0,0:0:0:0:
208,160,89965,1,0,0:0:0:0:
308,236,90136,1,2,0:0:0:0:
432,212,90306,2,0,B|421:187|409:177|388:170,1,50,0|2,0:0|0:0,0:0:0:0:
208,160,90647,2,0,B|228:142|243:138|264:140,1,50,0|2,0:0|0:0,0:0:0:0:
432,52,90988,2,0,B|421:76|409:86|388:93,1,50,0|2,0:0|0:0,0:0:0:0:
256,68,91329,1,0,0:0:0:0:
256,68,91499,1,2,0:0:0:0:
256,368,91840,6,0,B|284:372|284:372|304:364,1,50,2|0,0:0|0:0,0:0:0:0:
412,300,92181,1,2,0:0:0:0:
412,300,92352,2,0,B|416:272|416:272|408:252,1,50,0|2,0:0|0:0,0:0:0:0:
312,172,92693,1,0,0:0:0:0:
208,236,92863,1,2,0:0:0:0:
144,132,93033,2,0,B|116:128|116:128|96:136,1,50,0|2,0:0|0:0,0:0:0:0:
0,216,93374,2,0,B|-4:244|-4:244|4:264,1,50,0|2,0:0|0:0,0:0:0:0:
96,348,93715,2,0,B|124:352|124:352|144:344,1,50,0|2,0:0|0:0,0:0:0:0:
208,236,94056,1,0,0:0:0:0:
208,236,94227,1,2,0:0:0:0:
256,0,94568,6,0,B|288:16|284:44|284:44,1,50,2|0,0:0|0:0,0:0:0:0:
256,160,94908,1,2,0:0:0:0:
256,160,95079,2,0,B|224:144|228:116|228:116,1,50,0|2,0:0|0:0,0:0:0:0:
180,4,95420,2,0,L|120:4,1,50,0|2,0:0|0:0,0:0:0:0:
4,4,95761,1,0,0:0:0:0:
4,128,95931,2,0,B|68:124|108:164|108:164,1,100,2|2,0:0|0:0,0:0:0:0:
196,236,96443,1,0,0:0:0:0:
196,236,96613,2,0,B|256:256|305:228|305:228,1,100,2|2,0:0|0:0,0:0:0:0:
404,172,97124,1,0,0:0:0:0:
404,172,97210,1,0,0:0:0:0:
404,172,97295,6,0,B|392:216|404:264|404:264,1,75,6|0,0:0|0:0,0:0:0:0:
404,316,97636,2,0,B|360:304|312:316|312:316,1,75,2|0,0:0|0:0,0:0:0:0:
260,320,97977,2,0,B|216:284|256:244|256:244,1,75,2|0,0:0|0:0,0:0:0:0:
320,232,98318,2,0,B|332:188|320:140|320:140,1,75,2|0,0:0|0:0,0:0:0:0:
312,92,98658,2,0,B|268:88|216:92|216:92,1,75,2|0,0:0|0:0,0:0:0:0:
172,100,98999,2,0,L|172:180,1,75,2|0,0:0|0:0,0:0:0:0:
172,240,99340,2,0,L|172:320,1,75,2|0,0:0|0:0,0:0:0:0:
176,380,99681,2,0,B|130:375|89:377|89:377,1,75,2|0,0:0|0:0,0:0:0:0:
36,376,100022,5,2,0:0:0:0:
19,122,100363,1,2,0:0:0:0:
256,224,100704,2,0,L|256:163,1,50,2|0,0:0|0:0,0:0:0:0:
258,133,100960,1,0,0:0:0:0:
258,133,101045,1,2,0:0:0:0:
361,61,101215,1,0,0:0:0:0:
493,122,101386,5,2,0:0:0:0:
480,376,101727,1,2,0:0:0:0:
256,224,102068,2,0,L|256:163,1,50,2|0,0:0|0:0,0:0:0:0:
258,133,102324,1,0,0:3:0:0:
258,133,102409,1,2,0:3:0:0:
151,61,102579,1,0,0:3:0:0:
151,61,102664,1,0,0:3:0:0:
151,61,102749,6,0,B|124:76|88:68|88:68,1,50,6|0,0:3|0:3,0:3:0:0:
0,0,103090,1,2,0:0:0:0:
0,0,103261,2,0,B|15:27|7:63|7:63,2,50,0|2|0,0:0|0:0|0:0,0:0:0:0:
4,124,103772,1,2,0:0:0:0:
0,376,104113,6,0,B|27:361|63:369|63:369,1,50,2|0,0:0|0:0,0:0:0:0:
172,376,104454,1,2,0:0:0:0:
172,376,104624,2,0,B|157:349|165:313|165:313,2,50,0|2|0,0:0|0:0|0:0,0:0:0:0:
172,248,105136,1,2,0:0:0:0:
400,356,105477,6,0,B|408:300|400:256|400:256,1,100,2|2,0:0|0:0,0:0:0:0:
348,144,105988,1,0,0:0:0:0:
348,144,106158,2,0,B|333:171|341:207|341:207,1,50,2|0,0:0|0:0,0:0:0:0:
428,104,106499,1,2,0:0:0:0:
176,104,106840,5,2,0:0:0:0:
74,177,107011,1,0,0:0:0:0:
113,296,107181,1,2,0:0:0:0:
238,296,107352,1,0,0:0:0:0:
277,177,107522,1,2,0:0:0:0:
176,104,107693,1,0,0:0:0:0:
74,177,107863,5,2,0:0:0:0:
277,177,108033,1,0,0:0:0:0:
113,296,108204,2,0,B|169:288|213:296|213:296,1,100,2|2,0:0|0:0,0:0:0:0:
336,308,108715,2,0,B|321:335|329:371|329:371,2,50,0|2|0,0:0|0:0|0:0,0:0:0:0:
448,364,109227,1,2,0:0:0:0:
480,104,109568,6,0,B|424:96|380:104|380:104,1,100,2|2,0:0|0:0,0:0:0:0:
264,148,110079,1,0,0:0:0:0:
140,172,110249,1,2,0:0:0:0:
16,144,110420,1,0,0:0:0:0:
104,56,110590,5,2,0:0:0:0:
140,172,110761,1,0,0:0:0:0:
232,88,110931,2,0,B|259:73|295:81|295:81,1,50,2|0,0:0|0:0,0:0:0:0:
404,80,111272,1,2,0:0:0:0:
404,80,111443,2,0,B|389:107|397:143|397:143,2,50,0|2|0,0:0|0:0|0:0,0:0:0:0:
504,4,111954,1,2,0:0:0:0:
464,252,112295,2,0,L|452:308,1,50,2|0,0:0|0:0,0:0:0:0:
340,252,112636,2,0,L|328:308,1,50,2|0,0:0|0:0,0:0:0:0:
216,252,112977,2,0,L|204:308,1,50,2|0,0:0|0:0,0:0:0:0:
88,252,113318,6,0,L|100:196,1,50,2|0,0:0|0:0,0:0:0:0:
98,203,113658,2,0,L|74:307,1,100,2|2,0:0|0:0,0:0:0:0:
75,300,114170,2,0,L|92:232,2,50,0|2|0,0:0|0:0|0:0,0:0:0:0:
192,252,114681,6,0,L|180:308,1,50,2|0,0:0|0:0,0:0:0:0:
182,301,115021,2,0,L|206:197,1,100,2|2,0:0|0:0,0:0:0:0:
204,203,115533,2,0,L|187:271,2,50,0|2|0,0:0|0:0|0:0,0:0:0:0:
236,80,116045,6,0,B|268:72|304:80|304:80,1,50,2|0,0:0|0:0,0:0:0:0:
335,87,116386,2,0,B|280:70|231:79|231:79,1,100,2|2,0:0|0:0,0:0:0:0:
236,78,116897,1,0,0:0:0:0:
335,87,117068,2,0,B|388:104|428:140|428:140,1,100,2|2,0:0|0:0,0:0:0:0:
273,195,117749,5,2,0:0:0:0:
335,87,117920,1,0,0:0:0:0:
398,193,118090,2,0,B|406:225|398:261|398:261,1,50,2|0,0:0|0:0,0:0:0:0:
273,195,118431,6,0,L|204:188,1,50,2|0,0:0|0:0,0:0:0:0:
268,308,118772,2,0,L|199:301,1,50,2|0,0:0|0:0,0:0:0:0:
108,244,119113,2,0,B|64:200|88:136|88:136,1,100,2|2,0:0|0:0,0:0:0:0:
116,32,119624,2,0,B|148:52|152:88|152:88,2,50,0|2|0,0:0|0:0|0:0,0:0:0:0:
244,28,120136,2,0,B|276:48|280:84|280:84,1,50,2|0,0:0|0:0,0:0:0:0:
236,184,120477,2,0,B|192:140|216:76|216:76,1,100,2|2,0:0|0:0,0:0:0:0:
136,192,120988,1,0,0:0:0:0:
228,276,121158,6,0,B|256:284|256:284|284:276,1,50,2|0,0:0|0:0,0:0:0:0:
342,174,121499,2,0,B|335:146|335:146|314:125,1,50,2|0,0:0|0:0,0:0:0:0:
197,125,121840,2,0,B|176:146|176:146|169:174,2,50,2|0|2,0:0|0:0|0:0,0:0:0:0:
342,174,122352,1,0,0:0:0:0:
228,276,122522,1,2,0:0:0:0:
197,125,122693,1,0,0:0:0:0:
342,174,122863,1,2,0:0:0:0:
228,276,123033,5,0,0:0:0:0:
342,174,123204,1,2,0:0:0:0:
197,125,123374,1,0,0:0:0:0:
344,291,123545,1,2,0:0:0:0:
297,66,123716,1,0,0:0:0:0:
124,218,123886,1,2,0:0:0:0:
452,151,124056,5,4,0:0:0:0:
4,192,124397,1,4,0:0:0:0:
256,192,124568,12,0,125931,0:0:0:0:
256,0,126954,5,2,0:0:0:0:
340,92,127124,1,0,0:0:0:0:
256,184,127295,2,0,B|188:224|104:200|104:200,1,139.999995727539,6|2,0:0|0:0,0:0:0:0:
8,68,127806,1,0,0:0:0:0:
4,244,127977,1,2,0:0:0:0:
164,316,128147,1,0,0:0:0:0:
164,316,128232,1,0,0:0:0:0:
164,316,128318,2,0,B|208:312|236:316|236:316,1,69.9999978637696,2|0,0:0|0:0,0:0:0:0:
408,340,128658,6,0,B|368:272|392:188|392:188,1,139.999995727539,2|2,0:0|0:0,0:0:0:0:
464,44,129170,1,0,0:0:0:0:
476,220,129340,1,2,0:0:0:0:
344,104,129511,1,0,0:0:0:0:
344,104,129596,1,0,0:0:0:0:
344,104,129681,6,0,B|300:108|272:104|272:104,1,69.9999978637696,2|0,0:0|0:0,0:0:0:0:
120,192,130022,2,0,B|164:196|192:192|192:192,1,69.9999978637696,2|0,0:0|0:0,0:0:0:0:
344,276,130363,1,2,0:0:0:0:
168,284,130533,1,0,0:0:0:0:
332,344,130704,1,2,0:0:0:0:
156,352,130874,1,0,0:0:0:0:
188,180,131045,1,2,0:0:0:0:
416,360,131215,5,8,0:0:0:0:
448,188,131386,1,10,0:0:0:0:
332,344,131556,2,0,B|319:290|271:295|271:295,1,69.9999978637696,0|2,0:0|0:0,0:0:0:0:
312,196,131897,2,0,B|274:156|235:184|235:184,1,69.9999978637696,0|2,0:0|0:0,0:0:0:0:
272,80,132238,2,0,B|220:63|200:107|200:107,2,69.9999978637696,0|2|0,0:0|0:0|0:0,0:0:0:0:
440,132,132749,6,0,B|400:200|424:284|424:284,1,139.999995727539,6|2,0:0|0:0,0:0:0:0:
512,380,133261,1,0,0:0:0:0:
496,208,133431,1,2,0:0:0:0:
320,228,133602,1,0,0:0:0:0:
300,56,133772,1,2,0:0:0:0:
152,152,133943,1,0,0:0:0:0:
152,152,134028,1,0,0:0:0:0:
152,152,134113,6,0,B|192:220|168:304|168:304,1,139.999995727539,2|2,0:0|0:0,0:0:0:0:
7,367,134624,1,4,0:0:0:0:
91,211,134795,1,6,0:0:0:0:
139,379,134965,1,4,0:0:0:0:
0,271,135136,1,6,0:0:0:0:
171,287,135306,1,4,0:0:0:0:
108,124,135477,6,0,B|140:96|140:96|172:88,1,69.9999978637696,2|0,0:0|0:0,0:0:0:0:
340,128,135818,1,2,0:0:0:0:
340,128,135988,2,0,B|308:156|308:156|276:164,1,69.9999978637696,8|2,0:0|0:0,0:0:0:0:
171,287,136329,2,0,B|203:315|203:315|235:323,1,69.9999978637696,0|2,0:0|0:0,0:0:0:0:
396,384,136670,6,0,L|368:312,1,69.9999978637696,4|2,0:0|0:0,0:0:0:0:
256,0,137011,2,0,L|228:76,1,69.9999978637696,4|2,0:0|0:0,0:0:0:0:
116,384,137352,2,0,L|188:384,1,69.9999978637696,12|10,0:0|0:0,0:0:0:0:
256,192,137693,1,8,0:0:0:0:
256,384,137863,1,10,0:0:0:0:
256,192,138033,1,0,0:0:0:0:
432,192,138204,6,0,B|440:244|440:292|432:332|432:332,1,139.999995727539,6|2,0:0|0:0,0:0:0:0:
256,384,138715,1,0,0:0:0:0:
364,244,138886,1,2,0:0:0:0:
188,244,139056,1,0,0:0:0:0:
188,244,139141,1,0,0:0:0:0:
188,244,139227,2,0,B|144:264|112:240|112:240,1,69.9999978637696,2|0,0:0|0:0,0:0:0:0:
52,84,139568,6,0,B|44:136|44:184|52:224|52:224,1,139.999995727539,6|2,0:0|0:0,0:0:0:0:
135,377,140079,1,0,0:0:0:0:
289,293,140249,1,2,0:0:0:0:
205,139,140420,1,0,0:0:0:0:
205,139,140505,1,0,0:0:0:0:
205,139,140590,2,0,B|249:119|281:143|281:143,1,69.9999978637696,2|0,0:0|0:0,0:0:0:0:
428,220,140931,6,0,B|352:196|360:244|292:220,1,139.999995727539,2|2,0:0|0:0,0:0:0:0:
159,102,141443,1,0,0:0:0:0:
312,19,141613,1,2,0:0:0:0:
451,123,141783,1,0,0:0:0:0:
451,123,141869,1,0,0:0:0:0:
451,123,141954,1,2,0:0:0:0:
442,297,142124,5,0,0:0:0:0:
285,375,142295,1,2,0:0:0:0:
285,375,142465,2,0,L|293:304,1,69.9999978637696,0|2,0:0|0:0,0:0:0:0:
232,140,142806,2,0,L|224:211,1,69.9999978637696,0|2,0:0|0:0,0:0:0:0:
122,352,143147,2,0,L|130:281,2,69.9999978637696,0|2|0,0:0|0:0|0:0,0:0:0:0:
144,175,143658,6,0,B|175:105|175:105|188:79|217:68|234:69,1,139.999995727539,6|2,0:0|0:0,0:0:0:0:
170,237,144170,1,0,0:0:0:0:
319,175,144340,2,0,B|288:104|288:104|275:78|246:67|229:68,1,139.999995727539,6|2,0:0|0:0,0:0:0:0:
293,236,144852,1,0,0:0:0:0:
461,190,145022,1,6,0:0:0:0:
430,362,145193,2,0,L|359:370,1,69.9999978637696,0|2,0:0|0:0,0:0:0:0:
189,332,145533,2,0,L|258:339,2,69.9999978637696,0|2|0,0:0|0:0|0:0,0:0:0:0:
13,314,146045,1,2,0:0:0:0:
169,237,146215,1,0,0:0:0:0:
17,148,146386,6,0,B|45:189|88:178|88:178,1,69.9999978637696,6|0,0:0|0:0,0:0:0:0:
101,5,146727,1,2,0:0:0:0:
101,5,146897,2,0,B|104:54|147:66|147:66,1,69.9999978637696,0|2,0:0|0:0,0:0:0:0:
306,107,147238,2,0,B|302:57|259:45|259:45,1,69.9999978637696,0|2,0:0|0:0,0:0:0:0:
77,106,147579,6,0,L|160:123,1,69.9999978637696,4|2,0:0|0:0,0:0:0:0:
512,192,147920,2,0,L|441:205,1,69.9999978637696,4|2,0:0|0:0,0:0:0:0:
77,278,148261,2,0,L|77:209,1,69.9999978637696,4|2,0:0|0:0,0:0:0:0:
256,192,148602,2,0,L|256:261,2,69.9999978637696,0|2|0,0:0|0:0|0:0,0:0:0:0:
256,16,149113,6,0,B|344:24|360:108|360:108,1,139.999995727539,6|2,0:0|0:0,0:0:0:0:
336,272,149624,1,0,0:0:0:0:
200,164,149795,1,2,0:0:0:0:
260,328,149965,1,0,0:0:0:0:
360,184,150136,2,0,B|412:192|420:248|420:248,1,69.9999978637696,2|0,0:0|0:0,0:0:0:0:
320,372,150477,1,6,0:0:0:0:
188,256,150647,1,0,0:0:0:0:
188,256,150732,1,0,0:0:0:0:
188,256,150818,5,2,0:0:0:0:
68,384,150988,1,0,0:0:0:0:
0,224,151158,2,0,B|52:232|60:288|60:288,1,69.9999978637696,2|0,0:0|0:0,0:0:0:0:
180,148,151499,1,2,0:0:0:0:
180,148,151670,2,0,B|128:140|120:84|120:84,1,69.9999978637696,0|2,0:0|0:0,0:0:0:0:
256,0,152011,1,0,0:0:0:0:
256,0,152096,1,0,0:0:0:0:
256,0,152181,6,0,B|276:32|276:32|312:36,1,69.9999978637696,2|0,0:0|0:0,0:0:0:0:
484,12,152522,1,2,0:0:0:0:
408,172,152693,1,0,0:0:0:0:
360,0,152863,2,0,B|377:33|377:33|364:62,1,69.9999978637696,2|0,0:0|0:0,0:0:0:0:
256,200,153204,6,0,L|316:128,1,69.9999978637696,10|0,0:0|0:0,0:0:0:0:
256,316,153545,2,0,L|196:244,1,69.9999978637696,10|0,0:0|0:0,0:0:0:0:
92,132,153886,1,2,0:0:0:0:
211,262,154056,1,0,0:0:0:0:
84,252,154227,1,2,0:0:0:0:
214,133,154397,1,0,0:0:0:0:
214,133,155249,6,0,B|305:107|353:181|353:181,1,150.000005722046,6|0,0:0|0:0,0:0:0:0:
235,325,155760,1,0,0:0:0:0:
62,252,155930,1,2,0:0:0:0:
242,198,156101,1,0,0:0:0:0:
242,198,156186,1,0,0:0:0:0:
242,198,156271,2,0,B|285:178|321:249|321:249,1,75.0000028610231,2|0,0:0|0:0,0:0:0:0:
461,330,156612,6,0,B|392:264|433:185|433:185,1,150.000005722046,2|2,0:0|0:0,0:0:0:0:
502,17,157124,1,0,0:0:0:0:
320,68,157294,1,2,0:0:0:0:
144,3,157464,1,0,0:0:0:0:
144,3,157550,1,0,0:0:0:0:
144,3,157635,2,0,B|156:57|105:84|105:84,1,75.0000028610231,2|0,0:0|0:0,0:0:0:0:
299,0,157976,6,0,B|287:54|338:81|338:81,1,75.0000028610231,2|0,0:0|0:0,0:0:0:0:
472,179,158317,2,0,B|431:141|382:172|382:172,1,75.0000028610231,2|0,0:0|0:0,0:0:0:0:
230,239,158658,2,0,B|282:222|280:164|280:164,1,75.0000028610231,2|0,0:0|0:0,0:0:0:0:
223,6,158999,1,2,0:0:0:0:
69,113,159169,1,0,0:0:0:0:
153,279,159339,5,2,0:0:0:0:
359,279,159510,1,0,0:0:0:0:
201,379,159680,1,2,0:0:0:0:
201,173,159851,2,0,L|156:111,1,75.0000028610231,0|2,0:0|0:0,0:0:0:0:
88,287,160192,2,0,L|43:225,1,75.0000028610231,0|2,0:0|0:0,0:0:0:0:
155,378,160533,1,0,0:0:0:0:
257,221,160703,6,0,B|339:229|376:304|376:304,1,150.000005722046,6|2,0:0|0:0,0:0:0:0:
187,297,161214,1,0,0:0:0:0:
318,162,161385,2,0,B|400:170|437:245|437:245,1,150.000005722046,6|2,0:0|0:0,0:0:0:0:
266,323,161896,1,0,0:0:0:0:
143,180,162067,6,0,B|151:98|226:61|226:61,1,150.000005722046,6|2,0:0|0:0,0:0:0:0:
49,128,162578,1,0,0:0:0:0:
49,128,162663,1,0,0:0:0:0:
49,128,162749,2,0,B|57:46|132:9|132:9,1,150.000005722046,6|2,0:0|0:0,0:0:0:0:
74,188,163260,1,0,0:0:0:0:
257,151,163430,5,6,0:0:0:0:
426,151,163601,1,0,0:0:0:0:
283,237,163771,1,10,0:0:0:0:
452,237,163942,1,0,0:0:0:0:
385,63,164112,5,6,0:0:0:0:
389,274,164283,1,0,0:0:0:0:
295,85,164453,1,10,0:0:0:0:
295,296,164624,1,0,0:0:0:0:
84,111,164794,5,6,0:0:0:0:
212,270,164964,1,0,0:0:0:0:
53,248,165135,1,10,0:0:0:0:
230,137,165305,1,0,0:0:0:0:
116,0,165476,5,6,0:0:0:0:
396,0,165646,1,0,0:0:0:0:
116,0,165817,1,6,0:0:0:0:
396,0,165987,1,0,0:0:0:0:
396,188,166158,6,0,B|416:268|396:344|396:344,1,150.000005722046,6|2,0:0|0:0,0:0:0:0:
220,276,166669,1,0,0:0:0:0:
220,276,166754,1,0,0:0:0:0:
220,276,166839,2,0,B|224:224|176:208|176:208,1,75.0000028610231,2|0,0:0|0:0,0:0:0:0:
8,156,167180,2,0,B|4:208|52:224|52:224,1,75.0000028610231,2|0,0:0|0:0,0:0:0:0:
120,384,167521,6,0,B|140:304|120:228|120:228,1,150.000005722046,6|2,0:0|0:0,0:0:0:0:
20,76,168033,1,0,0:0:0:0:
20,76,168118,1,0,0:0:0:0:
20,76,168203,2,0,L|100:76,1,75.0000028610231,2|0,0:0|0:0,0:0:0:0:
268,8,168544,2,0,L|188:8,1,75.0000028610231,2|0,0:0|0:0,0:0:0:0:
368,76,168885,2,0,B|348:156|368:232|368:232,1,150.000005722046,2|2,0:0|0:0,0:0:0:0:
480,376,169396,1,0,0:0:0:0:
464,188,169567,1,2,0:0:0:0:
336,324,169737,1,0,0:0:0:0:
336,324,169822,1,0,0:0:0:0:
336,324,169908,2,0,B|312:276|268:264|268:264,1,75.0000028610231,2|0,0:0|0:0,0:0:0:0:
96,276,170249,5,2,0:0:0:0:
252,380,170419,1,0,0:0:0:0:
356,224,170589,1,2,0:0:0:0:
200,120,170760,2,0,B|176:72|132:60|132:60,1,75.0000028610231,0|2,0:0|0:0,0:0:0:0:
229,249,171101,1,0,0:0:0:0:
229,249,171186,1,0,0:0:0:0:
229,249,171271,2,0,B|253:297|297:309|297:309,1,75.0000028610231,2|0,0:0|0:0,0:0:0:0:
461,252,171612,5,6,0:0:0:0:
461,132,171783,1,0,0:0:0:0:
356,252,171953,1,2,0:0:0:0:
356,132,172124,1,0,0:0:0:0:
251,252,172294,1,6,0:0:0:0:
251,132,172465,1,0,0:0:0:0:
146,252,172635,1,6,0:0:0:0:
146,132,172806,1,0,0:0:0:0:
41,304,172976,5,6,0:0:0:0:
41,80,173146,1,0,0:0:0:0:
146,304,173317,1,2,0:0:0:0:
146,80,173487,1,0,0:0:0:0:
251,304,173658,1,6,0:0:0:0:
251,80,173828,1,0,0:0:0:0:
356,304,173999,1,6,0:0:0:0:
356,80,174169,1,0,0:0:0:0:
512,192,174339,6,0,L|464:256,2,75.0000028610231,6|0|2,0:0|0:0|0:0,0:0:0:0:
396,344,174851,1,0,0:0:0:0:
288,192,175021,2,0,L|240:128,2,75.0000028610231,6|0|2,0:0|0:0|0:0,0:0:0:0:
156,16,175533,1,0,0:0:0:0:
156,276,175703,6,0,L|216:336,1,75.0000028610231,6|0,0:0|0:0,0:0:0:0:
356,108,176044,2,0,L|296:48,1,75.0000028610231,2|0,0:0|0:0,0:0:0:0:
366,322,176385,2,0,L|419:269,1,75.0000028610231,6|0,0:0|0:0,0:0:0:0:
145,60,176726,2,0,L|92:114,1,75.0000028610231,2|0,0:0|0:0,0:0:0:0:
256,192,177067,5,10,0:0:0:0:
448,192,177237,1,0,0:0:0:0:
424,192,177322,1,0,0:0:0:0:
400,192,177408,1,2,0:0:0:0:
366,322,177578,1,0,0:0:0:0:
342,322,177663,1,0,0:0:0:0:
318,322,177749,1,2,0:0:0:0:
294,322,177833,1,0,0:0:0:0:
270,322,177919,1,0,0:0:0:0:
149,322,178089,2,0,B|133:278|157:230|157:230,1,75.0000028610231,2|0,0:0|0:0,0:0:0:0:
256,92,178430,5,6,0:0:0:0:
388,228,178601,1,0,0:0:0:0:
404,244,178686,1,0,0:0:0:0:
421,261,178772,1,2,0:0:0:0:
508,96,178942,1,0,0:0:0:0:
492,80,179027,1,0,0:0:0:0:
475,63,179113,1,2,0:0:0:0:
452,63,179197,1,0,0:0:0:0:
428,63,179283,1,0,0:0:0:0:
316,64,179453,2,0,B|327:121|277:153|277:153,1,75.0000028610231,2|0,0:0|0:0,0:0:0:0:
127,215,179794,5,2,0:0:0:0:
97,224,179879,1,0,0:0:0:0:
76,200,179964,1,0,0:0:0:0:
84,169,180049,1,0,0:0:0:0:
112,152,180134,1,10,0:0:0:0:
144,152,180220,1,0,0:0:0:0:
173,169,180305,1,0,0:0:0:0:
189,196,180390,1,0,0:0:0:0:
191,229,180475,1,2,0:0:0:0:
177,259,180561,1,0,0:0:0:0:
152,280,180646,1,0,0:0:0:0:
121,290,180731,1,0,0:0:0:0:
88,288,180816,1,10,0:0:0:0:
57,276,180901,1,0,0:0:0:0:
33,254,180987,1,0,0:0:0:0:
19,225,181072,1,0,0:0:0:0:
14,193,181157,5,2,0:0:0:0:
22,160,181242,1,0,0:0:0:0:
38,132,181328,1,0,0:0:0:0:
62,109,181413,1,0,0:0:0:0:
92,96,181498,1,10,0:0:0:0:
124,90,181583,1,0,0:0:0:0:
157,94,181668,1,0,0:0:0:0:
187,105,181754,1,0,0:0:0:0:
214,124,181839,1,2,0:0:0:0:
234,150,181924,1,0,0:0:0:0:
248,181,182009,1,0,0:0:0:0:
252,213,182095,1,0,0:0:0:0:
248,246,182180,1,10,0:0:0:0:
236,277,182265,1,0,0:0:0:0:
217,303,182350,1,0,0:0:0:0:
192,324,182436,1,0,0:0:0:0:
163,340,182521,5,2,0:0:0:0:
256,192,182606,12,0,185930,0:0:0:0:
